osu file format v14

[General]
AudioFilename: audio.mp3
AudioLeadIn: 0
PreviewTime: 73933
Countdown: 0
SampleSet: Normal
StackLeniency: 0.7
Mode: 2
LetterboxInBreaks: 0
WidescreenStoryboard: 1

[Editor]
DistanceSpacing: 0.9
BeatDivisor: 4
GridSize: 8
TimelineZoom: 1

[Metadata]
Title:Prayer
TitleUnicode:Prayer
Artist:penoreri
ArtistUnicode:ぺのれり
Creator:Frobe
Version:EXHAUST
Source:SOUND VOLTEX III GRAVITY WARS
Tags:sdvx Leonita Keita Miyoshi The 5th KAC Original Song Contest オリジナル楽曲コンテスト Rasis overdose rain platter salad
BeatmapID:1614380
BeatmapSetID:768003

[Difficulty]
HPDrainRate:6
CircleSize:4
OverallDifficulty:9
ApproachRate:9
SliderMultiplier:1.8
SliderTickRate:1

[Events]
//Background and Video events
0,0,"Rasis.jpg",0,0
//Break Periods
//Storyboard Layer 0 (Background)
//Storyboard Layer 1 (Fail)
//Storyboard Layer 2 (Pass)
//Storyboard Layer 3 (Foreground)
//Storyboard Sound Samples

[TimingPoints]
600,416.666666666667,4,1,1,15,1,0
7266,-100,4,1,1,35,0,0
32683,-100,4,2,1,20,0,0
43100,-100,4,1,1,15,0,0
43933,-100,4,1,1,25,0,0
50600,-100,4,2,1,15,0,0
53933,-100,4,1,1,30,0,0
57266,-100,4,1,1,35,0,0
75391,-100,4,1,1,45,0,1
102058,-100,4,2,1,35,0,0
110391,-100,4,2,1,10,0,0

[Colours]
Combo1 : 255,222,121
Combo2 : 255,125,125
Combo3 : 195,195,195
Combo4 : 255,100,236

[HitObjects]
120,346,600,5,0,0:0:0:0:
72,346,704,1,0,0:0:0:0:
40,346,808,1,0,0:0:0:0:
72,346,912,1,0,0:0:0:0:
120,346,1016,1,0,0:0:0:0:
232,346,1120,2,0,L|312:298,1,90,0|0,0:0|0:0,0:0:0:0:
200,258,1433,5,0,0:0:0:0:
168,258,1537,1,0,0:0:0:0:
136,258,1641,1,0,0:0:0:0:
264,202,1745,2,0,L|344:154,1,90,0|0,0:0|0:0,0:0:0:0:
240,122,2058,1,0,0:0:0:0:
192,122,2162,1,0,0:0:0:0:
296,58,2266,1,0,0:0:0:0:
344,58,2370,1,0,0:0:0:0:
217,338,2475,5,0,0:0:0:0:
169,338,2579,1,0,0:0:0:0:
145,338,2683,1,0,0:0:0:0:
169,338,2787,1,0,0:0:0:0:
217,338,2891,1,0,0:0:0:0:
281,338,2995,1,0,0:0:0:0:
409,336,3100,6,0,L|433:248,1,90
328,246,3412,2,0,L|304:158,1,90,0|0,0:0|0:0,0:0:0:0:
417,96,3725,1,0,0:0:0:0:
449,96,3829,1,0,0:0:0:0:
350,62,3933,1,0,0:0:0:0:
318,62,4037,1,0,0:0:0:0:
417,178,4141,5,0,0:0:0:0:
449,178,4245,1,0,0:0:0:0:
481,178,4350,1,0,0:0:0:0:
369,258,4454,2,0,L|281:202,1,90,0|0,0:0|0:0,0:0:0:0:
409,98,4766,5,0,0:0:0:0:
449,98,4870,1,0,0:0:0:0:
409,98,4975,1,0,0:0:0:0:
293,209,5079,2,0,L|369:258,1,90,0|0,0:0|0:0,0:0:0:0:
263,259,5391,1,0,0:0:0:0:
215,259,5495,1,0,0:0:0:0:
320,257,5600,1,0,0:0:0:0:
368,257,5704,1,0,0:0:0:0:
263,259,5808,5,0,0:0:0:0:
231,259,5912,1,0,0:0:0:0:
199,259,6016,1,0,0:0:0:0:
82,260,6120,2,0,L|162:212,1,90
263,259,6433,6,0,L|183:211,1,90
82,260,6745,2,0,L|162:212,1,90
208,192,7058,1,0,0:0:0:0:
474,64,7266,6,0,P|492:193|398:283,1,270,4|0,0:0|0:0,0:0:0:0:
208,320,8100,2,0,P|152:280|144:80,1,270,0|0,0:0|0:0,0:0:0:0:
192,96,8829,1,0,0:0:0:0:
88,168,8933,6,0,L|72:296,1,90,0|0,0:0|0:0,0:0:0:0:
152,288,9245,1,0,0:0:0:0:
368,272,9350,2,0,L|352:400,1,90,8|0,0:0|0:0,0:0:0:0:
216,112,9766,2,0,L|128:184,1,90,0|0,0:0|0:0,0:0:0:0:
272,112,10079,2,0,L|360:184,1,90,0|0,0:0|0:0,0:0:0:0:
112,40,10391,6,0,P|72:72|64:280,1,270,4|4,0:0|0:3,0:0:0:0:
176,272,11120,2,0,L|136:368,1,90
32,304,11433,2,0,L|72:384,1,90
272,368,11745,1,0,0:0:0:0:
112,344,11954,2,0,L|56:336,1,45
422,302,12266,6,0,P|480:243|432:176,1,180,6|4,0:3|0:3,0:0:0:0:
402,183,12752,1,4,0:3:0:0:
371,183,12822,1,12,0:3:0:0:
343,171,12891,1,0,0:0:0:0:
324,146,12961,1,0,0:0:0:0:
330,116,13030,1,0,0:0:0:0:
464,176,13100,2,0,L|384:248,1,90,0|0,0:0|0:0,0:0:0:0:
296,232,13412,2,0,L|216:304,1,90,0|0,0:0|0:0,0:0:0:0:
40,288,13725,6,0,L|80:96,1,180,4|0,0:0|0:0,0:0:0:0:
280,56,14350,2,0,P|320:80|344:195,1,135,0|0,0:0|0:0,0:0:0:0:
296,160,14766,1,4,0:3:0:0:
480,288,14975,1,0,0:0:0:0:
424,288,15079,1,0,0:0:0:0:
48,288,15391,1,8,0:3:0:0:
216,288,15600,6,0,L|288:208,1,90,0|0,0:0|0:0,0:0:0:0:
160,288,15912,2,0,L|88:208,1,90,4|4,0:3|0:3,0:0:0:0:
216,288,16225,1,8,0:3:0:0:
352,288,16433,2,0,L|464:160,1,135,8|0,0:0|0:0,0:0:0:0:
320,224,16850,2,0,L|256:144,1,90,12|0,0:3|0:0,0:0:0:0:
424,352,17266,5,0,0:0:0:0:
456,272,17405,1,4,0:3:0:0:
392,208,17544,1,4,0:3:0:0:
88,352,17683,1,8,0:3:0:0:
56,272,17822,1,0,0:0:0:0:
120,208,17961,1,0,0:3:0:0:
320,360,18100,5,2,0:3:0:0:
376,296,18238,1,0,0:0:0:0:
400,208,18377,1,8,0:3:0:0:
192,360,18516,1,8,0:3:0:0:
136,296,18654,1,0,0:0:0:0:
112,208,18793,1,0,0:0:0:0:
312,88,18933,6,0,L|392:136,1,90
480,136,19245,2,0,L|400:184,1,90,0|0,0:0|0:0,0:0:0:0:
320,184,19558,1,0,0:0:0:0:
120,264,19975,1,0,0:0:0:0:
392,264,20183,2,0,P|440:224|448:120,1,135,4|0,0:0|0:0,0:0:0:0:
320,176,20600,6,0,L|208:152,1,90,2|0,0:0|0:0,0:0:0:0:
191,157,20912,1,0,0:0:0:0:
295,82,21016,1,0,0:0:0:0:
335,82,21120,1,0,0:0:0:0:
231,157,21225,1,0,0:0:0:0:
191,157,21329,1,0,0:0:0:0:
295,157,21433,5,0,0:0:0:0:
343,181,21537,1,0,0:0:0:0:
367,229,21641,1,0,0:0:0:0:
343,277,21745,1,0,0:0:0:0:
295,301,21850,1,0,0:0:0:0:
239,285,21954,1,0,0:0:0:0:
207,245,22058,1,0,0:0:0:0:
223,197,22162,1,0,0:0:0:0:
343,197,22266,6,0,L|303:109,1,90,2|0,0:0|0:0,0:0:0:0:
231,117,22579,1,0,0:0:0:0:
111,117,22683,2,0,L|151:29,1,90,0|0,0:0|0:0,0:0:0:0:
223,37,22996,1,0,0:0:0:0:
55,309,23100,2,0,L|23:157,1,135,8|0,0:0|0:0,0:0:0:0:
184,288,23725,6,0,P|136:208|176:160,1,135,4|0,0:0|0:0,0:0:0:0:
248,176,24141,1,0,0:0:0:0:
272,160,24211,1,0,0:0:0:0:
296,144,24280,1,0,0:0:0:0:
320,128,24350,2,0,L|272:32,1,90
328,32,24662,1,0,0:0:0:0:
216,64,24766,5,2,0:0:0:0:
168,96,24870,1,0,0:0:0:0:
152,144,24975,1,0,0:0:0:0:
176,192,25079,1,0,0:0:0:0:
216,224,25183,1,0,0:0:0:0:
320,256,25287,1,0,0:0:0:0:
360,296,25391,1,0,0:0:0:0:
320,336,25495,1,0,0:0:0:0:
216,224,25600,6,0,L|128:160,1,90,0|0,0:0|0:0,0:0:0:0:
216,128,25912,1,0,0:0:0:0:
96,312,26016,2,0,L|32:312,1,45,0|0,0:0|0:0,0:0:0:0:
152,248,26225,1,0,0:0:0:0:
168,248,26294,1,0,0:0:0:0:
184,248,26363,1,0,0:0:0:0:
200,248,26433,2,0,L|144:168,1,90,8|0,0:0|0:0,0:0:0:0:
248,168,26745,2,0,L|192:88,1,90,0|0,0:0|0:0,0:0:0:0:
416,40,27058,6,0,P|480:72|496:160,1,135,4|0,0:0|0:0,0:0:0:0:
472,168,27475,1,0,0:0:0:0:
440,216,27579,1,0,0:0:0:0:
320,240,27683,1,0,0:0:0:0:
352,288,27787,1,0,0:0:0:0:
472,168,27891,1,0,0:0:0:0:
440,216,27995,1,0,0:0:0:0:
200,336,28100,5,2,0:0:0:0:
160,336,28169,1,0,0:0:0:0:
136,336,28238,1,0,0:0:0:0:
120,336,28308,1,0,0:0:0:0:
312,336,28516,1,0,0:0:0:0:
352,336,28585,1,0,0:0:0:0:
376,336,28654,1,0,0:0:0:0:
392,336,28724,1,0,0:0:0:0:
112,240,28933,5,2,0:0:0:0:
128,240,29003,1,0,0:0:0:0:
160,240,29072,1,0,0:0:0:0:
208,240,29141,1,0,0:0:0:0:
400,240,29350,1,0,0:0:0:0:
384,240,29420,1,0,0:0:0:0:
352,240,29489,1,0,0:0:0:0:
304,240,29558,1,0,0:0:0:0:
428,205,29766,2,0,L|481:81,1,135,8|0,0:0|0:0,0:0:0:0:
440,81,30183,1,0,0:0:0:0:
166,0,30391,6,0,P|70:142|145:297,1,360,4|8,0:0|0:0,0:0:0:0:
205,252,31329,1,0,0:0:0:0:
88,368,31433,2,0,L|48:72,1,270,8|8,0:0|0:0,0:0:0:0:
320,64,32266,5,8,0:0:0:0:
88,32,32683,2,0,L|64:240,1,180,2|0,0:0|0:0,0:0:0:0:
96,296,33308,1,0,0:0:0:0:
160,360,33516,1,0,0:0:0:0:
248,376,33725,1,0,0:0:0:0:
136,288,33933,6,0,L|24:288,1,90
248,152,34350,2,0,P|288:184|280:280,1,135
128,152,34766,1,0,0:0:0:0:
184,112,34975,1,0,0:0:0:0:
128,152,35079,1,0,0:0:0:0:
104,216,35183,1,0,0:0:0:0:
136,272,35287,1,0,0:0:0:0:
192,304,35391,1,0,0:0:0:0:
256,304,35495,1,0,0:0:0:0:
160,368,35600,6,0,L|32:272,1,135,2|0,0:0|0:0,0:0:0:0:
168,240,36016,2,0,L|216:240,1,45,0|0,0:0|0:0,0:0:0:0:
96,168,36225,2,0,L|48:168,1,45,0|0,0:0|0:0,0:0:0:0:
168,80,36433,2,0,L|320:80,1,135,0|0,0:0|0:0,0:0:0:0:
368,120,36850,1,0,0:0:0:0:
400,192,36954,1,0,0:0:0:0:
384,272,37058,1,0,0:0:0:0:
320,328,37162,1,0,0:0:0:0:
104,360,37266,6,0,L|88:192,1,135,2|0,0:0|0:0,0:0:0:0:
208,216,37683,2,0,L|224:160,1,45,0|0,0:0|0:0,0:0:0:0:
104,224,37891,2,0,L|88:168,1,45,0|0,0:0|0:0,0:0:0:0:
224,224,38100,2,0,L|240:56,1,135,0|0,0:0|0:0,0:0:0:0:
120,80,38517,2,0,L|104:24,1,45,0|0,0:0|0:0,0:0:0:0:
224,88,38725,2,0,L|240:32,1,45,0|0,0:0|0:0,0:0:0:0:
63,174,38933,6,0,L|207:190,1,135,2|0,0:0|0:0,0:0:0:0:
303,286,39350,2,0,L|247:294,1,45,0|0,0:0|0:0,0:0:0:0:
159,334,39558,2,0,L|215:342,1,45,0|0,0:0|0:0,0:0:0:0:
303,198,39766,2,0,L|159:214,1,135,0|0,0:0|0:0,0:0:0:0:
384,224,40183,1,0,0:0:0:0:
144,64,40600,6,0,P|88:88|64:168,1,135,2|0,0:0|0:0,0:0:0:0:
176,184,41016,2,0,L|256:264,1,90,0|0,0:0|0:0,0:0:0:0:
80,224,41433,2,0,L|160:304,1,90,0|0,0:0|0:0,0:0:0:0:
320,232,41850,2,0,L|240:312,1,90,0|0,0:0|0:0,0:0:0:0:
48,232,42266,6,0,L|112:152,1,90,0|0,0:0|0:0,0:0:0:0:
184,160,42579,1,0,0:0:0:0:
408,336,42683,2,0,P|448:280|448:208,1,135,6|0,0:0|0:0,0:0:0:0:
320,336,43100,2,0,P|280:280|280:208,1,135,0|0,0:0|0:0,0:0:0:0:
408,336,43516,2,0,P|448:280|448:208,1,135,0|0,0:0|0:0,0:0:0:0:
232,64,43933,6,0,P|168:96|248:128,1,180,4|0,0:0|0:0,0:0:0:0:
336,144,44558,1,0,0:0:0:0:
168,296,44766,1,0,0:0:0:0:
146,241,44870,1,0,0:0:0:0:
165,185,44975,1,0,0:0:0:0:
215,155,45079,1,0,0:0:0:0:
344,296,45183,1,0,0:0:0:0:
366,241,45287,1,0,0:0:0:0:
347,185,45392,1,0,0:0:0:0:
297,155,45496,1,0,0:0:0:0:
176,160,45600,6,0,L|296:72,1,135,0|0,0:0|0:0,0:0:0:0:
152,88,46016,2,0,L|88:24,1,90,0|0,0:0|0:0,0:0:0:0:
168,24,46329,1,8,0:0:0:0:
360,88,46433,2,0,L|424:24,1,90,0|0,0:0|0:0,0:0:0:0:
264,24,46850,1,0,0:0:0:0:
424,24,47058,2,0,L|440:80,1,45,8|4,0:3|0:3,0:0:0:0:
264,120,47266,6,0,L|216:248,1,135,6|0,0:0|0:0,0:0:0:0:
336,248,47683,1,0,0:0:0:0:
128,72,48100,2,0,L|80:272,1,180,0|0,0:0|0:0,0:0:0:0:
384,72,48933,6,0,L|432:272,1,180,2|0,0:0|0:0,0:0:0:0:
272,296,49558,1,0,0:0:0:0:
426,247,49766,2,0,L|384:72,1,180,0|0,0:0|0:0,0:0:0:0:
86,247,50600,6,0,P|24:184|112:48,1,270,6|0,0:0|0:0,0:0:0:0:
144,51,51329,1,0,0:0:0:0:
248,96,51433,2,0,L|216:192,1,90
64,192,51850,2,0,L|96:288,1,90,0|0,0:0|0:0,0:0:0:0:
426,247,52266,6,0,P|488:184|400:48,1,270,2|0,0:0|0:0,0:0:0:0:
368,51,52995,1,0,0:0:0:0:
264,96,53100,2,0,L|296:192,1,90,0|0,0:0|0:0,0:0:0:0:
448,192,53516,2,0,L|416:288,1,90,0|0,0:0|0:0,0:0:0:0:
352,272,53829,1,0,0:0:0:0:
144,360,53933,6,0,L|96:200,1,135,8|0,0:3|0:0,0:0:0:0:
320,232,54350,2,0,L|230:232,1,90,12|0,0:0|0:0,0:0:0:0:
368,360,54766,6,0,L|416:200,1,135,8|0,0:3|0:0,0:0:0:0:
105,230,55183,2,0,L|195:230,1,90,12|0,0:0|0:0,0:0:0:0:
376,40,55600,6,0,P|416:72|432:176,1,135,0|0,0:0|0:0,0:0:0:0:
336,192,56016,2,0,L|352:264,1,45,0|0,0:0|0:0,0:0:0:0:
457,244,56225,2,0,L|448:288,1,45,0|0,0:0|0:0,0:0:0:0:
272,344,56433,2,0,P|232:312|216:208,1,135,0|0,0:0|0:0,0:0:0:0:
376,192,56850,1,0,0:0:0:0:
192,336,57266,6,0,L|168:232,1,90,12|4,0:0|0:3,0:0:0:0:
341,248,57579,1,8,0:0:0:0:
240,336,57787,1,0,0:0:0:0:
192,336,57891,2,0,L|168:232,1,90,8|4,0:0|0:3,0:0:0:0:
341,248,58204,1,8,0:0:0:0:
240,336,58412,1,0,0:0:0:0:
192,336,58516,2,0,L|136:192,1,135,8|0,0:0|0:0,0:0:0:0:
320,336,58933,6,0,L|344:232,1,90,12|4,0:0|0:3,0:0:0:0:
171,248,59246,1,8,0:0:0:0:
272,336,59454,1,0,0:0:0:0:
320,336,59558,2,0,L|344:232,1,90,8|4,0:0|0:3,0:0:0:0:
171,248,59871,1,8,0:0:0:0:
272,336,60079,1,0,0:0:0:0:
320,336,60183,2,0,L|376:192,1,135,8|0,0:0|0:0,0:0:0:0:
192,336,60600,6,0,L|168:232,1,90,12|4,0:0|0:3,0:0:0:0:
341,248,60913,1,8,0:0:0:0:
240,336,61121,1,0,0:0:0:0:
192,336,61225,2,0,L|168:232,1,90,8|4,0:0|0:3,0:0:0:0:
341,248,61538,1,8,0:0:0:0:
104,296,61850,1,8,0:0:0:0:
56,272,61954,1,0,0:0:0:0:
32,224,62058,1,0,0:0:0:0:
48,176,62162,1,0,0:0:0:0:
96,144,62266,6,0,L|296:160,1,180,4|0,0:0|0:0,0:0:0:0:
456,96,62891,2,0,L|400:104,1,45,0|0,0:0|0:0,0:0:0:0:
275,158,63100,2,0,L|475:174,1,180,8|0,0:0|0:0,0:0:0:0:
216,288,63933,6,0,L|168:200,1,90,12|4,0:0|0:3,0:0:0:0:
296,288,64245,2,0,L|344:200,1,90,8|4,0:0|0:3,0:0:0:0:
216,288,64558,2,0,L|168:200,1,90,8|0,0:0|0:0,0:0:0:0:
296,288,64870,2,0,L|344:200,1,90,8|4,0:0|0:3,0:0:0:0:
168,328,65183,2,0,L|104:208,1,135,8|0,0:0|0:0,0:0:0:0:
336,296,65600,6,0,L|288:208,1,90,12|4,0:0|0:3,0:0:0:0:
176,296,65912,2,0,L|224:208,1,90,8|4,0:0|0:3,0:0:0:0:
336,296,66225,2,0,L|288:208,1,90,8|4,0:0|0:3,0:0:0:0:
176,296,66537,2,0,L|224:208,1,90,8|4,0:0|0:3,0:0:0:0:
463,232,66850,2,0,L|400:352,1,135,8|0,0:0|0:0,0:0:0:0:
184,368,67266,6,0,L|120:272,1,90,12|4,0:0|0:3,0:0:0:0:
328,368,67579,2,0,L|392:272,1,90,8|4,0:0|0:3,0:0:0:0:
184,368,67891,2,0,L|120:272,1,90,8|4,0:0|0:3,0:0:0:0:
328,368,68204,2,0,L|392:272,1,90,8|4,0:0|0:3,0:0:0:0:
184,368,68516,2,0,L|160:320,1,45,8|0,0:0|0:0,0:0:0:0:
64,328,68725,2,0,L|40:280,1,45,4|0,0:3|0:0,0:0:0:0:
312,64,68933,6,0,P|368:96|296:256,1,270,0|0,0:0|0:0,0:0:0:0:
256,256,69662,1,0,0:0:0:0:
128,256,69766,2,0,L|232:64,1,180,8|0,0:0|0:0,0:0:0:0:
448,256,70600,6,0,L|344:64,1,180,0|0,0:0|0:0,0:0:0:0:
64,256,71433,2,0,L|168:64,1,180,8|0,0:0|0:0,0:0:0:0:
320,272,72266,5,0,0:0:0:0:
344,272,72370,1,0,0:0:0:0:
320,272,72475,1,0,0:0:0:0:
192,272,72579,1,0,0:0:0:0:
168,272,72683,1,0,0:0:0:0:
192,272,72788,1,0,0:0:0:0:
320,272,72891,1,0,0:0:0:0:
296,272,72995,1,0,0:0:0:0:
128,272,73100,5,0,0:0:0:0:
104,272,73204,1,0,0:0:0:0:
128,272,73308,1,0,0:0:0:0:
208,272,73412,1,0,0:0:0:0:
416,272,73516,1,0,0:0:0:0:
392,272,73620,1,0,0:0:0:0:
208,272,73725,1,0,0:0:0:0:
232,272,73829,1,0,0:0:0:0:
440,272,73933,6,0,L|488:96,1,180,0|0,0:0|0:0,0:0:0:0:
208,96,74558,1,0,2:0:0:0:
376,272,74766,2,0,L|424:80,1,180,0|0,2:0|0:0,0:0:0:0:
144,32,75391,6,0,P|104:64|96:208,1,180,4|2,0:0|0:0,0:0:0:0:
216,192,76016,1,8,0:0:0:0:
48,256,76225,2,0,L|32:336,1,45,0|0,0:0|0:0,0:0:0:0:
216,256,76433,2,0,L|240:352,1,90
136,344,76745,2,0,L|104:312,1,45
408,368,77058,6,0,P|464:320|456:200,1,180,0|2,0:0|0:0,0:0:0:0:
304,216,77683,1,8,0:0:0:0:
467,219,77891,1,0,0:0:0:0:
200,280,78100,2,0,L|179:148,1,90
288,192,78412,2,0,L|320:160,1,45
48,32,78725,6,0,P|64:112|184:160,1,180,0|2,0:0|0:0,0:0:0:0:
264,160,79350,1,8,0:0:0:0:
80,304,79558,2,0,L|64:248,1,45,0|0,0:0|0:0,0:0:0:0:
272,344,79766,2,0,L|296:240,1,90,0|0,0:0|0:0,0:0:0:0:
189,248,80079,2,0,L|157:216,1,45
432,360,80391,6,0,P|472:304|448:192,1,180,0|2,0:0|0:0,0:0:0:0:
288,200,81016,1,8,0:0:0:0:
454,199,81225,1,0,0:0:0:0:
168,360,81433,2,0,L|192:192,1,135,0|0,0:0|0:0,0:0:0:0:
84,224,81850,2,0,L|52:192,1,45
368,336,82058,6,0,P|424:296|408:160,1,180,0|2,0:0|0:0,0:0:0:0:
328,120,82683,1,8,0:0:0:0:
164,175,82891,2,0,L|120:184,1,45
304,200,83100,2,0,L|335:316,1,90
432,288,83412,2,0,L|464:320,1,45
131,248,83725,6,0,P|142:331|225:348,1,180,0|2,0:0|0:0,0:0:0:0:
120,352,84350,1,8,0:0:0:0:
304,352,84558,2,0,L|344:320,1,45,0|0,0:0|0:0,0:0:0:0:
48,272,84766,2,0,L|24:176,1,90
128,184,85079,2,0,L|160:152,1,45
442,43,85391,6,0,P|470:127|444:212,1,180,0|2,0:0|0:0,0:0:0:0:
400,216,85912,1,0,0:0:0:0:
280,256,86016,1,8,0:0:0:0:
324,260,86120,1,0,0:0:0:0:
488,336,86225,2,0,L|344:344,1,135,0|0,0:0|0:0,0:0:0:0:
304,344,86641,1,2,0:0:0:0:
145,344,86850,1,8,0:0:0:0:
417,345,87058,6,0,L|473:201,1,135,2|0,0:0|0:0,0:0:0:0:
417,209,87475,1,2,0:0:0:0:
377,169,87579,1,0,0:0:0:0:
361,121,87683,1,8,0:0:0:0:
385,73,87787,1,0,0:0:0:0:
433,41,87891,1,0,0:0:0:0:
240,56,88100,2,0,L|224:152,1,90,0|0,0:0|0:0,0:0:0:0:
344,144,88412,2,0,L|360:240,1,90,0|0,0:0|0:0,0:0:0:0:
128,344,88725,6,0,P|80:304|72:176,1,180,0|2,0:0|0:0,0:0:0:0:
104,184,89245,1,0,0:0:0:0:
208,224,89350,1,8,0:0:0:0:
248,216,89454,1,0,0:0:0:0:
208,224,89558,1,0,0:0:0:0:
104,184,89662,1,0,0:0:0:0:
344,320,89766,2,0,L|368:208,1,90,0|0,0:0|0:0,0:0:0:0:
280,240,90079,2,0,L|256:136,1,90,0|0,0:0|0:0,0:0:0:0:
432,48,90391,6,0,P|472:88|416:192,1,180,0|2,0:0|0:0,0:0:0:0:
392,192,90912,1,0,0:0:0:0:
272,232,91016,1,8,0:0:0:0:
309,228,91120,1,0,0:0:0:0:
429,188,91225,1,0,0:0:0:0:
392,192,91329,1,0,0:0:0:0:
168,320,91433,2,0,L|248:376,1,90,0|0,0:0|0:0,0:0:0:0:
360,320,91745,2,0,L|280:376,1,90,0|0,0:0|0:0,0:0:0:0:
64,296,92058,6,0,L|48:112,1,180,0|10,0:0|0:0,0:0:0:0:
64,80,92579,1,0,0:0:0:0:
96,56,92683,1,0,0:0:0:0:
144,48,92787,1,0,0:0:0:0:
368,160,92891,1,8,0:0:0:0:
424,152,92995,1,0,0:0:0:0:
248,248,93100,2,0,L|128:256,1,90,0|0,0:0|0:0,0:0:0:0:
272,272,93412,2,0,L|362:266,1,90,0|0,0:0|0:0,0:0:0:0:
168,352,93725,6,0,P|120:304|128:216,1,135,0|0,0:0|0:0,0:0:0:0:
304,232,94141,2,0,L|280:136,1,90,2|8,0:0|0:0,0:0:0:0:
16,48,94558,1,0,0:0:0:0:
285,87,94766,5,0,0:0:0:0:
317,95,94836,1,0,0:0:0:0:
341,119,94905,1,0,0:0:0:0:
349,151,94975,1,0,0:0:0:0:
333,183,95044,1,0,0:0:0:0:
309,207,95113,1,0,0:0:0:0:
277,215,95183,1,0,0:0:0:0:
141,215,95391,1,0,0:0:0:0:
264,360,95600,5,0,0:0:0:0:
220,367,95669,1,0,0:0:0:0:
178,352,95738,1,0,0:0:0:0:
150,316,95808,1,2,0:0:0:0:
135,274,95877,1,0,0:0:0:0:
146,229,95947,1,0,0:0:0:0:
177,196,96016,1,8,0:0:0:0:
454,269,96225,1,0,0:0:0:0:
299,358,96433,5,0,0:0:0:0:
343,365,96502,1,0,0:0:0:0:
385,350,96571,1,0,0:0:0:0:
413,314,96641,1,2,0:0:0:0:
428,272,96710,1,0,0:0:0:0:
417,227,96780,1,0,0:0:0:0:
386,194,96849,1,8,0:0:0:0:
109,267,97058,1,0,0:0:0:0:
265,273,97266,5,0,0:0:0:0:
281,257,97335,1,0,0:0:0:0:
289,233,97404,1,0,0:0:0:0:
281,209,97474,1,2,0:0:0:0:
265,193,97543,1,0,0:0:0:0:
233,185,97613,1,0,0:0:0:0:
201,201,97682,1,8,0:0:0:0:
473,295,97891,1,0,0:0:0:0:
318,297,98100,5,0,0:0:0:0:
302,281,98169,1,0,0:0:0:0:
294,257,98238,1,0,0:0:0:0:
302,233,98308,1,0,0:0:0:0:
318,217,98377,1,0,0:0:0:0:
350,209,98447,1,0,0:0:0:0:
382,225,98516,1,0,0:0:0:0:
104,328,98725,6,0,L|128:136,1,180,4|2,0:0|0:0,0:0:0:0:
160,128,99245,1,0,0:0:0:0:
326,153,99350,1,8,0:0:0:0:
293,132,99455,1,0,0:0:0:0:
40,344,99558,2,0,L|64:152,1,180,0|2,0:0|0:0,0:0:0:0:
192,136,100183,1,8,0:0:0:0:
459,351,100391,6,0,L|435:159,1,180,2|0,0:0|0:0,0:0:0:0:
408,180,100877,1,0,0:0:0:0:
379,174,100947,1,0,0:0:0:0:
355,157,101016,1,0,0:0:0:0:
342,129,101086,1,0,0:0:0:0:
345,99,101155,1,0,0:0:0:0:
358,71,101225,1,0,0:0:0:0:
385,57,101294,1,0,0:0:0:0:
415,60,101363,1,0,0:0:0:0:
257,44,101433,2,0,L|193:123,1,90,0|0,0:0|0:0,0:0:0:0:
305,139,101745,2,0,L|369:218,1,90,0|0,0:0|0:0,0:0:0:0:
48,352,102058,6,0,L|56:144,1,180,4|0,0:0|0:0,0:0:0:0:
168,160,102683,1,8,0:0:0:0:
54,172,102891,1,0,0:0:0:0:
320,296,103100,2,0,L|176:296,1,135,4|0,0:0|0:0,0:0:0:0:
464,352,103725,6,0,L|456:144,1,180,4|0,0:0|0:0,0:0:0:0:
344,160,104350,1,8,0:0:0:0:
458,172,104558,1,0,0:0:0:0:
192,296,104766,2,0,L|336:296,1,135,4|0,0:0|0:0,0:0:0:0:
64,272,105391,6,0,L|272:240,1,180,4|0,0:0|0:0,0:0:0:0:
112,232,106016,1,8,0:0:0:0:
241,244,106225,2,0,L|312:240,1,45,0|0,0:0|0:0,0:0:0:0:
120,32,106433,1,0,0:0:0:0:
72,64,106537,1,0,0:0:0:0:
48,112,106641,1,0,0:0:0:0:
72,160,106745,1,0,0:0:0:0:
120,192,106850,1,0,0:0:0:0:
448,96,107058,5,4,0:0:0:0:
256,192,107266,12,0,110391,0:0:0:0:
