osu file format v14

[General]
AudioFilename: audio.mp3
AudioLeadIn: 0
PreviewTime: 73933
Countdown: 0
SampleSet: Normal
StackLeniency: 0.7
Mode: 2
LetterboxInBreaks: 0
WidescreenStoryboard: 1

[Editor]
DistanceSpacing: 1.3
BeatDivisor: 4
GridSize: 8
TimelineZoom: 1

[Metadata]
Title:Prayer
TitleUnicode:Prayer
Artist:penoreri
ArtistUnicode:ぺのれり
Creator:Frobe
Version:ADVANCED
Source:SOUND VOLTEX III GRAVITY WARS
Tags:sdvx Leonita Keita Miyoshi The 5th KAC Original Song Contest オリジナル楽曲コンテスト Rasis overdose rain platter salad
BeatmapID:1649853
BeatmapSetID:768003

[Difficulty]
HPDrainRate:5
CircleSize:4
OverallDifficulty:8
ApproachRate:8
SliderMultiplier:1.6
SliderTickRate:1

[Events]
//Background and Video events
0,0,"Rasis.jpg",0,0
//Break Periods
//Storyboard Layer 0 (Background)
//Storyboard Layer 1 (Fail)
//Storyboard Layer 2 (Pass)
//Storyboard Layer 3 (Foreground)
//Storyboard Sound Samples

[TimingPoints]
600,416.666666666667,4,1,1,15,1,0
7266,-100,4,1,1,35,0,0
32683,-100,4,2,1,20,0,0
43100,-100,4,1,1,15,0,0
43933,-100,4,1,1,25,0,0
50600,-100,4,2,1,15,0,0
53933,-100,4,1,1,30,0,0
57266,-100,4,1,1,35,0,0
75391,-100,4,1,1,45,0,1
102058,-100,4,2,1,35,0,0
110391,-100,4,2,1,10,0,0

[Colours]
Combo1 : 255,222,121
Combo2 : 255,125,125
Combo3 : 195,195,195
Combo4 : 255,100,236

[HitObjects]
272,280,600,5,0,0:0:0:0:
296,312,704,1,0,0:0:0:0:
272,280,808,2,0,L|128:304,1,120
176,264,1225,1,0,0:0:0:0:
288,208,1433,2,0,L|432:184,1,120
384,152,1850,1,0,0:0:0:0:
280,104,2058,1,0,0:0:0:0:
480,72,2266,1,0,0:0:0:0:
376,88,2475,6,0,P|295:95|256:56,1,120
232,56,2891,1,0,0:0:0:0:
32,168,3100,2,0,P|112:160|152:200,1,120
168,208,3516,1,0,0:0:0:0:
64,256,3725,1,0,0:0:0:0:
264,248,3933,1,0,0:0:0:0:
160,256,4141,5,0,0:0:0:0:
128,232,4245,1,0,0:0:0:0:
112,192,4350,2,0,L|224:128,1,120
200,96,4766,1,0,0:0:0:0:
312,192,4975,2,0,L|200:128,1,120
224,96,5391,1,0,0:0:0:0:
416,96,5600,1,0,0:0:0:0:
312,160,5808,6,0,L|439:183,1,120
229,208,6329,1,0,0:0:0:0:
189,216,6433,2,0,L|62:238,1,120
56,272,6850,1,0,0:0:0:0:
160,336,7058,1,0,0:0:0:0:
440,320,7266,6,0,P|488:208|432:112,1,240,4|0,0:0|0:0,0:0:0:0:
327,273,8100,2,0,P|213:248|160:144,1,240
360,136,8933,2,0,L|408:384,1,240
328,368,9766,2,0,L|432:304,1,120
48,288,10391,6,0,P|48:176|184:80,1,280,4|0,0:0|0:0,0:0:0:0:
40,40,11433,2,0,L|64:168,1,120
160,240,12058,1,12,0:3:0:0:
368,256,12266,6,0,L|248:192,1,120,6|4,0:3|0:3,0:0:0:0:
242,164,12683,1,0,0:0:0:0:
252,125,12787,1,0,0:0:0:0:
285,103,12891,1,0,0:0:0:0:
160,320,13100,2,0,L|16:320,1,120
412,324,13725,6,0,P|478:227|463:110,1,240,4|0,0:0|0:0,0:0:0:0:
160,264,14662,1,0,0:0:0:0:
112,264,14766,2,0,L|24:168,2,120,4|0|8,0:3|0:0|0:3,0:0:0:0:
224,264,15600,2,0,L|80:280,1,120,0|4,0:0|0:3,0:0:0:0:
248,288,16225,1,8,0:3:0:0:
48,256,16433,2,0,L|72:128,1,120,8|0,0:0|0:0,0:0:0:0:
128,144,16850,2,0,L|144:56,1,80,12|0,0:3|0:0,0:0:0:0:
248,64,17266,5,0,0:0:0:0:
264,64,17405,1,0,0:0:0:0:
248,64,17544,1,0,0:0:0:0:
152,136,17683,1,8,0:3:0:0:
136,136,17822,1,0,0:0:0:0:
152,136,17961,1,0,0:3:0:0:
248,64,18100,2,0,L|120:64,1,106.666666666667,2|8,0:3|0:3,0:0:0:0:
45,136,18516,2,0,L|173:136,1,106.666666666667,2|0,0:3|0:0,0:0:0:0:
248,64,18933,6,0,L|96:64,1,120
368,216,19558,2,0,L|424:64,1,160
104,72,20183,1,4,0:0:0:0:
184,216,20600,6,0,L|280:216,1,80,2|0,0:0|0:0,0:0:0:0:
160,344,21016,1,0,0:0:0:0:
128,312,21120,1,0,0:0:0:0:
112,272,21225,1,0,0:0:0:0:
128,232,21329,1,0,0:0:0:0:
160,200,21433,2,0,L|272:200,1,80,0|0,0:0|0:0,0:0:0:0:
72,176,21850,1,0,0:0:0:0:
64,136,21954,1,0,0:0:0:0:
56,96,22058,1,0,0:0:0:0:
256,184,22266,6,0,L|368:184,1,80,2|0,0:0|0:0,0:0:0:0:
256,272,22683,2,0,L|176:272,1,80,0|0,0:0|0:0,0:0:0:0:
376,344,23100,2,0,L|432:232,1,120,8|0,0:0|0:0,0:0:0:0:
48,224,23725,1,4,0:0:0:0:
48,232,24141,5,0,0:0:0:0:
40,208,24211,1,0,0:0:0:0:
32,184,24280,1,0,0:0:0:0:
24,160,24350,1,0,0:0:0:0:
72,128,24454,1,0,0:0:0:0:
88,80,24558,1,0,0:0:0:0:
72,32,24662,1,0,0:0:0:0:
24,16,24766,2,0,L|16:120,1,80,2|0,0:0|0:0,0:0:0:0:
216,120,25183,2,0,L|209:200,1,80,0|0,0:0|0:0,0:0:0:0:
16,352,25600,5,0,0:0:0:0:
64,352,25704,1,0,0:0:0:0:
112,352,25808,1,0,0:0:0:0:
160,352,25912,1,0,0:0:0:0:
208,352,26016,1,0,0:0:0:0:
56,280,26225,1,0,0:0:0:0:
48,256,26294,1,0,0:0:0:0:
40,232,26363,1,0,0:0:0:0:
32,208,26433,2,0,L|72:64,1,120,8|0,0:0|0:0,0:0:0:0:
440,96,27058,6,0,P|480:176|440:256,1,160,4|0,0:0|0:0,0:0:0:0:
336,344,27683,1,0,0:0:0:0:
296,312,27787,1,0,0:0:0:0:
280,264,27891,1,0,0:0:0:0:
296,224,27995,1,0,0:0:0:0:
336,200,28100,2,0,L|440:216,1,80,2|0,0:0|0:0,0:0:0:0:
216,168,28516,2,0,L|137:155,1,80,0|0,0:0|0:0,0:0:0:0:
336,200,28933,2,0,L|440:216,1,80,2|0,0:0|0:0,0:0:0:0:
216,168,29349,2,0,L|137:155,1,80,0|0,0:0|0:0,0:0:0:0:
328,336,29766,6,0,L|456:352,1,120,8|0,0:0|0:0,0:0:0:0:
64,352,30391,2,0,P|48:264|88:200,1,160,4|8,0:0|0:0,0:0:0:0:
103,128,31016,1,8,0:0:0:0:
289,332,31225,2,0,L|265:252,1,80,8|8,0:0|0:0,0:0:0:0:
112,256,31641,2,0,L|8:256,2,80,8|8|8,0:0|0:0|0:0,0:0:0:0:
408,112,32266,5,8,0:0:0:0:
361,33,32683,2,0,P|305:102|245:170,1,160,2|0,0:0|0:0,0:0:0:0:
185,155,33308,1,0,0:0:0:0:
336,296,33516,1,0,0:0:0:0:
264,296,33725,1,0,0:0:0:0:
400,368,33933,6,0,L|448:288,1,80
240,288,34350,2,0,L|136:224,1,120
88,200,34766,1,0,0:0:0:0:
200,384,34975,1,0,0:0:0:0:
168,368,35079,1,0,0:0:0:0:
144,336,35183,1,0,0:0:0:0:
136,296,35287,1,0,0:0:0:0:
152,264,35391,1,0,0:0:0:0:
424,264,35600,6,0,L|496:104,1,160,2|0,0:0|0:0,0:0:0:0:
416,80,36225,1,0,0:0:0:0:
216,264,36433,2,0,L|144:104,1,160
224,80,37058,1,0,0:0:0:0:
24,224,37266,6,0,L|200:192,1,160,2|0,0:0|0:0,0:0:0:0:
104,176,37891,1,0,0:0:0:0:
312,144,38100,2,0,L|136:112,1,160
232,96,38725,1,0,0:0:0:0:
32,104,38933,6,0,L|48:263,1,160,2|0,0:0|0:0,0:0:0:0:
128,264,39558,1,0,0:0:0:0:
328,264,39766,2,0,P|376:200|376:112,1,160
208,336,40600,6,0,P|168:304|112:248,1,120,2|0,0:0|0:0,0:0:0:0:
216,224,41016,2,0,P|256:200|288:160,1,80,0|0,0:0|0:0,0:0:0:0:
104,176,41433,2,0,P|64:152|32:112,1,80,0|0,0:0|0:0,0:0:0:0:
216,224,41850,2,0,P|256:200|288:160,1,80
64,352,42266,6,0,L|48:216,1,120
128,232,42683,1,6,0:0:0:0:
328,344,43100,2,0,P|384:296|408:248,1,120
304,344,43516,2,0,P|248:296|232:272,1,80
424,344,43933,6,0,L|488:296,1,80,4|0,0:0|0:0,0:0:0:0:
384,216,44350,1,0,0:0:0:0:
374,177,44454,1,0,0:0:0:0:
364,138,44558,1,0,0:0:0:0:
164,333,44766,2,0,L|228:285,1,80
124,205,45183,1,0,0:0:0:0:
114,166,45287,1,0,0:0:0:0:
104,127,45391,1,0,0:0:0:0:
272,240,45600,6,0,L|184:232,1,80
96,224,46016,1,0,0:0:0:0:
248,96,46225,1,0,0:0:0:0:
256,144,46329,1,8,0:0:0:0:
264,192,46433,1,0,0:0:0:0:
64,64,46641,2,0,L|16:240,1,160,0|8,0:0|0:3,0:0:0:0:
336,336,47266,6,0,P|392:304|408:192,1,160,6|0,0:0|0:0,0:0:0:0:
176,336,48100,2,0,P|120:304|104:192,1,160,0|0,0:0|0:0,0:0:0:0:
384,360,48933,2,0,L|288:208,1,160,2|0,0:0|0:0,0:0:0:0:
378,221,49558,1,0,0:0:0:0:
178,226,49766,2,0,P|224:138|232:58,1,160
112,360,50600,6,0,P|66:272|40:128,1,240,6|0,0:0|0:0,0:0:0:0:
59,99,51329,1,0,0:0:0:0:
81,65,51433,2,0,L|187:44,1,80
360,103,51850,2,0,L|254:82,1,80
82,206,52266,6,0,P|110:254|299:306,1,240,2|0,0:0|0:0,0:0:0:0:
294,277,52995,1,0,0:0:0:0:
310,240,53099,2,0,L|230:234,1,80
30,240,53516,2,0,L|110:234,1,80,0|0,0:0|0:0,0:0:0:0:
408,352,53933,6,0,L|424:216,1,120,8|0,0:3|0:0,0:0:0:0:
356,232,54350,1,12,0:0:0:0:
104,352,54766,2,0,L|88:216,1,120,8|0,0:3|0:0,0:0:0:0:
156,232,55183,1,12,0:0:0:0:
432,360,55600,6,0,P|384:304|368:208,1,160,0|0,0:0|0:0,0:0:0:0:
472,104,56225,1,0,0:0:0:0:
194,190,56433,2,0,L|96:48,1,160
384,352,57266,6,0,L|256:352,2,120,12|8|8,0:0|0:0|0:0,0:0:0:0:
184,256,58204,2,0,L|256:152,1,120,8|8,0:0|0:0,0:0:0:0:
128,352,58933,6,0,L|256:352,2,120,12|8|8,0:0|0:0|0:0,0:0:0:0:
328,256,59871,2,0,L|256:152,1,120,8|8,0:0|0:0,0:0:0:0:
368,264,60600,6,0,P|403:311|421:368,1,120,12|8,0:0|0:0,0:0:0:0:
144,264,61225,2,0,P|108:311|90:368,1,120,8|8,0:0|0:0,0:0:0:0:
472,368,61850,1,8,0:0:0:0:
432,88,62266,2,0,P|360:120|296:208,1,160,4|0,0:0|0:0,0:0:0:0:
107,360,62891,1,0,0:0:0:0:
83,360,62995,1,0,0:0:0:0:
148,361,63100,2,0,P|224:318|240:224,1,160,8|0,0:0|0:0,0:0:0:0:
80,248,63933,6,0,L|56:152,1,80,12|4,0:0|0:3,0:0:0:0:
128,248,64245,2,0,L|152:152,1,80,8|4,0:0|0:3,0:0:0:0:
80,248,64558,2,0,L|56:152,1,80,8|4,0:0|0:3,0:0:0:0:
128,248,64870,2,0,L|160:120,1,120,8|4,0:0|0:0,0:0:0:0:
432,248,65600,6,0,L|456:152,1,80,12|4,0:0|0:3,0:0:0:0:
384,248,65912,2,0,L|360:152,1,80,8|4,0:0|0:3,0:0:0:0:
432,248,66225,2,0,L|456:152,1,80,8|4,0:0|0:3,0:0:0:0:
384,248,66537,2,0,L|352:120,1,120,8|4,0:0|0:0,0:0:0:0:
80,248,67266,6,0,L|56:152,1,80,12|4,0:0|0:3,0:0:0:0:
128,248,67578,2,0,L|152:152,1,80,8|4,0:0|0:3,0:0:0:0:
80,248,67891,2,0,L|56:152,1,80,8|4,0:0|0:3,0:0:0:0:
128,248,68203,2,0,L|160:120,1,120,8|4,0:0|0:0,0:0:0:0:
128,88,68620,1,0,0:0:0:0:
96,48,68725,1,4,0:3:0:0:
265,346,68933,6,0,P|320:240|387:140,1,240
336,96,69662,1,0,0:0:0:0:
288,56,69766,2,0,L|104:72,1,160,8|0,0:0|0:0,0:0:0:0:
400,312,70600,6,0,L|472:164,1,160
112,312,71433,2,0,L|40:164,1,160,8|0,0:0|0:0,0:0:0:0:
336,280,72266,5,0,0:0:0:0:
370,259,72370,1,0,0:0:0:0:
390,224,72475,1,0,0:0:0:0:
399,185,72579,1,0,0:0:0:0:
390,145,72683,1,0,0:0:0:0:
369,110,72787,1,0,0:0:0:0:
336,86,72891,1,0,0:0:0:0:
296,83,72995,1,0,0:0:0:0:
217,79,73100,5,0,0:0:0:0:
221,118,73204,1,0,0:0:0:0:
268,124,73308,1,0,0:0:0:0:
264,163,73412,1,0,0:0:0:0:
181,162,73516,1,0,0:0:0:0:
141,146,73620,1,0,0:0:0:0:
117,114,73725,1,0,0:0:0:0:
109,74,73829,1,0,0:0:0:0:
125,34,73933,6,0,L|293:18,1,160,0|0,0:0|0:0,0:0:0:0:
222,14,74558,1,0,2:0:0:0:
404,70,74766,2,0,L|420:246,1,160,0|0,2:0|0:0,0:0:0:0:
56,352,75391,6,0,P|40:288|96:128,1,240,4|8,0:0|0:0,0:0:0:0:
296,128,76225,2,0,L|320:159,1,40
240,160,76433,2,0,L|146:56,1,120
200,56,76850,1,0,0:0:0:0:
472,352,77058,6,0,P|488:288|464:112,1,240,0|8,0:0|0:0,0:0:0:0:
384,120,77891,1,0,0:0:0:0:
184,256,78100,2,0,L|144:136,1,120
184,128,78517,1,0,0:0:0:0:
456,352,78725,6,0,P|472:288|416:128,1,240,0|8,0:0|0:0,0:0:0:0:
216,128,79559,2,0,L|192:159,1,40
272,160,79767,2,0,L|366:56,1,120
312,56,80184,1,0,0:0:0:0:
40,352,80391,6,0,P|24:288|48:112,1,240,0|8,0:0|0:0,0:0:0:0:
128,120,81224,1,0,0:0:0:0:
328,256,81433,2,0,L|464:232,1,120
488,224,81850,1,0,0:0:0:0:
216,328,82058,6,0,P|128:320|24:216,1,240,0|8,0:0|0:0,0:0:0:0:
224,192,82891,2,0,L|248:152,1,40
176,152,83100,2,0,L|144:24,1,120
184,24,83516,1,0,0:0:0:0:
456,24,83725,6,0,P|488:112|448:248,1,240,0|8,0:0|0:0,0:0:0:0:
248,256,84558,2,0,L|224:216,1,40
296,224,84766,2,0,L|440:224,1,120
456,224,85183,1,0,0:0:0:0:
187,341,85391,6,0,P|73:321|40:272,1,160,0|2,0:0|0:0,0:0:0:0:
32,256,85912,1,0,0:0:0:0:
32,216,86016,1,8,0:0:0:0:
56,184,86120,1,0,0:0:0:0:
96,168,86225,2,0,L|280:160,1,160,0|2,0:0|0:0,0:0:0:0:
336,160,86850,1,8,0:0:0:0:
69,362,87058,6,0,P|29:298|37:202,1,160,2|2,0:0|0:0,0:0:0:0:
120,192,87683,1,8,0:0:0:0:
31,215,87891,1,0,0:0:0:0:
230,166,88100,2,0,L|377:173,1,120
389,174,88516,1,0,0:0:0:0:
120,56,88725,6,0,P|54:155|50:273,1,240,0|8,0:0|0:0,0:0:0:0:
248,312,89558,2,0,L|304:312,1,40
216,312,89766,2,0,P|165:279|119:240,1,120
88,216,90183,1,0,0:0:0:0:
392,40,90391,6,0,P|432:80|456:272,1,240,0|8,0:0|0:0,0:0:0:0:
256,256,91225,1,0,0:0:0:0:
360,256,91433,2,0,L|376:120,1,120
344,104,91850,1,0,0:0:0:0:
72,48,92058,6,0,P|32:96|32:288,1,240,0|8,0:0|0:0,0:0:0:0:
224,304,92891,2,0,L|256:256,1,40
184,272,93099,2,0,P|132:229|104:176,1,120
80,152,93516,1,0,0:0:0:0:
360,40,93725,6,0,L|480:168,2,160,0|2|0,0:0|0:0|0:0,0:0:0:0:
160,176,94766,2,0,L|312:168,1,120
320,168,95183,1,0,0:0:0:0:
54,352,95391,6,0,P|30:168|54:120,1,240,0|8,0:0|0:0,0:0:0:0:
156,120,96225,1,0,0:0:0:0:
360,280,96433,2,0,L|432:160,1,120
448,144,96850,1,0,0:0:0:0:
176,272,97058,6,0,P|81:201|103:73,1,240,0|8,0:0|0:0,0:0:0:0:
289,106,97891,2,0,L|315:52,1,40
264,104,98100,2,0,P|209:122|168:200,1,120
400,368,98725,6,0,P|440:280|432:192,1,160,4|2,0:0|0:0,0:0:0:0:
336,200,99350,1,8,0:0:0:0:
64,352,99558,2,0,L|48:184,1,160,0|2,0:0|0:0,0:0:0:0:
152,184,100183,1,8,0:0:0:0:
424,352,100391,6,0,L|440:184,1,160,4|2,0:0|0:0,0:0:0:0:
336,184,101016,1,0,0:0:0:0:
439,192,101225,1,0,0:0:0:0:
120,344,101433,2,0,L|96:208,1,120
136,208,101850,1,0,0:0:0:0:
409,350,102058,6,0,P|457:246|463:115,1,240,4|8,0:0|0:0,0:0:0:0:
378,126,102891,1,0,0:0:0:0:
178,318,103100,2,0,L|58:318,1,120,4|0,0:0|0:0,0:0:0:0:
432,352,103725,6,0,P|480:248|486:117,1,240,4|8,0:0|0:0,0:0:0:0:
401,128,104558,1,0,0:0:0:0:
200,320,104767,2,0,L|72:320,1,120,4|0,0:0|0:0,0:0:0:0:
456,344,105391,6,0,P|472:232|368:144,1,240,4|8,0:0|0:0,0:0:0:0:
288,128,106225,1,0,0:0:0:0:
88,170,106433,1,0,0:0:0:0:
45,199,106537,1,0,0:0:0:0:
32,249,106641,1,0,0:0:0:0:
51,297,106745,1,0,0:0:0:0:
99,316,106850,1,0,0:0:0:0:
413,316,107058,1,4,0:0:0:0:
256,192,107266,12,0,110391,0:0:0:0:
