osu file format v14

[General]
AudioFilename: audio.mp3
AudioLeadIn: 0
PreviewTime: 413683
Countdown: 0
SampleSet: Soft
StackLeniency: 0.7
Mode: 3
LetterboxInBreaks: 0
EpilepsyWarning: 1
SpecialStyle: 0
WidescreenStoryboard: 1

[Editor]
Bookmarks: 272,57995,92280,155587,326198,470365
DistanceSpacing: 0.8
BeatDivisor: 4
GridSize: 4
TimelineZoom: 2.700001

[Metadata]
Title:Monochrome and Vivid
TitleUnicode:Monochrome and Vivid
Artist:penoreri
ArtistUnicode:ぺのれり
Creator:ruka
Version:New Palettes
Source:
Tags:『Sense of Purpose』 m3-34 2014 秋 spcd-002 Better Tomorrow yuumei _kobii kabi famoss peter instrumental electronica rock orchestral
BeatmapID:2220863
BeatmapSetID:974689

[Difficulty]
HPDrainRate:9
CircleSize:7
OverallDifficulty:7.5
ApproachRate:5
SliderMultiplier:1.4
SliderTickRate:1

[Events]
//Background and Video events
0,0,"bg.jpg",0,0
//Break Periods
//Storyboard Layer 0 (Background)
//Storyboard Layer 1 (Fail)
//Storyboard Layer 2 (Pass)
//Storyboard Layer 3 (Foreground)
//Storyboard Layer 4 (Overlay)
//Storyboard Sound Samples
Sample,73128,0,"hihat1.wav",50
Sample,73396,0,"hihat1.wav",50
Sample,73664,0,"hihat1.wav",50
Sample,73932,0,"hihat1.wav",50
Sample,74468,0,"hihat1.wav",50

[TimingPoints]
272,401.786611130828,3,2,2,20,1,0
272,-94.3396226415094,3,2,2,20,0,0
38709,-92.2509225092251,3,2,2,20,0,0
43531,-90.3342366757001,3,2,2,20,0,0
48352,-88.4955752212389,3,2,2,20,0,0
53173,-86.5800865800866,3,2,2,20,0,0
55584,-84.8896434634975,3,2,2,20,0,0
57995,535.714285714286,4,2,2,40,1,0
57995,-63.6942675159236,4,2,2,40,0,0
65227,-49.0196078431373,4,2,2,40,0,0
65271,-90.9090909090909,4,2,2,40,0,0
65316,-49.0196078431373,4,2,2,40,0,0
65361,-90.9090909090909,4,2,2,40,0,0
65405,-49.0196078431373,4,2,2,40,0,0
65450,-90.9090909090909,4,2,2,40,0,0
65495,-53.1914893617021,4,2,2,40,0,0
65561,-79.3650793650794,4,2,2,40,0,0
65628,-53.1914893617021,4,2,2,40,0,0
65695,-79.3650793650794,4,2,2,40,0,0
65762,-53.1914893617021,4,2,2,40,0,0
65829,-79.3650793650794,4,2,2,40,0,0
65896,-53.1914893617021,4,2,2,40,0,0
65963,-79.3650793650794,4,2,2,40,0,0
66030,-49.0196078431373,4,2,2,40,0,0
66075,-90.9090909090909,4,2,2,40,0,0
66120,-49.0196078431373,4,2,2,40,0,0
66164,-90.9090909090909,4,2,2,40,0,0
66209,-49.0196078431373,4,2,2,40,0,0
66253,-90.9090909090909,4,2,2,40,0,0
66298,-49.0196078431373,4,2,2,40,0,0
66343,-90.9090909090909,4,2,2,40,0,0
66387,-49.0196078431373,4,2,2,40,0,0
66432,-90.9090909090909,4,2,2,40,0,0
66477,-49.0196078431373,4,2,2,40,0,0
66521,-90.9090909090909,4,2,2,40,0,0
66566,-63.6942675159236,4,2,2,40,0,0
72995,-53.1914893617021,4,2,2,40,0,0
73061,-79.3650793650794,4,2,2,40,0,0
73128,-53.1914893617021,4,2,2,40,0,0
73195,-79.3650793650794,4,2,2,40,0,0
73262,-63.6942675159236,4,2,2,40,0,0
73396,-53.1914893617021,4,2,2,40,0,0
73463,-79.3650793650794,4,2,2,40,0,0
73530,-53.1914893617021,4,2,2,40,0,0
73597,-79.3650793650794,4,2,2,40,0,0
73664,-63.6942675159236,4,2,2,40,0,0
73798,-53.1914893617021,4,2,2,40,0,0
73865,-79.3650793650794,4,2,2,40,0,0
73932,-53.1914893617021,4,2,2,40,0,0
73999,-79.3650793650794,4,2,2,40,0,0
74066,-63.6942675159236,4,2,2,40,0,0
74200,-53.1914893617021,4,2,2,40,0,0
74267,-79.3650793650794,4,2,2,40,0,0
74334,-53.1914893617021,4,2,2,40,0,0
74401,-79.3650793650794,4,2,2,40,0,0
74468,-63.6942675159236,4,2,2,40,0,0
74602,-49.0196078431373,4,2,2,40,0,0
74646,-90.9090909090909,4,2,2,40,0,0
74691,-49.0196078431373,4,2,2,40,0,0
74736,-90.9090909090909,4,2,2,40,0,0
74780,-49.0196078431373,4,2,2,40,0,0
74825,-90.9090909090909,4,2,2,40,0,0
74870,-63.6942675159236,4,2,2,40,0,0
92280,-70.9219858156028,4,2,2,40,0,0
109423,-63.6942675159236,4,2,2,40,0,0
126566,-90.9090909090909,4,2,2,40,0,0
135137,-70.9219858156028,4,2,2,40,0,0
139423,555.555555555556,4,2,2,40,1,0
139423,-68.4931506849315,4,2,2,40,0,0
139978,600,4,2,2,40,1,0
139978,-63.2911392405063,4,2,2,40,0,0
140578,625,4,2,2,40,1,0
140578,-64.1025641025641,4,2,2,40,0,0
141203,750,4,2,2,40,1,0
141203,-56.8181818181818,4,2,2,40,0,0
141952,779.220779220779,4,2,2,40,1,0
141952,-58.1395348837209,4,2,2,40,0,0
143900,-54.6448087431694,4,2,2,40,0,0
144094,-51.2820512820513,4,2,2,40,0,0
144289,-48.5436893203883,4,2,2,40,0,0
144484,-45.8715596330275,4,2,2,40,0,0
144678,340.909090909091,4,2,1,40,1,0
155587,-100,4,2,1,50,0,0
221041,-111.111111111111,4,2,1,50,0,0
231950,-105.263157894737,4,2,1,50,0,0
234678,-100,4,2,1,50,0,0
237405,-100,4,2,1,50,0,1
259223,-100,4,2,1,50,0,0
270132,-100,4,2,1,50,0,1
280700,-100,4,2,1,50,0,0
281041,-100,4,2,1,50,0,1
291609,-100,4,2,1,50,0,0
291950,-100,4,2,1,50,0,1
302518,-100,4,2,1,50,0,0
313768,-100,4,2,1,50,0,1
319223,352.941176470588,4,2,1,50,1,0
319223,-96.1538461538461,4,2,1,50,0,0
320634,370.37037037037,4,2,1,50,1,0
320634,-91.743119266055,4,2,1,50,0,0
322115,400,4,2,1,50,1,0
322115,-85.4700854700855,4,2,1,50,0,0
322915,416.666666666667,4,2,1,50,1,0
322915,-81.9672131147541,4,2,1,50,0,0
323957,588.235294117647,4,2,1,50,1,0
323957,-60.8457560085184,4,2,1,50,0,0
324397,413.793103448276,4,2,1,50,1,0
324397,-91.743119266055,4,2,1,50,0,0
324883,685.714285714286,4,2,1,50,1,0
324883,-58.4795321637427,4,2,1,50,0,0
325225,789.473684210526,4,2,1,50,1,0
325225,-53.763440860215,4,2,1,50,0,0
325619,1158.30115830116,4,2,1,50,1,0
325619,-39.2156862745098,4,2,1,50,0,0
326198,500,4,2,2,50,1,0
326198,-75.7575757575758,4,2,2,50,0,0
330073,-71.4285714285714,4,2,2,50,0,0
330448,-75.7575757575758,4,2,2,50,0,0
342198,-71.4285714285714,4,2,2,50,0,0
356198,517.241379310345,4,2,2,50,1,0
356198,-65.7894736842105,4,2,2,50,0,0
357232,530.973451327434,4,2,2,50,1,0
357232,-64.1025641025641,4,2,2,50,0,0
358322,549.450549450549,4,2,2,50,1,0
358322,-62.111801242236,4,2,2,50,0,0
360519,545.950864422202,4,2,2,50,1,0
360519,-62.5,4,2,2,50,0,0
362703,542.005420054201,4,2,2,50,1,0
362703,-62.8930817610063,4,2,2,50,0,0
364871,545.454545454546,4,2,2,50,1,0
364871,-62.5,4,2,2,50,0,0
388871,562.32427366448,4,2,2,50,1,0
388871,-60.6060606060606,4,2,2,50,0,0
390557,636.26723223754,4,2,2,50,1,0
390557,-53.475935828877,4,2,2,50,0,0
391193,670.391061452514,4,2,2,50,1,0
391193,-50.761421319797,4,2,2,50,0,0
391863,670.391061452514,4,2,2,50,1,0
391863,-56.4971751412429,4,2,2,50,0,0
392533,863.309352517986,4,2,2,50,1,0
392533,-49.5049504950495,4,2,2,50,0,0
393396,1167.31517509728,4,2,2,50,1,0
393396,-41.6666666666667,4,2,2,50,0,0
394633,600,4,2,2,50,1,0
394633,-56.8181818181818,4,2,2,50,0,0
412633,-55.5555555555556,4,2,2,50,0,0
412933,-54.3478260869565,4,2,2,50,0,0
413233,-53.1914893617021,4,2,2,50,0,0
413533,-52.0833333333333,4,2,2,50,0,0
413833,-56.8181818181818,4,2,2,50,0,1
433033,623.052959501558,4,2,2,50,1,0
433033,-57.4712643678161,4,2,2,50,0,1
434279,666.666666666667,4,2,2,50,1,0
434279,-56.8181818181818,4,2,2,50,0,1
435612,638.297872340426,4,2,2,50,1,0
435612,-76.3358778625954,4,2,2,50,0,0
436888,769.230769230769,4,2,2,50,1,0
436888,-52.0833333333333,4,2,2,50,0,0
437272,869.565217391304,4,2,2,50,1,0
437272,-49.0196078431373,4,2,2,50,0,0
437706,1000,4,2,2,50,1,0
437706,-45.4545454545455,4,2,2,50,0,0
438208,1333.33333333333,4,2,2,50,1,0
438208,-36.4963503649635,4,2,2,50,0,0
438872,545.454545454546,4,2,2,40,1,0
438872,-62.5,4,2,2,40,0,0
440500,594.059405940594,4,2,2,40,1,0
440500,-57.4712643678161,4,2,2,40,0,0
441054,535.714285714286,4,2,2,40,1,0
441054,-63.6942675159236,4,2,2,40,0,0
442126,535.714285714286,4,2,2,40,1,0
442126,-63.6942675159236,4,2,2,40,0,0
443217,555.555555555556,4,2,2,40,1,0
443217,-61.3496932515337,4,2,2,40,0,0
444870,555.555555555556,4,2,2,40,1,0
444870,-61.3496932515337,4,2,2,40,0,0
445409,555.555555555556,4,2,2,40,1,0
445409,-61.3496932515337,4,2,2,40,0,0
446229,535.714285714286,4,2,2,40,1,0
446229,-63.6942675159236,4,2,2,40,0,0
447044,535.714285714286,4,2,2,40,1,0
447044,-63.6942675159236,4,2,2,40,0,0
447599,600,4,2,2,40,1,0
447599,-63.1313131313131,4,2,2,40,0,0
450599,718.562874251497,4,2,2,40,1,0
450599,-52.6315789473684,4,2,2,40,0,0
451292,679.501698754247,4,2,2,40,1,0
451292,-55.8659217877095,4,2,2,40,0,0
452651,681.818181818182,4,2,2,40,1,0
452651,-62.5,4,2,2,40,0,0
454014,750,4,2,2,40,1,0
454014,-60.6060606060606,4,2,2,40,0,0
454764,857.142857142857,4,2,2,40,1,0
454764,-53.1914893617021,4,2,2,40,0,0
455213,810.810810810811,4,2,2,40,1,0
455213,-55.8659217877095,4,2,2,40,0,0
455618,-59.8802395209581,4,2,2,40,0,0
456047,857.142857142857,4,2,2,40,1,0
456047,-56.8181818181818,4,2,2,40,0,0
457335,952.380952380952,4,2,2,40,1,0
457335,-51.2820512820513,4,2,2,40,0,0
457796,857.142857142857,4,2,2,40,1,0
457796,-56.8181818181818,4,2,2,40,0,0
458287,1200,4,2,2,40,1,0
458287,-40.650406504065,4,2,2,40,0,0
459605,606.060606060606,4,2,2,40,1,0
459605,-62.5,4,2,2,40,0,0
464453,625,4,2,2,40,1,0
464453,-64.1025641025641,4,2,2,40,0,0
466953,710.059171597633,4,2,2,40,1,0
466953,-60.2409638554217,4,2,2,40,0,0
468373,807.537012113055,4,2,2,40,1,0
468373,-56.2587904360056,4,2,2,40,0,0
468776,-60.2409638554217,4,2,2,40,0,0
469180,1000,4,2,2,40,1,0
469180,-52.6315789473684,4,2,2,40,0,0
469680,1371.42857142857,4,2,2,40,1,0
469680,-41.49377593361,4,2,2,40,0,0
470365,1412.92829388909,4,2,2,40,1,0
470365,-10000,4,2,2,40,0,0
470629,-400,4,2,2,40,0,0
470674,-10000,4,2,2,40,0,0
470718,-400,4,2,2,40,0,0
470762,-10000,4,2,2,40,0,0
471248,-400,4,2,2,40,0,0
471292,-10000,4,2,2,40,0,0
471336,-400,4,2,2,40,0,0
471380,-10000,4,2,2,40,0,0
471689,-200,4,2,2,40,0,0
471866,-10000,4,2,2,40,0,0
471954,-400,4,2,2,40,0,0
471998,-10000,4,2,2,40,0,0
472042,-400,4,2,2,40,0,0
472087,-10000,4,2,2,40,0,0
472219,-200,4,2,2,40,0,0
472307,-10000,4,2,2,40,0,0
472396,-200,4,2,2,40,0,0
472484,-10000,4,2,2,40,0,0
472572,-400,4,2,2,40,0,0
472616,-10000,4,2,2,40,0,0
472661,-200,4,2,2,40,0,0
472749,-10000,4,2,2,40,0,0
472837,-200,4,2,2,40,0,0
472925,-10000,4,2,2,40,0,0
473014,-200,4,2,2,40,0,0
473102,-10000,4,2,2,40,0,0
473190,-200,4,2,2,40,0,0
473235,-10000,4,2,2,40,0,0
473279,-400,4,2,2,40,0,0
473323,-10000,4,2,2,40,0,0
473426,-200,4,2,2,40,0,0
473485,-10000,4,2,2,40,0,0
473544,-200,4,2,2,40,0,0
473602,-10000,4,2,2,40,0,0
473661,-200,4,2,2,40,0,0
473720,-10000,4,2,2,40,0,0
473779,-200,4,2,2,40,0,0
473838,-10000,4,2,2,40,0,0
473897,-200,4,2,2,40,0,0
473956,-10000,4,2,2,40,0,0
474015,-200,4,2,2,40,0,0
474073,-400,4,2,2,40,0,0
474118,-10000,4,2,2,40,0,0
474162,-400,4,2,2,40,0,0
474206,-10000,4,2,2,40,0,0
474250,-400,4,2,2,40,0,0
474294,-10000,4,2,2,40,0,0
474338,-400,4,2,2,40,0,0
474383,-10000,4,2,2,40,0,0
474427,-400,4,2,2,40,0,0
474471,-10000,4,2,2,40,0,0
474515,-400,4,2,2,40,0,0
474559,-10000,4,2,2,40,0,0
474603,-400,4,2,2,40,0,0
474647,-10000,4,2,2,40,0,0
474692,-400,4,2,2,40,0,0
474736,-10000,4,2,2,40,0,0
474780,-400,4,2,2,40,0,0
474824,-10000,4,2,2,40,0,0
474868,-200,4,2,2,40,0,0
474912,-10000,4,2,2,40,0,0
474957,-200,4,2,2,40,0,0
475001,-10000,4,2,2,40,0,0
475045,-200,4,2,2,40,0,0
475089,-10000,4,2,2,40,0,0
475133,-400,4,2,2,40,0,0
475177,-10000,4,2,2,40,0,0
475221,-400,4,2,2,40,0,0
475266,-10000,4,2,2,40,0,0
475310,-400,4,2,2,40,0,0
475354,-10000,4,2,2,40,0,0
475398,-400,4,2,2,40,0,0
475442,-10000,4,2,2,40,0,0
475486,-200,4,2,2,40,0,0
475531,-10000,4,2,2,40,0,0
475575,-200,4,2,2,40,0,0
475619,-10000,4,2,2,40,0,0
475663,-200,4,2,2,40,0,0
475707,-10000,4,2,2,40,0,0
475751,-400,4,2,2,40,0,0
475795,-10000,4,2,2,40,0,0
475840,-400,4,2,2,40,0,0
475884,-10000,4,2,2,40,0,0
475928,-400,4,2,2,40,0,0
475972,-10000,4,2,2,40,0,0
476016,-400,4,2,2,40,0,0
476060,-10000,4,2,2,40,0,0
476105,-400,4,2,2,40,0,0
476149,-10000,4,2,2,40,0,0
476193,-400,4,2,2,40,0,0
476237,-10000,4,2,2,40,0,0
476281,-400,4,2,2,40,0,0
476325,-10000,4,2,2,40,0,0
476369,-200,4,2,2,40,0,0
476414,-10000,4,2,2,40,0,0
476458,-200,4,2,2,40,0,0
476502,-10000,4,2,2,40,0,0
476546,-200,4,2,2,40,0,0
476590,-10000,4,2,2,40,0,0
476634,-400,4,2,2,40,0,0
476679,-10000,4,2,2,40,0,0
476723,-400,4,2,2,40,0,0
476767,-10000,4,2,2,40,0,0
476811,-400,4,2,2,40,0,0
476855,-10000,4,2,2,40,0,0
476899,-400,4,2,2,40,0,0
476943,-10000,4,2,2,40,0,0
476988,-400,4,2,2,40,0,0
477032,-10000,4,2,2,40,0,0
477076,-200,4,2,2,40,0,0
477120,-10000,4,2,2,40,0,0
477164,-200,4,2,2,40,0,0
477208,-10000,4,2,2,40,0,0
477253,-200,4,2,2,40,0,0
477297,-10000,4,2,2,40,0,0
477341,-400,4,2,2,40,0,0
477385,-10000,4,2,2,40,0,0
477429,-400,4,2,2,40,0,0
477473,-10000,4,2,2,40,0,0
477517,-400,4,2,2,40,0,0
477562,-10000,4,2,2,40,0,0
477606,-400,4,2,2,40,0,0
477650,-10000,4,2,2,40,0,0
477694,-400,4,2,2,40,0,0
477738,-10000,4,2,2,40,0,0
477782,-400,4,2,2,40,0,0
477827,-10000,4,2,2,40,0,0
477871,-200,4,2,2,40,0,0
477915,-10000,4,2,2,40,0,0
477959,-200,4,2,2,40,0,0
478003,-10000,4,2,2,40,0,0
478047,-200,4,2,2,40,0,0
478091,-10000,4,2,2,40,0,0
478136,-400,4,2,2,40,0,0
478180,-10000,4,2,2,40,0,0
478224,-400,4,2,2,40,0,0
478268,-10000,4,2,2,40,0,0
478312,-400,4,2,2,40,0,0
478356,-10000,4,2,2,40,0,0
478401,-400,4,2,2,40,0,0
478445,-10000,4,2,2,40,0,0
478489,-400,4,2,2,40,0,0
478533,-10000,4,2,2,40,0,0
478577,-400,4,2,2,40,0,0
478621,-10000,4,2,2,40,0,0
478665,-400,4,2,2,40,0,0
478710,-10000,4,2,2,40,0,0
478754,-400,4,2,2,40,0,0
478798,-10000,4,2,2,40,0,0
478842,-400,4,2,2,40,0,0
478886,-10000,4,2,2,40,0,0
478930,-400,4,2,2,40,0,0
478975,-10000,4,2,2,40,0,0
479019,-400,4,2,2,40,0,0
479063,-10000,4,2,2,40,0,0
479107,-400,4,2,2,40,0,0
479151,-10000,4,2,2,40,0,0
479195,-400,4,2,2,40,0,0
479239,-10000,4,2,2,40,0,0
479284,-400,4,2,2,40,0,0
479328,-10000,4,2,2,40,0,0
479372,-400,4,2,2,40,0,0
479431,-200,4,2,2,40,0,0
479490,-10000,4,2,2,40,0,0
479549,-200,4,2,2,40,0,0
479607,-10000,4,2,2,40,0,0
479666,-200,4,2,2,40,0,0
479725,-10000,4,2,2,40,0,0
479784,-200,4,2,2,40,0,0
479843,-10000,4,2,2,40,0,0
479902,-200,4,2,2,40,0,0
479990,-400,4,2,2,40,0,0
480034,-10000,4,2,2,40,0,0
480078,-400,4,2,2,40,0,0
480123,-10000,4,2,2,40,0,0
480167,-400,4,2,2,40,0,0
480211,-10000,4,2,2,40,0,0
480255,-400,4,2,2,40,0,0
480299,-10000,4,2,2,40,0,0
480343,-400,4,2,2,40,0,0
480387,-10000,4,2,2,40,0,0
480432,-400,4,2,2,40,0,0
480476,-10000,4,2,2,40,0,0
480520,-400,4,2,2,40,0,0
480564,-10000,4,2,2,40,0,0
480608,-400,4,2,2,40,0,0
480652,-10000,4,2,2,40,0,0
480697,-400,4,2,2,40,0,0
480741,-10000,4,2,2,40,0,0
480785,-400,4,2,2,40,0,0
480829,-10000,4,2,2,40,0,0
480873,-200,4,2,2,40,0,0
480917,-10000,4,2,2,40,0,0
480961,-400,4,2,2,40,0,0
481006,-10000,4,2,2,40,0,0
481050,-200,4,2,2,40,0,0
481094,-10000,4,2,2,40,0,0
481138,-400,4,2,2,40,0,0
481182,-10000,4,2,2,40,0,0
481226,-200,4,2,2,40,0,0
481271,-10000,4,2,2,40,0,0
481315,-400,4,2,2,40,0,0
481359,-10000,4,2,2,40,0,0
481403,-200,4,2,2,40,0,0
481447,-10000,4,2,2,40,0,0
481491,-400,4,2,2,40,0,0
481535,-10000,4,2,2,40,0,0
481580,-400,4,2,2,40,0,0
481624,-10000,4,2,2,40,0,0

[HitObjects]
109,192,1745,5,0,0:0:0:0:
329,192,1879,1,0,0:0:0:0:
36,192,2013,1,0,0:0:0:0:
256,192,2147,1,0,0:0:0:0:
182,192,2280,1,0,0:0:0:0:
329,192,2414,1,0,0:0:0:0:
109,192,2548,1,0,0:0:0:0:
475,192,2682,1,0,0:0:0:0:
256,192,2816,1,0,0:0:0:0:
402,192,2950,1,0,0:0:0:0:
329,192,3084,1,0,0:0:0:0:
182,192,3218,1,0,0:0:0:0:
109,192,3352,1,0,0:0:0:0:
475,192,3486,1,0,0:0:0:0:
36,192,3620,1,0,0:0:0:0:
256,192,3754,1,0,0:0:0:0:
475,192,3888,1,0,0:0:0:0:
109,192,4022,1,0,0:0:0:0:
402,192,4155,1,0,0:0:0:0:
329,192,4289,1,0,0:0:0:0:
182,192,4423,1,0,0:0:0:0:
109,192,4557,1,0,0:0:0:0:
475,192,4691,1,0,0:0:0:0:
36,192,4825,1,0,0:0:0:0:
256,192,4959,1,0,0:0:0:0:
475,192,5093,1,0,0:0:0:0:
109,192,5227,1,0,0:0:0:0:
402,192,5361,1,0,0:0:0:0:
329,192,5495,1,0,0:0:0:0:
182,192,5629,1,0,0:0:0:0:
109,192,5763,1,0,0:0:0:0:
475,192,5897,1,0,0:0:0:0:
36,192,6030,1,0,0:0:0:0:
256,192,6164,1,0,0:0:0:0:
475,192,6298,1,0,0:0:0:0:
109,192,6432,1,0,0:0:0:0:
402,192,6566,1,0,0:0:0:0:
329,192,6700,1,0,0:0:0:0:
182,192,6834,1,0,0:0:0:0:
109,192,6968,1,0,0:0:0:0:
475,192,7102,1,0,0:0:0:0:
36,192,7236,1,0,0:0:0:0:
256,192,7370,1,0,0:0:0:0:
475,192,7504,1,0,0:0:0:0:
109,192,7638,1,0,0:0:0:0:
402,192,7772,1,0,0:0:0:0:
329,192,7905,1,0,0:0:0:0:
182,192,8039,1,0,0:0:0:0:
109,192,8173,1,0,0:0:0:0:
475,192,8307,1,0,0:0:0:0:
36,192,8441,1,0,0:0:0:0:
256,192,8575,1,0,0:0:0:0:
475,192,8709,1,0,0:0:0:0:
109,192,8843,1,0,0:0:0:0:
402,192,8977,1,0,0:0:0:0:
329,192,9111,1,0,0:0:0:0:
182,192,9245,1,0,0:0:0:0:
109,192,9379,1,0,0:0:0:0:
475,192,9513,1,0,0:0:0:0:
36,192,9647,1,0,0:0:0:0:
256,192,9780,1,0,0:0:0:0:
329,192,9914,1,0,0:0:0:0:
475,192,9914,1,0,0:0:0:0:
109,192,10048,1,0,0:0:0:0:
402,192,10182,1,0,0:0:0:0:
329,192,10316,1,0,0:0:0:0:
182,192,10450,1,0,0:0:0:0:
109,192,10584,1,0,0:0:0:0:
475,192,10718,1,0,0:0:0:0:
36,192,10852,1,0,0:0:0:0:
256,192,10986,1,0,0:0:0:0:
329,192,11120,1,0,0:0:0:0:
475,192,11120,1,0,0:0:0:0:
109,192,11254,1,0,0:0:0:0:
402,192,11388,1,0,0:0:0:0:
329,192,11522,1,0,0:0:0:0:
182,192,11655,1,0,0:0:0:0:
109,192,11789,1,0,0:0:0:0:
475,192,11923,1,0,0:0:0:0:
36,192,12057,1,0,0:0:0:0:
256,192,12191,1,0,0:0:0:0:
329,192,12325,1,0,0:0:0:0:
475,192,12325,1,0,0:0:0:0:
109,192,12459,1,0,0:0:0:0:
402,192,12593,1,0,0:0:0:0:
329,192,12727,1,0,0:0:0:0:
182,192,12861,1,0,0:0:0:0:
109,192,12995,1,0,0:0:0:0:
475,192,13129,1,0,0:0:0:0:
36,192,13263,1,0,0:0:0:0:
256,192,13397,1,0,0:0:0:0:
329,192,13530,1,0,0:0:0:0:
475,192,13530,1,0,0:0:0:0:
109,192,13664,1,0,0:0:0:0:
402,192,13798,1,0,0:0:0:0:
329,192,13932,1,0,0:0:0:0:
182,192,14066,1,0,0:0:0:0:
109,192,14200,1,0,0:0:0:0:
475,192,14334,1,0,0:0:0:0:
36,192,14468,1,0,0:0:0:0:
256,192,14602,1,0,0:0:0:0:
182,192,14660,1,0,0:0:0:0:
329,192,14660,1,0,0:0:0:0:
475,192,14736,1,0,0:0:0:0:
109,192,14870,1,0,0:0:0:0:
402,192,15004,1,0,0:0:0:0:
329,192,15138,1,0,0:0:0:0:
182,192,15272,1,0,0:0:0:0:
109,192,15405,1,0,0:0:0:0:
475,192,15539,1,0,0:0:0:0:
36,192,15673,1,0,0:0:0:0:
256,192,15807,1,0,0:0:0:0:
329,192,15941,1,0,0:0:0:0:
475,192,15941,1,0,0:0:0:0:
109,192,16075,1,0,0:0:0:0:
402,192,16209,1,0,0:0:0:0:
329,192,16343,1,0,0:0:0:0:
182,192,16477,1,0,0:0:0:0:
109,192,16611,1,0,0:0:0:0:
475,192,16745,1,0,0:0:0:0:
36,192,16879,1,0,0:0:0:0:
256,192,17013,1,0,0:0:0:0:
329,192,17147,1,0,0:0:0:0:
475,192,17147,1,0,0:0:0:0:
109,192,17280,1,0,0:0:0:0:
402,192,17414,1,0,0:0:0:0:
329,192,17548,1,0,0:0:0:0:
182,192,17682,1,0,0:0:0:0:
109,192,17816,1,0,0:0:0:0:
256,192,17850,1,0,0:0:0:0:
402,192,17850,1,0,0:0:0:0:
475,192,17950,1,0,0:0:0:0:
36,192,18084,1,0,0:0:0:0:
256,192,18218,1,0,0:0:0:0:
329,192,18352,1,0,0:0:0:0:
475,192,18352,1,0,0:0:0:0:
109,192,18486,1,0,0:0:0:0:
402,192,18620,1,0,0:0:0:0:
329,192,18754,1,0,0:0:0:0:
182,192,18888,1,0,0:0:0:0:
109,192,19022,1,0,0:0:0:0:
475,192,19155,1,0,0:0:0:0:
36,192,19289,1,0,0:0:0:0:
256,192,19423,1,0,0:0:0:0:
329,192,19557,1,0,0:0:0:0:
475,192,19557,1,0,0:0:0:0:
109,192,19691,1,0,0:0:0:0:
402,192,19825,1,0,0:0:0:0:
329,192,19959,1,0,0:0:0:0:
182,192,20093,1,0,0:0:0:0:
109,192,20227,1,0,0:0:0:0:
475,192,20361,1,0,0:0:0:0:
36,192,20495,1,0,0:0:0:0:
256,192,20629,1,0,0:0:0:0:
329,192,20763,1,0,0:0:0:0:
475,192,20763,1,0,0:0:0:0:
109,192,20897,1,0,0:0:0:0:
402,192,21030,1,0,0:0:0:0:
36,192,21114,1,0,0:0:0:0:
256,192,21114,1,0,0:0:0:0:
329,192,21164,1,0,0:0:0:0:
182,192,21298,1,0,0:0:0:0:
109,192,21432,1,0,0:0:0:0:
475,192,21566,1,0,0:0:0:0:
36,192,21700,1,0,0:0:0:0:
256,192,21834,1,0,0:0:0:0:
329,192,21968,1,0,0:0:0:0:
475,192,21968,1,0,0:0:0:0:
109,192,22102,1,0,0:0:0:0:
402,192,22236,1,0,0:0:0:0:
329,192,22370,1,0,0:0:0:0:
182,192,22504,1,0,0:0:0:0:
109,192,22638,1,0,0:0:0:0:
475,192,22772,1,0,0:0:0:0:
36,192,22905,1,0,0:0:0:0:
256,192,23039,1,0,0:0:0:0:
329,192,23173,1,0,0:0:0:0:
475,192,23173,1,0,0:0:0:0:
109,192,23307,1,0,0:0:0:0:
402,192,23441,1,0,0:0:0:0:
329,192,23575,1,0,0:0:0:0:
182,192,23709,1,0,0:0:0:0:
109,192,23843,1,0,0:0:0:0:
475,192,23977,1,0,0:0:0:0:
36,192,24111,1,0,0:0:0:0:
256,192,24245,1,0,0:0:0:0:
329,192,24379,1,0,0:0:0:0:
475,192,24379,1,0,0:0:0:0:
109,192,24513,1,0,0:0:0:0:
402,192,24647,1,0,0:0:0:0:
329,192,24780,1,0,0:0:0:0:
182,192,24914,1,0,0:0:0:0:
109,192,25048,1,0,0:0:0:0:
475,192,25182,1,0,0:0:0:0:
36,192,25316,1,0,0:0:0:0:
256,192,25450,1,0,0:0:0:0:
329,192,25584,1,0,0:0:0:0:
475,192,25584,1,0,0:0:0:0:
109,192,25718,1,0,0:0:0:0:
402,192,25852,1,0,0:0:0:0:
329,192,25986,1,0,0:0:0:0:
475,192,26061,1,0,0:0:0:0:
36,192,26061,1,0,0:0:0:0:
182,192,26120,1,0,0:0:0:0:
109,192,26254,1,0,0:0:0:0:
475,192,26388,1,0,0:0:0:0:
36,192,26522,1,0,0:0:0:0:
256,192,26655,1,0,0:0:0:0:
329,192,26789,1,0,0:0:0:0:
475,192,26789,1,0,0:0:0:0:
109,192,26923,1,0,0:0:0:0:
402,192,27057,1,0,0:0:0:0:
329,192,27191,1,0,0:0:0:0:
182,192,27325,1,0,0:0:0:0:
109,192,27459,1,0,0:0:0:0:
475,192,27593,1,0,0:0:0:0:
36,192,27727,1,0,0:0:0:0:
256,192,27861,1,0,0:0:0:0:
329,192,27995,1,0,0:0:0:0:
475,192,27995,1,0,0:0:0:0:
109,192,28129,1,0,0:0:0:0:
402,192,28263,1,0,0:0:0:0:
329,192,28397,1,0,0:0:0:0:
182,192,28530,1,0,0:0:0:0:
109,192,28664,1,0,0:0:0:0:
475,192,28798,1,0,0:0:0:0:
36,192,28932,1,0,0:0:0:0:
256,192,29066,1,0,0:0:0:0:
329,192,29200,1,0,0:0:0:0:
475,192,29200,1,0,0:0:0:0:
109,192,29334,1,0,0:0:0:0:
402,192,29468,1,0,0:0:0:0:
36,192,29552,1,0,0:0:0:0:
256,192,29552,1,0,0:0:0:0:
329,192,29602,1,0,0:0:0:0:
182,192,29736,1,0,0:0:0:0:
109,192,29870,1,0,0:0:0:0:
475,192,30004,1,0,0:0:0:0:
36,192,30138,1,0,0:0:0:0:
256,192,30272,1,0,0:0:0:0:
329,192,30405,1,0,0:0:0:0:
475,192,30405,1,0,0:0:0:0:
109,192,30539,1,0,0:0:0:0:
402,192,30673,1,0,0:0:0:0:
329,192,30807,1,0,0:0:0:0:
182,192,30941,1,0,0:0:0:0:
109,192,31075,1,0,0:0:0:0:
475,192,31209,1,0,0:0:0:0:
36,192,31343,1,0,0:0:0:0:
256,192,31477,1,0,0:0:0:0:
329,192,31611,1,0,0:0:0:0:
475,192,31611,1,0,0:0:0:0:
109,192,31745,1,0,0:0:0:0:
402,192,31879,1,0,0:0:0:0:
329,192,32013,1,0,0:0:0:0:
182,192,32147,1,0,0:0:0:0:
109,192,32281,1,0,0:0:0:0:
475,192,32414,1,0,0:0:0:0:
36,192,32548,1,0,0:0:0:0:
256,192,32682,1,0,0:0:0:0:
475,192,32816,1,0,0:0:0:0:
36,192,32866,1,0,0:0:0:0:
329,192,32866,1,0,0:0:0:0:
109,192,32950,1,0,0:0:0:0:
402,192,33084,1,0,0:0:0:0:
329,192,33218,1,0,0:0:0:0:
182,192,33352,1,0,0:0:0:0:
109,192,33486,1,0,0:0:0:0:
475,192,33620,1,0,0:0:0:0:
36,192,33754,1,0,0:0:0:0:
256,192,33888,1,0,0:0:0:0:
329,192,34022,1,0,0:0:0:0:
475,192,34022,1,0,0:0:0:0:
109,192,34156,1,0,0:0:0:0:
402,192,34289,1,0,0:0:0:0:
329,192,34423,1,0,0:0:0:0:
182,192,34557,1,0,0:0:0:0:
109,192,34691,1,0,0:0:0:0:
475,192,34825,1,0,0:0:0:0:
36,192,34959,1,0,0:0:0:0:
256,192,35093,1,0,0:0:0:0:
329,192,35227,1,0,0:0:0:0:
475,192,35227,1,0,0:0:0:0:
109,192,35361,1,0,0:0:0:0:
402,192,35495,1,0,0:0:0:0:
329,192,35629,1,0,0:0:0:0:
182,192,35763,1,0,0:0:0:0:
109,192,35897,1,0,0:0:0:0:
475,192,36031,1,0,0:0:0:0:
36,192,36164,1,0,0:0:0:0:
256,192,36298,1,0,0:0:0:0:
329,192,36432,1,0,0:0:0:0:
475,192,36432,1,0,0:0:0:0:
109,192,36566,1,0,0:0:0:0:
402,192,36700,1,0,0:0:0:0:
329,192,36834,1,0,0:0:0:0:
182,192,36968,1,0,0:0:0:0:
109,192,37102,1,0,0:0:0:0:
475,192,37236,1,0,0:0:0:0:
36,192,37370,1,0,0:0:0:0:
256,192,37504,1,0,0:0:0:0:
329,192,37638,1,0,0:0:0:0:
475,192,37638,1,0,0:0:0:0:
109,192,37772,1,0,0:0:0:0:
402,192,37906,1,0,0:0:0:0:
329,192,38039,1,0,0:0:0:0:
182,192,38173,1,0,0:0:0:0:
109,192,38307,1,0,0:0:0:0:
475,192,38441,1,0,0:0:0:0:
182,192,38575,1,0,0:0:0:0:
36,192,38709,128,0,43531:0:0:0:0:
256,192,38709,1,0,0:0:0:0:
329,192,38843,1,0,0:0:0:0:
475,192,38843,1,0,0:0:0:0:
182,192,38977,1,0,0:0:0:0:
402,192,39111,1,0,0:0:0:0:
329,192,39245,1,0,0:0:0:0:
256,192,39379,1,0,0:0:0:0:
182,192,39513,1,0,0:0:0:0:
475,192,39647,1,0,0:0:0:0:
109,192,39781,1,0,0:0:0:0:
256,192,39914,1,0,0:0:0:0:
329,192,40048,1,0,0:0:0:0:
475,192,40048,1,0,0:0:0:0:
182,192,40182,1,0,0:0:0:0:
109,192,40216,128,0,40283:0:0:0:0:
402,192,40316,1,0,0:0:0:0:
329,192,40450,1,0,0:0:0:0:
256,192,40584,1,0,0:0:0:0:
182,192,40718,1,0,0:0:0:0:
475,192,40852,1,0,0:0:0:0:
109,192,40986,1,0,0:0:0:0:
402,192,41053,128,0,41120:0:0:0:0:
256,192,41120,1,0,0:0:0:0:
329,192,41254,1,0,0:0:0:0:
475,192,41254,1,0,0:0:0:0:
182,192,41388,1,0,0:0:0:0:
402,192,41522,1,0,0:0:0:0:
329,192,41656,1,0,0:0:0:0:
109,192,41789,128,0,41856:0:0:0:0:
256,192,41789,1,0,0:0:0:0:
182,192,41923,1,0,0:0:0:0:
475,192,42057,1,0,0:0:0:0:
109,192,42191,1,0,0:0:0:0:
256,192,42325,1,0,0:0:0:0:
329,192,42459,1,0,0:0:0:0:
475,192,42459,1,0,0:0:0:0:
182,192,42593,1,0,0:0:0:0:
402,192,42727,1,0,0:0:0:0:
329,192,42861,1,0,0:0:0:0:
256,192,42995,1,0,0:0:0:0:
402,192,43062,128,0,43129:0:0:0:0:
182,192,43129,1,0,0:0:0:0:
475,192,43263,1,0,0:0:0:0:
109,192,43397,1,0,0:0:0:0:
256,192,43531,128,0,48352:0:0:0:0:
329,192,43531,1,0,0:0:0:0:
402,192,43664,1,0,0:0:0:0:
475,192,43664,1,0,0:0:0:0:
36,192,43798,1,0,0:0:0:0:
402,192,43932,1,0,0:0:0:0:
329,192,44066,1,0,0:0:0:0:
182,192,44200,1,0,0:0:0:0:
109,192,44334,1,0,0:0:0:0:
329,192,44468,128,0,44535:0:0:0:0:
475,192,44468,1,0,0:0:0:0:
36,192,44602,1,0,0:0:0:0:
329,192,44736,1,0,0:0:0:0:
402,192,44870,1,0,0:0:0:0:
475,192,44870,1,0,0:0:0:0:
109,192,45004,1,0,0:0:0:0:
182,192,45071,128,0,45138:0:0:0:0:
402,192,45138,1,0,0:0:0:0:
329,192,45272,1,0,0:0:0:0:
182,192,45406,1,0,0:0:0:0:
109,192,45539,1,0,0:0:0:0:
475,192,45673,1,0,0:0:0:0:
402,192,45724,128,0,45799:0:0:0:0:
36,192,45807,1,0,0:0:0:0:
329,192,45941,1,0,0:0:0:0:
402,192,46075,1,0,0:0:0:0:
475,192,46075,1,0,0:0:0:0:
109,192,46209,1,0,0:0:0:0:
402,192,46343,1,0,0:0:0:0:
329,192,46477,1,0,0:0:0:0:
182,192,46611,1,0,0:0:0:0:
109,192,46745,1,0,0:0:0:0:
475,192,46879,1,0,0:0:0:0:
36,192,47013,1,0,0:0:0:0:
182,192,47080,128,0,47147:0:0:0:0:
329,192,47147,1,0,0:0:0:0:
402,192,47281,1,0,0:0:0:0:
475,192,47281,1,0,0:0:0:0:
109,192,47414,1,0,0:0:0:0:
402,192,47548,1,0,0:0:0:0:
329,192,47682,1,0,0:0:0:0:
182,192,47816,1,0,0:0:0:0:
109,192,47950,1,0,0:0:0:0:
475,192,48084,1,0,0:0:0:0:
36,192,48218,1,0,0:0:0:0:
182,192,48352,1,0,0:0:0:0:
475,192,48352,128,0,53173:0:0:0:0:
256,192,48486,1,0,0:0:0:0:
402,192,48486,1,0,0:0:0:0:
109,192,48620,1,0,0:0:0:0:
329,192,48754,1,0,0:0:0:0:
256,192,48888,1,0,0:0:0:0:
109,192,49022,1,0,0:0:0:0:
329,192,49055,128,0,49122:0:0:0:0:
36,192,49156,1,0,0:0:0:0:
182,192,49289,1,0,0:0:0:0:
329,192,49423,1,0,0:0:0:0:
109,192,49557,1,0,0:0:0:0:
256,192,49691,1,0,0:0:0:0:
402,192,49691,1,0,0:0:0:0:
36,192,49825,1,0,0:0:0:0:
182,192,49825,128,0,49892:0:0:0:0:
329,192,49959,1,0,0:0:0:0:
256,192,50093,1,0,0:0:0:0:
109,192,50227,1,0,0:0:0:0:
36,192,50361,1,0,0:0:0:0:
182,192,50495,1,0,0:0:0:0:
329,192,50629,1,0,0:0:0:0:
109,192,50763,1,0,0:0:0:0:
256,192,50897,1,0,0:0:0:0:
402,192,50897,1,0,0:0:0:0:
36,192,51031,1,0,0:0:0:0:
182,192,51031,128,0,51098:0:0:0:0:
329,192,51164,1,0,0:0:0:0:
256,192,51298,1,0,0:0:0:0:
109,192,51432,1,0,0:0:0:0:
36,192,51566,1,0,0:0:0:0:
182,192,51700,1,0,0:0:0:0:
329,192,51834,1,0,0:0:0:0:
109,192,51968,1,0,0:0:0:0:
256,192,52102,1,0,0:0:0:0:
402,192,52102,1,0,0:0:0:0:
36,192,52236,1,0,0:0:0:0:
329,192,52370,1,0,0:0:0:0:
256,192,52504,1,0,0:0:0:0:
402,192,52504,128,0,52571:0:0:0:0:
109,192,52638,1,0,0:0:0:0:
36,192,52772,1,0,0:0:0:0:
182,192,52906,1,0,0:0:0:0:
109,192,53039,128,0,53106:0:0:0:0:
329,192,53039,1,0,0:0:0:0:
36,192,53173,128,0,55584:0:0:0:0:
256,192,53173,1,0,0:0:0:0:
402,192,53307,1,0,0:0:0:0:
475,192,53307,1,0,0:0:0:0:
329,192,53408,128,0,53475:0:0:0:0:
182,192,53441,1,0,0:0:0:0:
402,192,53575,1,0,0:0:0:0:
329,192,53709,1,0,0:0:0:0:
256,192,53843,1,0,0:0:0:0:
182,192,53977,1,0,0:0:0:0:
475,192,54111,1,0,0:0:0:0:
109,192,54245,1,0,0:0:0:0:
256,192,54379,1,0,0:0:0:0:
402,192,54513,1,0,0:0:0:0:
475,192,54513,1,0,0:0:0:0:
182,192,54647,1,0,0:0:0:0:
402,192,54781,1,0,0:0:0:0:
329,192,54914,1,0,0:0:0:0:
256,192,55048,128,0,55115:0:0:0:0:
475,192,55048,1,0,0:0:0:0:
402,192,55149,128,0,55216:0:0:0:0:
182,192,55182,1,0,0:0:0:0:
475,192,55316,1,0,0:0:0:0:
329,192,55450,1,0,0:0:0:0:
109,192,55584,1,0,0:0:0:0:
256,192,55584,128,0,57995:0:0:0:0:
402,192,55718,1,0,0:0:0:0:
475,192,55718,1,0,0:0:0:0:
36,192,55852,1,0,0:0:0:0:
182,192,55852,128,0,55919:0:0:0:0:
475,192,55986,1,0,0:0:0:0:
329,192,56120,1,0,0:0:0:0:
182,192,56254,1,0,0:0:0:0:
36,192,56388,1,0,0:0:0:0:
402,192,56522,1,0,0:0:0:0:
109,192,56656,1,0,0:0:0:0:
182,192,56789,1,0,0:0:0:0:
402,192,56923,1,0,0:0:0:0:
475,192,56923,1,0,0:0:0:0:
36,192,57057,1,0,0:0:0:0:
182,192,57057,128,0,57124:0:0:0:0:
475,192,57191,1,0,0:0:0:0:
329,192,57325,1,0,0:0:0:0:
182,192,57459,1,0,0:0:0:0:
36,192,57593,1,0,0:0:0:0:
402,192,57727,1,0,0:0:0:0:
109,192,57861,1,0,0:0:0:0:
36,192,57995,128,2,58798:0:0:0:0:
182,192,57995,1,4,0:0:0:0:
329,192,57995,1,0,0:0:0:40:hihat2.wav
402,192,57995,1,0,0:0:0:50:hihat.wav
475,192,57995,1,0,0:0:0:0:
256,192,58128,1,0,0:0:0:40:hihat2.wav
109,192,58262,128,0,58530:0:0:0:40:hihat2.wav
329,192,58262,1,0,0:0:0:0:
475,192,58262,1,0,0:0:0:0:
402,192,58396,1,0,0:0:0:40:hihat2.wav
182,192,58530,128,0,59066:0:0:0:40:hihat2.wav
256,192,58530,1,0,0:0:0:50:hihat1.wav
329,192,58530,1,0,0:0:0:0:
402,192,58664,1,0,0:0:0:40:hihat2.wav
109,192,58798,128,0,59066:0:0:0:40:hihat2.wav
329,192,58798,1,0,0:0:0:0:
475,192,58798,1,0,0:0:0:0:
256,192,58932,1,0,0:0:0:40:hihat2.wav
36,192,59066,1,0,0:0:0:40:hihat2.wav
329,192,59066,1,0,0:0:0:50:hihat.wav
402,192,59066,1,0,0:0:0:0:
475,192,59066,128,0,59870:0:0:0:0:
256,192,59200,1,0,0:0:0:40:hihat2.wav
182,192,59334,1,0,0:0:0:40:hihat2.wav
109,192,59334,1,0,0:0:0:0:
402,192,59334,128,0,59602:0:0:0:0:
256,192,59468,1,0,0:0:0:40:hihat2.wav
36,192,59602,1,0,0:0:0:40:hihat2.wav
109,192,59602,1,0,0:0:0:50:hihat1.wav
329,192,59602,128,0,60137:0:0:0:0:
182,192,59669,1,0,0:0:0:0:
256,192,59736,1,0,0:0:0:40:hihat2.wav
36,192,59803,1,0,0:0:0:0:
109,192,59870,1,0,0:0:0:40:hihat2.wav
402,192,59870,128,0,60137:0:0:0:0:
182,192,59936,1,0,0:0:0:0:
256,192,60003,1,0,0:0:0:40:hihat2.wav
36,192,60137,128,0,60941:0:0:0:40:hihat2.wav
109,192,60137,1,0,0:0:0:50:hihat.wav
182,192,60137,1,0,0:0:0:0:
475,192,60137,1,0,0:0:0:0:
256,192,60271,1,0,0:0:0:40:hihat2.wav
109,192,60405,128,0,60673:0:0:0:40:hihat2.wav
329,192,60405,1,0,0:0:0:0:
402,192,60405,1,0,0:0:0:0:
256,192,60539,1,0,0:0:0:40:hihat2.wav
182,192,60673,128,0,61209:0:0:0:40:hihat2.wav
329,192,60673,1,0,0:0:0:50:hihat1.wav
475,192,60673,128,0,61075:0:0:0:0:
402,192,60807,128,0,61075:0:0:0:40:hihat2.wav
109,192,60941,128,0,61209:0:0:0:40:hihat2.wav
329,192,60941,128,0,61075:0:0:0:0:
256,192,61075,1,0,0:0:0:40:hihat2.wav
36,192,61209,1,0,0:0:0:40:hihat2.wav
329,192,61209,1,0,0:0:0:50:hihat.wav
402,192,61209,1,0,0:0:0:0:
475,192,61209,128,0,62012:0:0:0:0:
256,192,61343,1,0,0:0:0:40:hihat2.wav
182,192,61477,1,0,0:0:0:40:hihat2.wav
109,192,61477,1,0,0:0:0:0:
402,192,61477,128,0,61745:0:0:0:0:
256,192,61611,1,0,0:0:0:40:hihat2.wav
36,192,61745,128,0,62146:0:0:0:40:hihat2.wav
182,192,61745,1,0,0:0:0:50:hihat1.wav
329,192,61745,128,0,62280:0:0:0:0:
109,192,61878,128,0,62146:0:0:0:40:hihat2.wav
182,192,62012,128,0,62146:0:0:0:40:hihat2.wav
402,192,62012,128,0,62280:0:0:0:0:
256,192,62146,1,0,0:0:0:40:hihat2.wav
36,192,62280,128,0,63084:0:0:0:40:hihat2.wav
109,192,62280,1,0,0:0:0:50:hihat.wav
182,192,62280,1,0,0:0:0:0:
475,192,62280,1,0,0:0:0:0:
256,192,62414,1,0,0:0:0:40:hihat2.wav
109,192,62548,128,0,62816:0:0:0:40:hihat2.wav
329,192,62548,1,0,0:0:0:0:
475,192,62548,1,0,0:0:0:0:
402,192,62682,1,0,0:0:0:40:hihat2.wav
182,192,62816,128,0,63620:0:0:0:40:hihat2.wav
256,192,62816,1,0,0:0:0:50:hihat1.wav
329,192,62816,1,0,0:0:0:0:
402,192,62950,1,0,0:0:0:40:hihat2.wav
109,192,63084,128,0,63352:0:0:0:40:hihat2.wav
329,192,63084,1,0,0:0:0:0:
475,192,63084,1,0,0:0:0:0:
256,192,63218,1,0,0:0:0:40:hihat2.wav
36,192,63352,128,0,64155:0:0:0:40:hihat2.wav
402,192,63352,1,0,0:0:0:50:hihat.wav
475,192,63352,1,0,0:0:0:0:
329,192,63486,1,0,0:0:0:40:hihat2.wav
109,192,63620,128,0,63887:0:0:0:40:hihat2.wav
256,192,63620,1,0,0:0:0:0:
475,192,63620,1,0,0:0:0:0:
402,192,63753,1,0,0:0:0:40:hihat2.wav
182,192,63887,128,0,64691:0:0:0:40:hihat2.wav
256,192,63887,1,0,0:0:0:50:hihat1.wav
329,192,63887,1,0,0:0:0:0:
402,192,64021,1,0,0:0:0:40:hihat2.wav
109,192,64155,128,0,64423:0:0:0:40:hihat2.wav
329,192,64155,1,0,0:0:0:0:
475,192,64155,1,0,0:0:0:0:
256,192,64289,1,0,0:0:0:40:hihat2.wav
36,192,64423,128,0,65227:0:0:0:40:hihat2.wav
402,192,64423,1,0,0:0:0:50:hihat.wav
475,192,64423,1,0,0:0:0:0:
329,192,64557,1,0,0:0:0:40:hihat2.wav
109,192,64691,128,0,64959:0:0:0:40:hihat2.wav
256,192,64691,1,0,0:0:0:0:
475,192,64691,1,0,0:0:0:0:
402,192,64825,1,0,0:0:0:40:hihat2.wav
182,192,64959,128,0,65762:0:0:0:40:hihat2.wav
256,192,64959,1,0,0:0:0:50:hihat1.wav
329,192,64959,1,0,0:0:0:0:
402,192,65093,1,0,0:0:0:40:hihat2.wav
109,192,65227,128,0,65495:0:0:0:40:hihat2.wav
256,192,65227,1,0,0:0:0:0:
475,192,65227,128,0,65271:0:0:0:0:
402,192,65316,128,0,65361:0:0:0:0:
329,192,65405,128,0,65450:0:0:0:0:
36,192,65495,128,0,66298:0:0:0:40:hihat2.wav
256,192,65495,128,0,65762:0:0:0:50:hihat.wav
475,192,65495,1,0,0:0:0:0:
475,192,65628,128,0,65762:0:0:0:40:hihat2.wav
109,192,65762,128,0,66030:0:0:0:40:hihat2.wav
329,192,65762,128,0,66030:0:0:0:0:
402,192,65762,1,0,0:0:0:0:
402,192,65896,128,0,66030:0:0:0:40:hihat2.wav
182,192,66030,128,0,66298:0:0:0:40:hihat2.wav
256,192,66030,128,0,66075:0:0:0:50:hihat1.wav
475,192,66030,1,0,0:0:0:0:
329,192,66120,128,0,66164:0:0:0:0:
402,192,66209,128,0,66253:0:0:0:0:
109,192,66298,128,0,66566:0:0:0:40:hihat2.wav
256,192,66298,128,0,66343:0:0:0:50:hihat1.wav
475,192,66298,1,0,0:0:0:0:
329,192,66387,128,0,66432:0:0:0:0:
402,192,66477,128,0,66521:0:0:0:0:
36,192,66566,1,0,0:0:0:40:hihat2.wav
182,192,66566,1,0,0:0:0:50:hihat.wav
329,192,66566,1,0,0:0:0:0:
475,192,66566,128,0,67370:0:0:0:0:
256,192,66700,1,0,0:0:0:40:hihat2.wav
36,192,66834,1,0,0:0:0:40:hihat2.wav
182,192,66834,1,0,0:0:0:0:
402,192,66834,128,0,67102:0:0:0:0:
109,192,66968,1,0,0:0:0:40:hihat2.wav
182,192,67102,1,0,0:0:0:40:hihat2.wav
256,192,67102,1,0,0:0:0:50:hihat1.wav
329,192,67102,128,0,67637:0:0:0:0:
109,192,67236,1,0,0:0:0:40:hihat2.wav
36,192,67370,1,0,0:0:0:40:hihat2.wav
182,192,67370,1,0,0:0:0:0:
402,192,67370,128,0,67637:0:0:0:0:
256,192,67503,1,0,0:0:0:40:hihat2.wav
36,192,67637,128,0,68441:0:0:0:40:hihat2.wav
109,192,67637,1,0,0:0:0:50:hihat.wav
182,192,67637,1,0,0:0:0:0:
475,192,67637,1,0,0:0:0:0:
256,192,67771,1,0,0:0:0:40:hihat2.wav
109,192,67905,128,0,68173:0:0:0:40:hihat2.wav
329,192,67905,1,0,0:0:0:0:
402,192,67905,1,0,0:0:0:0:
256,192,68039,1,0,0:0:0:40:hihat2.wav
182,192,68173,128,0,68709:0:0:0:40:hihat2.wav
402,192,68173,1,0,0:0:0:50:hihat1.wav
475,192,68173,1,0,0:0:0:0:
329,192,68240,1,0,0:0:0:0:
256,192,68307,1,0,0:0:0:40:hihat2.wav
475,192,68374,1,0,0:0:0:0:
109,192,68441,128,0,68709:0:0:0:40:hihat2.wav
402,192,68441,1,0,0:0:0:0:
329,192,68508,1,0,0:0:0:0:
256,192,68575,1,0,0:0:0:40:hihat2.wav
36,192,68709,1,0,0:0:0:40:hihat2.wav
329,192,68709,1,0,0:0:0:50:hihat.wav
402,192,68709,1,0,0:0:0:0:
475,192,68709,128,0,69512:0:0:0:0:
256,192,68843,1,0,0:0:0:40:hihat2.wav
182,192,68977,1,0,0:0:0:40:hihat2.wav
109,192,68977,1,0,0:0:0:0:
402,192,68977,128,0,69245:0:0:0:0:
256,192,69111,1,0,0:0:0:40:hihat2.wav
36,192,69245,128,0,69646:0:0:0:40:hihat2.wav
182,192,69245,1,0,0:0:0:50:hihat1.wav
329,192,69245,128,0,69780:0:0:0:0:
109,192,69378,128,0,69646:0:0:0:40:hihat2.wav
182,192,69512,128,0,69646:0:0:0:40:hihat2.wav
402,192,69512,128,0,69780:0:0:0:0:
256,192,69646,1,0,0:0:0:40:hihat2.wav
36,192,69780,128,0,70584:0:0:0:40:hihat2.wav
109,192,69780,1,0,0:0:0:50:hihat.wav
182,192,69780,1,0,0:0:0:0:
475,192,69780,1,0,0:0:0:0:
256,192,69914,1,0,0:0:0:40:hihat2.wav
109,192,70048,128,0,70316:0:0:0:40:hihat2.wav
329,192,70048,1,0,0:0:0:0:
402,192,70048,1,0,0:0:0:0:
256,192,70182,1,0,0:0:0:40:hihat2.wav
182,192,70316,128,0,70852:0:0:0:40:hihat2.wav
329,192,70316,1,0,0:0:0:50:hihat1.wav
475,192,70316,128,0,70718:0:0:0:0:
402,192,70450,128,0,70718:0:0:0:40:hihat2.wav
109,192,70584,128,0,70852:0:0:0:40:hihat2.wav
329,192,70584,128,0,70718:0:0:0:0:
256,192,70718,1,0,0:0:0:40:hihat2.wav
36,192,70852,1,0,0:0:0:40:hihat2.wav
329,192,70852,1,0,0:0:0:50:hihat.wav
402,192,70852,1,0,0:0:0:0:
475,192,70852,128,0,71655:0:0:0:0:
256,192,70986,1,0,0:0:0:40:hihat2.wav
36,192,71120,1,0,0:0:0:40:hihat2.wav
182,192,71120,1,0,0:0:0:0:
402,192,71120,128,0,71387:0:0:0:0:
109,192,71253,1,0,0:0:0:40:hihat2.wav
182,192,71387,1,0,0:0:0:40:hihat2.wav
256,192,71387,1,0,0:0:0:50:hihat1.wav
329,192,71387,128,0,72191:0:0:0:0:
109,192,71521,1,0,0:0:0:40:hihat2.wav
36,192,71655,1,0,0:0:0:40:hihat2.wav
182,192,71655,1,0,0:0:0:0:
402,192,71655,128,0,71923:0:0:0:0:
256,192,71789,1,0,0:0:0:40:hihat2.wav
36,192,71923,1,0,0:0:0:40:hihat2.wav
109,192,71923,1,0,0:0:0:50:hihat.wav
475,192,71923,128,0,72727:0:0:0:0:
182,192,72057,1,0,0:0:0:40:hihat2.wav
36,192,72191,1,0,0:0:0:40:hihat2.wav
256,192,72191,1,0,0:0:0:0:
402,192,72191,128,0,72459:0:0:0:0:
109,192,72325,1,0,0:0:0:40:hihat2.wav
182,192,72459,1,0,0:0:0:40:hihat2.wav
256,192,72459,1,0,0:0:0:50:hihat1.wav
329,192,72459,128,0,73262:0:0:0:0:
109,192,72593,1,0,0:0:0:40:hihat2.wav
36,192,72727,1,0,0:0:0:40:hihat2.wav
256,192,72727,1,0,0:0:0:0:
402,192,72727,128,0,72995:0:0:0:0:
182,192,72861,1,0,0:0:0:40:hihat2.wav
36,192,72995,128,0,73061:0:0:0:40:hihat2.wav
109,192,72995,1,0,0:0:0:50:hihat.wav
256,192,72995,1,0,0:0:0:0:
475,192,72995,128,0,73798:0:0:0:0:
182,192,73128,128,0,73195:0:0:0:40:hihat2.wav
36,192,73262,1,0,0:0:0:0:
402,192,73262,128,0,73530:0:0:0:0:
109,192,73329,1,0,0:0:0:0:
182,192,73396,128,0,73463:0:0:0:40:hihat2.wav
36,192,73530,128,0,73597:0:0:0:50:hihat.wav
256,192,73530,1,0,0:0:0:0:
329,192,73530,128,0,74334:0:0:0:0:
182,192,73664,1,0,0:0:0:40:hihat2.wav
109,192,73731,1,0,0:0:0:0:
36,192,73798,128,0,73865:0:0:0:0:
402,192,73798,128,0,74066:0:0:0:0:
109,192,73932,128,0,73999:0:0:0:40:hihat2.wav
36,192,74066,1,0,0:0:0:50:hihat.wav
256,192,74066,1,0,0:0:0:0:
475,192,74066,128,0,74870:0:0:0:0:
109,192,74133,1,0,0:0:0:0:
182,192,74200,128,0,74267:0:0:0:40:hihat2.wav
109,192,74334,128,0,74401:0:0:0:0:
402,192,74334,128,0,74602:0:0:0:0:
182,192,74468,1,0,0:0:0:40:hihat2.wav
109,192,74535,1,0,0:0:0:0:
36,192,74602,128,0,74646:0:0:0:40:hihat2.wav
256,192,74602,1,0,0:0:0:50:hihat.wav
329,192,74602,128,0,74870:0:0:0:0:
182,192,74691,128,0,74736:0:0:0:0:
109,192,74780,128,0,74825:0:0:0:0:
36,192,74870,1,0,0:0:0:40:hihat2.wav
256,192,74870,1,0,0:0:0:50:hihat1.wav
402,192,74870,128,0,75137:0:0:0:0:
182,192,74959,1,0,0:0:0:0:
109,192,75048,1,0,0:0:0:0:
36,192,75137,128,0,78352:0:0:0:40:hihat2.wav
182,192,75137,1,0,0:0:0:50:hihat.wav
256,192,75137,128,0,75405:0:0:0:0:
329,192,75137,128,0,75204:0:0:0:0:
475,192,75137,1,0,0:0:0:0:
109,192,75271,1,0,0:0:0:40:hihat2.wav
329,192,75405,128,0,75673:0:0:0:40:hihat2.wav
402,192,75405,1,0,0:0:0:0:
182,192,75539,1,0,0:0:0:40:hihat2.wav
109,192,75673,128,0,75740:0:0:0:40:hihat2.wav
402,192,75673,128,0,75941:0:0:0:50:hihat1.wav
475,192,75673,1,0,0:0:0:0:
256,192,75807,1,0,0:0:0:40:hihat2.wav
182,192,75941,128,0,76008:0:0:0:40:hihat2.wav
329,192,75941,128,0,76209:0:0:0:0:
475,192,76075,1,0,0:0:0:40:hihat2.wav
109,192,76209,1,0,0:0:0:40:hihat2.wav
256,192,76209,128,0,76477:0:0:0:50:hihat.wav
402,192,76343,1,0,0:0:0:40:hihat2.wav
182,192,76477,1,0,0:0:0:40:hihat2.wav
329,192,76477,128,0,76566:0:0:0:0:
109,192,76566,128,0,76655:0:0:0:0:
402,192,76655,128,0,76745:0:0:0:0:
182,192,76745,128,0,76834:0:0:0:40:hihat2.wav
329,192,76745,1,0,0:0:0:50:hihat1.wav
475,192,76834,128,0,76923:0:0:0:0:
256,192,76923,128,0,77012:0:0:0:0:
109,192,77012,128,0,77102:0:0:0:40:hihat2.wav
402,192,77012,1,0,0:0:0:0:
329,192,77102,128,0,77191:0:0:0:0:
475,192,77191,128,0,77280:0:0:0:0:
109,192,77280,1,0,0:0:0:40:hihat2.wav
256,192,77280,128,0,77370:0:0:0:50:hihat.wav
402,192,77370,128,0,77459:0:0:0:0:
182,192,77459,128,0,77548:0:0:0:0:
329,192,77548,128,0,77637:0:0:0:40:hihat2.wav
475,192,77548,1,0,0:0:0:0:
109,192,77637,128,0,77727:0:0:0:0:
256,192,77727,128,0,77816:0:0:0:0:
329,192,77816,1,0,0:0:0:40:hihat2.wav
475,192,77816,128,0,77905:0:0:0:50:hihat1.wav
182,192,77905,128,0,77995:0:0:0:0:
402,192,77995,128,0,78084:0:0:0:0:
109,192,78084,128,0,78173:0:0:0:40:hihat2.wav
256,192,78084,1,0,0:0:0:0:
329,192,78173,128,0,78262:0:0:0:0:
475,192,78262,128,0,78352:0:0:0:0:
109,192,78352,1,0,0:0:0:40:hihat2.wav
182,192,78352,128,0,78620:0:0:0:50:hihat.wav
402,192,78352,1,0,0:0:0:0:
329,192,78486,1,0,0:0:0:40:hihat2.wav
36,192,78620,1,0,0:0:0:40:hihat2.wav
256,192,78620,128,0,78887:0:0:0:0:
475,192,78620,1,0,0:0:0:0:
182,192,78753,1,0,0:0:0:40:hihat2.wav
109,192,78887,1,0,0:0:0:40:hihat2.wav
329,192,78887,128,0,79155:0:0:0:50:hihat1.wav
402,192,78887,1,0,0:0:0:0:
256,192,79021,1,0,0:0:0:40:hihat2.wav
36,192,79155,1,0,0:0:0:40:hihat2.wav
182,192,79155,1,0,0:0:0:0:
402,192,79155,128,0,79423:0:0:0:0:
329,192,79289,1,0,0:0:0:40:hihat2.wav
36,192,79423,1,0,0:0:0:40:hihat2.wav
109,192,79423,1,0,0:0:0:50:hihat.wav
182,192,79423,128,0,79490:0:0:0:0:
256,192,79423,128,0,79691:0:0:0:0:
475,192,79423,128,0,82637:0:0:0:0:
402,192,79557,1,0,0:0:0:40:hihat2.wav
109,192,79691,128,0,79758:0:0:0:40:hihat2.wav
182,192,79691,128,0,79959:0:0:0:0:
329,192,79825,1,0,0:0:0:40:hihat2.wav
36,192,79959,1,0,0:0:0:40:hihat2.wav
109,192,79959,128,0,80227:0:0:0:50:hihat1.wav
402,192,79959,128,0,80026:0:0:0:0:
256,192,80093,1,0,0:0:0:40:hihat2.wav
182,192,80227,128,0,80495:0:0:0:40:hihat2.wav
329,192,80227,128,0,80294:0:0:0:0:
36,192,80361,1,0,0:0:0:40:hihat2.wav
256,192,80495,128,0,80762:0:0:0:40:hihat2.wav
402,192,80495,1,0,0:0:0:50:hihat.wav
109,192,80628,1,0,0:0:0:40:hihat2.wav
182,192,80762,128,0,80852:0:0:0:40:hihat2.wav
329,192,80762,1,0,0:0:0:0:
402,192,80852,128,0,80941:0:0:0:0:
109,192,80941,128,0,81030:0:0:0:0:
182,192,81030,1,0,0:0:0:40:hihat2.wav
329,192,81030,128,0,81120:0:0:0:50:hihat1.wav
36,192,81120,128,0,81209:0:0:0:0:
256,192,81209,128,0,81298:0:0:0:0:
109,192,81298,1,0,0:0:0:40:hihat2.wav
402,192,81298,128,0,81387:0:0:0:0:
182,192,81387,128,0,81477:0:0:0:0:
36,192,81477,128,0,81566:0:0:0:0:
256,192,81566,128,0,81655:0:0:0:40:hihat2.wav
402,192,81566,1,0,0:0:0:50:hihat.wav
109,192,81655,128,0,81745:0:0:0:0:
329,192,81745,128,0,81834:0:0:0:0:
36,192,81834,1,0,0:0:0:40:hihat2.wav
182,192,81834,128,0,81923:0:0:0:0:
402,192,81923,128,0,82012:0:0:0:0:
256,192,82012,128,0,82102:0:0:0:0:
36,192,82102,128,0,82191:0:0:0:40:hihat2.wav
182,192,82102,1,0,0:0:0:50:hihat1.wav
329,192,82191,128,0,82280:0:0:0:0:
109,192,82280,128,0,82370:0:0:0:0:
256,192,82370,1,0,0:0:0:40:hihat2.wav
402,192,82370,128,0,82459:0:0:0:0:
182,192,82459,128,0,82548:0:0:0:0:
36,192,82548,128,0,82637:0:0:0:0:
109,192,82637,1,0,0:0:0:40:hihat2.wav
329,192,82637,128,0,82905:0:0:0:50:hihat.wav
402,192,82637,1,0,0:0:0:0:
182,192,82771,1,0,0:0:0:40:hihat2.wav
36,192,82905,1,0,0:0:0:40:hihat2.wav
256,192,82905,128,0,83173:0:0:0:0:
475,192,82905,128,0,82972:0:0:0:0:
329,192,83039,1,0,0:0:0:40:hihat2.wav
109,192,83173,1,0,0:0:0:40:hihat2.wav
182,192,83173,128,0,83441:0:0:0:50:hihat1.wav
402,192,83173,128,0,83240:0:0:0:0:
256,192,83307,1,0,0:0:0:40:hihat2.wav
109,192,83441,128,0,83709:0:0:0:40:hihat2.wav
329,192,83441,1,0,0:0:0:50:hihat1.wav
475,192,83441,1,0,0:0:0:0:
182,192,83575,1,0,0:0:0:40:hihat2.wav
36,192,83709,128,0,86923:0:0:0:40:hihat2.wav
256,192,83709,128,0,83977:0:0:0:50:hihat.wav
329,192,83709,128,0,83776:0:0:0:0:
402,192,83709,1,0,0:0:0:0:
475,192,83709,1,0,0:0:0:0:
109,192,83843,1,0,0:0:0:40:hihat2.wav
329,192,83977,128,0,84245:0:0:0:40:hihat2.wav
402,192,83977,128,0,84044:0:0:0:0:
182,192,84111,1,0,0:0:0:40:hihat2.wav
109,192,84245,128,0,84311:0:0:0:40:hihat2.wav
402,192,84245,128,0,84512:0:0:0:50:hihat1.wav
475,192,84245,1,0,0:0:0:0:
256,192,84378,1,0,0:0:0:40:hihat2.wav
182,192,84512,128,0,84579:0:0:0:40:hihat2.wav
329,192,84512,128,0,84780:0:0:0:0:
475,192,84646,1,0,0:0:0:40:hihat2.wav
109,192,84780,1,0,0:0:0:40:hihat2.wav
256,192,84780,128,0,85048:0:0:0:50:hihat.wav
402,192,84914,1,0,0:0:0:40:hihat2.wav
182,192,85048,1,0,0:0:0:40:hihat2.wav
329,192,85048,128,0,85137:0:0:0:0:
109,192,85137,128,0,85227:0:0:0:0:
402,192,85227,128,0,85316:0:0:0:0:
182,192,85316,128,0,85405:0:0:0:40:hihat2.wav
329,192,85316,1,0,0:0:0:50:hihat1.wav
475,192,85405,128,0,85495:0:0:0:0:
256,192,85495,128,0,85584:0:0:0:0:
109,192,85584,128,0,85673:0:0:0:40:hihat2.wav
402,192,85584,1,0,0:0:0:0:
329,192,85673,128,0,85762:0:0:0:0:
475,192,85762,128,0,85852:0:0:0:0:
109,192,85852,1,0,0:0:0:40:hihat2.wav
256,192,85852,128,0,85941:0:0:0:50:hihat.wav
402,192,85941,128,0,86030:0:0:0:0:
182,192,86030,128,0,86120:0:0:0:0:
329,192,86120,128,0,86209:0:0:0:40:hihat2.wav
475,192,86120,1,0,0:0:0:0:
109,192,86209,128,0,86298:0:0:0:0:
256,192,86298,128,0,86387:0:0:0:0:
329,192,86387,1,0,0:0:0:40:hihat2.wav
475,192,86387,128,0,86477:0:0:0:50:hihat1.wav
182,192,86477,128,0,86566:0:0:0:0:
402,192,86566,128,0,86655:0:0:0:0:
109,192,86655,128,0,86745:0:0:0:40:hihat2.wav
256,192,86655,1,0,0:0:0:0:
329,192,86745,128,0,86834:0:0:0:0:
475,192,86834,128,0,86923:0:0:0:0:
109,192,86923,1,0,0:0:0:40:hihat2.wav
182,192,86923,128,0,87191:0:0:0:50:hihat.wav
402,192,86923,1,0,0:0:0:0:
329,192,87057,1,0,0:0:0:40:hihat2.wav
36,192,87191,1,0,0:0:0:40:hihat2.wav
256,192,87191,128,0,87459:0:0:0:0:
475,192,87191,1,0,0:0:0:0:
182,192,87325,1,0,0:0:0:40:hihat2.wav
109,192,87459,1,0,0:0:0:40:hihat2.wav
329,192,87459,128,0,87727:0:0:0:50:hihat1.wav
402,192,87459,1,0,0:0:0:0:
256,192,87593,1,0,0:0:0:40:hihat2.wav
36,192,87727,1,0,0:0:0:40:hihat2.wav
182,192,87727,1,0,0:0:0:0:
402,192,87727,128,0,87995:0:0:0:0:
329,192,87861,1,0,0:0:0:40:hihat2.wav
36,192,87995,1,0,0:0:0:40:hihat2.wav
109,192,87995,1,0,0:0:0:50:hihat.wav
182,192,87995,128,0,88061:0:0:0:0:
256,192,87995,128,0,88262:0:0:0:0:
475,192,87995,128,0,91209:0:0:0:0:
402,192,88128,1,0,0:0:0:40:hihat2.wav
109,192,88262,128,0,88329:0:0:0:40:hihat2.wav
182,192,88262,128,0,88530:0:0:0:0:
329,192,88396,1,0,0:0:0:40:hihat2.wav
36,192,88530,1,0,0:0:0:40:hihat2.wav
109,192,88530,128,0,88798:0:0:0:50:hihat1.wav
402,192,88530,128,0,88597:0:0:0:0:
256,192,88664,1,0,0:0:0:40:hihat2.wav
182,192,88798,128,0,89066:0:0:0:40:hihat2.wav
329,192,88798,128,0,88865:0:0:0:0:
36,192,88932,1,0,0:0:0:40:hihat2.wav
256,192,89066,128,0,89334:0:0:0:40:hihat2.wav
402,192,89066,1,0,0:0:0:50:hihat.wav
109,192,89200,1,0,0:0:0:40:hihat2.wav
182,192,89334,128,0,89423:0:0:0:40:hihat2.wav
329,192,89334,1,0,0:0:0:0:
402,192,89423,128,0,89512:0:0:0:0:
109,192,89512,128,0,89602:0:0:0:0:
182,192,89602,1,0,0:0:0:40:hihat2.wav
329,192,89602,128,0,89691:0:0:0:50:hihat1.wav
36,192,89691,128,0,89780:0:0:0:0:
256,192,89780,128,0,89870:0:0:0:0:
109,192,89870,1,0,0:0:0:40:hihat2.wav
402,192,89870,128,0,89959:0:0:0:0:
182,192,89959,128,0,90048:0:0:0:0:
36,192,90048,128,0,90137:0:0:0:0:
256,192,90137,128,0,90227:0:0:0:40:hihat2.wav
402,192,90137,1,0,0:0:0:50:hihat.wav
109,192,90227,128,0,90316:0:0:0:0:
329,192,90316,128,0,90405:0:0:0:0:
36,192,90405,1,0,0:0:0:40:hihat2.wav
182,192,90405,128,0,90495:0:0:0:0:
402,192,90495,128,0,90584:0:0:0:0:
256,192,90584,128,0,90673:0:0:0:0:
36,192,90673,128,0,90762:0:0:0:40:hihat2.wav
182,192,90673,1,0,0:0:0:50:hihat1.wav
329,192,90762,128,0,90852:0:0:0:0:
109,192,90852,128,0,90941:0:0:0:0:
256,192,90941,1,0,0:0:0:40:hihat2.wav
402,192,90941,128,0,91030:0:0:0:0:
182,192,91030,128,0,91120:0:0:0:0:
36,192,91120,128,0,91209:0:0:0:0:
109,192,91209,1,0,0:0:0:40:hihat2.wav
329,192,91209,1,0,0:0:0:50:hihat.wav
402,192,91209,128,0,91477:0:0:0:0:
182,192,91343,1,0,0:0:0:40:hihat2.wav
36,192,91477,128,0,91544:0:0:0:40:hihat2.wav
256,192,91477,1,0,0:0:0:0:
329,192,91477,128,0,91745:0:0:0:0:
109,192,91611,1,0,0:0:0:40:hihat2.wav
36,192,91745,1,0,0:0:0:40:hihat2.wav
182,192,91745,1,0,0:0:0:50:hihat1.wav
256,192,91745,128,0,92012:0:0:0:0:
475,192,91745,128,0,91811:0:0:0:0:
329,192,91878,1,0,0:0:0:40:hihat2.wav
109,192,92012,1,0,0:0:0:40:hihat2.wav
182,192,92012,128,0,92280:0:0:0:0:
402,192,92012,128,0,92079:0:0:0:0:
256,192,92146,1,0,0:0:0:40:hihat2.wav
36,192,92280,1,0,0:0:0:0:
109,192,92280,1,0,0:0:0:0:
329,192,92280,1,0,0:0:0:0:
402,192,92280,128,0,92816:0:0:0:0:
182,192,92548,1,0,0:0:0:0:
475,192,92548,128,0,94423:0:0:0:0:
36,192,92816,128,0,94155:0:0:0:0:
256,192,92816,1,0,0:0:0:0:
109,192,93084,128,0,94155:0:0:0:0:
329,192,93084,128,0,94423:0:0:0:0:
109,192,94423,1,0,0:0:0:0:
402,192,94423,128,0,95227:0:0:0:0:
182,192,94691,1,0,0:0:0:0:
475,192,94691,128,0,95495:0:0:0:0:
36,192,94959,128,0,96298:0:0:0:0:
256,192,94959,1,0,0:0:0:0:
109,192,95227,128,0,96030:0:0:0:0:
329,192,95227,128,0,95361:0:0:0:0:
182,192,95495,128,0,95762:0:0:0:0:
402,192,95495,128,0,95628:0:0:0:0:
256,192,95762,128,0,95896:0:0:0:0:
475,192,95762,128,0,96030:0:0:0:0:
182,192,96030,128,0,96164:0:0:0:0:
402,192,96030,128,0,96298:0:0:0:0:
109,192,96298,128,0,96432:0:0:0:0:
329,192,96298,128,0,96566:0:0:0:0:
109,192,96566,1,0,0:0:0:0:
402,192,96566,128,0,97102:0:0:0:0:
182,192,96834,1,0,0:0:0:0:
475,192,96834,128,0,98709:0:0:0:0:
36,192,97102,128,0,98441:0:0:0:0:
256,192,97102,1,0,0:0:0:0:
109,192,97370,128,0,98441:0:0:0:0:
329,192,97370,128,0,98709:0:0:0:0:
109,192,98709,1,0,0:0:0:0:
402,192,98709,128,0,99512:0:0:0:0:
182,192,98977,1,0,0:0:0:0:
475,192,98977,128,0,99780:0:0:0:0:
36,192,99245,128,0,100584:0:0:0:0:
256,192,99245,1,0,0:0:0:0:
109,192,99512,128,0,100316:0:0:0:0:
329,192,99512,128,0,99646:0:0:0:0:
182,192,99780,128,0,100048:0:0:0:0:
402,192,99780,128,0,99914:0:0:0:0:
256,192,100048,128,0,100182:0:0:0:0:
475,192,100048,128,0,100316:0:0:0:0:
182,192,100316,128,0,100450:0:0:0:0:
402,192,100316,128,0,100584:0:0:0:0:
109,192,100584,128,0,100718:0:0:0:0:
329,192,100584,128,0,100852:0:0:0:0:
36,192,100852,1,0,0:0:0:0:
402,192,100852,128,0,101387:0:0:0:0:
109,192,101120,1,0,0:0:0:0:
475,192,101120,128,0,102995:0:0:0:0:
36,192,101387,128,0,102727:0:0:0:0:
182,192,101387,1,0,0:0:0:0:
109,192,101655,128,0,102727:0:0:0:0:
329,192,101655,128,0,102995:0:0:0:0:
36,192,102995,1,0,0:0:0:0:
402,192,102995,128,0,103798:0:0:0:0:
109,192,103262,1,0,0:0:0:0:
475,192,103262,128,0,104066:0:0:0:0:
36,192,103530,128,0,104870:0:0:0:0:
182,192,103530,1,0,0:0:0:0:
109,192,103798,128,0,104602:0:0:0:0:
329,192,103798,128,0,103932:0:0:0:0:
182,192,104066,128,0,104334:0:0:0:0:
402,192,104066,128,0,104200:0:0:0:0:
256,192,104334,128,0,104468:0:0:0:0:
475,192,104334,128,0,105137:0:0:0:0:
182,192,104602,128,0,104736:0:0:0:0:
402,192,104602,128,0,105137:0:0:0:0:
109,192,104870,128,0,105003:0:0:0:0:
329,192,104870,128,0,105137:0:0:0:0:
36,192,105137,128,0,107012:0:0:0:0:
182,192,105137,1,0,0:0:0:0:
109,192,105405,128,0,105941:0:0:0:0:
256,192,105405,1,0,0:0:0:0:
182,192,105673,128,0,107012:0:0:0:0:
329,192,105673,1,0,0:0:0:0:
256,192,105941,128,0,107280:0:0:0:0:
402,192,105941,128,0,107280:0:0:0:0:
36,192,107280,128,0,109155:0:0:0:0:
182,192,107280,1,0,0:0:0:0:
109,192,107548,128,0,108887:0:0:0:0:
256,192,107548,1,0,0:0:0:0:
182,192,107816,128,0,108620:0:0:0:0:
329,192,107816,1,0,0:0:0:0:
256,192,108084,128,0,108352:0:0:0:0:
402,192,108084,128,0,108218:0:0:0:0:
329,192,108352,128,0,108620:0:0:0:0:
475,192,108352,128,0,108486:0:0:0:0:
256,192,108620,128,0,108887:0:0:0:0:
402,192,108620,128,0,108753:0:0:0:0:
182,192,108887,128,0,109155:0:0:0:0:
329,192,108887,128,0,109021:0:0:0:0:
109,192,109155,128,0,109423:0:0:0:0:
256,192,109155,128,0,109289:0:0:0:0:
36,192,109423,1,0,0:0:0:0:
256,192,109423,128,0,111566:0:0:0:0:
182,192,109691,1,0,0:0:0:0:
475,192,109691,128,0,109758:0:0:0:0:
182,192,109959,128,0,110026:0:0:0:0:
329,192,109959,1,0,0:0:0:0:
402,192,110227,128,0,110294:0:0:0:0:
475,192,110227,1,0,0:0:0:0:
329,192,110495,128,0,110561:0:0:0:0:
182,192,110762,128,0,110829:0:0:0:0:
109,192,111030,128,0,111097:0:0:0:0:
36,192,111298,128,0,111365:0:0:0:0:
36,192,111566,128,0,113709:0:0:0:0:
182,192,111566,1,0,0:0:0:0:
329,192,111566,128,0,111633:0:0:0:0:
256,192,111834,128,0,111901:0:0:0:0:
402,192,111834,1,0,0:0:0:0:
329,192,112102,128,0,112169:0:0:0:0:
475,192,112102,1,0,0:0:0:0:
182,192,112370,1,0,0:0:0:0:
475,192,112370,128,0,112436:0:0:0:0:
256,192,112637,1,0,0:0:0:0:
402,192,112637,128,0,112704:0:0:0:0:
329,192,112905,128,0,112972:0:0:0:0:
256,192,113173,128,0,113240:0:0:0:0:
182,192,113441,128,0,113508:0:0:0:0:
182,192,113709,128,0,115852:0:0:0:0:
256,192,113709,1,0,0:0:0:0:
329,192,113977,1,0,0:0:0:0:
402,192,114245,1,0,0:0:0:0:
36,192,114512,1,0,0:0:0:0:
475,192,114512,1,0,0:0:0:0:
256,192,114780,1,0,0:0:0:0:
329,192,114780,1,0,0:0:0:0:
402,192,115048,1,0,0:0:0:0:
475,192,115048,1,0,0:0:0:0:
109,192,115316,1,0,0:0:0:0:
329,192,115584,1,0,0:0:0:0:
329,192,115852,128,0,116923:0:0:0:0:
475,192,115852,1,0,0:0:0:0:
402,192,116120,1,0,0:0:0:0:
256,192,116387,1,0,0:0:0:0:
182,192,116655,1,0,0:0:0:0:
36,192,116923,1,0,0:0:0:0:
475,192,116923,128,0,117995:0:0:0:0:
329,192,117191,1,0,0:0:0:0:
256,192,117459,1,0,0:0:0:0:
182,192,117727,1,0,0:0:0:0:
36,192,117995,1,0,0:0:0:0:
256,192,117995,128,0,120137:0:0:0:0:
109,192,118262,1,0,0:0:0:0:
182,192,118530,1,0,0:0:0:0:
329,192,118798,1,0,0:0:0:0:
475,192,118798,1,0,0:0:0:0:
402,192,119066,1,0,0:0:0:0:
475,192,119066,1,0,0:0:0:0:
36,192,119602,1,0,0:0:0:0:
109,192,119870,1,0,0:0:0:0:
182,192,120137,1,0,0:0:0:0:
402,192,120137,128,0,122280:0:0:0:0:
256,192,120405,1,0,0:0:0:0:
329,192,120673,1,0,0:0:0:0:
109,192,120941,1,0,0:0:0:0:
256,192,121209,1,0,0:0:0:0:
475,192,121477,1,0,0:0:0:0:
109,192,121745,1,0,0:0:0:0:
182,192,122012,128,0,122079:0:0:0:0:
36,192,122280,1,0,0:0:0:0:
109,192,122280,128,0,125495:0:0:0:0:
256,192,122280,128,0,122347:0:0:0:0:
182,192,122548,128,0,122615:0:0:0:0:
329,192,122548,1,0,0:0:0:0:
256,192,122816,128,0,122883:0:0:0:0:
402,192,122816,1,0,0:0:0:0:
329,192,123084,128,0,123151:0:0:0:0:
475,192,123084,1,0,0:0:0:0:
402,192,123620,128,0,123686:0:0:0:0:
475,192,123887,1,0,0:0:0:0:
256,192,124155,128,0,124222:0:0:0:0:
402,192,124155,1,0,0:0:0:0:
329,192,124423,128,0,124490:0:0:0:0:
402,192,124691,128,0,124758:0:0:0:0:
329,192,124959,1,0,0:0:0:0:
475,192,124959,128,0,125026:0:0:0:0:
182,192,125227,128,0,125294:0:0:0:0:
475,192,125227,1,0,0:0:0:0:
256,192,125495,1,0,0:0:0:0:
402,192,125495,128,0,125561:0:0:0:0:
182,192,125762,1,0,0:0:0:0:
329,192,125762,128,0,125829:0:0:0:0:
109,192,126030,1,0,0:0:0:0:
256,192,126030,128,0,126097:0:0:0:0:
36,192,126298,1,0,0:0:0:0:
182,192,126298,128,0,126365:0:0:0:0:
36,192,126566,1,0,0:0:0:0:
329,192,126566,1,0,0:0:0:0:
182,192,127637,1,0,0:0:0:0:
475,192,127637,1,0,0:0:0:0:
109,192,128709,1,0,0:0:0:0:
402,192,128709,1,0,0:0:0:0:
256,192,129780,1,0,0:0:0:0:
402,192,129780,1,0,0:0:0:0:
329,192,130048,1,0,0:0:0:0:
475,192,130048,1,0,0:0:0:0:
109,192,130316,1,0,0:0:0:0:
256,192,130316,1,0,0:0:0:0:
36,192,130584,1,0,0:0:0:0:
182,192,130584,1,0,0:0:0:0:
256,192,130852,1,0,0:0:0:0:
402,192,130852,1,0,0:0:0:0:
36,192,131120,1,0,0:0:0:0:
182,192,131387,1,0,0:0:0:0:
402,192,131387,1,0,0:0:0:0:
329,192,131655,1,0,0:0:0:0:
475,192,131655,1,0,0:0:0:0:
256,192,131923,1,0,0:0:0:0:
402,192,131923,1,0,0:0:0:0:
109,192,132191,1,0,0:0:0:0:
182,192,132459,1,0,0:0:0:0:
329,192,132459,1,0,0:0:0:0:
36,192,132995,1,0,0:0:0:0:
329,192,132995,1,0,0:0:0:0:
329,192,133530,1,0,0:0:0:0:
109,192,134066,1,0,0:0:0:0:
329,192,134602,1,0,0:0:0:0:
182,192,135137,128,0,135204:0:0:0:0:
329,192,135137,128,0,135204:0:0:0:0:
36,192,135405,128,0,135472:0:0:0:0:
256,192,135673,128,0,135740:0:0:0:0:
402,192,135673,128,0,135740:0:0:0:0:
36,192,135941,128,0,136008:0:0:0:0:
329,192,136209,128,0,136276:0:0:0:0:
475,192,136209,128,0,136276:0:0:0:0:
36,192,136477,128,0,136544:0:0:0:0:
256,192,136745,128,0,136811:0:0:0:0:
402,192,136745,128,0,136811:0:0:0:0:
36,192,137012,128,0,137079:0:0:0:0:
182,192,137280,128,0,137347:0:0:0:0:
475,192,137280,128,0,137347:0:0:0:0:
36,192,137548,128,0,137615:0:0:0:0:
256,192,137816,128,0,137883:0:0:0:0:
402,192,137816,128,0,137883:0:0:0:0:
36,192,138084,128,0,138151:0:0:0:0:
329,192,138352,128,0,138419:0:0:0:0:
475,192,138352,128,0,138419:0:0:0:0:
36,192,138620,128,0,138686:0:0:0:0:
109,192,138887,128,0,138954:0:0:0:0:
256,192,138887,128,0,138954:0:0:0:0:
36,192,139155,128,0,139222:0:0:0:0:
182,192,139423,1,0,0:0:0:0:
402,192,139423,1,0,0:0:0:0:
329,192,139492,1,0,0:0:0:0:
256,192,139561,1,0,0:0:0:0:
256,192,139978,128,0,140053:0:0:0:0:
402,192,139978,128,0,140053:0:0:0:0:
109,192,140278,128,0,140353:0:0:0:0:
329,192,140578,128,0,140656:0:0:0:0:
475,192,140578,128,0,140656:0:0:0:0:
109,192,140890,128,0,140968:0:0:0:0:
256,192,141203,128,0,141296:0:0:0:0:
402,192,141203,128,0,141296:0:0:0:0:
109,192,141578,128,0,141671:0:0:0:0:
329,192,141952,128,0,142049:0:0:0:0:
475,192,141952,128,0,144678:0:0:0:0:
36,192,144678,1,0,0:0:0:0:
256,192,144678,128,0,147405:0:0:0:0:
402,192,144678,1,0,0:0:0:0:
329,192,144848,1,0,0:0:0:0:
182,192,144933,1,0,0:0:0:0:
475,192,145018,1,0,0:0:0:0:
36,192,145189,1,0,0:0:0:0:
109,192,145189,1,0,0:0:0:0:
329,192,145359,1,0,0:0:0:0:
475,192,145359,1,0,0:0:0:0:
182,192,145530,1,0,0:0:0:0:
36,192,145700,1,0,0:0:0:0:
109,192,145700,1,0,0:0:0:0:
329,192,145871,1,0,0:0:0:0:
475,192,145871,1,0,0:0:0:0:
329,192,146212,1,0,0:0:0:0:
475,192,146212,1,0,0:0:0:0:
182,192,146382,1,0,0:0:0:0:
36,192,146553,1,0,0:0:0:0:
109,192,146553,1,0,0:0:0:0:
329,192,146723,1,0,0:0:0:0:
475,192,146723,1,0,0:0:0:0:
36,192,146893,1,0,0:0:0:0:
109,192,146893,1,0,0:0:0:0:
329,192,147064,1,0,0:0:0:0:
402,192,147064,1,0,0:0:0:0:
182,192,147234,1,0,0:0:0:0:
36,192,147405,1,0,0:0:0:0:
109,192,147405,1,0,0:0:0:0:
329,192,147405,128,0,148768:0:0:0:0:
182,192,147575,1,0,0:0:0:0:
36,192,147660,1,0,0:0:0:0:
475,192,147746,1,0,0:0:0:0:
36,192,147916,1,0,0:0:0:0:
109,192,147916,1,0,0:0:0:0:
256,192,148087,1,0,0:0:0:0:
475,192,148087,1,0,0:0:0:0:
182,192,148257,1,0,0:0:0:0:
36,192,148428,1,0,0:0:0:0:
109,192,148428,1,0,0:0:0:0:
256,192,148598,1,0,0:0:0:0:
475,192,148598,1,0,0:0:0:0:
182,192,148768,1,0,0:0:0:0:
402,192,148768,128,0,150132:0:0:0:0:
36,192,148939,1,0,0:0:0:0:
109,192,148939,1,0,0:0:0:0:
256,192,149109,1,0,0:0:0:0:
36,192,149280,1,0,0:0:0:0:
109,192,149280,1,0,0:0:0:0:
329,192,149450,1,0,0:0:0:0:
475,192,149450,1,0,0:0:0:0:
36,192,149621,1,0,0:0:0:0:
182,192,149621,1,0,0:0:0:0:
256,192,149791,1,0,0:0:0:0:
475,192,149791,1,0,0:0:0:0:
182,192,149962,1,0,0:0:0:0:
36,192,150132,1,0,0:0:0:0:
109,192,150132,1,0,0:0:0:0:
475,192,150132,128,0,150303:0:0:0:0:
256,192,150303,128,0,152859:0:0:0:0:
329,192,150303,1,0,0:0:0:0:
182,192,150388,1,0,0:0:0:0:
475,192,150473,1,0,0:0:0:0:
36,192,150643,1,0,0:0:0:0:
109,192,150643,1,0,0:0:0:0:
329,192,150814,1,0,0:0:0:0:
475,192,150814,1,0,0:0:0:0:
182,192,150984,1,0,0:0:0:0:
36,192,151155,1,0,0:0:0:0:
109,192,151155,1,0,0:0:0:0:
329,192,151325,1,0,0:0:0:0:
475,192,151325,1,0,0:0:0:0:
329,192,151666,1,0,0:0:0:0:
475,192,151666,1,0,0:0:0:0:
182,192,151837,1,0,0:0:0:0:
36,192,152007,1,0,0:0:0:0:
109,192,152007,1,0,0:0:0:0:
329,192,152178,1,0,0:0:0:0:
475,192,152178,1,0,0:0:0:0:
36,192,152348,1,0,0:0:0:0:
109,192,152348,1,0,0:0:0:0:
329,192,152518,1,0,0:0:0:0:
402,192,152518,1,0,0:0:0:0:
182,192,152689,1,0,0:0:0:0:
36,192,152859,128,0,153541:0:0:0:0:
109,192,152859,1,0,0:0:0:0:
402,192,152859,1,0,0:0:0:0:
329,192,153030,1,0,0:0:0:0:
182,192,153115,1,0,0:0:0:0:
475,192,153200,1,0,0:0:0:0:
109,192,153371,1,0,0:0:0:0:
256,192,153371,1,0,0:0:0:0:
182,192,153541,128,0,154223:0:0:0:0:
329,192,153541,1,0,0:0:0:0:
475,192,153541,1,0,0:0:0:0:
256,192,153712,1,0,0:0:0:0:
36,192,153882,1,0,0:0:0:0:
109,192,153882,1,0,0:0:0:0:
402,192,154053,1,0,0:0:0:0:
475,192,154053,1,0,0:0:0:0:
36,192,154223,1,0,0:0:0:0:
109,192,154223,1,0,0:0:0:0:
329,192,154223,128,0,154905:0:0:0:0:
402,192,154393,1,0,0:0:0:0:
475,192,154393,1,0,0:0:0:0:
256,192,154564,1,0,0:0:0:0:
36,192,154734,1,0,0:0:0:0:
109,192,154734,1,0,0:0:0:0:
36,192,154905,128,0,155246:0:0:0:0:
182,192,154905,1,0,0:0:0:0:
475,192,154905,128,0,155587:0:0:0:0:
109,192,155075,128,0,155416:0:0:0:0:
256,192,155075,1,0,0:0:0:0:
182,192,155246,128,0,155587:0:0:0:0:
329,192,155246,1,0,0:0:0:0:
256,192,155416,128,0,155587:0:0:0:0:
402,192,155416,1,0,0:0:0:0:
36,192,155587,128,2,158314:0:0:0:0:
109,192,155587,128,4,155757:0:0:0:0:
329,192,155587,1,0,0:0:0:0:
402,192,155587,1,0,0:0:0:0:
182,192,155757,128,0,155928:0:0:0:0:
256,192,155757,1,0,0:0:0:0:
402,192,155757,128,0,155928:0:0:0:0:
256,192,155928,128,0,156098:0:0:0:50:hihat.wav
329,192,155928,1,0,0:0:0:0:
475,192,155928,128,0,156098:0:0:0:0:
182,192,156098,1,2,0:0:0:0:
402,192,156098,1,0,0:0:0:0:
109,192,156268,1,8,0:0:0:0:
182,192,156268,128,0,156439:0:0:0:50:hihat.wav
329,192,156268,1,0,0:0:0:0:
402,192,156268,128,0,156439:0:0:0:0:
475,192,156268,1,0,0:0:0:0:
109,192,156439,128,0,156609:0:0:0:0:
256,192,156439,1,0,0:0:0:0:
329,192,156439,128,0,156609:0:0:0:0:
182,192,156609,1,0,0:0:0:50:hihat.wav
402,192,156609,1,0,0:0:0:0:
109,192,156780,128,2,157121:0:0:0:0:
256,192,156780,1,0,0:0:0:0:
329,192,156780,128,0,157121:0:0:0:0:
475,192,156780,1,0,0:0:0:0:
182,192,156950,1,0,0:0:0:50:hihat.wav
402,192,156950,1,0,0:0:0:0:
182,192,157121,128,2,157291:0:0:0:0:
256,192,157121,1,0,0:0:0:0:
402,192,157121,128,0,157291:0:0:0:0:
109,192,157291,1,0,0:0:0:50:hihat.wav
256,192,157291,128,0,157632:0:0:0:0:
329,192,157291,1,0,0:0:0:0:
475,192,157291,1,0,0:0:0:0:
109,192,157632,1,8,0:0:0:0:
182,192,157632,128,0,157803:0:0:0:50:hihat.wav
329,192,157632,1,0,0:0:0:0:
402,192,157632,128,0,157803:0:0:0:0:
475,192,157632,1,0,0:0:0:0:
256,192,157803,128,0,157973:0:0:0:0:
329,192,157803,1,0,0:0:0:0:
475,192,157803,128,0,157973:0:0:0:0:
109,192,157973,1,2,0:0:0:0:
329,192,157973,128,0,158143:0:0:0:50:hihat.wav
402,192,157973,128,0,158143:0:0:0:0:
182,192,158143,128,0,158314:0:0:0:0:
256,192,158143,128,0,158314:0:0:0:0:
475,192,158143,1,0,0:0:0:0:
109,192,158314,1,2,0:0:0:0:
329,192,158314,1,0,0:0:0:50:hihat.wav
402,192,158314,128,0,158484:0:0:0:0:
475,192,158314,128,0,159678:0:0:0:0:
109,192,158484,128,0,158655:0:0:0:0:
256,192,158484,1,0,0:0:0:0:
329,192,158484,128,0,158655:0:0:0:0:
36,192,158655,128,0,158825:0:0:0:50:hihat.wav
182,192,158655,1,0,0:0:0:0:
256,192,158655,128,0,158825:0:0:0:0:
109,192,158825,1,2,0:0:0:0:
329,192,158825,1,0,0:0:0:0:
36,192,158996,1,8,0:0:0:0:
109,192,158996,128,0,159166:0:0:0:50:hihat.wav
182,192,158996,1,0,0:0:0:0:
329,192,158996,128,0,159166:0:0:0:0:
402,192,158996,1,0,0:0:0:0:
182,192,159166,128,0,159337:0:0:0:0:
256,192,159166,1,0,0:0:0:0:
402,192,159166,128,0,159337:0:0:0:0:
109,192,159337,1,0,0:0:0:50:hihat.wav
329,192,159337,1,0,0:0:0:0:
36,192,159507,1,2,0:0:0:0:
109,192,159507,128,0,159848:0:0:0:0:
182,192,159507,1,0,0:0:0:0:
329,192,159507,128,0,159848:0:0:0:0:
182,192,159678,128,0,159848:0:0:0:50:hihat.wav
256,192,159678,1,0,0:0:0:0:
402,192,159678,128,0,161041:0:0:0:0:
36,192,159848,128,2,160018:0:0:0:0:
256,192,159848,128,0,160018:0:0:0:0:
475,192,159848,1,0,0:0:0:0:
109,192,160018,1,0,0:0:0:50:hihat.wav
182,192,160018,128,0,160359:0:0:0:0:
329,192,160018,1,0,0:0:0:0:
475,192,160018,1,0,0:0:0:0:
36,192,160359,1,8,0:0:0:0:
109,192,160359,128,0,160530:0:0:0:50:hihat.wav
256,192,160359,1,0,0:0:0:0:
329,192,160359,128,0,160530:0:0:0:0:
475,192,160359,1,0,0:0:0:0:
36,192,160530,128,0,160700:0:0:0:0:
182,192,160530,1,0,0:0:0:0:
256,192,160530,128,0,160700:0:0:0:0:
109,192,160700,128,2,160871:0:0:0:0:
182,192,160700,128,0,160871:0:0:0:50:hihat.wav
329,192,160700,1,0,0:0:0:0:
36,192,160871,1,0,0:0:0:0:
256,192,160871,128,0,161041:0:0:0:0:
329,192,160871,128,0,161041:0:0:0:0:
36,192,161041,128,2,163087:0:0:0:0:
109,192,161041,128,4,161212:0:0:0:0:
182,192,161041,1,0,0:0:0:0:
475,192,161041,1,0,0:0:0:0:
182,192,161212,128,0,161382:0:0:0:0:
256,192,161212,1,0,0:0:0:0:
402,192,161212,128,0,161382:0:0:0:0:
256,192,161382,128,0,161553:0:0:0:50:hihat.wav
329,192,161382,1,0,0:0:0:0:
475,192,161382,128,0,161553:0:0:0:0:
182,192,161553,1,2,0:0:0:0:
402,192,161553,1,0,0:0:0:0:
109,192,161723,1,8,0:0:0:0:
182,192,161723,128,0,161893:0:0:0:50:hihat.wav
329,192,161723,1,0,0:0:0:0:
402,192,161723,128,0,161893:0:0:0:0:
475,192,161723,1,0,0:0:0:0:
109,192,161893,128,0,162064:0:0:0:0:
256,192,161893,1,0,0:0:0:0:
329,192,161893,128,0,162064:0:0:0:0:
182,192,162064,1,0,0:0:0:50:hihat.wav
402,192,162064,1,0,0:0:0:0:
109,192,162234,128,2,162575:0:0:0:0:
256,192,162234,1,0,0:0:0:0:
329,192,162234,128,0,162575:0:0:0:0:
475,192,162234,1,0,0:0:0:0:
182,192,162405,1,0,0:0:0:50:hihat.wav
402,192,162405,1,0,0:0:0:0:
182,192,162575,128,2,162746:0:0:0:0:
256,192,162575,1,0,0:0:0:0:
402,192,162575,128,0,162746:0:0:0:0:
109,192,162746,1,0,0:0:0:50:hihat.wav
256,192,162746,128,0,163087:0:0:0:0:
329,192,162746,1,0,0:0:0:0:
475,192,162746,1,0,0:0:0:0:
109,192,163087,128,8,163768:0:0:0:0:
182,192,163087,128,0,163257:0:0:0:50:hihat.wav
329,192,163087,1,0,0:0:0:0:
402,192,163087,128,0,163257:0:0:0:0:
475,192,163087,1,0,0:0:0:0:
256,192,163257,128,0,163428:0:0:0:0:
329,192,163257,1,0,0:0:0:0:
475,192,163257,128,0,163428:0:0:0:0:
36,192,163428,1,2,0:0:0:0:
329,192,163428,128,0,163598:0:0:0:50:hihat.wav
402,192,163428,128,0,163598:0:0:0:0:
182,192,163598,128,0,163768:0:0:0:0:
256,192,163598,128,0,163768:0:0:0:0:
475,192,163598,1,0,0:0:0:0:
36,192,163768,1,2,0:0:0:0:
329,192,163768,1,4,0:0:0:0:
402,192,163768,128,0,163939:0:0:0:0:
475,192,163768,128,0,164450:0:0:0:0:
109,192,163939,128,0,164109:0:0:0:0:
256,192,163939,1,0,0:0:0:0:
329,192,163939,128,0,164109:0:0:0:0:
36,192,164109,128,0,164280:0:0:0:50:hihat.wav
182,192,164109,1,0,0:0:0:0:
256,192,164109,128,0,164280:0:0:0:0:
109,192,164280,1,2,0:0:0:0:
329,192,164280,1,0,0:0:0:0:
36,192,164450,1,8,0:0:0:0:
109,192,164450,128,0,164621:0:0:0:50:hihat.wav
182,192,164450,1,0,0:0:0:0:
329,192,164450,128,0,164621:0:0:0:0:
402,192,164450,128,0,165132:0:0:0:0:
182,192,164621,128,0,164791:0:0:0:0:
256,192,164621,1,0,0:0:0:0:
475,192,164621,128,0,164791:0:0:0:0:
109,192,164791,1,0,0:0:0:50:hihat.wav
329,192,164791,1,0,0:0:0:0:
36,192,164962,1,2,0:0:0:0:
256,192,164962,1,0,0:0:0:0:
109,192,165132,128,4,165303:0:0:0:0:
182,192,165132,1,0,0:0:0:50:hihat.wav
256,192,165132,128,0,165303:0:0:0:0:
329,192,165132,128,0,165814:0:0:0:0:
475,192,165132,128,0,165303:0:0:0:0:
36,192,165303,128,2,165473:0:0:0:0:
182,192,165303,128,0,165473:0:0:0:0:
402,192,165303,128,0,165473:0:0:0:0:
109,192,165473,128,0,165643:0:0:0:50:hihat.wav
256,192,165473,128,0,165643:0:0:0:0:
475,192,165473,128,0,165643:0:0:0:0:
36,192,165643,128,2,165814:0:0:0:0:
182,192,165643,1,0,0:0:0:0:
402,192,165643,128,0,165814:0:0:0:0:
109,192,165814,128,8,165984:0:0:0:0:
182,192,165814,128,0,165984:0:0:0:50:hihat.wav
256,192,165814,128,0,166155:0:0:0:0:
475,192,165814,128,0,165984:0:0:0:0:
36,192,165984,128,0,166155:0:0:0:0:
329,192,165984,1,0,0:0:0:0:
402,192,165984,128,0,166155:0:0:0:0:
109,192,166155,128,2,166325:0:0:0:0:
182,192,166155,128,0,166496:0:0:0:50:hihat.wav
329,192,166155,128,0,166325:0:0:0:0:
475,192,166155,128,0,166325:0:0:0:0:
36,192,166325,1,0,0:0:0:0:
256,192,166325,128,0,166496:0:0:0:0:
402,192,166325,128,0,166496:0:0:0:0:
36,192,166496,128,2,167689:0:0:0:0:
109,192,166496,128,4,166666:0:0:0:0:
329,192,166496,1,0,0:0:0:0:
475,192,166496,1,0,0:0:0:0:
182,192,166666,128,0,166837:0:0:0:0:
256,192,166666,1,0,0:0:0:0:
402,192,166666,128,0,166837:0:0:0:0:
256,192,166837,128,0,167007:0:0:0:50:hihat.wav
329,192,166837,1,0,0:0:0:0:
475,192,166837,128,0,167007:0:0:0:0:
182,192,167007,1,2,0:0:0:0:
402,192,167007,1,0,0:0:0:0:
109,192,167178,1,8,0:0:0:0:
182,192,167178,128,0,167348:0:0:0:50:hihat.wav
329,192,167178,1,0,0:0:0:0:
402,192,167178,128,0,167348:0:0:0:0:
475,192,167178,1,0,0:0:0:0:
109,192,167348,128,0,167518:0:0:0:0:
256,192,167348,1,0,0:0:0:0:
329,192,167348,128,0,167518:0:0:0:0:
182,192,167518,1,0,0:0:0:50:hihat.wav
402,192,167518,1,0,0:0:0:0:
109,192,167689,128,2,170587:0:0:0:0:
256,192,167689,1,0,0:0:0:0:
329,192,167689,128,0,168030:0:0:0:0:
475,192,167689,1,0,0:0:0:0:
182,192,167859,1,0,0:0:0:50:hihat.wav
402,192,167859,1,0,0:0:0:0:
182,192,168030,128,2,168200:0:0:0:0:
256,192,168030,1,0,0:0:0:0:
402,192,168030,128,0,168200:0:0:0:0:
36,192,168200,1,0,0:0:0:50:hihat.wav
256,192,168200,128,0,168541:0:0:0:0:
329,192,168200,1,0,0:0:0:0:
475,192,168200,1,0,0:0:0:0:
36,192,168541,1,8,0:0:0:0:
182,192,168541,128,0,168712:0:0:0:50:hihat.wav
329,192,168541,1,0,0:0:0:0:
402,192,168541,128,0,168712:0:0:0:0:
475,192,168541,1,0,0:0:0:0:
256,192,168712,128,0,168882:0:0:0:0:
329,192,168712,1,0,0:0:0:0:
475,192,168712,128,0,168882:0:0:0:0:
36,192,168882,1,2,0:0:0:0:
329,192,168882,128,0,169053:0:0:0:50:hihat.wav
402,192,168882,128,0,169053:0:0:0:0:
182,192,169053,128,0,169223:0:0:0:0:
256,192,169053,128,0,169223:0:0:0:0:
475,192,169053,1,0,0:0:0:0:
36,192,169223,1,2,0:0:0:0:
329,192,169223,1,0,0:0:0:50:hihat.wav
475,192,169223,1,0,0:0:0:0:
182,192,169393,128,0,169564:0:0:0:0:
256,192,169393,1,0,0:0:0:0:
402,192,169393,128,0,169564:0:0:0:0:
256,192,169564,128,0,169734:0:0:0:50:hihat.wav
329,192,169564,1,0,0:0:0:0:
475,192,169564,128,0,169734:0:0:0:0:
182,192,169734,1,2,0:0:0:0:
402,192,169734,1,0,0:0:0:0:
36,192,169905,1,8,0:0:0:0:
182,192,169905,128,0,170075:0:0:0:50:hihat.wav
329,192,169905,1,0,0:0:0:0:
402,192,169905,128,0,170075:0:0:0:0:
475,192,169905,1,0,0:0:0:0:
36,192,170075,128,0,170246:0:0:0:0:
256,192,170075,1,0,0:0:0:0:
329,192,170075,128,0,170246:0:0:0:0:
182,192,170246,1,0,0:0:0:50:hihat.wav
402,192,170246,1,0,0:0:0:0:
36,192,170416,128,2,170757:0:0:0:0:
256,192,170416,1,0,0:0:0:0:
329,192,170416,128,0,170757:0:0:0:0:
475,192,170416,1,0,0:0:0:0:
182,192,170587,1,0,0:0:0:50:hihat.wav
256,192,170587,128,0,170757:0:0:0:0:
402,192,170587,1,0,0:0:0:0:
475,192,170587,128,0,171268:0:0:0:0:
109,192,170757,128,2,170928:0:0:0:0:
182,192,170757,1,0,0:0:0:0:
402,192,170757,128,0,170928:0:0:0:0:
36,192,170928,1,0,0:0:0:50:hihat.wav
182,192,170928,1,0,0:0:0:0:
256,192,170928,128,0,171268:0:0:0:0:
329,192,170928,1,0,0:0:0:0:
36,192,171268,1,8,0:0:0:0:
109,192,171268,128,0,171439:0:0:0:50:hihat.wav
182,192,171268,1,0,0:0:0:0:
329,192,171268,128,0,171439:0:0:0:0:
402,192,171268,128,0,171950:0:0:0:0:
36,192,171439,128,0,171609:0:0:0:0:
182,192,171439,1,0,0:0:0:0:
256,192,171439,128,0,171609:0:0:0:0:
109,192,171609,128,2,171780:0:0:0:0:
182,192,171609,128,0,171780:0:0:0:50:hihat.wav
475,192,171609,1,0,0:0:0:0:
36,192,171780,1,0,0:0:0:0:
256,192,171780,128,0,171950:0:0:0:0:
329,192,171780,128,0,171950:0:0:0:0:
36,192,171950,128,2,173996:0:0:0:0:
109,192,171950,128,4,172121:0:0:0:0:
182,192,171950,1,0,0:0:0:0:
475,192,171950,1,0,0:0:0:0:
182,192,172121,128,0,172291:0:0:0:0:
256,192,172121,1,0,0:0:0:0:
402,192,172121,128,0,172291:0:0:0:0:
256,192,172291,128,0,172462:0:0:0:50:hihat.wav
329,192,172291,1,0,0:0:0:0:
475,192,172291,128,0,172462:0:0:0:0:
182,192,172462,1,2,0:0:0:0:
402,192,172462,1,0,0:0:0:0:
109,192,172632,1,8,0:0:0:0:
182,192,172632,128,0,172803:0:0:0:50:hihat.wav
329,192,172632,1,0,0:0:0:0:
402,192,172632,128,0,172803:0:0:0:0:
475,192,172632,1,0,0:0:0:0:
109,192,172803,128,0,172973:0:0:0:0:
256,192,172803,1,0,0:0:0:0:
329,192,172803,128,0,172973:0:0:0:0:
182,192,172973,1,0,0:0:0:50:hihat.wav
402,192,172973,1,0,0:0:0:0:
109,192,173143,128,2,173484:0:0:0:0:
256,192,173143,1,0,0:0:0:0:
329,192,173143,128,0,173484:0:0:0:0:
475,192,173143,1,0,0:0:0:0:
182,192,173314,1,0,0:0:0:50:hihat.wav
402,192,173314,1,0,0:0:0:0:
182,192,173484,128,2,173655:0:0:0:0:
256,192,173484,1,0,0:0:0:0:
402,192,173484,128,0,173655:0:0:0:0:
109,192,173655,1,0,0:0:0:50:hihat.wav
256,192,173655,128,0,173996:0:0:0:0:
329,192,173655,1,0,0:0:0:0:
475,192,173655,1,0,0:0:0:0:
109,192,173996,128,8,174678:0:0:0:0:
182,192,173996,128,0,174166:0:0:0:50:hihat.wav
329,192,173996,1,0,0:0:0:0:
402,192,173996,128,0,174166:0:0:0:0:
475,192,173996,1,0,0:0:0:0:
256,192,174166,128,0,174337:0:0:0:0:
329,192,174166,1,0,0:0:0:0:
475,192,174166,128,0,174337:0:0:0:0:
36,192,174337,1,2,0:0:0:0:
329,192,174337,128,0,174507:0:0:0:50:hihat.wav
402,192,174337,128,0,174507:0:0:0:0:
182,192,174507,128,0,174678:0:0:0:0:
256,192,174507,128,0,174678:0:0:0:0:
475,192,174507,1,0,0:0:0:0:
36,192,174678,1,2,0:0:0:0:
329,192,174678,1,4,0:0:0:0:
402,192,174678,128,0,174848:0:0:0:0:
475,192,174678,128,0,176041:0:0:0:0:
109,192,174848,128,0,175018:0:0:0:0:
256,192,174848,1,0,0:0:0:0:
329,192,174848,128,0,175018:0:0:0:0:
36,192,175018,128,0,175189:0:0:0:50:hihat.wav
182,192,175018,1,0,0:0:0:0:
256,192,175018,128,0,175189:0:0:0:0:
109,192,175189,1,2,0:0:0:0:
329,192,175189,1,0,0:0:0:0:
36,192,175359,1,8,0:0:0:0:
109,192,175359,128,0,175530:0:0:0:50:hihat.wav
182,192,175359,1,0,0:0:0:0:
329,192,175359,128,0,175530:0:0:0:0:
402,192,175359,1,0,0:0:0:0:
182,192,175530,128,0,175700:0:0:0:0:
256,192,175530,1,0,0:0:0:0:
402,192,175530,128,0,175700:0:0:0:0:
109,192,175700,1,0,0:0:0:50:hihat.wav
329,192,175700,1,0,0:0:0:0:
36,192,175871,1,2,0:0:0:0:
182,192,175871,1,0,0:0:0:0:
402,192,175871,1,0,0:0:0:0:
36,192,176041,128,4,176212:0:0:0:0:
256,192,176041,1,0,0:0:0:50:hihat.wav
329,192,176041,1,0,0:0:0:0:
402,192,176041,128,0,176382:0:0:0:0:
109,192,176126,128,0,176297:0:0:0:0:
182,192,176212,128,2,176382:0:0:0:0:
475,192,176212,1,0,0:0:0:0:
256,192,176297,128,0,176382:0:0:0:0:
36,192,176382,1,0,0:0:0:50:hihat.wav
109,192,176382,128,0,176553:0:0:0:0:
329,192,176382,1,0,0:0:0:0:
182,192,176467,128,0,176638:0:0:0:0:
256,192,176553,128,2,176723:0:0:0:0:
475,192,176553,1,0,0:0:0:0:
329,192,176638,128,0,176723:0:0:0:0:
36,192,176723,128,8,177064:0:0:0:0:
109,192,176723,1,0,0:0:0:50:hihat.wav
182,192,176723,1,0,0:0:0:0:
475,192,176723,128,0,176950:0:0:0:0:
402,192,176837,128,0,177064:0:0:0:0:
182,192,176893,1,0,0:0:0:0:
329,192,176950,128,0,177178:0:0:0:0:
109,192,177064,128,2,177405:0:0:0:0:
256,192,177064,1,0,0:0:0:50:hihat.wav
475,192,177064,128,0,177291:0:0:0:0:
402,192,177178,128,0,177405:0:0:0:0:
182,192,177234,1,0,0:0:0:0:
329,192,177291,128,0,177405:0:0:0:0:
36,192,177405,128,4,178428:0:0:0:0:
182,192,177405,1,2,0:0:0:0:
256,192,177405,1,0,0:0:0:0:
475,192,177405,1,0,0:0:0:0:
109,192,177746,1,0,0:0:0:50:hihat.wav
329,192,177746,1,0,0:0:0:0:
402,192,177746,1,0,0:0:0:0:
182,192,177916,1,2,0:0:0:0:
256,192,177916,1,0,0:0:0:0:
475,192,177916,1,0,0:0:0:0:
109,192,178087,1,8,0:0:0:0:
256,192,178087,1,0,0:0:0:50:hihat.wav
329,192,178087,1,0,0:0:0:0:
402,192,178087,1,0,0:0:0:0:
475,192,178087,1,0,0:0:0:0:
182,192,178428,128,0,178598:0:0:0:50:hihat.wav
402,192,178428,128,0,178598:0:0:0:0:
475,192,178428,128,0,178598:0:0:0:0:
36,192,178598,1,2,0:0:0:0:
109,192,178598,1,0,0:0:0:0:
256,192,178598,1,0,0:0:0:0:
329,192,178598,128,0,181155:0:0:0:0:
182,192,178768,1,0,0:0:0:50:hihat.wav
256,192,178768,1,0,0:0:0:0:
36,192,178939,1,2,0:0:0:0:
109,192,178939,1,0,0:0:0:0:
402,192,178939,1,0,0:0:0:0:
182,192,179109,1,0,0:0:0:50:hihat.wav
256,192,179109,1,0,0:0:0:0:
475,192,179109,1,0,0:0:0:0:
36,192,179280,1,2,0:0:0:0:
109,192,179280,1,0,0:0:0:0:
36,192,179450,1,8,0:0:0:0:
182,192,179450,1,0,0:0:0:50:hihat.wav
256,192,179450,1,0,0:0:0:0:
402,192,179450,1,0,0:0:0:0:
475,192,179450,1,0,0:0:0:0:
109,192,179791,1,2,0:0:0:0:
256,192,179791,1,0,0:0:0:50:hihat.wav
475,192,179791,1,0,0:0:0:0:
36,192,180132,1,2,0:0:0:0:
182,192,180132,1,0,0:0:0:50:hihat.wav
402,192,180132,1,0,0:0:0:0:
109,192,180473,1,0,0:0:0:50:hihat.wav
256,192,180473,1,0,0:0:0:0:
475,192,180473,1,0,0:0:0:0:
36,192,180643,1,2,0:0:0:0:
182,192,180643,1,0,0:0:0:0:
402,192,180643,1,0,0:0:0:0:
36,192,180814,1,8,0:0:0:0:
109,192,180814,1,0,0:0:0:50:hihat.wav
182,192,180814,1,0,0:0:0:0:
256,192,180814,1,0,0:0:0:0:
475,192,180814,1,0,0:0:0:0:
182,192,180984,128,0,181325:0:0:0:0:
36,192,181155,128,0,181666:0:0:0:50:hihat.wav
256,192,181155,1,0,0:0:0:0:
402,192,181155,128,0,181325:0:0:0:0:
475,192,181155,128,0,181325:0:0:0:0:
109,192,181325,1,2,0:0:0:0:
329,192,181325,1,0,0:0:0:0:
182,192,181496,128,0,181666:0:0:0:50:hihat.wav
329,192,181496,128,0,182007:0:0:0:0:
475,192,181496,128,0,181666:0:0:0:0:
256,192,181666,1,2,0:0:0:0:
402,192,181666,1,0,0:0:0:0:
36,192,181837,128,0,182007:0:0:0:50:hihat.wav
182,192,181837,128,0,182007:0:0:0:0:
475,192,181837,128,0,182178:0:0:0:0:
109,192,182007,1,2,0:0:0:0:
256,192,182007,1,0,0:0:0:0:
36,192,182178,1,8,0:0:0:0:
109,192,182178,128,0,182348:0:0:0:50:hihat.wav
182,192,182178,1,0,0:0:0:0:
256,192,182178,128,0,182689:0:0:0:0:
329,192,182178,1,0,0:0:0:0:
402,192,182178,128,0,182348:0:0:0:0:
182,192,182348,1,0,0:0:0:0:
475,192,182348,1,0,0:0:0:0:
36,192,182518,128,2,183882:0:0:0:0:
109,192,182518,1,0,0:0:0:50:hihat.wav
329,192,182518,128,0,182689:0:0:0:0:
402,192,182518,1,0,0:0:0:0:
475,192,182518,128,0,182689:0:0:0:0:
182,192,182859,1,4,0:0:0:0:
256,192,182859,1,2,0:0:0:0:
329,192,182859,1,0,0:0:0:0:
475,192,182859,1,0,0:0:0:0:
109,192,183200,1,0,0:0:0:50:hihat.wav
256,192,183200,1,0,0:0:0:0:
402,192,183200,1,0,0:0:0:0:
182,192,183371,1,2,0:0:0:0:
329,192,183371,1,0,0:0:0:0:
475,192,183371,1,0,0:0:0:0:
109,192,183541,1,8,0:0:0:0:
182,192,183541,1,0,0:0:0:50:hihat.wav
256,192,183541,1,0,0:0:0:0:
402,192,183541,1,0,0:0:0:0:
475,192,183541,1,0,0:0:0:0:
182,192,183882,128,0,184053:0:0:0:50:hihat.wav
329,192,183882,128,0,184053:0:0:0:0:
402,192,183882,128,0,184053:0:0:0:0:
36,192,184053,1,2,0:0:0:0:
109,192,184053,128,0,185587:0:0:0:0:
256,192,184053,1,0,0:0:0:0:
475,192,184053,1,0,0:0:0:0:
329,192,184223,1,0,0:0:0:50:hihat.wav
402,192,184223,1,0,0:0:0:0:
36,192,184393,1,2,0:0:0:0:
182,192,184393,1,0,0:0:0:0:
475,192,184393,1,0,0:0:0:0:
256,192,184564,1,0,0:0:0:50:hihat.wav
329,192,184564,1,0,0:0:0:0:
402,192,184564,1,0,0:0:0:0:
36,192,184734,1,2,0:0:0:0:
182,192,184734,1,0,0:0:0:0:
182,192,184905,1,8,0:0:0:0:
256,192,184905,1,0,0:0:0:50:hihat.wav
329,192,184905,1,0,0:0:0:0:
402,192,184905,1,0,0:0:0:0:
475,192,184905,1,0,0:0:0:0:
36,192,185246,1,2,0:0:0:0:
182,192,185246,1,0,0:0:0:50:hihat.wav
329,192,185246,1,0,0:0:0:0:
475,192,185246,1,0,0:0:0:0:
36,192,185587,1,4,0:0:0:0:
256,192,185587,128,2,185928:0:0:0:0:
329,192,185587,1,0,0:0:0:0:
402,192,185587,1,0,0:0:0:0:
475,192,185587,1,0,0:0:0:0:
36,192,185757,128,0,185928:0:0:0:0:
182,192,185757,1,0,0:0:0:0:
109,192,185928,1,0,0:0:0:50:hihat.wav
329,192,185928,128,0,186268:0:0:0:0:
402,192,185928,1,0,0:0:0:0:
109,192,186098,128,2,186268:0:0:0:0:
256,192,186098,1,0,0:0:0:0:
36,192,186268,1,8,0:0:0:0:
182,192,186268,1,0,0:0:0:50:hihat.wav
256,192,186268,1,0,0:0:0:0:
402,192,186268,128,0,186609:0:0:0:0:
475,192,186268,1,0,0:0:0:0:
182,192,186439,128,0,186609:0:0:0:0:
329,192,186439,1,0,0:0:0:0:
36,192,186609,1,0,0:0:0:50:hihat.wav
256,192,186609,1,0,0:0:0:0:
475,192,186609,128,0,186950:0:0:0:0:
182,192,186780,1,2,0:0:0:0:
256,192,186780,128,0,186950:0:0:0:0:
402,192,186780,1,0,0:0:0:0:
36,192,186950,1,0,0:0:0:0:
109,192,186950,128,0,187178:0:0:0:50:hihat.wav
329,192,186950,1,0,0:0:0:0:
256,192,187064,128,0,187291:0:0:0:0:
475,192,187064,1,0,0:0:0:0:
182,192,187178,1,0,0:0:0:0:
402,192,187178,128,0,187405:0:0:0:0:
36,192,187291,128,0,187405:0:0:0:50:hihat.wav
329,192,187291,1,0,0:0:0:0:
182,192,187405,128,0,187518:0:0:0:0:
475,192,187405,1,0,0:0:0:0:
109,192,187518,1,0,0:0:0:0:
329,192,187518,128,0,187632:0:0:0:0:
36,192,187632,1,8,0:0:0:0:
256,192,187632,1,0,0:0:0:50:hihat.wav
402,192,187632,1,0,0:0:0:0:
475,192,187632,1,0,0:0:0:0:
182,192,187717,1,0,0:0:0:0:
329,192,187717,1,0,0:0:0:0:
109,192,187803,128,0,187973:0:0:0:0:
256,192,187803,128,0,187973:0:0:0:0:
475,192,187803,128,0,188314:0:0:0:0:
36,192,187973,1,2,0:0:0:0:
182,192,187973,1,0,0:0:0:50:hihat.wav
329,192,187973,1,0,0:0:0:0:
109,192,188143,1,0,0:0:0:0:
256,192,188143,1,0,0:0:0:0:
402,192,188143,1,0,0:0:0:0:
329,192,188229,1,0,0:0:0:0:
36,192,188314,128,2,188996:0:0:0:0:
109,192,188314,1,4,0:0:0:0:
182,192,188314,1,0,0:0:0:0:
256,192,188314,1,0,0:0:0:0:
402,192,188314,1,0,0:0:0:0:
109,192,188655,1,0,0:0:0:50:hihat.wav
329,192,188655,1,0,0:0:0:0:
475,192,188655,1,0,0:0:0:0:
182,192,188825,128,2,189507:0:0:0:0:
256,192,188825,1,0,0:0:0:0:
402,192,188825,1,0,0:0:0:0:
109,192,188996,1,8,0:0:0:0:
256,192,188996,1,0,0:0:0:50:hihat.wav
329,192,188996,1,0,0:0:0:0:
402,192,188996,1,0,0:0:0:0:
475,192,188996,1,0,0:0:0:0:
256,192,189337,1,0,0:0:0:50:hihat.wav
329,192,189337,128,0,190359:0:0:0:0:
475,192,189337,1,0,0:0:0:0:
36,192,189507,1,2,0:0:0:0:
109,192,189507,1,0,0:0:0:0:
402,192,189507,1,0,0:0:0:0:
182,192,189678,1,0,0:0:0:50:hihat.wav
475,192,189678,1,0,0:0:0:0:
36,192,189848,1,2,0:0:0:0:
109,192,189848,1,0,0:0:0:0:
256,192,189848,1,0,0:0:0:0:
182,192,190018,1,0,0:0:0:50:hihat.wav
402,192,190018,1,0,0:0:0:0:
475,192,190018,1,0,0:0:0:0:
36,192,190189,1,2,0:0:0:0:
109,192,190189,1,0,0:0:0:0:
36,192,190359,1,8,0:0:0:0:
109,192,190359,1,0,0:0:0:50:hihat.wav
182,192,190359,1,0,0:0:0:0:
256,192,190359,1,0,0:0:0:0:
475,192,190359,1,0,0:0:0:0:
182,192,190530,1,0,0:0:0:0:
402,192,190530,1,0,0:0:0:0:
475,192,190530,128,0,190871:0:0:0:0:
36,192,190700,1,2,0:0:0:0:
109,192,190700,1,0,0:0:0:50:hihat.wav
256,192,190700,1,0,0:0:0:0:
329,192,190700,128,0,191041:0:0:0:0:
182,192,190871,128,0,191723:0:0:0:0:
256,192,190871,1,0,0:0:0:0:
402,192,190871,1,0,0:0:0:0:
36,192,191041,1,2,0:0:0:0:
109,192,191041,1,0,0:0:0:50:hihat.wav
475,192,191041,1,0,0:0:0:0:
256,192,191382,1,0,0:0:0:50:hihat.wav
402,192,191382,1,0,0:0:0:0:
475,192,191382,1,0,0:0:0:0:
36,192,191553,1,2,0:0:0:0:
329,192,191553,1,0,0:0:0:0:
36,192,191723,1,8,0:0:0:0:
109,192,191723,1,0,0:0:0:50:hihat.wav
256,192,191723,1,0,0:0:0:0:
402,192,191723,1,0,0:0:0:0:
475,192,191723,1,0,0:0:0:0:
109,192,191893,1,0,0:0:0:0:
329,192,191893,1,0,0:0:0:0:
402,192,191893,128,0,192234:0:0:0:0:
36,192,192064,1,0,0:0:0:50:hihat.wav
182,192,192064,1,0,0:0:0:0:
256,192,192064,128,0,192405:0:0:0:0:
36,192,192234,1,2,0:0:0:0:
109,192,192234,128,0,192575:0:0:0:0:
329,192,192234,1,0,0:0:0:0:
475,192,192234,1,0,0:0:0:0:
182,192,192405,1,0,0:0:0:50:hihat.wav
402,192,192405,1,0,0:0:0:0:
36,192,192575,128,2,192916:0:0:0:0:
256,192,192575,1,0,0:0:0:0:
475,192,192575,1,0,0:0:0:0:
109,192,192746,1,0,0:0:0:50:hihat.wav
182,192,192746,128,0,193087:0:0:0:0:
329,192,192746,1,0,0:0:0:0:
402,192,192746,1,0,0:0:0:0:
256,192,192916,1,2,0:0:0:0:
402,192,192916,128,0,193257:0:0:0:0:
36,192,193087,1,8,0:0:0:0:
109,192,193087,1,0,0:0:0:50:hihat.wav
256,192,193087,1,0,0:0:0:0:
329,192,193087,1,0,0:0:0:0:
475,192,193087,1,0,0:0:0:0:
182,192,193257,1,0,0:0:0:0:
329,192,193257,128,0,193428:0:0:0:0:
36,192,193428,1,2,0:0:0:0:
182,192,193428,128,0,193598:0:0:0:50:hihat.wav
256,192,193428,1,0,0:0:0:0:
475,192,193428,1,0,0:0:0:0:
109,192,193598,1,0,0:0:0:0:
329,192,193598,128,0,193768:0:0:0:0:
36,192,193768,1,2,0:0:0:0:
109,192,193768,1,4,0:0:0:0:
182,192,193768,128,0,193939:0:0:0:0:
256,192,193768,1,0,0:0:0:0:
402,192,193768,1,0,0:0:0:0:
475,192,193768,1,0,0:0:0:0:
329,192,193939,128,0,194109:0:0:0:0:
475,192,193939,1,0,0:0:0:0:
36,192,194109,1,0,0:0:0:50:hihat.wav
182,192,194109,128,0,194280:0:0:0:0:
256,192,194109,1,0,0:0:0:0:
402,192,194109,1,0,0:0:0:0:
109,192,194280,128,2,194621:0:0:0:0:
256,192,194280,1,0,0:0:0:0:
329,192,194280,1,0,0:0:0:0:
475,192,194280,1,0,0:0:0:0:
36,192,194450,1,8,0:0:0:0:
182,192,194450,1,0,0:0:0:50:hihat.wav
329,192,194450,1,0,0:0:0:0:
402,192,194450,1,0,0:0:0:0:
475,192,194450,1,0,0:0:0:0:
256,192,194621,128,0,194962:0:0:0:0:
402,192,194621,1,0,0:0:0:0:
36,192,194791,1,0,0:0:0:50:hihat.wav
109,192,194791,1,0,0:0:0:0:
475,192,194791,128,0,195132:0:0:0:0:
109,192,194962,1,2,0:0:0:0:
182,192,194962,1,0,0:0:0:0:
329,192,194962,128,0,195303:0:0:0:0:
402,192,194962,1,0,0:0:0:0:
36,192,195132,1,0,0:0:0:50:hihat.wav
256,192,195132,1,0,0:0:0:0:
182,192,195303,128,2,195643:0:0:0:0:
402,192,195303,1,0,0:0:0:0:
475,192,195303,1,0,0:0:0:0:
109,192,195473,1,0,0:0:0:50:hihat.wav
329,192,195473,1,0,0:0:0:0:
475,192,195473,1,0,0:0:0:0:
36,192,195643,128,2,195984:0:0:0:0:
256,192,195643,1,0,0:0:0:0:
402,192,195643,1,0,0:0:0:0:
109,192,195814,1,8,0:0:0:0:
182,192,195814,1,0,0:0:0:50:hihat.wav
256,192,195814,1,0,0:0:0:0:
329,192,195814,1,0,0:0:0:0:
475,192,195814,1,0,0:0:0:0:
182,192,195984,1,0,0:0:0:0:
402,192,195984,128,0,196155:0:0:0:0:
36,192,196155,1,2,0:0:0:0:
109,192,196155,1,0,0:0:0:50:hihat.wav
256,192,196155,128,0,196325:0:0:0:0:
329,192,196155,1,0,0:0:0:0:
475,192,196155,1,0,0:0:0:0:
182,192,196325,1,0,0:0:0:0:
402,192,196325,128,0,196666:0:0:0:0:
36,192,196496,1,2,0:0:0:0:
109,192,196496,1,4,0:0:0:0:
256,192,196496,128,0,196837:0:0:0:50:hihat.wav
475,192,196496,1,0,0:0:0:0:
109,192,196666,128,0,197007:0:0:0:0:
182,192,196666,1,0,0:0:0:0:
329,192,196666,1,0,0:0:0:0:
36,192,196837,128,0,197178:0:0:0:50:hihat.wav
329,192,196837,1,0,0:0:0:0:
402,192,196837,1,0,0:0:0:0:
475,192,196837,1,0,0:0:0:0:
182,192,197007,1,2,0:0:0:0:
256,192,197007,1,0,0:0:0:0:
329,192,197007,128,0,197348:0:0:0:0:
475,192,197007,1,0,0:0:0:0:
109,192,197178,1,8,0:0:0:0:
182,192,197178,128,0,197518:0:0:0:50:hihat.wav
256,192,197178,1,0,0:0:0:0:
402,192,197178,1,0,0:0:0:0:
475,192,197178,1,0,0:0:0:0:
36,192,197348,128,0,197689:0:0:0:0:
109,192,197348,1,0,0:0:0:0:
402,192,197348,1,0,0:0:0:0:
256,192,197518,1,0,0:0:0:50:hihat.wav
329,192,197518,128,0,197859:0:0:0:0:
475,192,197518,1,0,0:0:0:0:
109,192,197689,1,2,0:0:0:0:
182,192,197689,1,4,0:0:0:0:
256,192,197689,128,0,198285:0:0:0:0:
402,192,197689,1,0,0:0:0:0:
475,192,197689,1,0,0:0:0:0:
36,192,198030,1,2,0:0:0:0:
182,192,198030,128,8,198115:0:0:0:0:
402,192,198030,128,0,198115:0:0:0:0:
475,192,198030,1,0,0:0:0:0:
36,192,198200,128,2,198456:0:0:0:0:
109,192,198200,128,8,198285:0:0:0:0:
182,192,198200,1,0,0:0:0:0:
329,192,198200,1,0,0:0:0:0:
475,192,198200,128,0,198371:0:0:0:0:
402,192,198285,1,0,0:0:0:0:
109,192,198371,1,2,0:0:0:0:
182,192,198371,128,8,198541:0:0:0:0:
329,192,198371,1,0,0:0:0:0:
256,192,198456,1,0,0:0:0:0:
402,192,198456,128,0,198626:0:0:0:0:
36,192,198541,128,2,198797:0:0:0:0:
329,192,198541,1,8,0:0:0:0:
475,192,198541,1,0,0:0:0:0:
109,192,198626,128,0,198797:0:0:0:0:
256,192,198626,1,0,0:0:0:0:
182,192,198712,128,2,198797:0:0:0:0:
329,192,198712,1,8,0:0:0:0:
475,192,198712,128,0,198882:0:0:0:0:
256,192,198797,1,0,0:0:0:0:
402,192,198797,128,0,198967:0:0:0:0:
36,192,198882,128,2,199053:0:0:0:0:
182,192,198882,1,8,0:0:0:0:
329,192,198882,128,0,199053:0:0:0:0:
109,192,198967,128,2,199138:0:0:0:0:
256,192,198967,1,0,0:0:0:0:
182,192,199053,128,8,199223:0:0:0:0:
402,192,199053,1,2,0:0:0:0:
475,192,199053,1,0,0:0:0:0:
256,192,199138,128,10,199223:0:0:0:0:
36,192,199223,1,2,0:0:0:0:
109,192,199223,1,4,0:0:0:0:
329,192,199223,1,0,0:0:0:0:
402,192,199223,1,0,0:0:0:0:
475,192,199223,128,0,200416:0:0:0:0:
182,192,199393,1,0,0:0:0:0:
329,192,199393,1,0,0:0:0:0:
36,192,199564,1,8,0:0:0:0:
109,192,199564,1,0,0:0:0:50:hihat.wav
256,192,199564,1,0,0:0:0:0:
402,192,199564,1,0,0:0:0:0:
36,192,199905,1,2,0:0:0:0:
256,192,199905,1,0,0:0:0:50:hihat.wav
402,192,199905,1,0,0:0:0:0:
109,192,200075,1,2,0:0:0:0:
182,192,200075,1,0,0:0:0:0:
36,192,200246,1,8,0:0:0:0:
182,192,200246,1,0,0:0:0:50:hihat.wav
256,192,200246,1,0,0:0:0:0:
329,192,200246,128,0,200587:0:0:0:0:
402,192,200246,1,0,0:0:0:0:
36,192,200416,1,2,0:0:0:0:
109,192,200416,1,0,0:0:0:0:
182,192,200416,128,0,201609:0:0:0:0:
402,192,200416,1,0,0:0:0:0:
256,192,200587,1,0,0:0:0:50:hihat.wav
475,192,200587,1,0,0:0:0:0:
109,192,200757,1,2,0:0:0:0:
329,192,200757,1,0,0:0:0:0:
402,192,200757,1,0,0:0:0:0:
36,192,200928,1,8,0:0:0:0:
256,192,200928,1,0,0:0:0:50:hihat.wav
402,192,200928,1,0,0:0:0:0:
475,192,200928,1,0,0:0:0:0:
329,192,201098,1,8,0:0:0:0:
475,192,201098,1,0,0:0:0:0:
109,192,201183,1,8,0:0:0:0:
256,192,201183,1,0,0:0:0:0:
36,192,201268,1,2,0:0:0:0:
402,192,201268,1,0,0:0:0:50:hihat.wav
475,192,201268,1,0,0:0:0:0:
109,192,201439,1,2,0:0:0:0:
329,192,201439,1,0,0:0:0:0:
402,192,201439,128,0,201950:0:0:0:0:
36,192,201609,1,8,0:0:0:0:
256,192,201609,1,0,0:0:0:50:hihat.wav
329,192,201609,1,0,0:0:0:0:
475,192,201609,1,0,0:0:0:0:
109,192,201780,1,2,0:0:0:0:
182,192,201780,1,0,0:0:0:0:
256,192,201780,128,0,202121:0:0:0:0:
36,192,201950,1,2,0:0:0:0:
109,192,201950,128,4,202291:0:0:0:0:
475,192,201950,1,0,0:0:0:0:
329,192,202121,128,0,202462:0:0:0:0:
402,192,202121,1,0,0:0:0:0:
36,192,202291,1,8,0:0:0:0:
182,192,202291,128,0,202632:0:0:0:50:hihat.wav
256,192,202291,1,0,0:0:0:0:
402,192,202291,1,0,0:0:0:0:
475,192,202291,1,0,0:0:0:0:
36,192,202462,128,0,202973:0:0:0:0:
329,192,202632,1,2,0:0:0:0:
475,192,202632,1,0,0:0:0:50:hihat.wav
182,192,202803,128,2,203143:0:0:0:0:
256,192,202803,1,0,0:0:0:0:
402,192,202803,1,0,0:0:0:0:
109,192,202973,1,8,0:0:0:0:
256,192,202973,1,0,0:0:0:50:hihat.wav
329,192,202973,1,0,0:0:0:0:
402,192,202973,1,0,0:0:0:0:
475,192,202973,128,0,203314:0:0:0:0:
36,192,203143,1,2,0:0:0:0:
109,192,203143,1,4,0:0:0:0:
329,192,203143,128,0,203655:0:0:0:0:
182,192,203314,1,0,0:0:0:50:hihat.wav
402,192,203314,1,0,0:0:0:0:
36,192,203484,1,2,0:0:0:0:
182,192,203484,128,0,203996:0:0:0:0:
475,192,203484,1,0,0:0:0:0:
36,192,203655,1,8,0:0:0:0:
109,192,203655,1,0,0:0:0:50:hihat.wav
256,192,203655,1,0,0:0:0:0:
402,192,203655,1,0,0:0:0:0:
36,192,203825,128,0,204337:0:0:0:0:
329,192,203825,1,0,0:0:0:0:
475,192,203825,1,0,0:0:0:0:
109,192,203996,1,2,0:0:0:0:
256,192,203996,1,0,0:0:0:50:hihat.wav
402,192,203996,1,0,0:0:0:0:
182,192,204166,1,2,0:0:0:0:
329,192,204166,128,0,204507:0:0:0:0:
475,192,204166,1,0,0:0:0:0:
109,192,204337,128,8,204678:0:0:0:0:
182,192,204337,1,0,0:0:0:50:hihat.wav
256,192,204337,1,0,0:0:0:0:
402,192,204337,1,0,0:0:0:0:
475,192,204337,1,0,0:0:0:0:
402,192,204507,128,2,204848:0:0:0:0:
36,192,204678,1,2,0:0:0:0:
182,192,204678,128,4,204848:0:0:0:0:
329,192,204678,1,0,0:0:0:0:
475,192,204678,1,0,0:0:0:0:
256,192,204763,128,0,204933:0:0:0:0:
329,192,204848,128,0,205189:0:0:0:0:
36,192,205018,1,8,0:0:0:0:
109,192,205018,1,0,0:0:0:50:hihat.wav
182,192,205018,128,0,205359:0:0:0:0:
402,192,205018,1,0,0:0:0:0:
475,192,205018,1,0,0:0:0:0:
109,192,205189,1,8,0:0:0:0:
256,192,205189,1,0,0:0:0:0:
402,192,205189,128,0,205530:0:0:0:0:
36,192,205359,1,2,0:0:0:0:
256,192,205359,128,0,205700:0:0:0:50:hihat.wav
329,192,205359,1,0,0:0:0:0:
109,192,205530,128,2,205871:0:0:0:0:
182,192,205530,1,0,0:0:0:0:
475,192,205530,1,0,0:0:0:0:
36,192,205700,1,8,0:0:0:0:
182,192,205700,1,0,0:0:0:50:hihat.wav
329,192,205700,128,0,206041:0:0:0:0:
402,192,205700,1,0,0:0:0:0:
475,192,205700,1,0,0:0:0:0:
182,192,205871,128,2,206212:0:0:0:0:
256,192,205871,1,0,0:0:0:0:
475,192,205871,1,0,0:0:0:0:
36,192,206041,128,0,206382:0:0:0:50:hihat.wav
109,192,206041,1,0,0:0:0:0:
402,192,206041,1,0,0:0:0:0:
256,192,206212,128,2,206382:0:0:0:0:
329,192,206212,1,0,0:0:0:0:
475,192,206212,1,0,0:0:0:0:
109,192,206382,1,8,0:0:0:0:
182,192,206382,1,0,0:0:0:50:hihat.wav
329,192,206382,128,0,206467:0:0:0:0:
402,192,206382,1,0,0:0:0:0:
475,192,206382,128,0,206723:0:0:0:0:
36,192,206553,1,8,0:0:0:0:
256,192,206553,128,0,206638:0:0:0:0:
402,192,206553,128,0,206893:0:0:0:0:
109,192,206638,1,8,0:0:0:0:
182,192,206723,128,2,206808:0:0:0:0:
329,192,206723,128,0,207064:0:0:0:50:hihat.wav
109,192,206893,128,2,206979:0:0:0:0:
256,192,206893,128,0,207234:0:0:0:0:
475,192,206893,1,0,0:0:0:0:
36,192,207064,128,8,207149:0:0:0:0:
109,192,207064,1,0,0:0:0:50:hihat.wav
182,192,207064,128,0,207405:0:0:0:0:
402,192,207064,1,0,0:0:0:0:
475,192,207064,128,0,207149:0:0:0:0:
109,192,207234,128,2,207405:0:0:0:0:
329,192,207234,1,0,0:0:0:0:
402,192,207234,128,0,207320:0:0:0:0:
36,192,207405,128,2,207575:0:0:0:0:
329,192,207405,128,4,207575:0:0:0:0:
402,192,207405,1,0,0:0:0:0:
475,192,207405,128,0,207490:0:0:0:0:
182,192,207490,128,0,207575:0:0:0:0:
256,192,207490,1,0,0:0:0:0:
109,192,207575,128,0,207746:0:0:0:0:
402,192,207575,128,0,207746:0:0:0:0:
475,192,207575,1,0,0:0:0:0:
256,192,207660,128,0,207746:0:0:0:0:
329,192,207660,1,0,0:0:0:0:
36,192,207746,128,8,207831:0:0:0:0:
182,192,207746,128,0,207916:0:0:0:50:hihat.wav
475,192,207746,128,0,207916:0:0:0:0:
329,192,207831,128,0,207916:0:0:0:0:
402,192,207831,1,0,0:0:0:0:
36,192,207916,1,0,0:0:0:0:
109,192,207916,128,0,208001:0:0:0:0:
256,192,207916,128,0,208087:0:0:0:0:
329,192,208001,1,0,0:0:0:0:
402,192,208001,128,0,208087:0:0:0:0:
36,192,208087,128,2,208172:0:0:0:0:
109,192,208087,1,0,0:0:0:50:hihat.wav
182,192,208087,128,0,208257:0:0:0:0:
475,192,208087,128,0,208257:0:0:0:0:
256,192,208172,1,0,0:0:0:0:
329,192,208172,128,0,208257:0:0:0:0:
36,192,208257,1,2,0:0:0:0:
109,192,208257,128,0,208428:0:0:0:0:
402,192,208257,128,0,208428:0:0:0:0:
182,192,208342,1,0,0:0:0:0:
256,192,208342,128,0,208428:0:0:0:0:
36,192,208428,128,8,208598:0:0:0:0:
329,192,208428,128,0,208598:0:0:0:50:hihat.wav
475,192,208428,128,0,208513:0:0:0:0:
109,192,208513,1,0,0:0:0:0:
182,192,208513,128,0,208598:0:0:0:0:
256,192,208598,128,2,208768:0:0:0:0:
402,192,208598,128,4,208683:0:0:0:0:
475,192,208598,1,0,0:0:0:0:
109,192,208683,128,0,208768:0:0:0:0:
182,192,208683,1,0,0:0:0:0:
36,192,208768,128,0,208939:0:0:0:50:hihat.wav
329,192,208768,128,0,208854:0:0:0:0:
402,192,208768,1,0,0:0:0:0:
475,192,208768,128,0,208939:0:0:0:0:
109,192,208854,1,0,0:0:0:0:
256,192,208854,128,0,208939:0:0:0:0:
182,192,208939,128,2,209024:0:0:0:0:
329,192,208939,1,0,0:0:0:0:
402,192,208939,128,0,209109:0:0:0:0:
109,192,209024,128,0,209109:0:0:0:0:
256,192,209024,1,0,0:0:0:0:
36,192,209109,128,8,209280:0:0:0:0:
182,192,209109,128,0,209195:0:0:0:50:hihat.wav
329,192,209109,1,0,0:0:0:0:
475,192,209109,128,0,209280:0:0:0:0:
256,192,209195,128,0,209280:0:0:0:0:
402,192,209195,1,0,0:0:0:0:
109,192,209280,128,8,209450:0:0:0:0:
182,192,209280,1,0,0:0:0:0:
329,192,209280,128,0,209365:0:0:0:0:
256,192,209365,1,8,0:0:0:0:
402,192,209365,128,0,209450:0:0:0:0:
182,192,209450,128,2,209621:0:0:0:0:
329,192,209450,1,0,0:0:0:50:hihat.wav
475,192,209450,128,0,209535:0:0:0:0:
109,192,209535,1,0,0:0:0:0:
402,192,209535,128,0,209621:0:0:0:0:
36,192,209621,128,2,209791:0:0:0:0:
256,192,209621,128,0,209706:0:0:0:0:
329,192,209621,128,0,209791:0:0:0:0:
109,192,209706,1,8,0:0:0:0:
402,192,209706,1,0,0:0:0:0:
182,192,209791,128,8,209876:0:0:0:0:
256,192,209791,128,0,209962:0:0:0:50:hihat.wav
475,192,209791,128,0,209876:0:0:0:0:
36,192,209876,1,8,0:0:0:0:
329,192,209876,1,0,0:0:0:0:
109,192,209962,128,2,210047:0:0:0:0:
182,192,209962,128,0,210132:0:0:0:0:
402,192,209962,128,0,210047:0:0:0:0:
475,192,209962,1,0,0:0:0:0:
256,192,210047,1,2,0:0:0:0:
36,192,210132,1,2,0:0:0:0:
109,192,210132,1,4,0:0:0:0:
329,192,210132,128,0,210814:0:0:0:0:
402,192,210132,1,0,0:0:0:0:
475,192,210132,1,0,0:0:0:0:
109,192,210303,1,0,0:0:0:0:
256,192,210303,1,0,0:0:0:0:
36,192,210473,1,8,0:0:0:0:
182,192,210473,1,0,0:0:0:50:hihat.wav
402,192,210473,1,0,0:0:0:0:
475,192,210473,1,0,0:0:0:0:
109,192,210643,128,0,211325:0:0:0:0:
402,192,210643,1,0,0:0:0:0:
36,192,210814,1,2,0:0:0:0:
182,192,210814,1,0,0:0:0:50:hihat.wav
475,192,210814,1,0,0:0:0:0:
329,192,210984,1,2,0:0:0:0:
402,192,210984,1,0,0:0:0:0:
36,192,211155,1,8,0:0:0:0:
182,192,211155,1,0,0:0:0:50:hihat.wav
256,192,211155,128,0,212178:0:0:0:0:
402,192,211155,1,0,0:0:0:0:
475,192,211155,1,0,0:0:0:0:
329,192,211325,1,2,0:0:0:0:
475,192,211325,1,0,0:0:0:0:
36,192,211496,1,0,0:0:0:50:hihat.wav
109,192,211496,1,0,0:0:0:0:
109,192,211666,1,2,0:0:0:0:
329,192,211666,1,0,0:0:0:0:
402,192,211666,1,0,0:0:0:0:
36,192,211837,1,8,0:0:0:0:
182,192,211837,1,0,0:0:0:50:hihat.wav
329,192,211837,1,0,0:0:0:0:
475,192,211837,1,0,0:0:0:0:
109,192,212007,1,8,0:0:0:0:
182,192,212007,1,0,0:0:0:0:
402,192,212092,1,8,0:0:0:0:
475,192,212092,1,0,0:0:0:0:
36,192,212178,1,2,0:0:0:0:
109,192,212178,1,0,0:0:0:50:hihat.wav
329,192,212178,1,0,0:0:0:0:
256,192,212348,1,2,0:0:0:0:
402,192,212348,1,0,0:0:0:0:
475,192,212348,128,0,212689:0:0:0:0:
36,192,212518,1,8,0:0:0:0:
109,192,212518,1,0,0:0:0:50:hihat.wav
182,192,212518,1,0,0:0:0:0:
329,192,212518,128,0,212859:0:0:0:0:
402,192,212518,1,0,0:0:0:0:
36,192,212689,1,2,0:0:0:0:
182,192,212689,128,0,213541:0:0:0:0:
256,192,212689,1,0,0:0:0:0:
109,192,212859,1,2,0:0:0:0:
402,192,212859,1,4,0:0:0:0:
475,192,212859,1,0,0:0:0:0:
109,192,213200,1,8,0:0:0:0:
256,192,213200,1,0,0:0:0:50:hihat.wav
402,192,213200,1,0,0:0:0:0:
475,192,213200,1,0,0:0:0:0:
36,192,213371,1,0,0:0:0:0:
329,192,213371,1,0,0:0:0:0:
109,192,213541,1,2,0:0:0:0:
256,192,213541,1,0,0:0:0:50:hihat.wav
475,192,213541,1,0,0:0:0:0:
182,192,213712,1,2,0:0:0:0:
329,192,213712,1,0,0:0:0:0:
402,192,213712,128,0,214053:0:0:0:0:
36,192,213882,1,8,0:0:0:0:
109,192,213882,1,0,0:0:0:50:hihat.wav
256,192,213882,128,0,214223:0:0:0:0:
329,192,213882,1,0,0:0:0:0:
475,192,213882,1,0,0:0:0:0:
36,192,214053,1,2,0:0:0:0:
109,192,214053,128,4,214393:0:0:0:0:
182,192,214053,1,0,0:0:0:0:
475,192,214053,1,0,0:0:0:0:
329,192,214223,1,0,0:0:0:50:hihat.wav
402,192,214223,1,0,0:0:0:0:
36,192,214393,1,2,0:0:0:0:
182,192,214393,1,0,0:0:0:0:
256,192,214393,1,0,0:0:0:0:
475,192,214393,128,0,214905:0:0:0:0:
109,192,214564,1,8,0:0:0:0:
182,192,214564,1,0,0:0:0:50:hihat.wav
329,192,214564,1,0,0:0:0:0:
402,192,214564,1,0,0:0:0:0:
36,192,214734,128,8,214905:0:0:0:0:
256,192,214734,1,0,0:0:0:0:
329,192,214734,1,0,0:0:0:0:
109,192,214820,1,8,0:0:0:0:
182,192,214820,128,0,214990:0:0:0:0:
256,192,214905,1,2,0:0:0:0:
329,192,214905,128,0,215246:0:0:0:50:hihat.wav
402,192,214905,1,0,0:0:0:0:
109,192,215075,128,2,215160:0:0:0:0:
182,192,215075,1,0,0:0:0:0:
256,192,215075,128,0,215416:0:0:0:0:
475,192,215075,128,0,215160:0:0:0:0:
36,192,215246,128,8,215331:0:0:0:0:
109,192,215246,1,0,0:0:0:50:hihat.wav
182,192,215246,128,0,215587:0:0:0:0:
402,192,215246,128,0,215331:0:0:0:0:
475,192,215246,1,0,0:0:0:0:
36,192,215416,1,2,0:0:0:0:
109,192,215416,128,0,215757:0:0:0:0:
329,192,215416,128,0,215501:0:0:0:0:
475,192,215416,128,0,215501:0:0:0:0:
36,192,215587,128,2,215928:0:0:0:0:
256,192,215587,1,4,0:0:0:0:
329,192,215587,1,0,0:0:0:0:
402,192,215587,128,0,215928:0:0:0:0:
475,192,215587,1,0,0:0:0:0:
109,192,215928,1,8,0:0:0:0:
182,192,215928,1,0,0:0:0:50:hihat.wav
256,192,215928,128,0,216268:0:0:0:0:
329,192,215928,1,0,0:0:0:0:
475,192,215928,1,0,0:0:0:0:
109,192,216098,128,0,218143:0:0:0:0:
402,192,216098,1,0,0:0:0:0:
36,192,216268,1,2,0:0:0:0:
329,192,216268,1,0,0:0:0:50:hihat.wav
475,192,216268,1,0,0:0:0:0:
256,192,216439,1,2,0:0:0:0:
402,192,216439,1,0,0:0:0:0:
36,192,216609,1,8,0:0:0:0:
182,192,216609,1,0,0:0:0:50:hihat.wav
329,192,216609,1,0,0:0:0:0:
475,192,216609,1,0,0:0:0:0:
36,192,216780,1,2,0:0:0:0:
256,192,216780,1,0,0:0:0:0:
402,192,216780,1,0,0:0:0:0:
329,192,216950,1,0,0:0:0:50:hihat.wav
475,192,216950,1,0,0:0:0:0:
182,192,217121,1,2,0:0:0:0:
329,192,217121,1,0,0:0:0:0:
402,192,217121,1,0,0:0:0:0:
36,192,217291,1,8,0:0:0:0:
256,192,217291,1,0,0:0:0:50:hihat.wav
402,192,217291,1,0,0:0:0:0:
475,192,217291,1,0,0:0:0:0:
182,192,217462,1,8,0:0:0:0:
329,192,217462,1,0,0:0:0:0:
256,192,217547,1,8,0:0:0:0:
402,192,217547,1,0,0:0:0:0:
36,192,217632,1,2,0:0:0:0:
329,192,217632,1,0,0:0:0:50:hihat.wav
475,192,217632,1,0,0:0:0:0:
182,192,217803,1,2,0:0:0:0:
402,192,217803,1,0,0:0:0:0:
36,192,217973,1,8,0:0:0:0:
256,192,217973,1,0,0:0:0:50:hihat.wav
329,192,217973,1,0,0:0:0:0:
475,192,217973,1,0,0:0:0:0:
36,192,218143,1,2,0:0:0:0:
182,192,218143,1,0,0:0:0:0:
402,192,218143,128,0,218314:0:0:0:0:
329,192,218229,128,0,218399:0:0:0:0:
36,192,218314,1,2,0:0:0:0:
109,192,218314,1,4,0:0:0:0:
182,192,218314,1,0,0:0:0:0:
256,192,218314,128,0,219848:0:0:0:0:
475,192,218314,1,0,0:0:0:0:
36,192,218655,1,8,0:0:0:0:
109,192,218655,1,0,0:0:0:50:hihat.wav
182,192,218655,1,0,0:0:0:0:
475,192,218655,1,0,0:0:0:0:
329,192,218825,1,0,0:0:0:0:
402,192,218825,1,0,0:0:0:0:
36,192,218996,1,2,0:0:0:0:
329,192,218996,1,0,0:0:0:50:hihat.wav
475,192,218996,1,0,0:0:0:0:
109,192,219166,1,2,0:0:0:0:
182,192,219166,1,0,0:0:0:0:
36,192,219337,1,8,0:0:0:0:
329,192,219337,1,0,0:0:0:50:hihat.wav
402,192,219337,1,0,0:0:0:0:
475,192,219337,1,0,0:0:0:0:
36,192,219507,1,2,0:0:0:0:
109,192,219507,1,4,0:0:0:0:
182,192,219507,1,0,0:0:0:0:
329,192,219678,1,0,0:0:0:50:hihat.wav
402,192,219678,1,0,0:0:0:0:
36,192,219848,128,2,219933:0:0:0:0:
109,192,219848,1,0,0:0:0:0:
182,192,219848,128,0,220018:0:0:0:0:
475,192,219848,128,0,220018:0:0:0:0:
256,192,219933,1,0,0:0:0:0:
329,192,219933,128,0,220018:0:0:0:0:
36,192,220018,1,8,0:0:0:0:
109,192,220018,128,0,220189:0:0:0:50:hihat.wav
402,192,220018,128,0,220189:0:0:0:0:
182,192,220104,1,0,0:0:0:0:
256,192,220104,128,0,220189:0:0:0:0:
36,192,220189,128,8,220359:0:0:0:0:
329,192,220189,128,0,220359:0:0:0:0:
475,192,220189,128,0,220274:0:0:0:0:
109,192,220274,1,8,0:0:0:0:
182,192,220274,128,0,220359:0:0:0:0:
256,192,220359,128,2,220530:0:0:0:0:
402,192,220359,128,0,220445:0:0:0:50:hihat.wav
475,192,220359,1,0,0:0:0:0:
36,192,220445,1,0,0:0:0:0:
109,192,220445,128,0,220530:0:0:0:0:
182,192,220530,1,2,0:0:0:0:
329,192,220530,1,0,0:0:0:0:
402,192,220530,1,0,0:0:0:0:
475,192,220530,1,0,0:0:0:0:
109,192,220615,1,8,0:0:0:0:
256,192,220615,1,0,0:0:0:0:
36,192,220700,1,8,0:0:0:0:
182,192,220700,1,0,0:0:0:0:
329,192,220700,1,0,0:0:0:0:
475,192,220700,1,0,0:0:0:0:
256,192,220785,1,8,0:0:0:0:
402,192,220785,1,0,0:0:0:0:
36,192,220871,1,2,0:0:0:0:
109,192,220871,1,0,0:0:0:0:
329,192,220871,1,0,0:0:0:0:
475,192,220871,1,0,0:0:0:0:
182,192,220956,1,2,0:0:0:0:
256,192,220956,1,0,0:0:0:0:
36,192,221041,128,2,223598:0:0:0:0:
109,192,221041,1,4,0:0:0:0:
329,192,221041,1,0,0:0:0:70:ride01.wav
402,192,221041,1,0,0:0:0:0:
475,192,221041,1,0,0:0:0:0:
256,192,221382,1,0,0:0:0:70:ride01.wav
402,192,221382,1,0,0:0:0:0:
182,192,221553,128,2,222916:0:0:0:0:
329,192,221553,1,0,0:0:0:0:
109,192,221723,1,8,0:0:0:0:
256,192,221723,1,0,0:0:0:70:ride02.wav
402,192,221723,1,0,0:0:0:0:
475,192,221723,1,0,0:0:0:0:
402,192,222064,128,0,223768:0:0:0:70:ride01.wav
475,192,222064,1,0,0:0:0:0:
329,192,222234,1,2,0:0:0:0:
256,192,222405,1,0,0:0:0:70:ride01.wav
475,192,222405,1,0,0:0:0:0:
329,192,222575,1,2,0:0:0:0:
256,192,222746,1,0,0:0:0:70:ride01.wav
475,192,222746,1,0,0:0:0:0:
329,192,222916,1,2,0:0:0:0:
109,192,223087,1,8,0:0:0:0:
182,192,223087,128,0,223768:0:0:0:70:ride02.wav
256,192,223087,1,0,0:0:0:0:
475,192,223087,1,0,0:0:0:0:
256,192,223428,1,2,0:0:0:0:
475,192,223428,1,0,0:0:0:70:ride01.wav
36,192,223768,128,2,226325:0:0:0:0:
109,192,223768,1,4,0:0:0:0:
256,192,223768,1,0,0:0:0:70:ride01.wav
329,192,223768,1,0,0:0:0:0:
475,192,223768,1,0,0:0:0:0:
402,192,224109,1,0,0:0:0:70:ride01.wav
475,192,224109,1,0,0:0:0:0:
182,192,224280,128,2,225643:0:0:0:0:
329,192,224280,1,0,0:0:0:0:
109,192,224450,1,8,0:0:0:0:
256,192,224450,1,0,0:0:0:70:ride02.wav
402,192,224450,1,0,0:0:0:0:
475,192,224450,1,0,0:0:0:0:
402,192,224791,1,0,0:0:0:70:ride01.wav
475,192,224791,128,0,225643:0:0:0:0:
329,192,224962,1,2,0:0:0:0:
402,192,224962,128,0,226496:0:0:0:0:
109,192,225132,1,0,0:0:0:70:ride01.wav
256,192,225132,1,0,0:0:0:0:
329,192,225303,1,2,0:0:0:0:
109,192,225473,1,0,0:0:0:70:ride01.wav
256,192,225473,1,0,0:0:0:0:
329,192,225643,1,2,0:0:0:0:
109,192,225814,1,8,0:0:0:0:
182,192,225814,128,0,226496:0:0:0:70:ride02.wav
256,192,225814,1,0,0:0:0:0:
475,192,225814,128,0,226325:0:0:0:0:
109,192,226155,1,2,0:0:0:0:
256,192,226155,1,0,0:0:0:70:ride01.wav
36,192,226496,128,2,229053:0:0:0:0:
109,192,226496,1,4,0:0:0:0:
256,192,226496,1,0,0:0:0:70:ride01.wav
329,192,226496,1,0,0:0:0:0:
475,192,226496,1,0,0:0:0:0:
402,192,226837,1,0,0:0:0:70:ride01.wav
475,192,226837,1,0,0:0:0:0:
182,192,227007,128,2,228371:0:0:0:0:
329,192,227007,1,0,0:0:0:0:
109,192,227178,1,8,0:0:0:0:
256,192,227178,1,0,0:0:0:70:ride02.wav
402,192,227178,1,0,0:0:0:0:
475,192,227178,1,0,0:0:0:0:
402,192,227518,128,0,229223:0:0:0:70:ride01.wav
475,192,227518,1,0,0:0:0:0:
329,192,227689,1,2,0:0:0:0:
256,192,227859,1,0,0:0:0:70:ride01.wav
475,192,227859,1,0,0:0:0:0:
109,192,228030,1,2,0:0:0:0:
329,192,228030,1,0,0:0:0:0:
475,192,228200,1,0,0:0:0:0:
256,192,228200,1,0,0:0:0:70:ride01.wav
109,192,228371,1,2,0:0:0:0:
329,192,228371,1,0,0:0:0:0:
109,192,228541,1,8,0:0:0:0:
182,192,228541,128,0,229223:0:0:0:70:ride02.wav
256,192,228541,1,0,0:0:0:0:
475,192,228541,1,0,0:0:0:0:
329,192,228712,1,0,0:0:0:0:
329,192,228882,1,0,0:0:0:70:ride01.wav
475,192,228882,1,0,0:0:0:0:
256,192,228882,1,2,0:0:0:0:
109,192,229053,1,0,0:0:0:0:
36,192,229223,128,4,231780:0:0:0:0:
109,192,229223,1,2,0:0:0:0:
256,192,229223,1,0,0:0:0:70:ride01.wav
329,192,229223,1,0,0:0:0:0:
475,192,229223,1,0,0:0:0:0:
402,192,229564,1,0,0:0:0:70:ride01.wav
475,192,229564,1,0,0:0:0:0:
182,192,229734,128,2,231098:0:0:0:0:
329,192,229734,1,0,0:0:0:0:
109,192,229905,1,8,0:0:0:0:
256,192,229905,1,0,0:0:0:70:ride02.wav
402,192,229905,1,0,0:0:0:0:
475,192,229905,1,0,0:0:0:0:
402,192,230246,1,0,0:0:0:70:ride01.wav
475,192,230246,128,0,231268:0:0:0:0:
329,192,230416,1,2,0:0:0:0:
109,192,230587,1,0,0:0:0:70:ride01.wav
256,192,230587,1,0,0:0:0:0:
402,192,230587,128,0,231609:0:0:0:0:
329,192,230757,1,2,0:0:0:0:
109,192,230928,1,0,0:0:0:70:ride01.wav
256,192,230928,1,0,0:0:0:0:
329,192,231098,1,2,0:0:0:0:
109,192,231268,1,8,0:0:0:0:
182,192,231268,128,0,231950:0:0:0:70:ride02.wav
256,192,231268,1,0,0:0:0:0:
329,192,231268,128,0,231950:0:0:0:0:
256,192,231609,1,2,0:0:0:0:
475,192,231609,1,0,0:0:0:70:ride01.wav
36,192,231950,128,2,234507:0:0:0:0:
109,192,231950,1,4,0:0:0:0:
256,192,231950,1,0,0:0:0:70:ride01.wav
402,192,231950,1,0,0:0:0:0:
475,192,231950,1,0,0:0:0:0:
256,192,232291,1,0,0:0:0:70:ride01.wav
475,192,232291,1,0,0:0:0:0:
109,192,232462,128,2,233143:0:0:0:0:
402,192,232462,1,0,0:0:0:0:
182,192,232632,1,8,0:0:0:0:
256,192,232632,1,0,0:0:0:70:ride02.wav
329,192,232632,1,0,0:0:0:0:
475,192,232632,1,0,0:0:0:0:
402,192,232803,1,0,0:0:0:0:
182,192,232973,128,0,233825:0:0:0:70:ride01.wav
329,192,232973,1,0,0:0:0:0:
402,192,233143,1,2,0:0:0:0:
475,192,233143,1,0,0:0:0:0:
109,192,233314,128,0,234507:0:0:0:70:ride01.wav
256,192,233314,1,0,0:0:0:0:
402,192,233484,1,2,0:0:0:0:
475,192,233484,1,0,0:0:0:0:
256,192,233655,1,0,0:0:0:70:ride01.wav
402,192,233655,1,0,0:0:0:0:
329,192,233825,1,2,0:0:0:0:
475,192,233825,1,0,0:0:0:0:
182,192,233996,128,8,234678:0:0:0:0:
256,192,233996,1,0,0:0:0:70:ride02.wav
329,192,233996,128,0,234678:0:0:0:0:
402,192,233996,1,0,0:0:0:0:
402,192,234337,1,2,0:0:0:0:
475,192,234337,1,0,0:0:0:70:ride01.wav
36,192,234678,128,4,235189:0:0:0:0:
109,192,234678,1,2,0:0:0:0:
256,192,234678,1,0,0:0:0:70:ride01.wav
402,192,234678,1,0,0:0:0:0:
475,192,234678,1,0,0:0:0:0:
329,192,235018,1,0,0:0:0:70:ride01.wav
475,192,235018,1,0,0:0:0:0:
109,192,235189,1,2,0:0:0:0:
182,192,235189,128,0,235700:0:0:0:0:
402,192,235189,1,0,0:0:0:0:
36,192,235359,1,8,0:0:0:0:
256,192,235359,1,0,0:0:0:70:ride02.wav
329,192,235359,1,0,0:0:0:0:
475,192,235359,1,0,0:0:0:0:
109,192,235700,1,0,0:0:0:70:ride01.wav
329,192,235700,128,0,236041:0:0:0:0:
475,192,235700,1,0,0:0:0:0:
182,192,235871,1,2,0:0:0:0:
402,192,235871,1,4,0:0:0:0:
36,192,236041,1,0,0:0:0:0:
109,192,236041,1,0,0:0:0:0:
256,192,236041,1,0,0:0:0:0:
402,192,236041,1,0,0:0:0:0:
475,192,236041,128,0,236723:0:0:0:0:
36,192,236212,1,8,0:0:0:0:
109,192,236212,1,2,0:0:0:0:
182,192,236212,1,0,0:0:0:0:
329,192,236212,1,0,0:0:0:0:
109,192,236382,1,8,0:0:0:0:
182,192,236382,1,2,0:0:0:0:
256,192,236382,1,0,0:0:0:0:
402,192,236382,1,0,0:0:0:0:
36,192,236553,1,8,0:0:0:0:
182,192,236553,1,2,0:0:0:0:
256,192,236553,1,0,0:0:0:0:
329,192,236553,1,0,0:0:0:0:
36,192,236723,1,0,0:0:0:0:
109,192,236723,128,0,237064:0:0:0:0:
256,192,236723,128,0,237064:0:0:0:0:
329,192,236723,1,0,0:0:0:0:
402,192,236723,128,0,237064:0:0:0:0:
36,192,237064,1,8,0:0:0:0:
182,192,237064,1,2,0:0:0:0:
329,192,237064,1,0,0:0:0:0:
475,192,237064,1,0,0:0:0:0:
109,192,237149,1,8,0:0:0:0:
256,192,237149,1,0,0:0:0:0:
402,192,237149,1,0,0:0:0:0:
36,192,237234,1,0,0:0:0:0:
182,192,237234,1,0,0:0:0:0:
329,192,237234,1,0,0:0:0:0:
475,192,237234,1,0,0:0:0:0:
36,192,237405,128,4,237746:0:0:0:0:
109,192,237405,128,2,237575:0:0:0:0:
182,192,237405,1,0,0:0:0:0:
256,192,237405,128,0,237746:0:0:0:0:
402,192,237405,128,0,237575:0:0:0:0:
475,192,237405,128,0,237746:0:0:0:0:
329,192,237575,1,0,0:0:0:0:
109,192,237746,1,8,0:0:0:0:
182,192,237746,128,0,238087:0:0:0:50:hihat.wav
329,192,237746,128,0,238087:0:0:0:0:
402,192,237746,1,0,0:0:0:0:
256,192,237916,1,0,0:0:0:0:
36,192,238087,1,2,0:0:0:0:
109,192,238087,128,0,238428:0:0:0:50:hihat.wav
256,192,238087,128,0,238428:0:0:0:0:
402,192,238087,128,0,238428:0:0:0:0:
475,192,238087,1,0,0:0:0:0:
36,192,238428,1,8,0:0:0:0:
182,192,238428,1,0,0:0:0:50:hihat.wav
329,192,238428,1,0,0:0:0:0:
475,192,238428,1,0,0:0:0:0:
36,192,238598,128,2,239109:0:0:0:0:
109,192,238598,128,0,238939:0:0:0:0:
182,192,238598,1,0,0:0:0:0:
256,192,238598,128,0,239109:0:0:0:0:
402,192,238598,128,0,238939:0:0:0:0:
475,192,238598,128,0,239109:0:0:0:0:
329,192,238768,1,0,0:0:0:50:hihat.wav
182,192,238939,1,2,0:0:0:0:
109,192,239109,1,8,0:0:0:0:
182,192,239109,128,0,239450:0:0:0:50:hihat.wav
329,192,239109,1,0,0:0:0:0:
402,192,239109,1,0,0:0:0:0:
402,192,239280,1,0,0:0:0:0:
329,192,239365,1,8,0:0:0:0:
36,192,239450,1,2,0:0:0:0:
109,192,239450,128,0,239791:0:0:0:50:hihat.wav
256,192,239450,128,0,239791:0:0:0:0:
402,192,239450,128,0,239791:0:0:0:0:
475,192,239450,1,0,0:0:0:0:
36,192,239791,1,8,0:0:0:0:
182,192,239791,1,0,0:0:0:50:hihat.wav
329,192,239791,1,0,0:0:0:0:
475,192,239791,1,0,0:0:0:0:
36,192,239962,128,0,240473:0:0:0:0:
109,192,239962,128,0,240303:0:0:0:0:
256,192,239962,128,0,240473:0:0:0:0:
329,192,239962,1,0,0:0:0:0:
402,192,239962,128,0,240303:0:0:0:0:
475,192,239962,128,0,240473:0:0:0:0:
182,192,240132,1,6,0:0:0:0:
329,192,240303,1,0,0:0:0:0:
109,192,240473,1,8,0:0:0:0:
182,192,240473,128,0,240814:0:0:0:50:hihat.wav
329,192,240473,128,0,240814:0:0:0:0:
402,192,240473,1,0,0:0:0:0:
256,192,240643,1,0,0:0:0:0:
36,192,240814,1,2,0:0:0:0:
109,192,240814,128,0,241155:0:0:0:50:hihat.wav
256,192,240814,128,0,241155:0:0:0:0:
402,192,240814,128,0,241155:0:0:0:0:
475,192,240814,1,0,0:0:0:0:
36,192,241155,1,8,0:0:0:0:
182,192,241155,1,0,0:0:0:50:hihat.wav
329,192,241155,1,0,0:0:0:0:
475,192,241155,1,0,0:0:0:0:
36,192,241325,128,2,241496:0:0:0:0:
109,192,241325,128,4,241666:0:0:0:0:
182,192,241325,1,0,0:0:0:0:
256,192,241325,128,0,241666:0:0:0:0:
402,192,241325,128,0,241666:0:0:0:0:
475,192,241325,128,0,241496:0:0:0:0:
329,192,241496,1,0,0:0:0:50:hihat.wav
36,192,241666,128,2,241837:0:0:0:0:
182,192,241666,128,0,242007:0:0:0:0:
329,192,241666,128,0,241837:0:0:0:0:
475,192,241666,128,0,242007:0:0:0:0:
109,192,241837,1,8,0:0:0:0:
256,192,241837,1,0,0:0:0:50:hihat.wav
402,192,241837,1,0,0:0:0:0:
36,192,242007,1,0,0:0:0:0:
256,192,242007,128,0,242348:0:0:0:0:
329,192,242007,1,0,0:0:0:0:
402,192,242007,128,0,242348:0:0:0:0:
109,192,242092,1,8,0:0:0:0:
182,192,242092,1,0,0:0:0:0:
36,192,242178,1,2,0:0:0:0:
475,192,242178,1,0,0:0:0:50:hihat.wav
182,192,242348,128,0,242518:0:0:0:0:
329,192,242348,128,0,242433:0:0:0:0:
475,192,242348,128,0,242518:0:0:0:0:
36,192,242518,128,8,242689:0:0:0:0:
109,192,242518,128,0,242689:0:0:0:50:hihat.wav
256,192,242518,128,0,242604:0:0:0:0:
329,192,242518,1,0,0:0:0:0:
402,192,242518,128,0,242689:0:0:0:0:
182,192,242689,128,0,242774:0:0:0:0:
256,192,242689,1,0,0:0:0:0:
329,192,242689,128,0,242859:0:0:0:0:
475,192,242689,1,0,0:0:0:0:
36,192,242859,128,2,243030:0:0:0:0:
109,192,242859,128,4,243200:0:0:0:0:
182,192,242859,1,0,0:0:0:0:
256,192,242859,128,0,243200:0:0:0:0:
402,192,242859,128,0,243200:0:0:0:0:
475,192,242859,128,0,243030:0:0:0:0:
329,192,243030,1,0,0:0:0:0:
36,192,243200,1,8,0:0:0:0:
182,192,243200,128,0,243541:0:0:0:50:hihat.wav
329,192,243200,128,0,243541:0:0:0:0:
475,192,243200,1,0,0:0:0:0:
256,192,243371,1,0,0:0:0:0:
36,192,243541,128,2,243882:0:0:0:0:
109,192,243541,1,0,0:0:0:50:hihat.wav
256,192,243541,128,0,243882:0:0:0:0:
402,192,243541,1,0,0:0:0:0:
475,192,243541,128,0,243882:0:0:0:0:
109,192,243882,1,8,0:0:0:0:
182,192,243882,1,0,0:0:0:50:hihat.wav
329,192,243882,1,0,0:0:0:0:
402,192,243882,1,0,0:0:0:0:
36,192,244053,128,2,244393:0:0:0:0:
109,192,244053,128,0,244564:0:0:0:0:
182,192,244053,1,0,0:0:0:0:
256,192,244053,128,0,244564:0:0:0:0:
402,192,244053,128,0,244564:0:0:0:0:
475,192,244053,128,0,244393:0:0:0:0:
329,192,244223,1,0,0:0:0:50:hihat.wav
182,192,244393,1,2,0:0:0:0:
36,192,244564,1,8,0:0:0:0:
182,192,244564,128,0,244905:0:0:0:50:hihat.wav
329,192,244564,1,0,0:0:0:0:
475,192,244564,1,0,0:0:0:0:
402,192,244734,1,0,0:0:0:0:
329,192,244820,1,8,0:0:0:0:
36,192,244905,128,2,245246:0:0:0:0:
109,192,244905,1,0,0:0:0:50:hihat.wav
256,192,244905,128,0,245246:0:0:0:0:
402,192,244905,1,0,0:0:0:0:
475,192,244905,128,0,245246:0:0:0:0:
109,192,245246,1,8,0:0:0:0:
182,192,245246,1,0,0:0:0:50:hihat.wav
329,192,245246,1,0,0:0:0:0:
402,192,245246,1,0,0:0:0:0:
36,192,245416,128,0,245757:0:0:0:0:
109,192,245416,128,0,245928:0:0:0:0:
256,192,245416,128,0,245928:0:0:0:0:
329,192,245416,1,0,0:0:0:0:
402,192,245416,128,0,245928:0:0:0:0:
475,192,245416,128,0,245757:0:0:0:0:
182,192,245587,1,6,0:0:0:0:
329,192,245757,1,0,0:0:0:0:
36,192,245928,1,8,0:0:0:0:
182,192,245928,128,0,246268:0:0:0:50:hihat.wav
329,192,245928,128,0,246268:0:0:0:0:
475,192,245928,1,0,0:0:0:0:
256,192,246098,1,0,0:0:0:0:
36,192,246268,128,2,246609:0:0:0:0:
109,192,246268,1,0,0:0:0:50:hihat.wav
256,192,246268,128,0,246609:0:0:0:0:
402,192,246268,1,0,0:0:0:0:
475,192,246268,128,0,246609:0:0:0:0:
109,192,246609,1,8,0:0:0:0:
182,192,246609,1,0,0:0:0:50:hihat.wav
329,192,246609,1,0,0:0:0:0:
402,192,246609,1,0,0:0:0:0:
36,192,246780,128,2,247121:0:0:0:0:
109,192,246780,128,4,246950:0:0:0:0:
182,192,246780,1,0,0:0:0:0:
256,192,246780,128,0,247121:0:0:0:0:
402,192,246780,128,0,246950:0:0:0:0:
475,192,246780,128,0,247121:0:0:0:0:
329,192,246950,1,0,0:0:0:50:hihat.wav
109,192,247121,128,2,247291:0:0:0:0:
182,192,247121,128,0,247462:0:0:0:0:
329,192,247121,128,0,247291:0:0:0:0:
402,192,247121,128,0,247462:0:0:0:0:
36,192,247291,1,8,0:0:0:0:
256,192,247291,1,0,0:0:0:50:hihat.wav
475,192,247291,1,0,0:0:0:0:
36,192,247462,1,0,0:0:0:0:
256,192,247462,128,0,247803:0:0:0:0:
329,192,247462,1,0,0:0:0:0:
475,192,247462,128,0,247803:0:0:0:0:
109,192,247547,1,8,0:0:0:0:
182,192,247547,1,0,0:0:0:0:
36,192,247632,1,2,0:0:0:0:
402,192,247632,1,0,0:0:0:50:hihat.wav
36,192,247803,1,2,0:0:0:0:
329,192,247803,128,0,247973:0:0:0:0:
402,192,247803,128,0,247973:0:0:0:0:
109,192,247888,1,8,0:0:0:0:
182,192,247973,1,8,0:0:0:0:
256,192,247973,128,0,248143:0:0:0:0:
475,192,247973,128,0,248143:0:0:0:0:
36,192,248058,1,8,0:0:0:0:
109,192,248143,1,0,0:0:0:70:tom3.wav
182,192,248143,128,0,248314:0:0:0:0:
329,192,248143,1,0,0:0:0:0:
402,192,248143,1,0,0:0:0:0:
36,192,248314,128,2,248655:0:0:0:0:
109,192,248314,128,4,248484:0:0:0:0:
256,192,248314,128,0,248655:0:0:0:0:
329,192,248314,1,0,0:0:0:0:
402,192,248314,128,0,248484:0:0:0:0:
475,192,248314,128,0,248655:0:0:0:0:
182,192,248484,1,0,0:0:0:0:
109,192,248655,1,8,0:0:0:0:
182,192,248655,128,0,248996:0:0:0:50:hihat.wav
329,192,248655,128,0,248996:0:0:0:0:
402,192,248655,1,0,0:0:0:0:
256,192,248825,1,0,0:0:0:0:
36,192,248996,1,2,0:0:0:0:
109,192,248996,128,0,249337:0:0:0:50:hihat.wav
256,192,248996,128,0,249337:0:0:0:0:
402,192,248996,128,0,249337:0:0:0:0:
475,192,248996,1,0,0:0:0:0:
36,192,249337,1,8,0:0:0:0:
182,192,249337,1,0,0:0:0:50:hihat.wav
329,192,249337,1,0,0:0:0:0:
475,192,249337,1,0,0:0:0:0:
36,192,249507,128,2,250018:0:0:0:0:
109,192,249507,128,0,249848:0:0:0:0:
256,192,249507,128,0,250018:0:0:0:0:
329,192,249507,1,0,0:0:0:0:
402,192,249507,128,0,249848:0:0:0:0:
475,192,249507,128,0,250018:0:0:0:0:
182,192,249678,1,0,0:0:0:50:hihat.wav
329,192,249848,1,2,0:0:0:0:
109,192,250018,1,8,0:0:0:0:
182,192,250018,1,0,0:0:0:50:hihat.wav
329,192,250018,128,0,250359:0:0:0:0:
402,192,250018,1,0,0:0:0:0:
109,192,250189,1,0,0:0:0:0:
182,192,250274,1,0,0:0:0:0:
36,192,250359,1,2,0:0:0:0:
109,192,250359,128,0,250700:0:0:0:50:hihat.wav
256,192,250359,128,0,250700:0:0:0:0:
402,192,250359,128,0,250700:0:0:0:0:
475,192,250359,1,0,0:0:0:0:
36,192,250700,1,8,0:0:0:0:
182,192,250700,1,0,0:0:0:50:hihat.wav
329,192,250700,1,0,0:0:0:0:
475,192,250700,1,0,0:0:0:0:
36,192,250871,128,0,251382:0:0:0:0:
109,192,250871,128,0,251212:0:0:0:0:
182,192,250871,1,0,0:0:0:0:
256,192,250871,128,0,251382:0:0:0:0:
402,192,250871,128,0,251212:0:0:0:0:
475,192,250871,128,0,251382:0:0:0:0:
329,192,251041,1,6,0:0:0:0:
182,192,251212,1,0,0:0:0:0:
109,192,251382,1,8,0:0:0:0:
182,192,251382,128,0,251723:0:0:0:50:hihat.wav
329,192,251382,128,0,251723:0:0:0:0:
402,192,251382,1,0,0:0:0:0:
256,192,251553,1,0,0:0:0:0:
36,192,251723,1,2,0:0:0:0:
109,192,251723,128,0,252064:0:0:0:50:hihat.wav
256,192,251723,128,0,252064:0:0:0:0:
402,192,251723,128,0,252064:0:0:0:0:
475,192,251723,1,0,0:0:0:0:
36,192,252064,1,8,0:0:0:0:
182,192,252064,1,0,0:0:0:50:hihat.wav
329,192,252064,1,0,0:0:0:0:
475,192,252064,1,0,0:0:0:0:
36,192,252234,128,4,252405:0:0:0:0:
109,192,252234,128,2,252575:0:0:0:0:
256,192,252234,128,0,252575:0:0:0:0:
329,192,252234,1,0,0:0:0:0:
402,192,252234,128,0,252575:0:0:0:0:
475,192,252234,128,0,252405:0:0:0:0:
182,192,252405,1,0,0:0:0:50:hihat.wav
36,192,252575,128,2,252916:0:0:0:0:
182,192,252575,128,0,252746:0:0:0:0:
329,192,252575,128,0,252916:0:0:0:0:
475,192,252575,128,0,252746:0:0:0:0:
109,192,252746,1,8,0:0:0:0:
256,192,252746,1,0,0:0:0:50:hihat.wav
402,192,252746,1,0,0:0:0:0:
109,192,252916,128,0,253257:0:0:0:0:
182,192,252916,1,0,0:0:0:0:
256,192,252916,128,0,253257:0:0:0:0:
475,192,252916,1,0,0:0:0:0:
329,192,253001,1,8,0:0:0:0:
402,192,253001,1,0,0:0:0:0:
36,192,253087,1,2,0:0:0:0:
475,192,253087,1,0,0:0:0:50:hihat.wav
36,192,253257,128,0,253428:0:0:0:0:
182,192,253257,128,0,253342:0:0:0:0:
329,192,253257,128,0,253428:0:0:0:0:
109,192,253428,128,8,253598:0:0:0:0:
182,192,253428,1,0,0:0:0:50:hihat.wav
256,192,253428,128,0,253513:0:0:0:0:
402,192,253428,128,0,253598:0:0:0:0:
475,192,253428,128,0,253598:0:0:0:0:
36,192,253598,1,0,0:0:0:0:
182,192,253598,128,0,253768:0:0:0:0:
256,192,253598,1,0,0:0:0:0:
329,192,253598,128,0,253683:0:0:0:0:
36,192,253768,128,4,253939:0:0:0:0:
109,192,253768,128,2,254109:0:0:0:0:
256,192,253768,128,0,254109:0:0:0:0:
329,192,253768,1,0,0:0:0:0:
402,192,253768,128,0,254109:0:0:0:0:
475,192,253768,128,0,253939:0:0:0:0:
182,192,253939,1,0,0:0:0:0:
36,192,254109,1,8,0:0:0:0:
182,192,254109,128,0,254450:0:0:0:50:hihat.wav
329,192,254109,128,0,254450:0:0:0:0:
475,192,254109,1,0,0:0:0:0:
256,192,254280,1,0,0:0:0:0:
36,192,254450,128,2,254791:0:0:0:0:
109,192,254450,1,0,0:0:0:50:hihat.wav
256,192,254450,128,0,254791:0:0:0:0:
402,192,254450,1,0,0:0:0:0:
475,192,254450,128,0,254791:0:0:0:0:
109,192,254791,1,8,0:0:0:0:
182,192,254791,1,0,0:0:0:50:hihat.wav
329,192,254791,1,0,0:0:0:0:
402,192,254791,1,0,0:0:0:0:
36,192,254962,128,2,255303:0:0:0:0:
109,192,254962,128,0,255473:0:0:0:0:
256,192,254962,128,0,255473:0:0:0:0:
329,192,254962,1,0,0:0:0:0:
402,192,254962,128,0,255473:0:0:0:0:
475,192,254962,128,0,255303:0:0:0:0:
182,192,255132,1,0,0:0:0:50:hihat.wav
329,192,255303,1,2,0:0:0:0:
36,192,255473,1,8,0:0:0:0:
182,192,255473,1,0,0:0:0:50:hihat.wav
329,192,255473,128,0,255814:0:0:0:0:
475,192,255473,1,0,0:0:0:0:
109,192,255643,1,0,0:0:0:0:
182,192,255729,1,8,0:0:0:0:
36,192,255814,128,2,256155:0:0:0:0:
109,192,255814,1,0,0:0:0:50:hihat.wav
256,192,255814,128,0,256155:0:0:0:0:
402,192,255814,1,0,0:0:0:0:
475,192,255814,128,0,256155:0:0:0:0:
109,192,256155,1,8,0:0:0:0:
182,192,256155,1,0,0:0:0:50:hihat.wav
329,192,256155,1,0,0:0:0:0:
402,192,256155,1,0,0:0:0:0:
36,192,256325,128,0,256666:0:0:0:0:
109,192,256325,128,0,256837:0:0:0:0:
182,192,256325,1,0,0:0:0:0:
256,192,256325,128,0,256837:0:0:0:0:
402,192,256325,128,0,256837:0:0:0:0:
475,192,256325,128,0,256666:0:0:0:0:
329,192,256496,1,6,0:0:0:0:
182,192,256666,1,0,0:0:0:0:
36,192,256837,1,8,0:0:0:0:
182,192,256837,128,0,257178:0:0:0:50:hihat.wav
329,192,256837,128,0,257178:0:0:0:0:
475,192,256837,1,0,0:0:0:0:
256,192,257007,1,0,0:0:0:0:
36,192,257178,128,2,257518:0:0:0:0:
109,192,257178,1,0,0:0:0:50:hihat.wav
256,192,257178,128,0,257518:0:0:0:0:
402,192,257178,1,0,0:0:0:0:
475,192,257178,128,0,257518:0:0:0:0:
109,192,257518,1,8,0:0:0:0:
182,192,257518,1,0,0:0:0:50:hihat.wav
329,192,257518,1,0,0:0:0:0:
402,192,257518,1,0,0:0:0:0:
36,192,257689,128,4,258030:0:0:0:0:
109,192,257689,128,2,257859:0:0:0:0:
256,192,257689,128,0,258030:0:0:0:0:
329,192,257689,1,0,0:0:0:0:
402,192,257689,128,0,257859:0:0:0:0:
475,192,257689,128,0,258030:0:0:0:0:
182,192,257859,1,0,0:0:0:50:hihat.wav
109,192,258030,128,2,258371:0:0:0:0:
182,192,258030,128,0,258200:0:0:0:0:
329,192,258030,128,0,258371:0:0:0:0:
402,192,258030,128,0,258200:0:0:0:0:
36,192,258200,1,8,0:0:0:0:
256,192,258200,1,0,0:0:0:50:hihat.wav
475,192,258200,1,0,0:0:0:0:
36,192,258371,128,0,258712:0:0:0:0:
182,192,258371,1,0,0:0:0:0:
256,192,258371,128,0,258712:0:0:0:0:
475,192,258371,1,0,0:0:0:0:
329,192,258456,1,8,0:0:0:0:
402,192,258456,1,0,0:0:0:0:
109,192,258541,1,2,0:0:0:0:
475,192,258541,1,0,0:0:0:50:hihat.wav
109,192,258712,128,2,258882:0:0:0:0:
182,192,258712,128,0,258882:0:0:0:0:
475,192,258712,1,0,0:0:0:0:
402,192,258797,1,8,0:0:0:0:
36,192,258882,128,8,259053:0:0:0:0:
256,192,258882,128,0,259053:0:0:0:0:
329,192,258882,1,0,0:0:0:0:
475,192,258967,1,8,0:0:0:0:
109,192,259053,128,0,259223:0:0:0:70:tom3.wav
182,192,259053,1,0,0:0:0:0:
329,192,259053,128,0,259223:0:0:0:0:
402,192,259053,1,0,0:0:0:0:
36,192,259223,1,2,0:0:0:0:
182,192,259223,1,4,0:0:0:0:
256,192,259223,1,0,0:0:0:0:
402,192,259223,1,0,0:0:0:0:
475,192,259223,128,0,261524:0:0:0:0:
36,192,259393,1,2,0:0:0:0:
182,192,259393,1,0,0:0:0:0:
109,192,259564,1,0,0:0:0:50:hihat.wav
256,192,259564,1,0,0:0:0:0:
402,192,259564,128,0,259734:0:0:0:0:
36,192,259734,1,2,0:0:0:0:
182,192,259734,1,0,0:0:0:0:
36,192,259905,1,8,0:0:0:0:
109,192,259905,1,0,0:0:0:70:ride02.wav
256,192,259905,1,0,0:0:0:0:
402,192,259905,1,0,0:0:0:0:
329,192,260075,1,2,0:0:0:0:
402,192,260075,1,4,0:0:0:0:
109,192,260160,1,0,0:0:0:0:
182,192,260160,1,0,0:0:0:0:
36,192,260246,1,0,0:0:0:50:hihat.wav
329,192,260246,1,0,0:0:0:0:
402,192,260246,128,0,260416:0:0:0:0:
36,192,260416,128,2,260587:0:0:0:0:
109,192,260416,128,4,260587:0:0:0:0:
182,192,260416,1,0,0:0:0:0:
256,192,260416,1,0,0:0:0:0:
36,192,260757,128,4,260928:0:0:0:0:
109,192,260757,128,2,260928:0:0:0:0:
256,192,260757,1,0,0:0:0:0:
182,192,260928,1,0,0:0:0:50:hihat.wav
329,192,260928,1,0,0:0:0:0:
402,192,260928,128,0,261098:0:0:0:0:
36,192,261098,1,2,0:0:0:0:
109,192,261098,1,0,0:0:0:0:
329,192,261183,1,0,0:0:0:0:
402,192,261183,1,0,0:0:0:0:
36,192,261268,1,8,0:0:0:0:
109,192,261268,1,0,0:0:0:70:ride02.wav
182,192,261268,1,0,0:0:0:0:
256,192,261268,1,0,0:0:0:0:
36,192,261439,128,2,261780:0:0:0:0:
182,192,261439,1,4,0:0:0:0:
329,192,261439,128,0,261524:0:0:0:0:
109,192,261609,128,0,261950:0:0:0:50:hihat.wav
256,192,261609,1,0,0:0:0:0:
402,192,261609,128,0,261695:0:0:0:0:
182,192,261780,128,2,262121:0:0:0:0:
329,192,261780,1,0,0:0:0:0:
475,192,261780,128,0,261865:0:0:0:0:
36,192,261950,1,2,0:0:0:0:
256,192,261950,128,4,262462:0:0:0:0:
402,192,261950,128,0,262121:0:0:0:0:
475,192,261950,1,0,0:0:0:70:ride01.wav
329,192,261950,128,0,262121:0:0:0:0:
182,192,262291,1,0,0:0:0:50:hihat.wav
402,192,262291,1,0,0:0:0:0:
475,192,262291,128,0,262462:0:0:0:0:
36,192,262462,128,2,262632:0:0:0:0:
109,192,262462,1,0,0:0:0:0:
329,192,262462,128,0,263314:0:0:0:0:
182,192,262632,1,8,0:0:0:0:
256,192,262632,1,0,0:0:0:70:ride02.wav
402,192,262632,1,0,0:0:0:0:
475,192,262632,1,0,0:0:0:0:
402,192,262803,1,2,0:0:0:0:
475,192,262803,1,4,0:0:0:0:
36,192,262888,1,0,0:0:0:0:
182,192,262888,1,0,0:0:0:0:
256,192,262973,1,0,0:0:0:50:hihat.wav
402,192,262973,128,0,263143:0:0:0:0:
475,192,263058,1,0,0:0:0:0:
109,192,263143,128,4,263314:0:0:0:0:
256,192,263143,128,0,263655:0:0:0:0:
36,192,263143,128,2,263314:0:0:0:0:
182,192,263143,1,0,0:0:0:0:
182,192,263484,128,4,263825:0:0:0:0:
329,192,263484,1,2,0:0:0:0:
402,192,263484,1,0,0:0:0:0:
475,192,263484,128,0,263825:0:0:0:0:
36,192,263655,1,0,0:0:0:50:hihat.wav
109,192,263655,1,0,0:0:0:0:
329,192,263655,128,0,263825:0:0:0:0:
256,192,263825,128,2,263996:0:0:0:0:
402,192,263825,128,0,263996:0:0:0:0:
36,192,263996,128,8,264507:0:0:0:0:
109,192,263996,1,0,0:0:0:70:ride02.wav
182,192,263996,128,0,264166:0:0:0:0:
329,192,263996,128,0,264081:0:0:0:0:
475,192,263996,128,0,264166:0:0:0:0:
109,192,264166,128,2,264337:0:0:0:0:
256,192,264166,128,4,264251:0:0:0:0:
329,192,264166,1,0,0:0:0:0:
402,192,264166,128,0,264337:0:0:0:0:
182,192,264337,128,0,264422:0:0:0:50:hihat.wav
256,192,264337,1,0,0:0:0:0:
329,192,264337,128,0,264507:0:0:0:0:
475,192,264337,1,0,0:0:0:0:
109,192,264507,128,2,264592:0:0:0:0:
182,192,264507,1,0,0:0:0:0:
256,192,264507,128,0,264678:0:0:0:0:
402,192,264507,1,0,0:0:0:0:
36,192,264678,128,4,265189:0:0:0:0:
109,192,264678,1,2,0:0:0:0:
182,192,264678,128,0,265189:0:0:0:70:ride01.wav
329,192,264678,1,0,0:0:0:0:
475,192,264678,1,0,0:0:0:0:
402,192,265018,128,0,265189:0:0:0:50:hihat.wav
475,192,265018,1,0,0:0:0:0:
109,192,265189,128,2,265700:0:0:0:0:
256,192,265189,128,0,265359:0:0:0:0:
329,192,265359,1,8,0:0:0:0:
402,192,265359,1,0,0:0:0:70:ride02.wav
475,192,265359,1,0,0:0:0:0:
182,192,265530,1,4,0:0:0:0:
329,192,265530,1,2,0:0:0:0:
256,192,265615,1,0,0:0:0:0:
402,192,265615,1,0,0:0:0:0:
36,192,265700,128,0,266041:0:0:0:50:hihat.wav
329,192,265700,128,0,266041:0:0:0:0:
475,192,265700,128,0,266041:0:0:0:0:
109,192,265871,1,4,0:0:0:0:
182,192,265871,128,2,266041:0:0:0:0:
256,192,265871,128,0,266212:0:0:0:0:
402,192,265871,1,0,0:0:0:0:
36,192,266212,128,2,266553:0:0:0:0:
109,192,266212,1,4,0:0:0:0:
182,192,266212,128,0,266297:0:0:0:0:
329,192,266212,128,0,266297:0:0:0:0:
475,192,266212,1,0,0:0:0:0:
109,192,266382,128,0,266893:0:0:0:50:hihat.wav
182,192,266382,1,0,0:0:0:0:
256,192,266382,128,0,266467:0:0:0:0:
402,192,266382,128,0,266467:0:0:0:0:
182,192,266553,128,2,266723:0:0:0:0:
256,192,266553,1,0,0:0:0:0:
329,192,266553,128,0,266638:0:0:0:0:
475,192,266553,128,0,266638:0:0:0:0:
36,192,266723,128,8,267064:0:0:0:0:
256,192,266723,128,0,266893:0:0:0:70:ride02.wav
329,192,266723,1,0,0:0:0:0:
402,192,266723,128,0,266893:0:0:0:0:
475,192,266723,1,0,0:0:0:0:
182,192,266893,128,4,267064:0:0:0:0:
329,192,266893,128,2,267064:0:0:0:0:
475,192,266893,128,0,266979:0:0:0:0:
109,192,267064,128,0,267234:0:0:0:50:hihat.wav
256,192,267064,128,0,267234:0:0:0:0:
402,192,267064,128,0,267149:0:0:0:0:
36,192,267234,128,2,267405:0:0:0:0:
182,192,267234,128,0,267405:0:0:0:0:
329,192,267234,128,0,267320:0:0:0:0:
475,192,267234,1,0,0:0:0:0:
109,192,267405,1,2,0:0:0:0:
256,192,267405,128,4,267660:0:0:0:0:
329,192,267405,1,0,0:0:0:70:ride01.wav
402,192,267405,128,0,267660:0:0:0:0:
475,192,267405,128,0,267660:0:0:0:0:
36,192,267575,128,2,267831:0:0:0:0:
109,192,267575,128,0,267831:0:0:0:0:
182,192,267575,1,0,0:0:0:0:
329,192,267746,128,0,268001:0:0:0:50:hihat.wav
402,192,267746,1,0,0:0:0:0:
475,192,267746,128,0,268001:0:0:0:0:
36,192,267916,128,2,268172:0:0:0:0:
109,192,267916,1,0,0:0:0:0:
182,192,267916,128,0,268172:0:0:0:0:
256,192,268087,1,8,0:0:0:0:
329,192,268087,128,0,268342:0:0:0:70:ride02.wav
402,192,268087,128,0,268342:0:0:0:0:
475,192,268087,1,0,0:0:0:0:
36,192,268257,1,2,0:0:0:0:
109,192,268257,128,4,268513:0:0:0:0:
182,192,268257,128,0,268513:0:0:0:0:
329,192,268428,128,0,268683:0:0:0:50:hihat.wav
402,192,268428,1,0,0:0:0:0:
475,192,268428,128,0,268683:0:0:0:0:
36,192,268598,128,2,268683:0:0:0:0:
182,192,268598,128,4,268683:0:0:0:0:
256,192,268598,128,0,268683:0:0:0:0:
36,192,268768,1,0,0:0:0:70:ride01.wav
109,192,268768,128,0,269109:0:0:0:0:
256,192,268768,1,0,0:0:0:0:
329,192,268768,1,0,0:0:0:0:
475,192,268768,128,0,268939:0:0:0:0:
182,192,268854,128,0,268939:0:0:0:0:
402,192,268854,128,0,269024:0:0:0:0:
36,192,268939,128,4,269024:0:0:0:0:
329,192,268939,128,2,269109:0:0:0:0:
256,192,269024,128,0,269195:0:0:0:0:
36,192,269109,128,0,269450:0:0:0:50:hihat.wav
182,192,269109,1,0,0:0:0:0:
402,192,269109,128,0,269280:0:0:0:0:
475,192,269109,1,0,0:0:0:0:
109,192,269195,128,0,269280:0:0:0:0:
329,192,269195,128,0,269365:0:0:0:0:
256,192,269280,128,2,269450:0:0:0:0:
475,192,269280,128,0,269365:0:0:0:0:
182,192,269365,128,0,269535:0:0:0:0:
109,192,269450,1,8,0:0:0:0:
329,192,269450,128,0,269621:0:0:0:70:ride02.wav
402,192,269450,1,0,0:0:0:0:
475,192,269450,128,0,269791:0:0:0:0:
36,192,269535,128,0,269621:0:0:0:0:
256,192,269535,128,0,269706:0:0:0:0:
182,192,269621,128,6,269876:0:0:0:0:
402,192,269621,128,0,269706:0:0:0:50:hihat.wav
109,192,269706,128,0,269791:0:0:0:0:
36,192,269791,128,8,269962:0:0:0:0:
256,192,269791,1,0,0:0:0:0:
329,192,269791,1,0,0:0:0:0:
109,192,269876,128,8,270047:0:0:0:0:
402,192,269876,1,0,0:0:0:0:
475,192,269876,1,0,0:0:0:0:
182,192,269962,128,2,270132:0:0:0:0:
329,192,269962,1,0,0:0:0:0:
256,192,270047,128,2,270132:0:0:0:0:
36,192,270132,128,2,270303:0:0:0:0:
109,192,270132,128,4,270473:0:0:0:0:
329,192,270132,128,0,270303:0:0:0:0:
402,192,270132,1,0,0:0:0:0:
475,192,270132,128,0,270303:0:0:0:0:
182,192,270303,1,0,0:0:0:0:
256,192,270303,128,0,270473:0:0:0:0:
402,192,270303,128,0,270473:0:0:0:0:
36,192,270473,128,8,270643:0:0:0:0:
182,192,270473,128,0,270984:0:0:0:50:hihat.wav
329,192,270473,128,0,270643:0:0:0:0:
475,192,270473,128,0,270643:0:0:0:0:
109,192,270643,128,0,270814:0:0:0:0:
256,192,270643,128,0,270814:0:0:0:0:
402,192,270643,128,0,270814:0:0:0:0:
36,192,270814,128,2,271325:0:0:0:0:
329,192,270814,128,0,270984:0:0:0:50:hihat.wav
475,192,270814,128,0,270984:0:0:0:0:
109,192,270984,128,0,271155:0:0:0:0:
256,192,270984,128,0,271070:0:0:0:0:
402,192,270984,128,0,271155:0:0:0:0:
182,192,271155,128,8,271325:0:0:0:0:
256,192,271155,1,0,0:0:0:50:hihat.wav
329,192,271155,128,0,271325:0:0:0:0:
475,192,271155,128,0,271325:0:0:0:0:
109,192,271325,128,2,271666:0:0:0:0:
256,192,271325,128,0,271666:0:0:0:0:
402,192,271325,128,0,271666:0:0:0:0:
36,192,271666,128,2,271837:0:0:0:0:
182,192,271666,128,0,272178:0:0:0:0:
329,192,271666,128,0,271751:0:0:0:0:
475,192,271666,128,0,271837:0:0:0:0:
109,192,271837,128,8,272007:0:0:0:0:
256,192,271837,128,0,272007:0:0:0:50:hihat.wav
329,192,271837,1,0,0:0:0:0:
402,192,271837,128,0,272007:0:0:0:0:
36,192,272007,128,0,272178:0:0:0:0:
329,192,272007,128,0,272518:0:0:0:0:
475,192,272007,128,0,272178:0:0:0:0:
109,192,272178,128,2,272348:0:0:0:0:
256,192,272178,128,0,272348:0:0:0:50:hihat.wav
402,192,272178,128,0,272348:0:0:0:0:
36,192,272348,128,0,272518:0:0:0:0:
182,192,272348,128,0,272433:0:0:0:0:
475,192,272348,128,0,272859:0:0:0:0:
109,192,272518,128,8,272689:0:0:0:0:
182,192,272518,1,0,0:0:0:50:hihat.wav
256,192,272518,128,0,272689:0:0:0:0:
402,192,272518,128,0,272689:0:0:0:0:
36,192,272689,128,2,272859:0:0:0:0:
182,192,272689,128,0,272859:0:0:0:0:
329,192,272689,128,0,272859:0:0:0:0:
109,192,272859,128,2,273200:0:0:0:0:
256,192,272859,128,4,273200:0:0:0:0:
402,192,272859,128,0,273200:0:0:0:0:
36,192,273200,128,8,273371:0:0:0:0:
182,192,273200,128,0,273712:0:0:0:50:hihat.wav
329,192,273200,128,0,273371:0:0:0:0:
475,192,273200,128,0,273371:0:0:0:0:
109,192,273371,128,0,273541:0:0:0:0:
256,192,273371,128,0,273456:0:0:0:0:
402,192,273371,128,0,273541:0:0:0:0:
36,192,273541,128,2,273712:0:0:0:0:
256,192,273541,1,0,0:0:0:50:hihat.wav
329,192,273541,128,0,274053:0:0:0:0:
475,192,273541,128,0,273712:0:0:0:0:
109,192,273712,128,0,273797:0:0:0:0:
256,192,273712,128,0,273882:0:0:0:0:
402,192,273712,128,0,273882:0:0:0:0:
36,192,273882,128,8,274053:0:0:0:0:
109,192,273882,1,0,0:0:0:50:hihat.wav
182,192,273882,128,0,274053:0:0:0:0:
475,192,273882,128,0,274053:0:0:0:0:
109,192,274053,128,2,274734:0:0:0:0:
256,192,274053,128,0,274393:0:0:0:0:
402,192,274053,128,0,274734:0:0:0:0:
182,192,274393,1,0,0:0:0:0:
329,192,274393,1,0,0:0:0:0:
475,192,274393,1,0,0:0:0:0:
36,192,274564,1,8,0:0:0:0:
182,192,274564,1,0,0:0:0:50:hihat.wav
256,192,274564,1,0,0:0:0:0:
329,192,274564,1,0,0:0:0:0:
36,192,274734,128,2,274905:0:0:0:0:
329,192,274734,128,0,274905:0:0:0:0:
475,192,274734,128,0,274820:0:0:0:0:
182,192,274820,128,0,274905:0:0:0:0:
256,192,274820,1,0,0:0:0:0:
109,192,274905,128,0,275075:0:0:0:50:hihat.wav
402,192,274905,128,0,275075:0:0:0:0:
475,192,274905,1,0,0:0:0:0:
256,192,274990,128,0,275075:0:0:0:0:
329,192,274990,1,0,0:0:0:0:
36,192,275075,128,2,275160:0:0:0:0:
182,192,275075,128,0,275246:0:0:0:0:
475,192,275075,128,0,275246:0:0:0:0:
329,192,275160,128,0,275246:0:0:0:0:
402,192,275160,1,0,0:0:0:0:
36,192,275246,1,8,0:0:0:0:
109,192,275246,1,0,0:0:0:50:hihat.wav
256,192,275246,128,0,275416:0:0:0:0:
402,192,275331,128,0,275416:0:0:0:0:
475,192,275331,1,0,0:0:0:0:
36,192,275416,1,2,0:0:0:0:
109,192,275416,1,0,0:0:0:0:
329,192,275416,128,0,275587:0:0:0:0:
182,192,275501,1,0,0:0:0:0:
402,192,275501,1,0,0:0:0:0:
36,192,275587,128,4,275672:0:0:0:0:
475,192,275587,128,0,276950:0:0:0:0:
256,192,275587,128,0,275757:0:0:0:0:
109,192,275587,128,2,275672:0:0:0:0:
329,192,275672,1,0,0:0:0:0:
402,192,275672,128,0,275842:0:0:0:0:
109,192,275757,1,0,0:0:0:0:
182,192,275757,128,0,275928:0:0:0:0:
256,192,275842,1,0,0:0:0:0:
329,192,275842,128,0,276013:0:0:0:0:
36,192,275928,1,0,0:0:0:70:ride01.wav
109,192,275928,128,0,276098:0:0:0:0:
182,192,276013,1,0,0:0:0:0:
256,192,276013,128,0,276183:0:0:0:0:
36,192,276098,128,0,276183:0:0:0:0:
329,192,276098,1,0,0:0:0:0:
402,192,276098,1,0,0:0:0:0:
109,192,276183,1,0,0:0:0:0:
182,192,276183,128,0,276268:0:0:0:0:
36,192,276268,128,8,276609:0:0:0:0:
256,192,276268,128,0,276439:0:0:0:70:ride02.wav
329,192,276268,1,0,0:0:0:0:
402,192,276268,128,0,276354:0:0:0:0:
109,192,276354,128,0,276439:0:0:0:0:
182,192,276354,1,0,0:0:0:0:
329,192,276439,128,0,276609:0:0:0:0:
402,192,276439,1,0,0:0:0:0:
182,192,276524,128,0,276609:0:0:0:0:
256,192,276524,1,0,0:0:0:0:
109,192,276609,1,0,0:0:0:70:ride01.wav
402,192,276609,128,0,276780:0:0:0:0:
256,192,276695,128,0,276780:0:0:0:0:
329,192,276695,1,0,0:0:0:0:
36,192,276780,1,2,0:0:0:0:
109,192,276780,128,4,276865:0:0:0:0:
182,192,276780,128,0,276950:0:0:0:0:
329,192,276865,128,0,276950:0:0:0:0:
402,192,276865,1,0,0:0:0:0:
36,192,276950,128,0,278229:0:0:0:70:ride01.wav
256,192,276950,128,0,277121:0:0:0:0:
109,192,277035,128,0,277206:0:0:0:0:
182,192,277035,1,0,0:0:0:0:
329,192,277121,128,2,277291:0:0:0:0:
402,192,277121,1,0,0:0:0:0:
475,192,277121,128,0,277206:0:0:0:0:
182,192,277206,128,0,277376:0:0:0:0:
256,192,277206,1,0,0:0:0:0:
109,192,277291,1,0,0:0:0:70:ride01.wav
402,192,277291,128,0,277462:0:0:0:0:
256,192,277376,128,0,277547:0:0:0:0:
329,192,277376,1,0,0:0:0:0:
182,192,277462,1,0,0:0:0:0:
475,192,277462,128,0,277547:0:0:0:0:
329,192,277547,128,0,277632:0:0:0:0:
402,192,277547,1,0,0:0:0:0:
109,192,277632,128,8,277717:0:0:0:0:
182,192,277632,1,0,0:0:0:70:ride02.wav
256,192,277632,128,0,277803:0:0:0:0:
475,192,277632,128,0,277888:0:0:0:0:
329,192,277717,1,0,0:0:0:0:
402,192,277717,128,0,277803:0:0:0:0:
109,192,277803,1,0,0:0:0:0:
182,192,277803,128,0,277973:0:0:0:0:
256,192,277888,1,0,0:0:0:0:
329,192,277888,128,0,277973:0:0:0:0:
109,192,277973,128,2,278143:0:0:0:0:
402,192,277973,1,0,0:0:0:70:ride01.wav
475,192,277973,128,0,278143:0:0:0:0:
182,192,278058,1,0,0:0:0:0:
256,192,278058,128,0,278143:0:0:0:0:
329,192,278143,1,0,0:0:0:0:
402,192,278143,128,0,278314:0:0:0:0:
109,192,278229,1,0,0:0:0:0:
182,192,278229,128,0,278314:0:0:0:0:
36,192,278314,128,2,278484:0:0:0:0:
256,192,278314,128,4,278484:0:0:0:0:
475,192,278314,128,0,278740:0:0:0:0:
329,192,278314,1,0,0:0:0:0:
182,192,278399,128,0,278570:0:0:0:0:
402,192,278399,128,0,278570:0:0:0:0:
109,192,278484,128,0,278655:0:0:0:0:
329,192,278484,128,0,278655:0:0:0:0:
36,192,278570,128,0,278740:0:0:0:0:
256,192,278570,128,0,278740:0:0:0:0:
182,192,278655,128,0,278910:0:0:0:50:hihat.wav
402,192,278655,128,0,278910:0:0:0:0:
109,192,278740,128,0,278825:0:0:0:0:
329,192,278740,128,0,278825:0:0:0:0:
36,192,278825,128,2,279251:0:0:0:0:
256,192,278825,128,0,278996:0:0:0:0:
475,192,278825,128,0,278910:0:0:0:0:
109,192,278910,128,0,279081:0:0:0:0:
329,192,278910,128,0,279081:0:0:0:0:
182,192,278996,128,8,279166:0:0:0:0:
402,192,278996,128,0,279081:0:0:0:0:
475,192,278996,128,0,279166:0:0:0:0:
256,192,279081,128,0,279251:0:0:0:0:
109,192,279166,128,2,279337:0:0:0:0:
329,192,279166,128,0,279251:0:0:0:0:
402,192,279166,128,0,279337:0:0:0:0:
182,192,279251,128,0,279422:0:0:0:0:
475,192,279251,128,0,279422:0:0:0:0:
36,192,279337,128,0,279507:0:0:0:50:hihat.wav
256,192,279337,128,0,279422:0:0:0:0:
329,192,279337,128,0,279507:0:0:0:0:
109,192,279422,128,0,279592:0:0:0:0:
402,192,279422,128,0,279592:0:0:0:0:
182,192,279507,128,2,279592:0:0:0:0:
256,192,279507,128,0,279678:0:0:0:0:
475,192,279507,128,0,279592:0:0:0:0:
36,192,279592,128,0,279678:0:0:0:0:
329,192,279592,128,0,279678:0:0:0:0:
109,192,279678,1,4,0:0:0:0:
182,192,279678,128,0,279848:0:0:0:0:
402,192,279678,1,0,0:0:0:0:
475,192,279678,128,0,279763:0:0:0:0:
256,192,279763,128,0,279848:0:0:0:0:
329,192,279763,1,0,0:0:0:0:
36,192,279848,1,8,0:0:0:0:
109,192,279848,128,0,280018:0:0:0:0:
402,192,279848,128,0,279933:0:0:0:0:
182,192,279933,128,0,280018:0:0:0:0:
256,192,279933,1,0,0:0:0:0:
36,192,280018,128,8,280189:0:0:0:0:
329,192,280018,128,0,280104:0:0:0:0:
475,192,280018,128,0,280104:0:0:0:0:
109,192,280104,128,0,280189:0:0:0:0:
182,192,280104,1,0,0:0:0:0:
256,192,280189,128,2,280359:0:0:0:0:
329,192,280189,1,8,0:0:0:0:
402,192,280189,128,0,280274:0:0:0:0:
475,192,280189,1,0,0:0:0:0:
182,192,280274,128,0,280359:0:0:0:0:
36,192,280359,128,2,280530:0:0:0:0:
109,192,280359,1,8,0:0:0:0:
329,192,280359,128,0,280530:0:0:0:0:
402,192,280359,1,0,0:0:0:0:
475,192,280359,128,0,280445:0:0:0:0:
182,192,280445,1,0,0:0:0:0:
256,192,280445,128,0,280530:0:0:0:0:
109,192,280530,128,0,280615:0:0:0:0:
402,192,280530,128,0,280700:0:0:0:0:
475,192,280530,1,0,0:0:0:0:
182,192,280615,128,8,280700:0:0:0:0:
256,192,280615,1,0,0:0:0:0:
329,192,280615,128,0,280700:0:0:0:0:
36,192,280700,1,8,0:0:0:0:
109,192,280700,128,0,280871:0:0:0:0:
475,192,280700,128,0,280785:0:0:0:0:
182,192,280785,1,8,0:0:0:0:
256,192,280785,128,0,280871:0:0:0:0:
329,192,280785,1,0,0:0:0:0:
36,192,280871,128,2,280956:0:0:0:0:
402,192,280871,128,0,280956:0:0:0:0:
475,192,280871,1,0,0:0:0:0:
182,192,280956,128,0,281041:0:0:0:0:
256,192,280956,1,0,0:0:0:0:
36,192,281041,128,4,281297:0:0:0:0:
109,192,281041,1,2,0:0:0:0:
329,192,281041,128,0,282575:0:0:0:0:
402,192,281041,1,0,0:0:0:0:
475,192,281041,128,0,282575:0:0:0:0:
36,192,281382,128,8,281467:0:0:0:0:
109,192,281382,1,0,0:0:0:50:hihat.wav
182,192,281382,1,0,0:0:0:0:
256,192,281382,128,0,281467:0:0:0:0:
109,192,281553,128,0,281638:0:0:0:0:
402,192,281553,1,0,0:0:0:0:
36,192,281723,1,2,0:0:0:0:
182,192,281723,128,0,281808:0:0:0:50:hihat.wav
402,192,281723,128,0,281808:0:0:0:0:
109,192,281893,128,2,281979:0:0:0:0:
256,192,281893,1,0,0:0:0:0:
36,192,282064,128,8,282149:0:0:0:0:
109,192,282064,1,0,0:0:0:50:hihat.wav
182,192,282064,1,0,0:0:0:0:
256,192,282064,128,0,282149:0:0:0:0:
402,192,282064,1,0,0:0:0:0:
109,192,282234,128,2,282405:0:0:0:0:
256,192,282234,1,0,0:0:0:0:
402,192,282234,128,0,282405:0:0:0:0:
182,192,282405,1,0,0:0:0:50:hihat.wav
36,192,282575,128,2,283428:0:0:0:0:
109,192,282575,1,0,0:0:0:0:
256,192,282575,128,0,282660:0:0:0:0:
402,192,282575,128,0,282660:0:0:0:0:
109,192,282746,128,8,283257:0:0:0:0:
182,192,282746,1,0,0:0:0:50:hihat.wav
329,192,282746,128,0,282831:0:0:0:0:
402,192,282746,1,0,0:0:0:0:
475,192,282746,1,0,0:0:0:0:
182,192,282916,128,0,283087:0:0:0:0:
256,192,282916,1,0,0:0:0:0:
402,192,282916,128,0,283087:0:0:0:0:
475,192,282916,128,0,283087:0:0:0:0:
256,192,283087,128,2,283172:0:0:0:0:
329,192,283087,1,0,0:0:0:50:hihat.wav
182,192,283257,128,2,283342:0:0:0:0:
256,192,283257,1,0,0:0:0:0:
402,192,283257,1,0,0:0:0:0:
475,192,283257,128,0,283768:0:0:0:0:
109,192,283428,128,8,283513:0:0:0:0:
182,192,283428,1,0,0:0:0:50:hihat.wav
256,192,283428,128,0,283513:0:0:0:0:
329,192,283428,1,0,0:0:0:0:
402,192,283428,128,0,283939:0:0:0:0:
36,192,283598,128,2,283683:0:0:0:0:
109,192,283598,1,0,0:0:0:0:
256,192,283598,1,0,0:0:0:0:
329,192,283598,128,0,283768:0:0:0:0:
36,192,283768,128,2,283939:0:0:0:0:
109,192,283768,128,4,283939:0:0:0:0:
182,192,283768,1,0,0:0:0:0:
256,192,283768,128,0,283939:0:0:0:0:
182,192,283939,128,0,284450:0:0:0:0:
329,192,283939,128,0,284024:0:0:0:0:
475,192,283939,128,0,284109:0:0:0:0:
36,192,284109,128,8,284280:0:0:0:0:
109,192,284109,1,0,0:0:0:50:hihat.wav
256,192,284109,128,0,284280:0:0:0:0:
329,192,284109,1,0,0:0:0:0:
402,192,284109,128,0,284280:0:0:0:0:
109,192,284280,128,0,284621:0:0:0:0:
329,192,284280,128,0,284450:0:0:0:0:
475,192,284280,128,0,284621:0:0:0:0:
36,192,284450,1,2,0:0:0:0:
256,192,284450,128,0,284621:0:0:0:50:hihat.wav
402,192,284450,128,0,284621:0:0:0:0:
36,192,284621,128,2,284791:0:0:0:0:
182,192,284621,128,0,284706:0:0:0:0:
329,192,284621,128,0,285132:0:0:0:0:
109,192,284791,128,8,284962:0:0:0:0:
182,192,284791,1,0,0:0:0:50:hihat.wav
256,192,284791,128,0,284962:0:0:0:0:
402,192,284791,1,0,0:0:0:0:
475,192,284791,128,0,284962:0:0:0:0:
36,192,284962,128,2,285303:0:0:0:0:
182,192,284962,128,0,285132:0:0:0:0:
402,192,284962,128,0,285303:0:0:0:0:
109,192,285132,128,0,285303:0:0:0:50:hihat.wav
256,192,285132,128,0,285303:0:0:0:0:
475,192,285132,1,0,0:0:0:0:
182,192,285303,128,2,285643:0:0:0:0:
329,192,285303,128,0,285388:0:0:0:0:
475,192,285303,128,0,285473:0:0:0:0:
36,192,285473,128,8,285643:0:0:0:0:
109,192,285473,1,0,0:0:0:50:hihat.wav
256,192,285473,128,0,285643:0:0:0:0:
329,192,285473,1,0,0:0:0:0:
402,192,285473,128,0,285814:0:0:0:0:
109,192,285643,128,0,286155:0:0:0:0:
329,192,285643,128,0,285984:0:0:0:0:
475,192,285643,128,0,285984:0:0:0:0:
36,192,285814,128,2,285984:0:0:0:0:
182,192,285814,128,0,285984:0:0:0:50:hihat.wav
256,192,285814,1,0,0:0:0:0:
256,192,285984,128,2,286155:0:0:0:0:
402,192,285984,128,0,286070:0:0:0:0:
36,192,286155,128,8,286325:0:0:0:0:
182,192,286155,128,0,286325:0:0:0:50:hihat.wav
329,192,286155,128,0,286325:0:0:0:0:
402,192,286155,1,0,0:0:0:0:
475,192,286155,128,0,286325:0:0:0:0:
109,192,286325,128,2,286410:0:0:0:0:
256,192,286325,128,0,286496:0:0:0:0:
402,192,286325,128,0,286496:0:0:0:0:
36,192,286496,128,2,286837:0:0:0:0:
109,192,286496,1,4,0:0:0:0:
182,192,286496,128,0,286666:0:0:0:0:
329,192,286496,128,0,286666:0:0:0:0:
475,192,286496,128,0,286666:0:0:0:0:
256,192,286666,1,0,0:0:0:0:
402,192,286666,128,0,286837:0:0:0:0:
109,192,286837,128,8,287007:0:0:0:0:
182,192,286837,1,0,0:0:0:50:hihat.wav
256,192,286837,128,0,287007:0:0:0:0:
329,192,286837,1,0,0:0:0:0:
475,192,286837,128,0,287007:0:0:0:0:
36,192,287007,128,0,287178:0:0:0:0:
182,192,287007,128,0,287348:0:0:0:0:
329,192,287007,128,0,287348:0:0:0:0:
402,192,287007,128,0,287178:0:0:0:0:
109,192,287178,128,2,287348:0:0:0:0:
475,192,287178,128,0,287348:0:0:0:50:hihat.wav
36,192,287348,1,2,0:0:0:0:
256,192,287348,128,0,287689:0:0:0:0:
402,192,287348,128,0,287689:0:0:0:0:
36,192,287518,128,8,288030:0:0:0:0:
109,192,287518,128,0,287689:0:0:0:50:hihat.wav
182,192,287518,1,0,0:0:0:0:
329,192,287518,1,0,0:0:0:0:
475,192,287518,1,0,0:0:0:0:
182,192,287689,128,2,288030:0:0:0:0:
329,192,287689,128,0,288030:0:0:0:0:
475,192,287689,128,0,288030:0:0:0:0:
109,192,288030,128,2,288371:0:0:0:0:
256,192,288030,128,0,288371:0:0:0:0:
402,192,288030,1,0,0:0:0:0:
36,192,288200,1,8,0:0:0:0:
182,192,288200,1,0,0:0:0:50:hihat.wav
329,192,288200,1,0,0:0:0:0:
402,192,288200,128,0,288371:0:0:0:0:
475,192,288200,128,0,288371:0:0:0:0:
36,192,288371,128,0,288712:0:0:0:0:
182,192,288371,128,0,288712:0:0:0:0:
329,192,288371,128,0,288712:0:0:0:0:
109,192,288541,1,2,0:0:0:0:
256,192,288541,1,0,0:0:0:50:hihat.wav
402,192,288541,1,0,0:0:0:0:
475,192,288541,128,0,288712:0:0:0:0:
109,192,288712,128,2,288797:0:0:0:0:
256,192,288712,128,0,288882:0:0:0:0:
402,192,288712,128,0,288882:0:0:0:0:
36,192,288882,128,8,289053:0:0:0:0:
109,192,288882,1,0,0:0:0:50:hihat.wav
182,192,288882,128,0,289053:0:0:0:0:
329,192,288882,128,0,289053:0:0:0:0:
475,192,288882,128,0,289053:0:0:0:0:
109,192,289053,128,2,289223:0:0:0:0:
256,192,289053,128,0,289223:0:0:0:0:
402,192,289053,128,0,289138:0:0:0:0:
36,192,289223,1,2,0:0:0:0:
182,192,289223,1,4,0:0:0:0:
329,192,289223,128,0,289393:0:0:0:0:
402,192,289223,1,0,0:0:0:0:
475,192,289223,128,0,289308:0:0:0:0:
109,192,289308,128,0,289393:0:0:0:0:
256,192,289308,1,0,0:0:0:0:
402,192,289393,128,0,289564:0:0:0:0:
475,192,289393,1,0,0:0:0:0:
182,192,289479,128,0,289564:0:0:0:0:
329,192,289479,1,0,0:0:0:0:
36,192,289564,128,8,289734:0:0:0:0:
109,192,289564,1,0,0:0:0:50:hihat.wav
475,192,289564,128,0,289734:0:0:0:0:
256,192,289649,128,0,289734:0:0:0:0:
402,192,289649,1,0,0:0:0:0:
109,192,289734,128,0,289905:0:0:0:0:
182,192,289734,1,0,0:0:0:0:
329,192,289820,128,0,289905:0:0:0:0:
475,192,289820,1,0,0:0:0:0:
36,192,289905,128,2,289990:0:0:0:0:
182,192,289905,128,0,290075:0:0:0:50:hihat.wav
256,192,289990,1,0,0:0:0:0:
402,192,289990,128,0,290075:0:0:0:0:
36,192,290075,1,2,0:0:0:0:
109,192,290075,128,0,290246:0:0:0:0:
182,192,290160,1,0,0:0:0:0:
329,192,290160,128,0,290246:0:0:0:0:
36,192,290246,128,8,290416:0:0:0:0:
402,192,290246,1,0,0:0:0:50:hihat.wav
475,192,290246,128,0,290416:0:0:0:0:
109,192,290331,1,0,0:0:0:0:
256,192,290331,128,0,290416:0:0:0:0:
329,192,290416,1,2,0:0:0:0:
402,192,290416,128,4,290587:0:0:0:0:
36,192,290501,1,0,0:0:0:0:
182,192,290501,128,0,290587:0:0:0:0:
256,192,290587,1,0,0:0:0:50:hihat.wav
329,192,290587,128,0,290757:0:0:0:0:
475,192,290587,128,0,290672:0:0:0:0:
36,192,290672,1,0,0:0:0:0:
109,192,290672,128,0,290842:0:0:0:0:
182,192,290757,1,2,0:0:0:0:
256,192,290757,128,0,290842:0:0:0:0:
402,192,290757,128,0,290842:0:0:0:0:
36,192,290842,128,0,291013:0:0:0:0:
475,192,290842,128,0,290928:0:0:0:0:
109,192,290928,1,8,0:0:0:0:
182,192,290928,128,0,291098:0:0:0:50:hihat.wav
256,192,290928,1,0,0:0:0:0:
329,192,290928,128,0,291013:0:0:0:0:
402,192,291013,128,0,291183:0:0:0:0:
475,192,291013,1,0,0:0:0:0:
109,192,291098,128,2,291268:0:0:0:0:
256,192,291098,128,4,291268:0:0:0:0:
329,192,291098,1,0,0:0:0:0:
36,192,291183,1,0,0:0:0:0:
475,192,291183,128,0,291354:0:0:0:0:
182,192,291268,128,0,291439:0:0:0:50:hihat.wav
329,192,291268,128,0,291439:0:0:0:0:
402,192,291268,1,0,0:0:0:0:
36,192,291354,128,0,291439:0:0:0:0:
109,192,291354,1,0,0:0:0:0:
256,192,291439,128,2,291609:0:0:0:0:
402,192,291439,128,0,291524:0:0:0:0:
475,192,291439,1,0,0:0:0:0:
109,192,291524,128,0,291609:0:0:0:0:
182,192,291524,1,0,0:0:0:0:
36,192,291609,1,8,0:0:0:0:
329,192,291609,128,0,291780:0:0:0:50:hihat.wav
402,192,291609,1,0,0:0:0:0:
475,192,291609,128,0,291695:0:0:0:0:
182,192,291695,128,0,291780:0:0:0:0:
256,192,291695,1,0,0:0:0:0:
36,192,291780,1,0,0:0:0:70:tom3.wav
109,192,291780,1,0,0:0:0:0:
402,192,291780,1,0,0:0:0:0:
475,192,291780,1,0,0:0:0:0:
182,192,291865,1,0,0:0:0:70:tom4.wav
329,192,291865,1,0,0:0:0:0:
36,192,291950,128,2,292462:0:0:0:0:
109,192,291950,128,4,292121:0:0:0:0:
256,192,291950,1,0,0:0:0:0:
402,192,291950,128,0,292121:0:0:0:0:
475,192,291950,1,0,0:0:0:0:
182,192,292035,128,0,292291:0:0:0:0:
256,192,292121,128,0,292206:0:0:0:0:
475,192,292121,128,0,292291:0:0:0:0:
329,192,292206,128,0,292376:0:0:0:0:
109,192,292291,1,0,0:0:0:50:hihat.wav
256,192,292291,128,0,292462:0:0:0:0:
402,192,292291,1,0,0:0:0:0:
182,192,292376,128,0,292547:0:0:0:0:
109,192,292462,128,2,292632:0:0:0:0:
402,192,292462,128,0,292547:0:0:0:0:
475,192,292462,128,0,292973:0:0:0:0:
329,192,292547,128,0,292803:0:0:0:0:
36,192,292632,128,4,292803:0:0:0:0:
256,192,292632,128,8,292717:0:0:0:0:
402,192,292632,1,0,0:0:0:70:ride02.wav
182,192,292717,128,0,292888:0:0:0:0:
109,192,292803,1,2,0:0:0:0:
256,192,292803,128,0,292973:0:0:0:0:
402,192,292803,1,0,0:0:0:0:
329,192,292888,128,0,293058:0:0:0:0:
36,192,292973,128,0,293484:0:0:0:50:hihat.wav
109,192,292973,128,0,293143:0:0:0:0:
402,192,292973,128,0,293143:0:0:0:0:
182,192,293058,128,0,293314:0:0:0:0:
256,192,293143,128,4,293229:0:0:0:0:
475,192,293143,128,0,293314:0:0:0:0:
329,192,293229,128,0,293399:0:0:0:0:
109,192,293314,1,0,0:0:0:70:ride01.wav
256,192,293314,128,0,293484:0:0:0:0:
402,192,293314,1,0,0:0:0:0:
182,192,293399,128,0,293570:0:0:0:0:
109,192,293484,128,2,293655:0:0:0:0:
402,192,293484,128,0,293655:0:0:0:0:
475,192,293484,128,0,293996:0:0:0:0:
329,192,293570,128,0,293825:0:0:0:0:
36,192,293655,128,0,293825:0:0:0:50:hihat.wav
256,192,293655,128,0,293740:0:0:0:0:
182,192,293740,128,0,293910:0:0:0:0:
109,192,293825,1,2,0:0:0:0:
256,192,293825,128,0,293996:0:0:0:0:
402,192,293825,1,0,0:0:0:0:
329,192,293910,128,2,294081:0:0:0:0:
36,192,293996,128,4,294337:0:0:0:0:
109,192,293996,128,8,294166:0:0:0:0:
402,192,293996,128,0,294166:0:0:0:70:ride02.wav
182,192,294081,128,2,294337:0:0:0:0:
256,192,294166,128,2,294251:0:0:0:0:
475,192,294166,128,4,294337:0:0:0:0:
329,192,294251,128,0,294422:0:0:0:0:
109,192,294337,128,0,294507:0:0:0:50:hihat.wav
256,192,294337,1,0,0:0:0:0:
402,192,294337,128,0,294507:0:0:0:0:
182,192,294422,128,0,294592:0:0:0:0:
36,192,294507,1,2,0:0:0:0:
256,192,294507,128,0,294678:0:0:0:0:
475,192,294507,128,0,294592:0:0:0:0:
329,192,294592,128,0,294763:0:0:0:0:
36,192,294678,128,2,295189:0:0:0:0:
109,192,294678,128,4,294848:0:0:0:0:
402,192,294678,128,0,294848:0:0:0:70:ride01.wav
475,192,294678,1,0,0:0:0:0:
182,192,294763,128,0,295018:0:0:0:0:
256,192,294848,128,0,294933:0:0:0:0:
475,192,294848,128,0,295018:0:0:0:0:
329,192,294933,128,0,295104:0:0:0:0:
109,192,295018,1,0,0:0:0:50:hihat.wav
256,192,295018,128,0,295189:0:0:0:0:
402,192,295018,1,0,0:0:0:0:
182,192,295104,128,0,295274:0:0:0:0:
109,192,295189,128,2,295359:0:0:0:0:
402,192,295189,128,0,295274:0:0:0:0:
475,192,295189,128,0,295700:0:0:0:0:
329,192,295274,128,0,295530:0:0:0:0:
36,192,295359,128,4,295530:0:0:0:0:
256,192,295359,128,8,295445:0:0:0:0:
402,192,295359,1,0,0:0:0:70:ride02.wav
182,192,295445,128,0,295615:0:0:0:0:
109,192,295530,1,2,0:0:0:0:
256,192,295530,128,0,295700:0:0:0:0:
402,192,295530,1,0,0:0:0:0:
329,192,295615,128,0,295785:0:0:0:0:
36,192,295700,128,0,296212:0:0:0:50:hihat.wav
109,192,295700,128,0,295871:0:0:0:0:
402,192,295700,128,0,295871:0:0:0:0:
182,192,295785,128,0,296041:0:0:0:0:
256,192,295871,128,2,295956:0:0:0:0:
475,192,295871,128,4,296041:0:0:0:0:
329,192,295956,128,0,296126:0:0:0:0:
109,192,296041,1,0,0:0:0:70:ride01.wav
256,192,296041,128,0,296212:0:0:0:0:
402,192,296041,1,0,0:0:0:0:
182,192,296126,128,0,296297:0:0:0:0:
109,192,296212,128,2,296382:0:0:0:0:
402,192,296212,128,0,296297:0:0:0:0:
475,192,296212,128,0,296553:0:0:0:0:
329,192,296297,128,0,296553:0:0:0:0:
36,192,296382,128,0,296553:0:0:0:50:hihat.wav
256,192,296382,128,0,296467:0:0:0:0:
402,192,296382,1,0,0:0:0:0:
182,192,296467,128,0,296638:0:0:0:0:
109,192,296553,128,2,296723:0:0:0:0:
256,192,296553,1,0,0:0:0:0:
402,192,296553,128,0,296638:0:0:0:0:
329,192,296638,128,2,296723:0:0:0:0:
36,192,296723,128,4,296893:0:0:0:0:
182,192,296723,1,8,0:0:0:0:
256,192,296723,128,0,296893:0:0:0:70:ride02.wav
475,192,296723,128,0,296893:0:0:0:0:
109,192,296808,128,0,296979:0:0:0:0:
402,192,296808,128,0,296979:0:0:0:0:
182,192,296893,128,4,297064:0:0:0:0:
329,192,296893,128,0,297064:0:0:0:50:hihat.wav
36,192,297064,1,8,0:0:0:0:
109,192,297064,1,0,0:0:0:70:ride02.wav
256,192,297064,1,0,0:0:0:0:
402,192,297064,1,0,0:0:0:0:
475,192,297064,1,0,0:0:0:0:
182,192,297149,1,8,0:0:0:0:
329,192,297149,1,0,0:0:0:0:
36,192,297234,1,2,0:0:0:0:
109,192,297234,1,0,0:0:0:0:
256,192,297234,1,0,0:0:0:0:
402,192,297234,1,0,0:0:0:0:
475,192,297234,1,0,0:0:0:0:
182,192,297320,1,2,0:0:0:0:
329,192,297320,1,0,0:0:0:0:
36,192,297405,128,2,297660:0:0:0:0:
109,192,297405,128,4,297660:0:0:0:0:
256,192,297405,128,0,297575:0:0:0:0:
402,192,297405,1,0,0:0:0:0:
475,192,297405,128,0,297660:0:0:0:0:
329,192,297490,1,0,0:0:0:0:
182,192,297575,1,0,0:0:0:0:
402,192,297575,128,0,297660:0:0:0:0:
256,192,297660,1,0,0:0:0:0:
36,192,297746,128,8,298001:0:0:0:0:
109,192,297746,1,0,0:0:0:50:hihat.wav
182,192,297746,128,0,298001:0:0:0:0:
329,192,297746,128,0,297916:0:0:0:0:
475,192,297746,1,0,0:0:0:0:
402,192,297831,1,0,0:0:0:0:
256,192,297916,1,0,0:0:0:0:
475,192,297916,128,0,298001:0:0:0:0:
329,192,298001,1,0,0:0:0:0:
36,192,298087,1,2,0:0:0:0:
109,192,298087,128,0,298342:0:0:0:50:hihat.wav
182,192,298087,1,0,0:0:0:0:
256,192,298087,128,0,298342:0:0:0:0:
402,192,298087,128,0,298257:0:0:0:0:
475,192,298172,1,0,0:0:0:0:
36,192,298257,128,0,298342:0:0:0:0:
329,192,298257,1,0,0:0:0:0:
402,192,298342,1,0,0:0:0:0:
109,192,298428,1,8,0:0:0:0:
182,192,298428,128,0,298683:0:0:0:50:hihat.wav
256,192,298428,1,0,0:0:0:0:
329,192,298428,128,0,298683:0:0:0:0:
475,192,298428,128,0,298598:0:0:0:0:
36,192,298513,1,0,0:0:0:0:
109,192,298598,128,2,298683:0:0:0:0:
402,192,298598,1,0,0:0:0:0:
475,192,298683,1,0,0:0:0:0:
109,192,298768,128,0,299024:0:0:0:50:hihat.wav
182,192,298768,1,0,0:0:0:0:
256,192,298768,128,0,299024:0:0:0:0:
329,192,298768,1,0,0:0:0:0:
402,192,298768,128,0,298939:0:0:0:0:
475,192,298854,1,0,0:0:0:0:
36,192,298939,128,2,299024:0:0:0:0:
329,192,298939,1,0,0:0:0:0:
402,192,299024,1,0,0:0:0:0:
109,192,299109,1,8,0:0:0:0:
182,192,299109,128,0,299365:0:0:0:50:hihat.wav
256,192,299109,1,0,0:0:0:0:
329,192,299109,128,0,299365:0:0:0:0:
475,192,299109,128,0,299280:0:0:0:0:
36,192,299195,1,0,0:0:0:0:
109,192,299280,128,2,299365:0:0:0:0:
402,192,299280,1,4,0:0:0:0:
475,192,299365,1,0,0:0:0:0:
36,192,299450,128,0,299621:0:0:0:50:hihat.wav
182,192,299450,1,0,0:0:0:0:
256,192,299450,128,0,299706:0:0:0:0:
329,192,299450,1,0,0:0:0:0:
402,192,299450,128,0,299706:0:0:0:0:
109,192,299535,1,0,0:0:0:0:
182,192,299621,1,2,0:0:0:0:
475,192,299621,128,0,299706:0:0:0:0:
109,192,299706,1,0,0:0:0:0:
36,192,299791,128,8,299962:0:0:0:0:
182,192,299791,1,0,0:0:0:50:hihat.wav
329,192,299791,1,0,0:0:0:0:
402,192,299791,128,0,299876:0:0:0:0:
475,192,299791,128,0,299962:0:0:0:0:
109,192,299876,128,0,300047:0:0:0:0:
256,192,299876,1,0,0:0:0:0:
182,192,299962,128,2,300132:0:0:0:0:
329,192,299962,1,0,0:0:0:0:
256,192,300047,128,0,300132:0:0:0:0:
402,192,300047,1,0,0:0:0:0:
36,192,300132,128,2,300729:0:0:0:0:
109,192,300132,128,4,300729:0:0:0:0:
329,192,300132,1,0,0:0:0:0:
475,192,300132,128,0,300217:0:0:0:0:
256,192,300303,1,0,0:0:0:0:
402,192,300303,128,0,300388:0:0:0:0:
182,192,300473,1,4,0:0:0:0:
329,192,300473,128,0,300558:0:0:0:0:
256,192,300643,128,2,300729:0:0:0:0:
402,192,300643,1,0,0:0:0:0:
36,192,300814,1,8,0:0:0:0:
109,192,300814,128,0,301410:0:0:0:0:
182,192,300814,128,0,301410:0:0:0:0:
402,192,300814,128,0,300899:0:0:0:0:
475,192,300814,1,0,0:0:0:0:
329,192,300984,128,2,301070:0:0:0:0:
402,192,300984,1,0,0:0:0:0:
36,192,301155,1,8,0:0:0:0:
256,192,301155,128,0,301240:0:0:0:0:
475,192,301155,1,0,0:0:0:0:
402,192,301240,1,8,0:0:0:0:
329,192,301325,1,0,0:0:0:70:tom2.wav
475,192,301325,128,0,301410:0:0:0:0:
256,192,301410,1,0,0:0:0:70:tom3.wav
36,192,301496,128,2,301581:0:0:0:0:
182,192,301496,1,4,0:0:0:0:
329,192,301496,1,0,0:0:0:0:
402,192,301496,128,0,302092:0:0:0:0:
475,192,301496,128,0,302092:0:0:0:0:
109,192,301666,128,0,301751:0:0:0:0:
256,192,301666,1,0,0:0:0:0:
182,192,301837,128,0,301922:0:0:0:0:
329,192,301837,1,0,0:0:0:0:
109,192,302007,1,2,0:0:0:0:
256,192,302007,128,0,302092:0:0:0:0:
36,192,302178,1,8,0:0:0:0:
109,192,302178,128,0,302263:0:0:0:0:
329,192,302178,128,0,302774:0:0:0:0:
402,192,302178,128,0,302774:0:0:0:0:
475,192,302178,1,0,0:0:0:0:
109,192,302348,1,0,0:0:0:0:
182,192,302348,128,0,302433:0:0:0:0:
36,192,302518,128,2,302774:0:0:0:0:
109,192,302518,128,0,302774:0:0:0:0:
256,192,302518,128,0,302774:0:0:0:0:
475,192,302518,128,0,302774:0:0:0:0:
36,192,302859,128,2,303371:0:0:0:0:
109,192,302859,1,4,0:0:0:0:
182,192,302859,128,0,303371:0:0:0:0:
329,192,302859,128,0,304734:0:0:0:0:
402,192,302859,1,0,0:0:0:0:
475,192,302859,128,0,303371:0:0:0:0:
256,192,303030,1,0,0:0:0:0:
109,192,303200,1,0,0:0:0:50:hihat.wav
402,192,303371,1,2,0:0:0:0:
36,192,303541,128,8,304734:0:0:0:0:
109,192,303541,1,0,0:0:0:0:
182,192,303541,128,0,304905:0:0:0:0:
256,192,303541,1,0,0:0:0:0:
475,192,303541,128,0,304905:0:0:0:0:
402,192,303712,1,0,0:0:0:0:
109,192,303882,1,0,0:0:0:50:hihat.wav
256,192,304053,1,2,0:0:0:0:
402,192,304053,1,4,0:0:0:0:
109,192,304223,1,0,0:0:0:0:
402,192,304393,1,6,0:0:0:0:
109,192,304564,1,0,0:0:0:50:hihat.wav
256,192,304734,1,2,0:0:0:0:
36,192,304905,128,8,305416:0:0:0:0:
109,192,304905,1,0,0:0:0:0:
256,192,304905,128,0,306780:0:0:0:0:
329,192,304905,128,0,305246:0:0:0:0:
402,192,304905,128,0,305246:0:0:0:0:
475,192,305075,1,0,0:0:0:0:
109,192,305246,1,0,0:0:0:50:hihat.wav
109,192,305416,128,2,306098:0:0:0:0:
182,192,305416,1,4,0:0:0:0:
329,192,305416,1,0,0:0:0:0:
402,192,305416,128,0,306780:0:0:0:0:
475,192,305416,128,0,306098:0:0:0:0:
36,192,305757,1,4,0:0:0:0:
182,192,305928,1,0,0:0:0:50:hihat.wav
329,192,306098,1,2,0:0:0:0:
36,192,306268,1,8,0:0:0:0:
109,192,306268,128,0,307632:0:0:0:0:
182,192,306268,1,0,0:0:0:0:
475,192,306268,128,0,307632:0:0:0:0:
329,192,306439,1,0,0:0:0:0:
36,192,306609,1,0,0:0:0:50:hihat.wav
182,192,306780,128,2,307462:0:0:0:0:
329,192,306780,128,0,308314:0:0:0:0:
402,192,306950,1,0,0:0:0:0:
256,192,307121,1,2,0:0:0:0:
36,192,307291,1,0,0:0:0:50:hihat.wav
402,192,307462,1,2,0:0:0:0:
36,192,307632,128,8,308143:0:0:0:0:
182,192,307632,128,0,308314:0:0:0:0:
256,192,307632,1,0,0:0:0:0:
402,192,307632,128,0,308143:0:0:0:0:
475,192,307803,1,2,0:0:0:0:
109,192,307973,1,2,0:0:0:0:
256,192,307973,1,4,0:0:0:0:
36,192,308314,128,2,310018:0:0:0:0:
109,192,308314,128,4,308825:0:0:0:0:
256,192,308314,128,0,308825:0:0:0:0:
402,192,308314,128,0,309848:0:0:0:0:
475,192,308314,1,0,0:0:0:0:
329,192,308484,1,0,0:0:0:0:
182,192,308655,1,0,0:0:0:50:hihat.wav
329,192,308825,1,2,0:0:0:0:
109,192,308996,128,8,309848:0:0:0:0:
182,192,308996,1,0,0:0:0:0:
256,192,308996,128,0,309848:0:0:0:0:
475,192,308996,1,0,0:0:0:0:
329,192,309166,1,0,0:0:0:0:
475,192,309337,1,0,0:0:0:50:hihat.wav
182,192,309507,1,2,0:0:0:0:
329,192,309507,1,4,0:0:0:0:
182,192,309848,128,2,310018:0:0:0:0:
329,192,309848,128,4,310018:0:0:0:0:
475,192,309848,128,0,310189:0:0:0:0:
109,192,310018,128,0,310189:0:0:0:50:hihat.wav
256,192,310018,128,0,310359:0:0:0:0:
402,192,310018,1,0,0:0:0:0:
36,192,310189,128,2,310530:0:0:0:0:
329,192,310189,1,0,0:0:0:0:
402,192,310189,128,0,310359:0:0:0:0:
109,192,310359,1,8,0:0:0:0:
182,192,310359,128,0,310530:0:0:0:0:
329,192,310359,128,0,310700:0:0:0:0:
475,192,310359,128,0,310530:0:0:0:0:
109,192,310530,128,0,310700:0:0:0:0:
256,192,310530,1,0,0:0:0:0:
402,192,310530,1,0,0:0:0:0:
36,192,310700,1,0,0:0:0:50:hihat.wav
256,192,310700,128,0,311041:0:0:0:0:
475,192,310700,128,0,310785:0:0:0:0:
182,192,310785,128,0,310871:0:0:0:0:
329,192,310785,1,0,0:0:0:0:
36,192,310871,128,2,311212:0:0:0:0:
109,192,310871,128,4,311212:0:0:0:0:
402,192,310871,128,0,311041:0:0:0:0:
475,192,310871,1,0,0:0:0:0:
182,192,311041,1,0,0:0:0:0:
329,192,311041,128,0,311212:0:0:0:0:
182,192,311212,128,4,311382:0:0:0:0:
256,192,311212,1,0,0:0:0:0:
402,192,311212,128,0,311382:0:0:0:0:
36,192,311382,128,0,311723:0:0:0:50:hihat.wav
109,192,311382,1,0,0:0:0:0:
256,192,311382,128,0,311723:0:0:0:0:
329,192,311382,128,0,311553:0:0:0:0:
475,192,311382,128,0,311553:0:0:0:0:
109,192,311553,128,2,311893:0:0:0:0:
182,192,311553,1,0,0:0:0:0:
402,192,311553,1,0,0:0:0:0:
182,192,311723,128,8,311893:0:0:0:0:
329,192,311723,1,0,0:0:0:0:
402,192,311723,128,0,312064:0:0:0:0:
475,192,311723,128,0,311893:0:0:0:0:
36,192,311893,128,0,312064:0:0:0:0:
256,192,311893,1,0,0:0:0:0:
329,192,311893,128,0,311979:0:0:0:0:
109,192,312064,128,0,312320:0:0:0:50:hihat.wav
182,192,312064,1,0,0:0:0:0:
256,192,312064,128,0,312234:0:0:0:0:
475,192,312064,1,0,0:0:0:0:
329,192,312149,128,0,312320:0:0:0:0:
36,192,312234,128,2,312490:0:0:0:0:
182,192,312234,128,4,312405:0:0:0:0:
402,192,312234,128,0,312320:0:0:0:0:
475,192,312234,128,0,312490:0:0:0:0:
256,192,312320,128,0,312490:0:0:0:0:
109,192,312405,128,0,312660:0:0:0:0:
329,192,312405,128,0,312490:0:0:0:0:
402,192,312405,128,0,312660:0:0:0:0:
182,192,312490,128,0,312575:0:0:0:0:
36,192,312575,128,2,312831:0:0:0:0:
256,192,312575,128,4,312746:0:0:0:0:
329,192,312575,128,0,312660:0:0:0:0:
475,192,312575,128,0,312831:0:0:0:0:
182,192,312660,128,0,312831:0:0:0:0:
109,192,312746,128,0,313001:0:0:0:50:hihat.wav
329,192,312746,128,0,312916:0:0:0:0:
402,192,312746,128,0,312831:0:0:0:0:
256,192,312831,128,0,312916:0:0:0:0:
36,192,312916,128,2,313001:0:0:0:0:
182,192,312916,128,4,313001:0:0:0:0:
402,192,312916,128,0,313087:0:0:0:0:
475,192,312916,1,0,0:0:0:0:
256,192,313001,128,0,313087:0:0:0:0:
329,192,313001,1,0,0:0:0:0:
36,192,313087,128,8,313172:0:0:0:0:
109,192,313087,1,0,0:0:0:0:
182,192,313087,128,0,313257:0:0:0:0:
475,192,313087,128,0,313342:0:0:0:0:
256,192,313172,1,8,0:0:0:0:
402,192,313172,128,0,313342:0:0:0:0:
36,192,313257,1,0,0:0:0:0:
109,192,313257,128,0,313428:0:0:0:0:
329,192,313257,128,0,313342:0:0:0:0:
182,192,313342,1,8,0:0:0:0:
256,192,313342,128,0,313428:0:0:0:0:
36,192,313428,128,2,313683:0:0:0:0:
329,192,313428,128,0,313598:0:0:0:0:
402,192,313428,1,0,0:0:0:0:
475,192,313428,128,0,313513:0:0:0:0:
109,192,313513,128,2,313683:0:0:0:0:
256,192,313513,1,0,0:0:0:0:
182,192,313598,128,0,313683:0:0:0:70:tom3.wav
402,192,313598,128,0,313768:0:0:0:0:
475,192,313598,1,0,0:0:0:0:
256,192,313683,128,0,313768:0:0:0:70:tom4.wav
329,192,313683,1,0,0:0:0:0:
36,192,313768,128,2,314365:0:0:0:0:
109,192,313768,1,4,0:0:0:0:
182,192,313768,1,0,0:0:0:0:
475,192,313768,128,0,314365:0:0:0:0:
109,192,314109,1,8,0:0:0:0:
182,192,314109,1,0,0:0:0:50:hihat.wav
256,192,314109,1,0,0:0:0:0:
329,192,314109,1,0,0:0:0:0:
402,192,314109,1,0,0:0:0:0:
109,192,314280,128,0,314365:0:0:0:0:
182,192,314280,1,0,0:0:0:0:
256,192,314280,128,0,314450:0:0:0:0:
329,192,314365,1,0,0:0:0:0:
402,192,314365,128,0,314535:0:0:0:0:
36,192,314450,128,2,314535:0:0:0:0:
109,192,314450,1,0,0:0:0:50:hihat.wav
182,192,314450,128,0,314621:0:0:0:0:
475,192,314450,1,0,0:0:0:0:
256,192,314535,1,0,0:0:0:0:
329,192,314535,128,0,314706:0:0:0:0:
36,192,314621,1,2,0:0:0:0:
109,192,314621,128,0,314791:0:0:0:0:
402,192,314621,1,0,0:0:0:0:
475,192,314621,128,0,314706:0:0:0:0:
182,192,314706,1,0,0:0:0:0:
256,192,314706,128,0,314876:0:0:0:0:
36,192,314791,128,8,314962:0:0:0:0:
329,192,314791,1,0,0:0:0:50:hihat.wav
402,192,314791,128,0,314876:0:0:0:0:
475,192,314791,1,0,0:0:0:0:
109,192,314876,1,0,0:0:0:0:
182,192,314962,1,2,0:0:0:0:
256,192,314962,128,4,315303:0:0:0:0:
329,192,314962,128,0,315132:0:0:0:0:
402,192,314962,1,0,0:0:0:0:
475,192,314962,128,0,315303:0:0:0:0:
36,192,315303,1,2,0:0:0:0:
182,192,315303,128,0,315473:0:0:0:0:
329,192,315303,1,0,0:0:0:0:
402,192,315303,128,0,315473:0:0:0:0:
109,192,315473,128,8,315643:0:0:0:0:
256,192,315473,1,0,0:0:0:50:hihat.wav
329,192,315473,128,0,315643:0:0:0:0:
475,192,315473,128,0,315814:0:0:0:0:
36,192,315643,128,0,316155:0:0:0:0:
182,192,315643,1,0,0:0:0:0:
256,192,315643,128,0,315814:0:0:0:0:
329,192,315729,1,0,0:0:0:0:
109,192,315814,1,2,0:0:0:0:
182,192,315814,128,0,315984:0:0:0:50:hihat.wav
402,192,315814,128,0,315984:0:0:0:0:
256,192,315984,128,2,316155:0:0:0:0:
329,192,315984,1,0,0:0:0:0:
475,192,315984,128,0,316325:0:0:0:0:
109,192,316155,128,8,316325:0:0:0:0:
182,192,316155,1,0,0:0:0:50:hihat.wav
329,192,316155,128,0,316325:0:0:0:0:
402,192,316155,1,0,0:0:0:0:
36,192,316325,128,2,317178:0:0:0:0:
182,192,316325,128,4,316837:0:0:0:0:
256,192,316325,1,0,0:0:0:0:
402,192,316325,128,0,316666:0:0:0:0:
109,192,316496,128,0,316666:0:0:0:50:hihat.wav
329,192,316496,128,0,316666:0:0:0:0:
256,192,316666,1,2,0:0:0:0:
475,192,316666,1,0,0:0:0:0:
109,192,316837,1,8,0:0:0:0:
329,192,316837,128,0,316879:0:0:0:50:hihat.wav
475,192,316837,128,0,316879:0:0:0:0:
256,192,316922,128,0,316964:0:0:0:0:
402,192,316922,128,0,316964:0:0:0:0:
182,192,317007,128,0,317050:0:0:0:0:
329,192,317007,128,0,317050:0:0:0:0:
109,192,317178,128,2,317348:0:0:0:0:
182,192,317178,128,0,317348:0:0:0:50:hihat.wav
256,192,317178,1,0,0:0:0:0:
329,192,317178,128,0,317348:0:0:0:0:
475,192,317178,128,0,317518:0:0:0:0:
36,192,317348,128,2,317689:0:0:0:0:
256,192,317348,128,0,317518:0:0:0:0:
402,192,317348,1,0,0:0:0:0:
109,192,317518,1,8,0:0:0:0:
182,192,317518,128,0,317689:0:0:0:50:hihat.wav
329,192,317518,1,0,0:0:0:0:
402,192,317518,128,0,317689:0:0:0:0:
109,192,317689,128,2,318030:0:0:0:0:
256,192,317689,1,4,0:0:0:0:
329,192,317689,128,0,317859:0:0:0:0:
475,192,317689,1,0,0:0:0:0:
182,192,317859,128,0,318030:0:0:0:50:hihat.wav
402,192,317859,128,0,318030:0:0:0:0:
36,192,318030,128,2,318285:0:0:0:0:
256,192,318030,1,0,0:0:0:0:
329,192,318030,128,0,318115:0:0:0:0:
475,192,318030,1,0,0:0:0:0:
109,192,318115,128,0,318200:0:0:0:0:
182,192,318200,128,8,318456:0:0:0:0:
329,192,318200,1,0,0:0:0:50:hihat.wav
402,192,318200,128,0,318285:0:0:0:0:
475,192,318200,128,0,318285:0:0:0:0:
109,192,318285,1,0,0:0:0:0:
256,192,318285,128,0,318371:0:0:0:0:
36,192,318371,128,2,318541:0:0:0:0:
329,192,318371,128,4,318626:0:0:0:0:
475,192,318371,1,0,0:0:0:0:
109,192,318456,128,0,318626:0:0:0:0:
256,192,318456,1,0,0:0:0:0:
402,192,318456,128,0,318541:0:0:0:0:
182,192,318541,128,0,318712:0:0:0:50:hihat.wav
475,192,318541,128,0,318797:0:0:0:0:
256,192,318626,128,0,318797:0:0:0:0:
402,192,318626,1,0,0:0:0:0:
36,192,318712,128,2,318882:0:0:0:0:
329,192,318712,128,0,318882:0:0:0:0:
109,192,318797,128,2,318882:0:0:0:0:
402,192,318797,128,0,318882:0:0:0:0:
182,192,318882,1,8,0:0:0:0:
256,192,318882,1,0,0:0:0:0:
475,192,318882,1,0,0:0:0:0:
109,192,318967,1,8,0:0:0:0:
402,192,318967,1,0,0:0:0:0:
36,192,319053,1,0,0:0:0:70:tom2.wav
256,192,319053,1,0,0:0:0:0:
329,192,319053,1,0,0:0:0:0:
182,192,319138,1,0,0:0:0:70:tom3.wav
475,192,319138,1,0,0:0:0:0:
36,192,319223,128,2,319487:0:0:0:0:
109,192,319223,128,4,319487:0:0:0:0:
256,192,319223,1,0,0:0:0:0:
402,192,319223,1,0,0:0:0:0:
329,192,319311,1,0,0:0:0:0:
182,192,319399,1,0,0:0:0:0:
402,192,319399,128,0,319487:0:0:0:0:
256,192,319487,1,0,0:0:0:0:
36,192,319575,1,0,0:0:0:70:ride01.wav
109,192,319575,128,0,319840:0:0:0:0:
182,192,319575,128,0,319840:0:0:0:0:
329,192,319575,1,0,0:0:0:0:
402,192,319664,1,0,0:0:0:0:
256,192,319752,1,2,0:0:0:0:
475,192,319752,128,0,319840:0:0:0:0:
329,192,319840,1,0,0:0:0:0:
36,192,319928,1,8,0:0:0:0:
109,192,319928,1,0,0:0:0:70:ride02.wav
182,192,319928,128,0,320193:0:0:0:0:
256,192,319928,128,0,320193:0:0:0:0:
402,192,319928,1,0,0:0:0:0:
475,192,320017,1,0,0:0:0:0:
36,192,320105,128,0,320193:0:0:0:0:
329,192,320105,1,0,0:0:0:0:
402,192,320193,1,0,0:0:0:0:
182,192,320281,1,2,0:0:0:0:
256,192,320281,128,0,320546:0:0:0:70:ride01.wav
329,192,320281,128,0,320546:0:0:0:0:
475,192,320281,1,0,0:0:0:0:
36,192,320370,1,0,0:0:0:0:
109,192,320458,128,2,320546:0:0:0:0:
402,192,320458,1,4,0:0:0:0:
475,192,320546,1,0,0:0:0:0:
109,192,320634,1,0,0:0:0:70:ride01.wav
182,192,320634,128,0,320911:0:0:0:0:
256,192,320634,128,0,320911:0:0:0:0:
402,192,320634,1,0,0:0:0:0:
475,192,320726,1,0,0:0:0:0:
36,192,320819,128,0,320911:0:0:0:0:
329,192,320819,1,0,0:0:0:0:
402,192,320911,1,0,0:0:0:0:
182,192,321004,1,2,0:0:0:0:
256,192,321004,128,0,321282:0:0:0:70:ride01.wav
329,192,321004,128,0,321282:0:0:0:0:
475,192,321004,1,0,0:0:0:0:
36,192,321096,1,0,0:0:0:0:
109,192,321189,128,0,321282:0:0:0:0:
402,192,321189,1,0,0:0:0:0:
475,192,321282,1,0,0:0:0:0:
36,192,321374,1,8,0:0:0:0:
182,192,321374,1,0,0:0:0:70:ride02.wav
256,192,321374,1,0,0:0:0:0:
329,192,321374,128,0,321652:0:0:0:0:
402,192,321374,128,0,321652:0:0:0:0:
109,192,321467,1,0,0:0:0:0:
182,192,321559,128,0,321652:0:0:0:0:
475,192,321559,1,0,0:0:0:0:
36,192,321652,1,0,0:0:0:0:
109,192,321745,1,2,0:0:0:0:
329,192,321745,1,0,0:0:0:70:ride01.wav
402,192,321745,128,0,322022:0:0:0:0:
475,192,321745,128,0,322022:0:0:0:0:
182,192,321837,1,0,0:0:0:0:
36,192,321930,1,2,0:0:0:0:
256,192,321930,128,4,322022:0:0:0:0:
109,192,322022,1,0,0:0:0:0:
36,192,322115,128,0,322415:0:0:0:70:ride01.wav
182,192,322115,128,0,322415:0:0:0:0:
329,192,322115,128,0,322415:0:0:0:0:
475,192,322115,128,0,322415:0:0:0:0:
256,192,322315,1,2,0:0:0:0:
109,192,322415,128,0,322715:0:0:0:0:
402,192,322415,128,0,322715:0:0:0:0:
36,192,322515,1,2,0:0:0:0:
475,192,322515,1,0,0:0:0:70:ride01.wav
182,192,322715,1,0,0:0:0:0:
256,192,322715,128,0,322915:0:0:0:0:
329,192,322715,1,0,0:0:0:0:
36,192,322915,1,8,0:0:0:0:
182,192,322915,128,0,323053:0:0:0:70:ride02.wav
329,192,322915,128,0,323053:0:0:0:0:
475,192,322915,1,0,0:0:0:0:
109,192,323053,128,0,323192:0:0:0:0:
256,192,323053,128,0,323192:0:0:0:0:
402,192,323053,128,0,323192:0:0:0:0:
36,192,323192,128,0,323435:0:0:0:0:
182,192,323192,128,0,323331:0:0:0:0:
329,192,323192,128,0,323331:0:0:0:0:
475,192,323192,128,0,323435:0:0:0:0:
109,192,323331,128,2,323435:0:0:0:0:
256,192,323331,128,0,323435:0:0:0:70:ride01.wav
402,192,323331,128,0,323435:0:0:0:0:
182,192,323435,128,0,323540:0:0:0:0:
329,192,323435,128,0,323540:0:0:0:0:
36,192,323540,128,2,323956:0:0:0:0:
109,192,323540,128,4,323644:0:0:0:0:
256,192,323540,128,0,323644:0:0:0:0:
402,192,323540,128,0,323644:0:0:0:0:
475,192,323540,128,0,323957:0:0:0:0:
182,192,323644,128,0,323957:0:0:0:0:
329,192,323644,128,0,323957:0:0:0:0:
256,192,323956,128,0,324397:0:0:0:0:
109,192,323957,128,8,324397:0:0:0:0:
402,192,323957,128,0,324397:0:0:0:0:
36,192,324397,1,2,0:0:0:0:
182,192,324397,128,0,324883:0:0:0:0:
329,192,324397,128,0,324883:0:0:0:0:
475,192,324397,128,0,324883:0:0:0:0:
36,192,324883,1,2,0:0:0:0:
109,192,324883,128,0,325225:0:0:0:0:
256,192,324883,128,0,325225:0:0:0:0:
402,192,324883,128,0,325225:0:0:0:0:
36,192,325225,128,2,325619:0:0:0:0:
182,192,325225,128,0,325619:0:0:0:0:
329,192,325225,128,0,325619:0:0:0:0:
475,192,325225,1,0,0:0:0:0:
109,192,325619,128,0,326198:0:0:0:0:
256,192,325619,128,0,326198:0:0:0:0:
402,192,325619,128,0,326198:0:0:0:0:
36,192,326198,128,0,330198:0:0:0:50:LR_Drum Soft Med Finish.wav
182,192,326198,1,0,0:0:0:70:sparker.wav
329,192,326198,128,0,326448:0:0:0:0:
475,192,326198,1,0,0:0:0:0:
182,192,326448,128,0,327198:0:0:0:0:
329,192,326698,128,0,326948:0:0:0:0:
475,192,326948,128,0,328198:0:0:0:0:
329,192,327198,128,0,327448:0:0:0:0:
182,192,327448,128,0,327698:0:0:0:0:
329,192,327698,128,0,327948:0:0:0:0:
182,192,327948,128,0,328698:0:0:0:0:
329,192,328198,128,0,328448:0:0:0:0:
475,192,328448,128,0,330073:0:0:0:0:
329,192,328698,128,0,329948:0:0:0:0:
182,192,328948,128,0,330073:0:0:0:0:
109,192,329198,128,0,329698:0:0:0:0:
256,192,329448,128,0,330010:0:0:0:0:
402,192,329698,128,0,330073:0:0:0:0:
109,192,329948,128,0,330135:0:0:0:0:
329,192,330073,128,0,330198:0:0:0:0:
256,192,330135,128,0,330260:0:0:0:0:
182,192,330198,128,0,330323:0:0:0:0:
402,192,330198,128,0,330448:0:0:0:0:
475,192,330198,128,0,332948:0:0:0:0:
109,192,330260,128,0,330385:0:0:0:0:
36,192,330323,128,0,330448:0:0:0:0:
256,192,330448,128,0,331198:0:0:0:0:
402,192,330698,128,0,330948:0:0:0:0:
36,192,330948,128,0,332198:0:0:0:0:
402,192,331198,128,0,331448:0:0:0:0:
256,192,331448,128,0,331698:0:0:0:0:
402,192,331698,128,0,331948:0:0:0:0:
256,192,331948,128,0,332698:0:0:0:0:
402,192,332198,128,0,332448:0:0:0:0:
36,192,332448,128,0,334198:0:0:0:0:
402,192,332698,128,0,332948:0:0:0:0:
256,192,332948,128,0,333198:0:0:0:0:
402,192,333198,128,0,333948:0:0:0:0:
475,192,333198,128,0,333948:0:0:0:0:
256,192,333448,128,0,333698:0:0:0:0:
109,192,333698,128,0,334198:0:0:0:0:
256,192,333948,128,0,334198:0:0:0:0:
475,192,334114,1,0,0:0:0:0:
402,192,334156,1,0,0:0:0:0:
182,192,334198,128,0,337948:0:0:0:0:
329,192,334198,128,0,334448:0:0:0:0:
36,192,334448,128,0,335198:0:0:0:0:
329,192,334698,128,0,334948:0:0:0:0:
475,192,334948,128,0,336198:0:0:0:0:
329,192,335198,128,0,335448:0:0:0:0:
36,192,335448,128,0,335698:0:0:0:0:
329,192,335698,128,0,335948:0:0:0:0:
36,192,335948,128,0,336698:0:0:0:0:
329,192,336198,128,0,336448:0:0:0:0:
475,192,336448,128,0,336948:0:0:0:0:
329,192,336698,128,0,337948:0:0:0:0:
36,192,336948,128,0,338198:0:0:0:0:
402,192,337198,128,0,338198:0:0:0:0:
475,192,337198,128,0,338198:0:0:0:0:
256,192,337448,128,0,337698:0:0:0:0:
109,192,337698,128,0,338198:0:0:0:0:
256,192,337948,128,0,338198:0:0:0:0:
182,192,338198,128,0,338448:0:0:0:0:
329,192,338198,128,0,341698:0:0:0:0:
36,192,338448,128,0,339198:0:0:0:0:
182,192,338698,128,0,338948:0:0:0:0:
475,192,338948,128,0,340198:0:0:0:0:
182,192,339198,128,0,339448:0:0:0:0:
36,192,339448,128,0,339698:0:0:0:0:
182,192,339698,128,0,339948:0:0:0:0:
36,192,339948,128,0,340698:0:0:0:0:
182,192,340198,128,0,340448:0:0:0:0:
256,192,340198,128,0,341198:0:0:0:0:
475,192,340448,128,0,341948:0:0:0:0:
182,192,340698,128,0,341448:0:0:0:0:
36,192,340948,128,0,341948:0:0:0:0:
109,192,341198,128,0,342198:0:0:0:0:
402,192,341198,128,0,342198:0:0:0:0:
256,192,341448,128,0,342198:0:0:0:0:
182,192,341698,128,0,342198:0:0:0:0:
329,192,341948,128,0,342198:0:0:0:0:
36,192,342198,128,0,343948:0:0:0:0:
475,192,342198,128,0,342698:0:0:0:0:
109,192,342448,1,0,0:0:0:0:
182,192,342448,128,0,343198:0:0:0:0:
256,192,342698,1,0,0:0:0:0:
329,192,342698,128,0,342948:0:0:0:0:
402,192,342948,1,0,0:0:0:0:
475,192,342948,128,0,343948:0:0:0:0:
329,192,343198,128,0,343448:0:0:0:0:
182,192,343448,128,0,343698:0:0:0:0:
329,192,343698,128,0,344198:0:0:0:0:
182,192,343948,128,0,344198:0:0:0:0:
36,192,344198,128,0,345948:0:0:0:0:
475,192,344198,128,0,344698:0:0:0:0:
109,192,344448,1,0,0:0:0:0:
182,192,344448,128,0,345198:0:0:0:0:
329,192,344698,128,0,345448:0:0:0:0:
402,192,344698,1,0,0:0:0:0:
256,192,344916,1,0,0:0:0:0:
109,192,344948,128,0,345698:0:0:0:0:
475,192,344948,128,0,345948:0:0:0:0:
256,192,345198,128,0,345448:0:0:0:0:
402,192,345198,1,0,0:0:0:0:
182,192,345448,1,0,0:0:0:0:
402,192,345448,128,0,346198:0:0:0:0:
256,192,345698,128,0,346198:0:0:0:0:
329,192,345698,1,0,0:0:0:0:
109,192,345948,128,0,346198:0:0:0:0:
182,192,345948,1,0,0:0:0:0:
36,192,346198,128,0,347948:0:0:0:0:
329,192,346198,1,0,0:0:0:0:
475,192,346198,128,0,346698:0:0:0:0:
182,192,346448,128,0,347198:0:0:0:0:
256,192,346448,1,0,0:0:0:0:
329,192,346698,128,0,346948:0:0:0:0:
402,192,346698,1,0,0:0:0:0:
109,192,346948,1,0,0:0:0:0:
475,192,346948,128,0,347948:0:0:0:0:
329,192,347198,128,0,347448:0:0:0:0:
182,192,347448,128,0,347698:0:0:0:0:
329,192,347698,128,0,348198:0:0:0:0:
182,192,347948,128,0,348198:0:0:0:0:
36,192,348198,128,0,349948:0:0:0:0:
475,192,348198,128,0,348698:0:0:0:0:
182,192,348448,128,0,350198:0:0:0:0:
256,192,348448,1,0,0:0:0:0:
329,192,348698,128,0,349698:0:0:0:0:
402,192,348698,1,0,0:0:0:0:
109,192,348948,1,0,0:0:0:0:
475,192,348948,128,0,349448:0:0:0:0:
256,192,349198,1,0,0:0:0:0:
402,192,349198,128,0,350198:0:0:0:0:
109,192,349448,1,0,0:0:0:0:
256,192,349448,128,0,349698:0:0:0:0:
109,192,349698,128,0,350198:0:0:0:0:
475,192,349698,1,0,0:0:0:0:
256,192,349948,128,0,350198:0:0:0:0:
329,192,349948,1,0,0:0:0:0:
36,192,350198,128,0,351948:0:0:0:0:
475,192,350198,128,0,350698:0:0:0:0:
109,192,350448,128,0,352198:0:0:0:0:
182,192,350698,1,0,0:0:0:0:
402,192,350698,128,0,352198:0:0:0:0:
256,192,350948,1,0,0:0:0:0:
475,192,350948,128,0,351948:0:0:0:0:
329,192,351198,128,0,351448:0:0:0:0:
182,192,351448,128,0,351698:0:0:0:0:
329,192,351698,128,0,352198:0:0:0:0:
182,192,351948,128,0,352198:0:0:0:0:
36,192,352198,128,0,354198:0:0:0:0:
475,192,352198,128,0,352698:0:0:0:0:
109,192,352448,128,0,353448:0:0:0:0:
402,192,352698,128,0,353698:0:0:0:0:
256,192,352948,1,0,0:0:0:0:
475,192,352948,128,0,354198:0:0:0:0:
182,192,353198,1,0,0:0:0:0:
256,192,353198,128,0,353698:0:0:0:0:
182,192,353448,128,0,354198:0:0:0:0:
329,192,353448,1,0,0:0:0:0:
109,192,353698,1,0,0:0:0:0:
329,192,353698,128,0,354198:0:0:0:0:
256,192,353948,128,0,354198:0:0:0:0:
402,192,353948,1,0,0:0:0:0:
109,192,354198,128,0,356198:0:0:0:0:
402,192,354198,128,0,354698:0:0:0:0:
36,192,354448,1,0,0:0:0:0:
182,192,354448,128,0,356198:0:0:0:0:
329,192,354698,128,0,356198:0:0:0:0:
475,192,354698,1,0,0:0:0:0:
256,192,354948,1,0,0:0:0:0:
402,192,354948,128,0,355948:0:0:0:0:
475,192,355198,128,0,355448:0:0:0:0:
36,192,355448,128,0,355698:0:0:0:0:
475,192,355698,128,0,356198:0:0:0:0:
36,192,355948,128,0,356198:0:0:0:0:
256,192,356198,128,0,356456:0:0:0:0:
402,192,356198,128,0,356715:0:0:0:0:
109,192,356456,128,0,357232:0:0:0:0:
36,192,356715,1,0,0:0:0:0:
256,192,356715,128,0,357497:0:0:0:0:
182,192,356973,1,0,0:0:0:0:
402,192,356973,128,0,357762:0:0:0:0:
36,192,357232,128,0,358322:0:0:0:0:
329,192,357232,1,0,0:0:0:0:
109,192,357497,1,0,0:0:0:0:
182,192,357497,128,0,358322:0:0:0:0:
256,192,357762,1,0,0:0:0:0:
329,192,357762,128,0,358322:0:0:0:0:
402,192,358028,1,0,0:0:0:0:
475,192,358028,128,0,358322:0:0:0:0:
109,192,358322,128,0,358871:0:0:0:0:
256,192,358322,128,0,358596:0:0:0:0:
36,192,358596,128,0,358871:0:0:0:0:
402,192,358596,128,0,359146:0:0:0:0:
182,192,358871,128,0,359420:0:0:0:0:
329,192,358871,128,0,359146:0:0:0:0:
109,192,359146,128,0,359420:0:0:0:0:
475,192,359146,128,0,359970:0:0:0:0:
256,192,359420,128,0,359970:0:0:0:0:
402,192,359420,128,0,360519:0:0:0:0:
36,192,359970,128,0,360245:0:0:0:0:
182,192,359970,128,0,360519:0:0:0:0:
36,192,360519,128,0,360791:0:0:0:0:
329,192,360519,128,0,361337:0:0:0:0:
475,192,360519,128,0,361883:0:0:0:0:
109,192,360791,128,0,361064:0:0:0:0:
182,192,361064,128,0,361337:0:0:0:0:
256,192,361337,128,0,361610:0:0:0:0:
36,192,361610,128,0,362429:0:0:0:0:
329,192,361610,128,0,362156:0:0:0:0:
402,192,361610,128,0,361883:0:0:0:0:
256,192,361883,128,0,362429:0:0:0:0:
182,192,362156,128,0,362702:0:0:0:0:
475,192,362156,128,0,362703:0:0:0:0:
109,192,362429,128,0,362974:0:0:0:0:
402,192,362429,128,0,362702:0:0:0:0:
36,192,362702,128,0,363245:0:0:0:0:
329,192,362702,128,0,363516:0:0:0:0:
256,192,362974,128,0,363245:0:0:0:0:
402,192,362974,1,0,0:0:0:0:
475,192,362974,1,0,0:0:0:0:
182,192,363245,128,0,363516:0:0:0:0:
402,192,363245,128,0,363787:0:0:0:0:
475,192,363245,128,0,364058:0:0:0:0:
36,192,363516,128,0,363787:0:0:0:0:
256,192,363516,128,0,364058:0:0:0:0:
109,192,363787,128,0,364058:0:0:0:0:
329,192,363787,128,0,364329:0:0:0:0:
182,192,364058,128,0,364329:0:0:0:0:
402,192,364058,128,0,364600:0:0:0:0:
256,192,364329,128,0,364600:0:0:0:0:
475,192,364329,128,0,364871:0:0:0:0:
329,192,364600,128,0,364871:0:0:0:0:
36,192,364871,128,0,365689:0:0:0:0:
109,192,364871,128,0,366507:0:0:0:0:
182,192,364871,128,0,366234:0:0:0:0:
402,192,364871,128,0,365143:0:0:0:0:
256,192,365143,128,0,365416:0:0:0:0:
402,192,365416,128,0,366234:0:0:0:0:
256,192,365689,128,0,365961:0:0:0:0:
475,192,365689,128,0,365961:0:0:0:0:
36,192,365961,128,0,367052:0:0:0:0:
329,192,365961,128,0,366507:0:0:0:0:
256,192,366234,128,0,366780:0:0:0:0:
475,192,366234,128,0,366507:0:0:0:0:
182,192,366507,128,0,367052:0:0:0:0:
402,192,366507,128,0,366780:0:0:0:0:
109,192,366780,128,0,367052:0:0:0:0:
329,192,366780,128,0,367052:0:0:0:0:
256,192,367052,128,0,367598:0:0:0:0:
402,192,367052,128,0,367325:0:0:0:0:
475,192,367052,128,0,369234:0:0:0:0:
182,192,367325,128,0,367871:0:0:0:0:
36,192,367598,128,0,367871:0:0:0:0:
329,192,367598,128,0,368143:0:0:0:0:
256,192,367871,128,0,368416:0:0:0:0:
109,192,368143,128,0,368416:0:0:0:0:
402,192,368143,128,0,369234:0:0:0:0:
36,192,368689,128,0,368961:0:0:0:0:
329,192,368689,128,0,369234:0:0:0:0:
36,192,369234,128,0,370325:0:0:0:0:
182,192,369234,128,0,370052:0:0:0:0:
256,192,369507,128,0,369780:0:0:0:0:
109,192,369780,128,0,370325:0:0:0:0:
329,192,369780,128,0,370325:0:0:0:0:
402,192,369780,128,0,370052:0:0:0:0:
256,192,370052,128,0,370598:0:0:0:0:
475,192,370052,128,0,370325:0:0:0:0:
182,192,370325,128,0,370871:0:0:0:0:
402,192,370325,128,0,370598:0:0:0:0:
109,192,370598,128,0,371143:0:0:0:0:
329,192,370598,128,0,370871:0:0:0:0:
36,192,370871,128,0,371416:0:0:0:0:
256,192,370871,128,0,371143:0:0:0:0:
475,192,370871,128,0,371416:0:0:0:0:
182,192,371143,128,0,371416:0:0:0:0:
402,192,371143,128,0,371416:0:0:0:0:
109,192,371416,128,0,371961:0:0:0:0:
256,192,371416,128,0,372507:0:0:0:0:
329,192,371416,128,0,371689:0:0:0:0:
182,192,371689,128,0,372780:0:0:0:0:
329,192,371961,128,0,372507:0:0:0:0:
36,192,372234,1,0,0:0:0:0:
109,192,372234,1,0,0:0:0:0:
402,192,372234,128,0,372780:0:0:0:0:
36,192,372507,128,0,373325:0:0:0:0:
109,192,372507,128,0,373052:0:0:0:0:
475,192,372507,128,0,373052:0:0:0:0:
329,192,372780,128,0,373052:0:0:0:0:
256,192,373052,128,0,373598:0:0:0:0:
402,192,373052,128,0,373325:0:0:0:0:
182,192,373325,128,0,373598:0:0:0:0:
475,192,373325,128,0,373598:0:0:0:0:
36,192,373598,128,0,373871:0:0:0:0:
329,192,373598,128,0,374143:0:0:0:0:
109,192,373871,128,0,374143:0:0:0:0:
182,192,374143,128,0,374416:0:0:0:0:
475,192,374143,128,0,374689:0:0:0:0:
329,192,374416,128,0,374689:0:0:0:0:
36,192,374689,128,0,375234:0:0:0:0:
109,192,374689,128,0,374961:0:0:0:0:
256,192,374689,128,0,375234:0:0:0:0:
182,192,374961,128,0,375507:0:0:0:0:
402,192,374961,128,0,375234:0:0:0:0:
109,192,375234,128,0,375780:0:0:0:0:
329,192,375234,128,0,375780:0:0:0:0:
256,192,375507,128,0,375780:0:0:0:0:
475,192,375507,128,0,376052:0:0:0:0:
36,192,375780,128,0,377961:0:0:0:0:
182,192,375780,128,0,376325:0:0:0:0:
402,192,375780,128,0,376052:0:0:0:0:
329,192,376052,128,0,376598:0:0:0:0:
109,192,376325,128,0,376598:0:0:0:0:
256,192,376325,128,0,376871:0:0:0:0:
402,192,376598,128,0,377143:0:0:0:0:
182,192,376871,128,0,377143:0:0:0:0:
329,192,376871,128,0,377416:0:0:0:0:
109,192,377416,128,0,377689:0:0:0:0:
256,192,377416,128,0,377961:0:0:0:0:
182,192,377961,128,0,378234:0:0:0:0:
329,192,377961,128,0,378507:0:0:0:0:
475,192,377961,128,0,380143:0:0:0:0:
36,192,378234,128,0,378507:0:0:0:0:
109,192,378507,128,0,378780:0:0:0:0:
182,192,378780,128,0,379052:0:0:0:0:
329,192,378780,128,0,379052:0:0:0:0:
256,192,379052,128,0,379325:0:0:0:0:
402,192,379052,128,0,379325:0:0:0:0:
36,192,379325,128,0,379871:0:0:0:0:
109,192,379325,128,0,379871:0:0:0:0:
256,192,379598,128,0,380143:0:0:0:0:
402,192,379598,128,0,380143:0:0:0:0:
182,192,379871,1,0,0:0:0:0:
36,192,380143,128,0,382325:0:0:0:0:
109,192,380143,128,0,380689:0:0:0:0:
182,192,380143,128,0,380416:0:0:0:0:
329,192,380416,128,0,380689:0:0:0:0:
475,192,380689,128,0,380961:0:0:0:0:
109,192,380961,128,0,381780:0:0:0:0:
256,192,380961,1,0,0:0:0:0:
256,192,381234,128,0,381780:0:0:0:0:
329,192,381746,128,0,382325:0:0:0:0:
475,192,381780,128,0,382325:0:0:0:0:
182,192,382325,128,0,382598:0:0:0:0:
256,192,382325,128,0,382871:0:0:0:0:
402,192,382325,128,0,382871:0:0:0:0:
36,192,382598,128,0,382871:0:0:0:0:
109,192,382871,128,0,383143:0:0:0:0:
475,192,382871,128,0,383961:0:0:0:0:
182,192,383143,128,0,383416:0:0:0:0:
329,192,383143,128,0,383416:0:0:0:0:
36,192,383416,128,0,384234:0:0:0:0:
256,192,383416,128,0,383961:0:0:0:0:
109,192,383689,128,0,384507:0:0:0:0:
329,192,383689,128,0,384234:0:0:0:0:
182,192,383961,128,0,384780:0:0:0:0:
402,192,383961,128,0,384507:0:0:0:0:
256,192,384234,128,0,385052:0:0:0:0:
475,192,384234,128,0,384507:0:0:0:0:
36,192,384507,128,0,386689:0:0:0:0:
329,192,384507,128,0,385325:0:0:0:0:
109,192,384780,128,0,386143:0:0:0:0:
402,192,384780,1,0,0:0:0:0:
475,192,384780,1,0,0:0:0:0:
182,192,385052,128,0,385871:0:0:0:0:
402,192,385052,128,0,385871:0:0:0:0:
475,192,385052,128,0,385598:0:0:0:0:
256,192,385325,128,0,385598:0:0:0:0:
329,192,385598,128,0,386143:0:0:0:0:
256,192,385871,128,0,386416:0:0:0:0:
182,192,386143,128,0,387234:0:0:0:0:
475,192,386143,128,0,386961:0:0:0:0:
109,192,386416,128,0,386961:0:0:0:0:
402,192,386416,128,0,386689:0:0:0:0:
256,192,386689,128,0,388052:0:0:0:0:
329,192,386689,128,0,387234:0:0:0:0:
36,192,386961,128,0,387507:0:0:0:0:
402,192,386961,128,0,387507:0:0:0:0:
109,192,387234,128,0,387507:0:0:0:0:
475,192,387234,128,0,388325:0:0:0:0:
182,192,387507,128,0,388052:0:0:0:0:
329,192,387507,128,0,387780:0:0:0:0:
109,192,387780,128,0,388052:0:0:0:0:
402,192,387780,128,0,388325:0:0:0:0:
329,192,388052,128,0,388325:0:0:0:0:
36,192,388325,128,0,388598:0:0:0:0:
182,192,388325,128,0,388598:0:0:0:0:
256,192,388325,128,0,388871:0:0:0:0:
109,192,388598,128,0,388871:0:0:0:0:
329,192,388598,128,0,388734:0:0:0:0:
402,192,388734,128,0,388871:0:0:0:0:
36,192,388871,128,0,389433:0:0:0:0:
182,192,388871,128,0,389152:0:0:0:0:
475,192,388871,128,0,389152:0:0:0:0:
109,192,389152,128,0,389714:0:0:0:0:
256,192,389152,128,0,389433:0:0:0:0:
182,192,389433,128,0,389995:0:0:0:0:
329,192,389433,128,0,389995:0:0:0:0:
402,192,389433,1,0,0:0:0:0:
475,192,389433,1,0,0:0:0:0:
402,192,389714,128,0,390276:0:0:0:0:
475,192,389714,128,0,390276:0:0:0:0:
36,192,389995,128,0,390276:0:0:0:0:
109,192,389995,128,0,390276:0:0:0:0:
256,192,389995,128,0,390557:0:0:0:0:
182,192,390276,128,0,390557:0:0:0:0:
329,192,390276,128,0,390557:0:0:0:0:
36,192,390557,128,0,391528:0:0:0:0:
109,192,390557,1,0,0:0:0:0:
402,192,390557,1,0,0:0:0:0:
475,192,390557,128,0,391528:0:0:0:0:
109,192,390875,128,0,391528:0:0:0:0:
402,192,390875,128,0,391528:0:0:0:0:
182,192,391193,128,0,391863:0:0:0:0:
256,192,391193,128,0,394633:0:0:0:0:
329,192,391528,128,0,391863:0:0:0:0:
36,192,391863,128,0,392533:0:0:0:0:
109,192,391863,128,0,392198:0:0:0:0:
402,192,391863,128,0,392198:0:0:0:0:
475,192,391863,128,0,392533:0:0:0:0:
109,192,392533,128,0,393396:0:0:0:0:
182,192,392533,128,0,392964:0:0:0:0:
329,192,392533,128,0,392964:0:0:0:0:
402,192,392533,128,0,393396:0:0:0:0:
36,192,393396,128,0,393979:0:0:0:0:
182,192,393396,128,0,394633:0:0:0:0:
329,192,393396,128,0,394633:0:0:0:0:
475,192,393396,128,0,393979:0:0:0:0:
36,192,394633,128,0,395233:0:0:0:50:LR_Drum Soft Med Finish.wav
109,192,394633,1,0,0:0:0:0:
402,192,394633,1,0,0:0:0:0:
475,192,394633,1,0,0:0:0:0:
182,192,395233,128,0,395833:0:0:0:0:
329,192,395233,1,0,0:0:0:0:
475,192,395233,1,0,0:0:0:0:
402,192,395533,1,0,0:0:0:0:
475,192,395533,1,0,0:0:0:0:
36,192,395833,1,0,0:0:0:0:
329,192,395833,128,0,396433:0:0:0:0:
109,192,396133,1,0,0:0:0:0:
256,192,396133,1,0,0:0:0:0:
36,192,396433,1,0,0:0:0:0:
182,192,396433,128,0,397033:0:0:0:0:
402,192,396433,1,0,0:0:0:0:
475,192,396433,1,0,0:0:0:0:
36,192,396733,1,0,0:0:0:0:
329,192,396733,1,0,0:0:0:0:
475,192,396733,1,0,0:0:0:0:
256,192,397033,1,0,0:0:0:0:
402,192,397033,1,0,0:0:0:0:
475,192,397033,128,0,398233:0:0:0:0:
36,192,397333,1,0,0:0:0:0:
109,192,397333,1,0,0:0:0:0:
256,192,397333,1,0,0:0:0:0:
109,192,397633,1,0,0:0:0:0:
182,192,397633,1,0,0:0:0:0:
329,192,397633,1,0,0:0:0:0:
182,192,397933,1,0,0:0:0:0:
256,192,397933,1,0,0:0:0:0:
402,192,397933,1,0,0:0:0:0:
109,192,398233,1,0,0:0:0:0:
182,192,398233,1,0,0:0:0:0:
329,192,398233,128,0,398533:0:0:0:0:
402,192,398233,1,0,0:0:0:0:
36,192,398533,1,0,0:0:0:0:
109,192,398533,1,0,0:0:0:0:
256,192,398533,128,0,398833:0:0:0:0:
36,192,398833,1,0,0:0:0:0:
182,192,398833,128,0,399133:0:0:0:0:
402,192,398833,1,0,0:0:0:0:
475,192,398833,1,0,0:0:0:0:
109,192,399133,128,0,399433:0:0:0:0:
329,192,399133,1,0,0:0:0:0:
402,192,399133,1,0,0:0:0:0:
36,192,399433,128,0,399733:0:0:0:0:
182,192,399433,1,0,0:0:0:0:
329,192,399433,1,0,0:0:0:0:
256,192,399733,1,0,0:0:0:0:
402,192,399733,1,0,0:0:0:0:
36,192,400033,1,0,0:0:0:0:
256,192,400033,128,0,401833:0:0:0:0:
402,192,400033,1,0,0:0:0:0:
475,192,400033,1,0,0:0:0:0:
36,192,400333,1,0,0:0:0:0:
109,192,400333,1,0,0:0:0:0:
182,192,400333,1,0,0:0:0:0:
109,192,400633,1,0,0:0:0:0:
182,192,400633,1,0,0:0:0:0:
329,192,400633,1,0,0:0:0:0:
182,192,400933,1,0,0:0:0:0:
329,192,400933,1,0,0:0:0:0:
402,192,400933,1,0,0:0:0:0:
329,192,401233,1,0,0:0:0:0:
402,192,401233,1,0,0:0:0:0:
475,192,401233,1,0,0:0:0:0:
36,192,401533,1,0,0:0:0:0:
402,192,401533,1,0,0:0:0:0:
475,192,401533,1,0,0:0:0:0:
36,192,401833,1,0,0:0:0:0:
109,192,401833,1,0,0:0:0:0:
182,192,401833,128,0,402433:0:0:0:0:
329,192,401833,1,0,0:0:0:0:
329,192,402133,1,0,0:0:0:0:
402,192,402133,1,0,0:0:0:0:
475,192,402133,1,0,0:0:0:0:
36,192,402433,1,0,0:0:0:0:
109,192,402433,128,0,403033:0:0:0:0:
256,192,402433,1,0,0:0:0:0:
475,192,402433,1,0,0:0:0:0:
182,192,402733,1,0,0:0:0:0:
329,192,402733,1,0,0:0:0:0:
402,192,402733,1,0,0:0:0:0:
36,192,403033,1,0,0:0:0:0:
256,192,403033,1,0,0:0:0:0:
402,192,403033,1,0,0:0:0:0:
475,192,403033,128,0,403633:0:0:0:0:
182,192,403333,1,0,0:0:0:0:
329,192,403333,1,0,0:0:0:0:
36,192,403633,128,0,404233:0:0:0:0:
109,192,403633,1,0,0:0:0:0:
256,192,403633,1,0,0:0:0:0:
402,192,403633,1,0,0:0:0:0:
109,192,403933,1,0,0:0:0:0:
256,192,403933,1,0,0:0:0:0:
329,192,404233,1,0,0:0:0:0:
402,192,404233,1,0,0:0:0:0:
475,192,404233,128,0,405433:0:0:0:0:
36,192,404533,1,0,0:0:0:0:
182,192,404533,1,0,0:0:0:0:
256,192,404533,1,0,0:0:0:0:
36,192,404833,1,0,0:0:0:0:
182,192,404833,1,0,0:0:0:0:
256,192,404833,1,0,0:0:0:0:
36,192,405133,1,0,0:0:0:0:
182,192,405133,1,0,0:0:0:0:
256,192,405133,1,0,0:0:0:0:
109,192,405433,128,0,405733:0:0:0:0:
182,192,405433,1,0,0:0:0:0:
329,192,405433,1,0,0:0:0:0:
402,192,405433,1,0,0:0:0:0:
36,192,405733,1,0,0:0:0:0:
256,192,405733,128,0,406033:0:0:0:0:
329,192,405733,1,0,0:0:0:0:
475,192,405733,1,0,0:0:0:0:
36,192,406033,1,0,0:0:0:0:
109,192,406033,1,0,0:0:0:0:
182,192,406033,1,0,0:0:0:0:
402,192,406033,128,0,406333:0:0:0:0:
36,192,406333,128,0,406633:0:0:0:0:
256,192,406333,1,0,0:0:0:0:
329,192,406333,1,0,0:0:0:0:
109,192,406633,1,0,0:0:0:0:
182,192,406633,128,0,407233:0:0:0:0:
402,192,406633,1,0,0:0:0:0:
329,192,406933,1,0,0:0:0:0:
475,192,406933,1,0,0:0:0:0:
36,192,407233,1,0,0:0:0:0:
256,192,407233,1,0,0:0:0:0:
402,192,407233,1,0,0:0:0:0:
475,192,407233,128,0,407833:0:0:0:0:
36,192,407533,1,0,0:0:0:0:
182,192,407533,1,0,0:0:0:0:
402,192,407533,1,0,0:0:0:0:
36,192,407833,1,0,0:0:0:0:
109,192,407833,1,0,0:0:0:0:
182,192,407833,128,0,408433:0:0:0:0:
329,192,407833,1,0,0:0:0:0:
329,192,408133,1,0,0:0:0:0:
402,192,408133,1,0,0:0:0:0:
475,192,408133,1,0,0:0:0:0:
36,192,408433,1,0,0:0:0:0:
109,192,408433,128,0,409033:0:0:0:0:
256,192,408433,1,0,0:0:0:0:
256,192,408733,1,0,0:0:0:0:
402,192,408733,1,0,0:0:0:0:
475,192,408733,1,0,0:0:0:0:
182,192,409033,1,0,0:0:0:0:
329,192,409033,1,0,0:0:0:0:
475,192,409033,128,0,409633:0:0:0:0:
36,192,409333,1,0,0:0:0:0:
109,192,409333,1,0,0:0:0:0:
36,192,409633,1,0,0:0:0:0:
256,192,409633,1,0,0:0:0:0:
329,192,409633,128,0,410233:0:0:0:0:
402,192,409633,1,0,0:0:0:0:
109,192,409933,1,0,0:0:0:0:
256,192,409933,1,0,0:0:0:0:
36,192,410233,128,0,410833:0:0:0:0:
182,192,410233,1,0,0:0:0:0:
402,192,410233,1,0,0:0:0:0:
475,192,410233,1,0,0:0:0:0:
256,192,410533,1,0,0:0:0:0:
402,192,410533,1,0,0:0:0:0:
109,192,410833,1,0,0:0:0:0:
182,192,410833,128,0,411133:0:0:0:0:
329,192,410833,1,0,0:0:0:0:
475,192,410833,1,0,0:0:0:0:
36,192,411133,1,0,0:0:0:0:
256,192,411133,128,0,411433:0:0:0:0:
402,192,411133,1,0,0:0:0:0:
109,192,411433,1,0,0:0:0:0:
329,192,411433,128,0,412033:0:0:0:0:
475,192,411433,1,0,0:0:0:0:
182,192,411733,1,0,0:0:0:0:
402,192,411733,1,0,0:0:0:0:
36,192,412033,1,0,0:0:0:0:
109,192,412033,128,0,412633:0:0:0:0:
256,192,412033,1,0,0:0:0:0:
182,192,412333,1,0,0:0:0:0:
475,192,412333,1,0,0:0:0:0:
182,192,412633,1,0,0:0:0:0:
256,192,412633,1,0,0:0:0:0:
402,192,412633,128,0,413233:0:0:0:0:
109,192,412933,1,0,0:0:0:0:
182,192,412933,1,0,0:0:0:0:
329,192,412933,128,0,413533:0:0:0:0:
36,192,413233,1,0,0:0:0:0:
109,192,413233,1,0,0:0:0:0:
256,192,413233,128,0,413833:0:0:0:0:
36,192,413533,1,0,0:0:0:0:
182,192,413533,128,0,413833:0:0:0:0:
475,192,413533,1,0,0:0:0:0:
36,192,413833,128,0,415033:0:0:0:50:LR_Drum Soft Med Finish.wav
109,192,413833,128,0,414433:0:0:0:70:sparker.wav
329,192,413833,1,0,0:0:0:0:
402,192,413833,128,0,414433:0:0:0:0:
475,192,413833,1,0,0:0:0:0:
256,192,414133,128,0,414433:0:0:0:0:
182,192,414433,128,0,415633:0:0:0:0:
329,192,414433,128,0,415033:0:0:0:0:
402,192,414733,128,0,415033:0:0:0:0:
256,192,415033,128,0,415633:0:0:0:0:
475,192,415033,128,0,416233:0:0:0:0:
36,192,415333,128,0,415633:0:0:0:0:
109,192,415633,128,0,416233:0:0:0:0:
329,192,415633,128,0,416833:0:0:0:0:
182,192,415933,128,0,416233:0:0:0:0:
36,192,416233,128,0,416833:0:0:0:0:
256,192,416233,128,0,417433:0:0:0:0:
402,192,416233,128,0,416833:0:0:0:0:
109,192,416533,128,0,416833:0:0:0:0:
182,192,416833,128,0,417133:0:0:0:0:
475,192,417133,128,0,417433:0:0:0:0:
36,192,417433,128,0,418033:0:0:0:0:
182,192,417433,128,0,417733:0:0:0:0:
402,192,417433,128,0,417733:0:0:0:0:
109,192,417733,128,0,418333:0:0:0:0:
256,192,417733,128,0,418033:0:0:0:0:
182,192,418033,128,0,418633:0:0:0:0:
402,192,418033,128,0,418333:0:0:0:0:
36,192,418333,128,0,418633:0:0:0:0:
329,192,418333,1,0,0:0:0:0:
475,192,418333,1,0,0:0:0:0:
109,192,418633,128,0,421033:0:0:0:0:
256,192,418633,128,0,418933:0:0:0:0:
475,192,418633,128,0,419233:0:0:0:0:
36,192,418933,128,0,419233:0:0:0:0:
329,192,418933,1,0,0:0:0:0:
256,192,419233,128,0,421033:0:0:0:0:
329,192,419233,128,0,419833:0:0:0:0:
182,192,419533,128,0,419833:0:0:0:0:
402,192,419833,128,0,420433:0:0:0:0:
182,192,420133,128,0,420433:0:0:0:0:
475,192,420433,128,0,420733:0:0:0:0:
182,192,420733,128,0,421033:0:0:0:0:
36,192,421033,128,0,421633:0:0:0:0:
402,192,421033,128,0,421633:0:0:0:0:
475,192,421033,128,0,422233:0:0:0:0:
256,192,421333,128,0,421633:0:0:0:0:
109,192,421633,128,0,422233:0:0:0:0:
182,192,421633,128,0,421933:0:0:0:0:
329,192,421633,128,0,422833:0:0:0:0:
36,192,421933,128,0,422233:0:0:0:0:
182,192,422233,128,0,423433:0:0:0:0:
256,192,422233,128,0,422533:0:0:0:0:
402,192,422233,128,0,422833:0:0:0:0:
475,192,422533,128,0,422833:0:0:0:0:
36,192,422833,128,0,423433:0:0:0:0:
256,192,422833,128,0,423433:0:0:0:0:
329,192,423133,128,0,423433:0:0:0:0:
109,192,423433,128,0,424033:0:0:0:0:
402,192,423433,128,0,424033:0:0:0:0:
475,192,423433,128,0,425233:0:0:0:0:
182,192,423733,128,0,424333:0:0:0:0:
329,192,424033,128,0,424633:0:0:0:0:
402,192,424333,128,0,424933:0:0:0:0:
36,192,424633,128,0,425233:0:0:0:0:
182,192,424633,128,0,424933:0:0:0:0:
109,192,424933,128,0,425533:0:0:0:0:
256,192,424933,128,0,425233:0:0:0:0:
182,192,425233,128,0,425833:0:0:0:0:
329,192,425233,128,0,425533:0:0:0:0:
256,192,425533,128,0,426133:0:0:0:0:
402,192,425533,128,0,425833:0:0:0:0:
36,192,425833,128,0,426133:0:0:0:0:
329,192,425833,128,0,426433:0:0:0:0:
475,192,425833,128,0,427033:0:0:0:0:
109,192,426133,128,0,426433:0:0:0:0:
36,192,426433,128,0,427633:0:0:0:0:
182,192,426433,128,0,426733:0:0:0:0:
402,192,426433,128,0,426733:0:0:0:0:
329,192,426733,128,0,427033:0:0:0:0:
182,192,427033,128,0,427333:0:0:0:0:
256,192,427033,128,0,428233:0:0:0:0:
402,192,427033,128,0,427633:0:0:0:0:
109,192,427333,128,0,427633:0:0:0:0:
182,192,427633,128,0,428233:0:0:0:0:
329,192,427633,128,0,427933:0:0:0:0:
475,192,427633,128,0,428233:0:0:0:0:
109,192,427933,128,0,428233:0:0:0:0:
36,192,428233,128,0,428833:0:0:0:0:
329,192,428233,128,0,429733:0:0:0:0:
402,192,428233,128,0,428833:0:0:0:0:
109,192,428533,128,0,429133:0:0:0:0:
182,192,428833,128,0,429433:0:0:0:0:
36,192,429133,128,0,429733:0:0:0:0:
256,192,429133,128,0,429433:0:0:0:0:
402,192,429133,128,0,430333:0:0:0:0:
109,192,429433,128,0,430633:0:0:0:0:
256,192,429733,128,0,430033:0:0:0:0:
329,192,430033,128,0,430333:0:0:0:0:
475,192,430033,128,0,430333:0:0:0:0:
182,192,430333,128,0,430633:0:0:0:0:
256,192,430333,128,0,430633:0:0:0:0:
36,192,430633,128,0,432433:0:0:0:0:
402,192,430633,128,0,431233:0:0:0:0:
475,192,430633,128,0,431233:0:0:0:0:
256,192,430933,128,0,431533:0:0:0:0:
109,192,431233,128,0,431833:0:0:0:0:
182,192,431233,128,0,431533:0:0:0:0:
329,192,431533,128,0,431833:0:0:0:0:
256,192,431833,128,0,432433:0:0:0:0:
475,192,431833,128,0,432433:0:0:0:0:
329,192,432133,128,0,432433:0:0:0:0:
109,192,432433,128,0,432733:0:0:0:0:
182,192,432433,128,0,433033:0:0:0:0:
329,192,432733,128,0,433033:0:0:0:0:
36,192,433033,128,0,433656:0:0:0:0:
402,192,433033,128,0,433656:0:0:0:0:
475,192,433033,128,0,434612:0:0:0:0:
182,192,433344,128,0,433656:0:0:0:0:
256,192,433656,128,0,433967:0:0:0:0:
36,192,433967,128,0,434612:0:0:0:0:
329,192,433967,128,0,434279:0:0:0:0:
109,192,434279,128,0,434945:0:0:0:0:
256,192,434279,128,0,436888:0:0:0:0:
402,192,434279,128,0,434945:0:0:0:0:
182,192,434612,128,0,435279:0:0:0:0:
475,192,434945,1,0,0:0:0:0:
109,192,435279,1,0,0:0:0:0:
329,192,435529,128,0,436888:0:0:0:0:
475,192,435612,128,0,436888:0:0:0:0:
402,192,436888,1,0,0:0:0:0:
256,192,437272,1,0,0:0:0:0:
109,192,437706,1,0,0:0:0:0:
256,192,438208,1,0,0:0:0:0:
256,192,438872,1,0,0:0:0:0:
475,192,438872,1,0,0:0:0:0:
36,192,439144,1,0,0:0:0:0:
182,192,439417,1,0,0:0:0:0:
402,192,439417,1,0,0:0:0:0:
109,192,439690,1,0,0:0:0:0:
329,192,439690,128,0,439758:0:0:0:0:
256,192,439962,128,0,440031:0:0:0:0:
475,192,439962,1,0,0:0:0:0:
182,192,440235,128,0,440303:0:0:0:0:
329,192,440500,128,0,440574:0:0:0:0:
182,192,440797,128,0,440871:0:0:0:0:
256,192,441054,1,0,0:0:0:0:
475,192,441054,1,0,0:0:0:0:
36,192,441321,1,0,0:0:0:0:
329,192,441321,128,0,441388:0:0:0:0:
182,192,441589,128,0,441656:0:0:0:0:
402,192,441589,1,0,0:0:0:0:
109,192,441857,1,0,0:0:0:0:
256,192,442125,1,0,0:0:0:0:
475,192,442125,128,0,442192:0:0:0:0:
329,192,442393,128,0,442460:0:0:0:0:
36,192,442661,128,0,442728:0:0:0:0:
182,192,442929,128,0,442996:0:0:0:0:
256,192,443217,1,0,0:0:0:0:
475,192,443217,1,0,0:0:0:0:
36,192,443494,1,0,0:0:0:0:
182,192,443772,1,0,0:0:0:0:
402,192,443772,1,0,0:0:0:0:
109,192,444050,1,0,0:0:0:0:
329,192,444050,128,0,444119:0:0:0:0:
256,192,444328,128,0,444397:0:0:0:0:
475,192,444328,1,0,0:0:0:0:
109,192,444605,1,0,0:0:0:0:
182,192,444605,128,0,444675:0:0:0:0:
256,192,444870,1,0,0:0:0:0:
329,192,445147,1,0,0:0:0:0:
182,192,445409,128,0,445478:0:0:0:0:
475,192,445409,1,0,0:0:0:0:
329,192,445686,128,0,445756:0:0:0:0:
182,192,445964,128,0,446034:0:0:0:0:
475,192,446229,128,0,446295:0:0:0:0:
36,192,446496,1,0,0:0:0:0:
402,192,446496,128,0,446563:0:0:0:0:
329,192,446764,128,0,446831:0:0:0:0:
256,192,447044,128,0,447110:0:0:0:0:
182,192,447311,128,0,447378:0:0:0:0:
256,192,447599,1,0,0:0:0:0:
475,192,447599,1,0,0:0:0:0:
36,192,447899,1,0,0:0:0:0:
329,192,447899,128,0,447974:0:0:0:0:
182,192,448199,1,0,0:0:0:0:
402,192,448199,1,0,0:0:0:0:
109,192,448499,1,0,0:0:0:0:
475,192,448499,128,0,448574:0:0:0:0:
256,192,448799,128,0,448874:0:0:0:0:
475,192,448799,1,0,0:0:0:0:
182,192,449099,128,0,449174:0:0:0:0:
329,192,449399,128,0,449474:0:0:0:0:
182,192,449699,128,0,449774:0:0:0:0:
256,192,449999,1,0,0:0:0:0:
475,192,449999,1,0,0:0:0:0:
36,192,450299,1,0,0:0:0:0:
329,192,450299,128,0,450374:0:0:0:0:
182,192,450599,1,0,0:0:0:0:
402,192,450599,1,0,0:0:0:0:
36,192,450958,128,0,451048:0:0:0:0:
109,192,450958,1,0,0:0:0:0:
256,192,451292,1,0,0:0:0:0:
475,192,451292,128,0,451376:0:0:0:0:
329,192,451631,128,0,451716:0:0:0:0:
36,192,451971,128,0,452056:0:0:0:0:
182,192,452311,128,0,452396:0:0:0:0:
36,192,452651,128,0,454014:0:0:0:0:
256,192,452651,1,0,0:0:0:0:
475,192,452651,1,0,0:0:0:0:
329,192,452991,1,0,0:0:0:0:
109,192,453332,1,0,0:0:0:0:
402,192,453332,1,0,0:0:0:0:
182,192,453673,128,0,453758:0:0:0:0:
329,192,453673,1,0,0:0:0:0:
256,192,454014,128,0,455618:0:0:0:0:
475,192,454014,1,0,0:0:0:0:
109,192,454389,1,0,0:0:0:0:
182,192,454764,1,0,0:0:0:0:
329,192,455213,1,0,0:0:0:0:
475,192,455618,128,0,457335:0:0:0:0:
329,192,456047,128,0,456154:0:0:0:0:
256,192,456475,128,0,456582:0:0:0:0:
182,192,456904,128,0,457011:0:0:0:0:
36,192,457335,128,0,457454:0:0:0:0:
256,192,457335,1,0,0:0:0:0:
109,192,457796,128,0,457903:0:0:0:0:
182,192,458287,128,0,458437:0:0:0:0:
256,192,458887,128,0,459037:0:0:0:0:
182,192,459605,1,0,0:0:0:70:sparker.wav
329,192,459655,1,0,0:0:0:0:
36,192,459908,1,0,0:0:0:0:
182,192,460211,1,0,0:0:0:0:
475,192,460514,1,0,0:0:0:0:
182,192,460817,1,0,0:0:0:0:
36,192,461120,1,0,0:0:0:0:
182,192,461423,1,0,0:0:0:0:
36,192,461726,1,0,0:0:0:0:
182,192,462029,1,0,0:0:0:0:
475,192,462332,1,0,0:0:0:0:
182,192,462635,1,0,0:0:0:0:
36,192,462938,1,0,0:0:0:0:
402,192,463241,1,0,0:0:0:0:
256,192,463544,1,0,0:0:0:0:
109,192,463847,1,0,0:0:0:0:
256,192,464150,1,0,0:0:0:0:
329,192,464453,1,0,0:0:0:0:
475,192,464453,1,0,0:0:0:0:
109,192,464765,1,0,0:0:0:0:
329,192,465078,1,0,0:0:0:0:
475,192,465390,1,0,0:0:0:0:
329,192,465703,1,0,0:0:0:0:
109,192,466015,1,0,0:0:0:0:
329,192,466328,1,0,0:0:0:0:
109,192,466640,1,0,0:0:0:0:
329,192,466953,1,0,0:0:0:0:
475,192,467308,1,0,0:0:0:0:
329,192,467663,1,0,0:0:0:0:
109,192,468018,1,0,0:0:0:0:
402,192,468373,1,0,0:0:0:0:
256,192,468776,1,0,0:0:0:0:
109,192,469180,1,0,0:0:0:0:
36,192,469680,1,0,0:0:0:0:
256,192,470365,128,0,481668:0:0:0:0:
