osu file format v14

[General]
AudioFilename: audio.ogg
AudioLeadIn: 0
PreviewTime: 413833
Countdown: 0
SampleSet: Soft
StackLeniency: 0.7
Mode: 3
LetterboxInBreaks: 0
SpecialStyle: 0
WidescreenStoryboard: 1

[Editor]
DistanceSpacing: 0.8
BeatDivisor: 4
GridSize: 4
TimelineZoom: 2.540555

[Metadata]
Title:Monochrome and Vivid
TitleUnicode:Monochrome and Vivid
Artist:penoreri
ArtistUnicode:ぺのれり
Creator:FLeVI
Version:Wither and Resuscitate
Source:
Tags:Sense of Purpose m3-34 2014 秋 spcd-002 U see usee instrumental electronic rock orchestral marathon LN long note
BeatmapID:3167576
BeatmapSetID:1550061

[Difficulty]
HPDrainRate:9
CircleSize:4
OverallDifficulty:7.7
ApproachRate:5
SliderMultiplier:1.4
SliderTickRate:1

[Events]
//Background and Video events
0,0,"BG.jpg",0,0
//Break Periods
//Storyboard Layer 0 (Background)
//Storyboard Layer 1 (Fail)
//Storyboard Layer 2 (Pass)
//Storyboard Layer 3 (Foreground)
//Storyboard Layer 4 (Overlay)
//Storyboard Sound Samples

[TimingPoints]
138,535.714285714286,9,2,1,20,1,0
138,-102.024,3,2,1,20,0,0
4959,-96.2519,7,2,1,23,0,0
9914,-91.0977,7,2,1,26,0,0
15941,-86.4669,7,2,1,29,0,0
21968,-82.285,7,2,1,32,0,0
27995,-78.4887,7,2,1,35,0,0
34022,-75.0269,7,2,1,38,0,0
40048,-71.858,7,2,1,41,0,0
46075,-68.9458,7,2,1,44,0,0
52102,-66.2605,7,2,1,47,0,0
57995,535.714285714286,4,2,1,50,1,0
57995,-63.6363636363058,3,2,1,50,0,0
92280,-74.866310160668,3,2,1,50,0,0
126566,-53.1914893617021,4,2,1,50,0,0
126600,-212.765957446809,4,2,1,50,0,0
126633,-53.1914893617021,4,2,1,50,0,0
126667,-212.765957446809,4,2,1,50,0,0
126700,-106.382978723404,4,2,1,50,0,0
127414,-53.1914893617021,4,2,1,50,0,0
127458,-212.765957446809,4,2,1,50,0,0
127503,-106.382978723404,4,2,1,50,0,0
127671,-53.1914893617021,4,2,1,50,0,0
127705,-212.765957446809,4,2,1,50,0,0
127738,-53.1914893617021,4,2,1,50,0,0
127772,-212.765957446809,4,2,1,50,0,0
127805,-84.8484848485877,4,2,1,50,0,0
128073,-106.382978723404,4,2,1,50,0,0
128308,-70.9219858156028,4,2,1,50,0,0
128352,-212.765957446809,4,2,1,50,0,0
128397,-70.9219858156028,4,2,1,50,0,0
128441,-212.765957446809,4,2,1,50,0,0
128486,-70.9219858156028,4,2,1,50,0,0
128530,-212.765957446809,4,2,1,50,0,0
128575,-53.1914893617021,4,2,1,50,0,0
128609,-212.765957446809,4,2,1,50,0,0
128642,-53.1914893617021,4,2,1,50,0,0
128676,-212.765957446809,4,2,1,50,0,0
128709,-84.7457627118644,4,2,1,50,0,0
128943,-106.382978723404,4,2,1,50,0,0
129010,-84.7457627118644,4,2,1,50,0,0
129044,-141.414141414113,4,2,1,50,0,0
129077,-84.7457627118644,4,2,1,50,0,0
129111,-141.414141414113,4,2,1,50,0,0
129144,-84.7457627118644,4,2,1,50,0,0
129178,-141.414141414113,4,2,1,50,0,0
129211,-84.7457627118644,4,2,1,50,0,0
129245,-70.9219858156028,4,2,1,50,0,0
129311,-85.1063829787234,4,2,1,50,0,0
129378,-106.382978723404,4,2,1,50,0,0
129445,-141.843971631206,4,2,1,50,0,0
129512,-70.9219858156028,4,2,1,50,0,0
129546,-212.765957446809,4,2,1,50,0,0
129579,-70.9219858156028,4,2,1,50,0,0
129646,-106.382978723404,4,2,1,50,0,0
129713,-212.765957446809,4,2,1,50,0,0
129747,-70.9219858156028,4,2,1,50,0,0
129781,-212.765957446809,4,2,1,50,0,0
129814,-70.9219858156028,4,2,1,50,0,0
129881,-106.382978723404,4,2,1,50,0,0
129948,-212.765957446809,4,2,1,50,0,0
129981,-70.9219858156028,4,2,1,50,0,0
130015,-212.765957446809,4,2,1,50,0,0
130048,-70.9219858156028,4,2,1,50,0,0
130115,-106.382978723404,4,2,1,50,0,0
130182,-212.765957446809,4,2,1,50,0,0
130215,-70.9219858156028,4,2,1,50,0,0
130249,-212.765957446809,4,2,1,50,0,0
130282,-70.9219858156028,4,2,1,50,0,0
130349,-106.382978723404,4,2,1,50,0,0
130416,-212.765957446809,4,2,1,50,0,0
130450,-70.9219858156028,4,2,1,50,0,0
130484,-212.765957446809,4,2,1,50,0,0
130517,-70.9219858156028,4,2,1,50,0,0
130584,-106.382978723404,4,2,1,50,0,0
130651,-212.765957446809,4,2,1,50,0,0
130718,-70.9219858156028,4,2,1,50,0,0
130751,-212.765957446809,4,2,1,50,0,0
130785,-106.382978723404,4,2,1,50,0,0
130852,-84.7457627118644,4,2,1,50,0,0
130919,-106.382978723404,4,2,1,50,0,0
130986,-84.7457627118644,4,2,1,50,0,0
131253,-53.1914893617021,4,2,1,50,0,0
131287,-141.843971631206,4,2,1,50,0,0
131354,-53.1914893617021,4,2,1,50,0,0
131387,-141.843971631206,4,2,1,50,0,0
131454,-106.382978723404,4,2,1,50,0,0
131521,-70.9219858156028,4,2,1,50,0,0
131555,-212.765957446809,4,2,1,50,0,0
131588,-70.9219858156028,4,2,1,50,0,0
131622,-212.765957446809,4,2,1,50,0,0
131655,-70.9219858156028,4,2,1,50,0,0
131689,-212.765957446809,4,2,1,50,0,0
131722,-70.9219858156028,4,2,1,50,0,0
131756,-212.765957446809,4,2,1,50,0,0
131789,-70.9219858156028,4,2,1,50,0,0
131823,-212.765957446809,4,2,1,50,0,0
131856,-70.9219858156028,4,2,1,50,0,0
131890,-212.765957446809,4,2,1,50,0,0
131923,-70.9219858156028,4,2,1,50,0,0
131957,-212.765957446809,4,2,1,50,0,0
131990,-70.9219858156028,4,2,1,50,0,0
132024,-212.765957446809,4,2,1,50,0,0
132057,-70.9219858156028,4,2,1,50,0,0
132091,-212.765957446809,4,2,1,50,0,0
132124,-70.9219858156028,4,2,1,50,0,0
132158,-212.765957446809,4,2,1,50,0,0
132191,-70.9219858156028,4,2,1,50,0,0
132225,-212.765957446809,4,2,1,50,0,0
132258,-70.9219858156028,4,2,1,50,0,0
132292,-212.765957446809,4,2,1,50,0,0
132325,-70.9219858156028,4,2,1,50,0,0
132359,-212.765957446809,4,2,1,50,0,0
132392,-70.9219858156028,4,2,1,50,0,0
132426,-212.765957446809,4,2,1,50,0,0
132459,-35.4609929078014,4,2,1,50,0,0
132493,-212.765957446809,4,2,1,50,0,0
132526,-70.9219858156028,4,2,1,50,0,0
132560,-212.765957446809,4,2,1,50,0,0
132593,-70.9219858156028,4,2,1,50,0,0
132627,-212.765957446809,4,2,1,50,0,0
132660,-70.9219858156028,4,2,1,50,0,0
132694,-212.765957446809,4,2,1,50,0,0
132727,-70.9219858156028,4,2,1,50,0,0
132761,-212.765957446809,4,2,1,50,0,0
132794,-70.9219858156028,4,2,1,50,0,0
132828,-212.765957446809,4,2,1,50,0,0
132861,-70.9219858156028,4,2,1,50,0,0
132895,-212.765957446809,4,2,1,50,0,0
132928,-70.9219858156028,4,2,1,50,0,0
132962,-212.765957446809,4,2,1,50,0,0
132995,-35.4609929078014,4,2,1,50,0,0
133029,-212.765957446809,4,2,1,50,0,0
133061,-35.4609929078014,4,2,1,50,0,0
133095,-212.765957446809,4,2,1,50,0,0
133128,-70.9219858156028,4,2,1,50,0,0
133162,-212.765957446809,4,2,1,50,0,0
133195,-70.9219858156028,4,2,1,50,0,0
133229,-212.765957446809,4,2,1,50,0,0
133262,-70.9219858156028,4,2,1,50,0,0
133296,-212.765957446809,4,2,1,50,0,0
133329,-70.9219858156028,4,2,1,50,0,0
133363,-212.765957446809,4,2,1,50,0,0
133396,-70.9219858156028,4,2,1,50,0,0
133430,-212.765957446809,4,2,1,50,0,0
133463,-70.9219858156028,4,2,1,50,0,0
133497,-212.765957446809,4,2,1,50,0,0
133530,-35.4609929078014,4,2,1,50,0,0
133564,-212.765957446809,4,2,1,50,0,0
133597,-35.4609929078014,4,2,1,50,0,0
133631,-212.765957446809,4,2,1,50,0,0
133664,-70.9219858156028,4,2,1,50,0,0
133698,-212.765957446809,4,2,1,50,0,0
133731,-70.9219858156028,4,2,1,50,0,0
133765,-212.765957446809,4,2,1,50,0,0
133798,-70.9219858156028,4,2,1,50,0,0
133832,-212.765957446809,4,2,1,50,0,0
133865,-70.9219858156028,4,2,1,50,0,0
133899,-212.765957446809,4,2,1,50,0,0
133932,-70.9219858156028,4,2,1,50,0,0
133966,-212.765957446809,4,2,1,50,0,0
133999,-70.9219858156028,4,2,1,50,0,0
134033,-212.765957446809,4,2,1,50,0,0
134066,-53.1914893617021,4,2,1,50,0,0
134088,-10000,4,2,1,50,0,0
134111,-53.1914893617021,4,2,1,50,0,0
134133,-10000,4,2,1,50,0,0
134155,-53.1914893617021,4,2,1,50,0,0
134177,-10000,4,2,1,50,0,0
134200,-53.1914893617021,4,2,1,50,0,0
134222,-10000,4,2,1,50,0,0
134245,-53.1914893617021,4,2,1,50,0,0
134267,-10000,4,2,1,50,0,0
134289,-53.1914893617021,4,2,1,50,0,0
134311,-10000,4,2,1,50,0,0
134334,-53.1914893617021,4,2,1,50,0,0
134356,-10000,4,2,1,50,0,0
134379,-53.1914893617021,4,2,1,50,0,0
134401,-10000,4,2,1,50,0,0
134423,-53.1914893617021,4,2,1,50,0,0
134445,-10000,4,2,1,50,0,0
134468,-53.1914893617021,4,2,1,50,0,0
134490,-10000,4,2,1,50,0,0
134513,-53.1914893617021,4,2,1,50,0,0
134535,-10000,4,2,1,50,0,0
134557,-53.1914893617021,4,2,1,50,0,0
134579,-10000,4,2,1,50,0,0
134602,-35.4609929078014,4,2,1,50,0,0
134640,-212.765957446809,4,2,1,50,0,0
134678,-35.4609929078014,4,2,1,50,0,0
134716,-212.765957446809,4,2,1,50,0,0
134755,-70.9219858156028,4,2,1,50,0,0
134793,-212.765957446809,4,2,1,50,0,0
134831,-70.9219858156028,4,2,1,50,0,0
134869,-212.765957446809,4,2,1,50,0,0
134908,-70.9219858156028,4,2,1,50,0,0
134946,-212.765957446809,4,2,1,50,0,0
134984,-70.9219858156028,4,2,1,50,0,0
135022,-212.765957446809,4,2,1,50,0,0
135061,-70.9219858156028,4,2,1,50,0,0
135099,-212.765957446809,4,2,1,50,0,0
135137,-53.1914893617021,4,2,1,50,0,0
135171,-212.765957446809,4,2,1,50,0,0
135204,-53.1914893617021,4,2,1,50,0,0
135238,-212.765957446809,4,2,1,50,0,0
135271,-106.382978723404,4,2,1,50,0,0
136611,-53.1914893617021,4,2,1,50,0,0
136645,-212.765957446809,4,2,1,50,0,0
136678,-53.1914893617021,4,2,1,50,0,0
136712,-212.765957446809,4,2,1,50,0,0
136745,-70.9219858156028,4,2,1,50,0,0
136779,-212.765957446809,4,2,1,50,0,0
136811,-106.382978723404,4,2,1,50,0,0
137280,-53.1914893617021,4,2,1,50,0,0
137314,-212.765957446809,4,2,1,50,0,0
137347,-53.1914893617021,4,2,1,50,0,0
137381,-212.765957446809,4,2,1,50,0,0
137414,-70.9219858156028,4,2,1,50,0,0
137448,-212.765957446809,4,2,1,50,0,0
137481,-106.382978723404,4,2,1,50,0,0
138620,-53.1914893617021,4,2,1,50,0,0
138654,-212.765957446809,4,2,1,50,0,0
138687,-53.1914893617021,4,2,1,50,0,0
138721,-212.765957446809,4,2,1,50,0,0
138754,-70.9219858156028,4,2,1,50,0,0
138788,-212.765957446809,4,2,1,50,0,0
138820,-106.382978723404,4,2,1,50,0,0
139423,555.555555555556,4,2,1,50,1,0
139423,-102.272727272704,4,2,1,50,0,0
139596,-51.0204081632653,4,2,1,50,0,0
139631,-204.081632653061,4,2,1,50,0,0
139666,-51.0204081632653,4,2,1,50,0,0
139700,-204.081632653061,4,2,1,50,0,0
139735,-68.0272108843537,4,2,1,50,0,0
139770,-204.081632653061,4,2,1,50,0,0
139804,-102.272727272704,4,2,1,50,0,0
139978,612.244897959184,4,2,1,50,1,8
139978,-92.840166,4,2,1,50,0,0
140360,-46.244913,4,2,1,50,0,0
140398,-184.979652,4,2,1,50,0,0
140437,-61.659884,4,2,1,50,0,0
140475,-184.979652,4,2,1,50,0,0
140513,-92.840166,4,2,1,50,0,0
141203,750,4,2,1,50,1,8
141203,-75.7575757575758,4,2,1,50,0,0
141952,779.220779220779,4,2,1,50,1,0
141952,-72.9166666665907,4,2,1,50,0,0
142146,-91.7966446099913,4,2,1,50,0,0
142341,-115.565128616956,4,2,1,50,0,0
142536,-145.487877133147,4,2,1,50,0,0
142731,-183.158385630907,4,2,1,50,0,0
142926,-230.582746053944,4,2,1,50,0,0
143120,-290.286478528592,4,2,1,50,0,0
143315,-365.449024519886,4,2,1,50,0,0
143510,-460.073063683474,4,2,1,50,0,0
143705,-579.197671153122,4,2,1,50,0,0
143900,-729.166666665907,4,2,1,50,0,0
143997,-383.385,4,2,1,50,0,0
144094,-264.443,4,2,1,50,0,0
144192,-183.8,4,2,1,50,0,0
144289,-128.417,4,2,1,50,0,0
144387,-90.0468,4,2,1,50,0,0
144484,-63.2985,4,2,1,50,0,0
144581,-36.3277,4,2,1,50,0,0
144678,340.909090909091,4,2,1,50,1,0
144678,-125,4,2,1,50,0,0
146041,-121.212121212121,4,2,1,50,0,0
147405,-117.647058823529,4,2,1,50,0,0
148768,-114.285714285714,4,2,1,50,0,0
150132,-111.111111111111,4,2,1,50,0,0
151496,-108.108108108108,4,2,1,50,0,0
152859,-105.263157894737,4,2,1,50,0,0
154223,-102.564102564103,4,2,1,50,0,0
155587,-100,4,2,1,50,0,0
319223,352.941176470588,4,2,1,50,1,0
319223,-96.590909,4,2,1,50,0,0
320634,370.37037037037,4,2,1,50,1,0
320634,-92.045455,4,2,1,50,0,0
322115,400,4,2,1,50,1,0
322115,-85.227273,4,2,1,50,0,0
322915,416.666666666667,4,2,1,50,1,8
322915,-81.818182,4,2,1,50,0,0
323644,-86.124401913958,4,2,1,50,0,0
323957,588.235294117647,4,2,1,50,1,8
323957,-64.3939393939638,4,2,1,50,0,0
324397,413.793103448276,4,2,1,50,1,8
324397,-96.9251336899368,4,2,1,50,0,0
324883,685.714285714286,4,2,1,50,1,8
324883,-61.789772727185,4,2,1,50,0,0
325225,789.473684210526,4,2,1,50,1,8
325225,-57.5757575758623,4,2,1,50,0,0
325619,1158.30115830116,4,2,1,50,1,8
325619,-42.0454545454259,4,2,1,50,0,0
326198,500,4,2,1,50,1,0
326198,-97.4025974025974,4,2,1,50,0,0
356198,517.241379310345,4,2,1,50,1,0
356198,-101.398601398573,4,2,1,50,0,0
357232,530.973451327434,4,2,1,50,1,8
357232,-98.7762237763187,4,2,1,50,0,0
358322,549.450549450549,4,2,1,50,1,0
358322,-82.7272727272727,4,2,1,50,0,0
360519,540.540540540541,4,2,1,50,1,0
360519,-84.0909090908518,4,2,1,50,0,0
361600,551.977920883165,9,2,1,20,1,0
361600,-82.3484848486857,9,2,1,20,0,0
362703,542.005420054201,4,2,1,50,1,0
362703,-83.8636363636364,4,2,1,50,0,0
364871,545.454545454546,4,2,1,50,1,0
364871,-83.3333333333333,4,2,1,50,0,0
388871,562.32427366448,4,2,1,50,1,0
388871,-80.3030303028965,4,2,1,50,0,0
390557,636.26723223754,4,2,1,50,1,8
390557,-71.439393939526,4,2,1,50,0,0
391193,670.391061452514,4,2,1,50,1,0
391193,-72.6461038960597,4,2,1,50,0,0
391863,670.391061452514,4,2,1,50,1,8
391863,-78.2342657342657,4,2,1,50,0,0
392533,863.309352517986,4,2,1,50,1,8
392533,-65.8143939393939,4,2,1,50,0,0
393396,1167.31517509728,4,2,1,50,1,8
393396,-53.099173553719,4,2,1,50,0,0
394633,600,4,2,1,50,1,0
394633,-66.8449197860962,4,2,1,50,0,0
411433,-63.1313131313131,4,2,1,50,0,0
412633,-59.8086124401914,4,2,1,50,0,0
413833,-56.8181818181818,4,2,1,50,0,0
433033,623.052959501558,4,2,1,50,1,0
433033,-57.5956937799377,4,2,1,50,0,0
433656,-60.7954545456065,4,2,1,50,0,0
434279,666.666666666667,4,2,1,50,1,8
434279,-60.1604278075671,4,2,1,50,0,0
434945,-63.9204545456361,4,2,1,50,0,0
435612,638.297872340426,4,2,1,50,1,0
435612,-66.7613636361645,4,2,1,50,0,0
435771,-71.2121212120673,4,2,1,50,0,0
435931,-76.2987012988375,4,2,1,50,0,0
436250,-82.1678321675449,4,2,1,50,0,0
436888,769.230769230769,4,2,1,50,1,8
436888,-73.8636363634265,4,2,1,50,0,0
437272,869.565217391304,4,2,1,50,1,8
437272,-71.2809917357728,4,2,1,50,0,0
437706,1000,4,2,1,50,1,8
437706,-68.1818181816632,4,2,1,50,0,0
438208,1333.33333333333,4,2,1,50,1,8
438208,-56.8181818181818,4,2,1,50,0,0
438872,545.454545454546,4,2,1,50,1,0
438872,-83.3333333333333,4,2,1,50,0,0
440500,594.059405940594,4,2,1,50,1,8
440500,-76.5152,4,2,1,50,0,0
441054,535.714285714286,4,2,1,50,1,0
441054,-84.8485,4,2,1,50,0,0
442126,535.714285714286,4,2,1,50,1,8
442126,-84.8485,4,2,1,50,0,0
443217,555.555555555556,4,2,1,50,1,0
443217,-81.8181,4,2,1,50,0,0
444870,555.555555555556,4,2,1,50,1,8
444870,-81.8181,4,2,1,50,0,0
445409,555.555555555556,4,2,1,50,1,0
445409,-81.8181,4,2,1,50,0,0
446229,535.714285714286,4,2,1,50,1,8
446229,-84.8485,4,2,1,50,0,0
447044,535.714285714286,4,2,1,50,1,8
447044,-84.8485,4,2,1,50,0,0
447599,600,4,2,1,50,1,0
447599,-75.7576,4,2,1,50,0,0
450599,718.562874251497,4,2,1,50,1,8
450599,-63.2576,4,2,1,50,0,0
451292,679.501698754247,4,2,1,50,1,8
451292,-66.894,4,2,1,50,0,0
452651,681.818181818182,4,2,1,50,1,0
452651,-68.9655172413793,4,2,1,50,0,0
453332,-71.4285714285714,4,2,1,50,0,0
454014,750,4,2,1,50,1,8
454014,-67.3400673400673,4,2,1,50,0,0
454764,857.142857142857,4,2,1,50,1,8
454764,-61.1888111886507,4,2,1,50,0,0
455213,810.810810810811,4,2,1,50,1,8
455213,-64.6853146851451,4,2,1,50,0,0
455618,810.810810810811,4,2,1,50,1,0
455618,-70.0757575756116,4,2,1,50,0,0
456047,857.142857142857,4,2,1,50,1,8
456047,-66.2878787879416,4,2,1,50,0,0
456475,-72.3140495866274,4,2,1,50,0,0
457335,952.380952380952,4,2,1,50,1,8
457335,-71.5909090906732,4,2,1,50,0,0
457796,857.142857142857,4,2,1,50,1,8
457796,-79.5454545456353,4,2,1,50,0,0
458287,1200,4,2,1,50,1,8
458287,-63.1313131313131,4,2,1,50,0,0
459646,600,4,2,1,50,1,0
459646,-87.4125874125874,4,2,1,50,0,0
464446,625,4,2,1,50,1,0
464446,-83.9160839158492,4,2,1,50,0,0
466946,681.818181818182,4,2,1,50,1,0
466946,-83.3333333333333,4,2,1,50,0,0
467627,750,3,2,1,20,1,0
467627,-82.6446280991736,4,2,1,50,0,0
468377,800,4,2,1,50,1,8
468377,-85.2272727275148,4,2,1,50,0,0
469177,1000,4,2,1,50,1,8
469177,-75.7575757575758,4,2,1,50,0,0
469677,1395.3488372093,4,2,1,50,1,8
469677,-54.2929292928196,4,2,1,50,0,0
470374,352.941176470588,4,2,1,50,1,0
470374,-482.556818181195,4,2,1,50,0,0
470638,-241.278409090909,4,2,1,50,0,0
470726,-321.704545454545,4,2,1,50,0,0
470815,-482.556818181818,4,2,1,50,0,0
470991,-965.113636363636,4,2,1,50,0,0
471256,-1930.22727272727,4,2,1,50,0,0
471374,-241.278409090909,4,2,1,50,0,0
471462,-321.704545454545,4,2,1,50,0,0
471550,-482.556818181818,4,2,1,50,0,0
471726,-10,4,2,1,50,0,0
471727,-965.113636363636,4,2,1,50,0,0
471903,-1930.22727272727,4,2,1,50,0,0
472021,-241.278409090909,4,2,1,50,0,0
472109,-321.704545454545,4,2,1,50,0,0
472197,-482.556818181818,4,2,1,50,0,0
472226,-10,4,2,1,50,0,0
472227,-482.556818181818,4,2,1,50,0,0
472374,-965.113636363636,4,2,1,50,0,0
472432,-10,4,2,1,50,0,0
472433,-965.113636363636,4,2,1,50,0,0
472550,-1930.22727272727,4,2,1,50,0,0
472668,-10,4,2,1,50,0,0
472669,-241.278409090909,4,2,1,50,0,0
472756,-321.704545454545,4,2,1,50,0,0
472844,-482.556818181818,4,2,1,50,0,0
472874,-10,4,2,1,50,0,0
472875,-482.556818181818,4,2,1,50,0,0
473021,-965.113636363636,4,2,1,50,0,0
473050,-10,4,2,1,50,0,0
473051,-965.113636363636,4,2,1,50,0,0
473168,-10,4,2,1,50,0,0
473169,-965.113636363636,4,2,1,50,0,0
473197,-1930.22727272727,4,2,1,50,0,0
473432,-241.278409090909,4,2,1,50,0,0
473491,-10000,4,2,1,50,0,0
473550,-241.278409090909,4,2,1,50,0,0
473609,-10000,4,2,1,50,0,0
473668,-241.278409090909,4,2,1,50,0,0
473726,-10000,4,2,1,50,0,0
473785,-241.278409090909,4,2,1,50,0,0
473844,-10000,4,2,1,50,0,0
473903,-241.278409090909,4,2,1,50,0,0
473962,-10000,4,2,1,50,0,0
474021,-241.278409090909,4,2,1,50,0,0
474079,-10000,4,2,1,50,0,0
474138,-482.556818181818,4,2,1,50,0,0
474168,-10000,4,2,1,50,0,0
474197,-482.556818181818,4,2,1,50,0,0
474227,-10000,4,2,1,50,0,0
474256,-482.556818181818,4,2,1,50,0,0
474286,-10000,4,2,1,50,0,0
474315,-482.556818181818,4,2,1,50,0,0
474345,-10000,4,2,1,50,0,0
474374,-482.556818181818,4,2,1,50,0,0
474404,-10000,4,2,1,50,0,0
474432,-482.556818181818,4,2,1,50,0,0
474462,-10000,4,2,1,50,0,0
474491,-482.556818181818,4,2,1,50,0,0
474521,-10000,4,2,1,50,0,0
474550,-482.556818181818,4,2,1,50,0,0
474580,-10000,4,2,1,50,0,0
474609,-482.556818181818,4,2,1,50,0,0
474639,-10000,4,2,1,50,0,0
474668,-482.556818181818,4,2,1,50,0,0
474698,-10000,4,2,1,50,0,0
474726,-482.556818181818,4,2,1,50,0,0
474756,-10000,4,2,1,50,0,0
474785,-482.556818181818,4,2,1,50,0,0
474815,-10000,4,2,1,50,0,0
474844,-241.278409090909,4,2,1,50,0,0
474874,-10000,4,2,1,50,0,0
474903,-241.278409090909,4,2,1,50,0,0
474933,-10000,4,2,1,50,0,0
474962,-241.278409090909,4,2,1,50,0,0
474992,-10000,4,2,1,50,0,0
475021,-241.278409090909,4,2,1,50,0,0
475051,-10000,4,2,1,50,0,0
475079,-241.278409090909,4,2,1,50,0,0
475109,-10000,4,2,1,50,0,0
475138,-386.045454545455,4,2,1,50,0,0
475168,-10000,4,2,1,50,0,0
475197,-386.045454545455,4,2,1,50,0,0
475227,-10000,4,2,1,50,0,0
475256,-386.045454545455,4,2,1,50,0,0
475286,-10000,4,2,1,50,0,0
475315,-386.045454545455,4,2,1,50,0,0
475345,-10000,4,2,1,50,0,0
475374,-386.045454545455,4,2,1,50,0,0
475404,-10000,4,2,1,50,0,0
475432,-386.045454545455,4,2,1,50,0,0
475462,-10000,4,2,1,50,0,0
475491,-275.746753246753,4,2,1,50,0,0
475521,-10000,4,2,1,50,0,0
475550,-275.746753246753,4,2,1,50,0,0
475579,-10000,4,2,1,50,0,0
475608,-275.746753246753,4,2,1,50,0,0
475638,-10000,4,2,1,50,0,0
475667,-275.746753246753,4,2,1,50,0,0
475697,-10000,4,2,1,50,0,0
475726,-275.746753246753,4,2,1,50,0,0
475756,-10000,4,2,1,50,0,0
475785,-482.556818181818,4,2,1,50,0,0
475815,-10000,4,2,1,50,0,0
475844,-482.556818181818,4,2,1,50,0,0
475874,-10000,4,2,1,50,0,0
475903,-482.556818181818,4,2,1,50,0,0
475932,-10000,4,2,1,50,0,0
475961,-482.556818181818,4,2,1,50,0,0
475991,-10000,4,2,1,50,0,0
476021,-643.409090909091,4,2,1,50,0,0
476050,-10000,4,2,1,50,0,0
476079,-643.409090909091,4,2,1,50,0,0
476108,-10000,4,2,1,50,0,0
476138,-643.409090909091,4,2,1,50,0,0
476167,-10000,4,2,1,50,0,0
476197,-643.409090909091,4,2,1,50,0,0
476226,-10000,4,2,1,50,0,0
476256,-643.409090909091,4,2,1,50,0,0
476285,-10000,4,2,1,50,0,0
476315,-643.409090909091,4,2,1,50,0,0
476344,-10000,4,2,1,50,0,0
476374,-241.278409090909,4,2,1,50,0,0
476403,-10000,4,2,1,50,0,0
476432,-241.278409090909,4,2,1,50,0,0
476461,-10000,4,2,1,50,0,0
476491,-241.278409090909,4,2,1,50,0,0
476520,-10000,4,2,1,50,0,0
476550,-241.278409090909,4,2,1,50,0,0
476579,-10000,4,2,1,50,0,0
476609,-241.278409090909,4,2,1,50,0,0
476638,-10000,4,2,1,50,0,0
476668,-386.045454545455,4,2,1,50,0,0
476697,-10000,4,2,1,50,0,0
476726,-386.045454545455,4,2,1,50,0,0
476755,-10000,4,2,1,50,0,0
476785,-386.045454545455,4,2,1,50,0,0
476814,-10000,4,2,1,50,0,0
476844,-386.045454545455,4,2,1,50,0,0
476873,-10000,4,2,1,50,0,0
476903,-386.045454545455,4,2,1,50,0,0
476932,-10000,4,2,1,50,0,0
476962,-386.045454545455,4,2,1,50,0,0
476991,-10000,4,2,1,50,0,0
477021,-275.746753246753,4,2,1,50,0,0
477050,-10000,4,2,1,50,0,0
477079,-275.746753246753,4,2,1,50,0,0
477108,-10000,4,2,1,50,0,0
477138,-275.746753246753,4,2,1,50,0,0
477167,-10000,4,2,1,50,0,0
477197,-275.746753246753,4,2,1,50,0,0
477226,-10000,4,2,1,50,0,0
477256,-275.746753246753,4,2,1,50,0,0
477285,-10000,4,2,1,50,0,0
477315,-275.746753246753,4,2,1,50,0,0
477344,-10000,4,2,1,50,0,0
477374,-482.556818181818,4,2,1,50,0,0
477403,-10000,4,2,1,50,0,0
477432,-482.556818181818,4,2,1,50,0,0
477461,-10000,4,2,1,50,0,0
477491,-482.556818181818,4,2,1,50,0,0
477520,-10000,4,2,1,50,0,0
477550,-482.556818181818,4,2,1,50,0,0
477579,-10000,4,2,1,50,0,0
477609,-482.556818181818,4,2,1,50,0,0
477638,-10000,4,2,1,50,0,0
477668,-482.556818181818,4,2,1,50,0,0
477697,-10000,4,2,1,50,0,0
477726,-482.556818181818,4,2,1,50,0,0
477755,-10000,4,2,1,50,0,0
477785,-482.556818181818,4,2,1,50,0,0
477814,-10000,4,2,1,50,0,0
477844,-482.556818181818,4,2,1,50,0,0
477873,-10000,4,2,1,50,0,0
477903,-241.278409090909,4,2,1,50,0,0
477932,-10000,4,2,1,50,0,0
477962,-241.278409090909,4,2,1,50,0,0
477991,-10000,4,2,1,50,0,0
478021,-241.278409090909,4,2,1,50,0,0
478050,-10000,4,2,1,50,0,0
478079,-241.278409090909,4,2,1,50,0,0
478108,-10000,4,2,1,50,0,0
478138,-241.278409090909,4,2,1,50,0,0
478167,-10000,4,2,1,50,0,0
478197,-386.045454545455,4,2,1,50,0,0
478226,-10000,4,2,1,50,0,0
478256,-386.045454545455,4,2,1,50,0,0
478285,-10000,4,2,1,50,0,0
478315,-386.045454545455,4,2,1,50,0,0
478344,-10000,4,2,1,50,0,0
478374,-386.045454545455,4,2,1,50,0,0
478403,-10000,4,2,1,50,0,0
478432,-386.045454545455,4,2,1,50,0,0
478461,-10000,4,2,1,50,0,0
478491,-386.045454545455,4,2,1,50,0,0
478520,-10000,4,2,1,50,0,0
478550,-386.045454545455,4,2,1,50,0,0
478579,-10000,4,2,1,50,0,0
478609,-386.045454545455,4,2,1,50,0,0
478638,-10000,4,2,1,50,0,0
478668,-643.409090909091,4,2,1,50,0,0
478697,-10000,4,2,1,50,0,0
478726,-643.409090909091,4,2,1,50,0,0
478755,-10000,4,2,1,50,0,0
478785,-643.409090909091,4,2,1,50,0,0
478814,-10000,4,2,1,50,0,0
478844,-643.409090909091,4,2,1,50,0,0
478873,-10000,4,2,1,50,0,0
478903,-643.409090909091,4,2,1,50,0,0
478932,-10000,4,2,1,50,0,0
478962,-643.409090909091,4,2,1,50,0,0
478991,-10000,4,2,1,50,0,0
479021,-643.409090909091,4,2,1,50,0,0
479050,-10000,4,2,1,50,0,0
479079,-482.556818181818,4,2,1,50,0,0
479109,-10000,4,2,1,50,0,0
479138,-482.556818181818,4,2,1,50,0,0
479168,-10000,4,2,1,50,0,0
479197,-482.556818181818,4,2,1,50,0,0
479227,-10000,4,2,1,50,0,0
479256,-482.556818181818,4,2,1,50,0,0
479286,-10000,4,2,1,50,0,0
479315,-482.556818181818,4,2,1,50,0,0
479345,-10000,4,2,1,50,0,0
479374,-482.556818181818,4,2,1,50,0,0
479403,-241.278409090909,4,2,1,50,0,0
479462,-10000,4,2,1,50,0,0
479521,-241.278409090909,4,2,1,50,0,0
479580,-10000,4,2,1,50,0,0
479638,-241.278409090909,4,2,1,50,0,0
479697,-10000,4,2,1,50,0,0
479756,-241.278409090909,4,2,1,50,0,0
479815,-10000,4,2,1,50,0,0
479874,-241.278409090909,4,2,1,50,0,0
479933,-10000,4,2,1,50,0,0
479991,-241.278409090909,4,2,1,50,0,0
480050,-214.469696969697,4,2,1,50,0,0
480079,-10000,4,2,1,50,0,0
480109,-214.469696969697,4,2,1,50,0,0
480138,-10000,4,2,1,50,0,0
480168,-214.469696969697,4,2,1,50,0,0
480197,-10000,4,2,1,50,0,0
480226,-214.469696969697,4,2,1,50,0,0
480256,-10000,4,2,1,50,0,0
480285,-214.469696969697,4,2,1,50,0,0
480314,-10000,4,2,1,50,0,0
480344,-214.469696969697,4,2,1,50,0,0
480373,-10000,4,2,1,50,0,0
480403,-482.556818181818,4,2,1,50,0,0
480432,-10000,4,2,1,50,0,0
480462,-482.556818181818,4,2,1,50,0,0
480491,-10000,4,2,1,50,0,0
480521,-482.556818181818,4,2,1,50,0,0
480550,-10000,4,2,1,50,0,0
480579,-482.556818181818,4,2,1,50,0,0
480608,-10000,4,2,1,50,0,0
480638,-482.556818181818,4,2,1,50,0,0
480667,-10000,4,2,1,50,0,0
480697,-482.556818181818,4,2,1,50,0,0
480726,-10000,4,2,1,50,0,0
480756,-482.556818181818,4,2,1,50,0,0
480785,-10000,4,2,1,50,0,0
480815,-482.556818181818,4,2,1,50,0,0
480844,-10000,4,2,1,50,0,0
480874,-482.556818181818,4,2,1,50,0,0
480903,-193.022727272727,4,2,1,50,0,0
480962,-10000,4,2,1,50,0,0
481021,-193.022727272727,4,2,1,50,0,0
481080,-10000,4,2,1,50,0,0
481138,-193.022727272727,4,2,1,50,0,0
481197,-10000,4,2,1,50,0,0
481256,-193.022727272727,4,2,1,50,0,0
481315,-10000,4,2,1,50,0,0
481374,-193.022727272727,4,2,1,50,0,0
481433,-10000,4,2,1,50,0,0
481491,-193.022727272727,4,2,1,50,0,0
481550,-10000,4,2,1,50,0,0
481609,-193.022727272727,4,2,1,50,0,0
481668,-10000,4,2,1,50,0,0

[HitObjects]
192,192,1745,5,0,0:0:0:0:
448,192,1879,1,0,0:0:0:0:
64,192,2013,1,0,0:0:0:0:
320,192,2146,1,0,0:0:0:0:
192,192,2280,1,0,0:0:0:0:
448,192,2414,1,0,0:0:0:0:
320,192,2548,1,0,0:0:0:0:
64,192,2682,1,0,0:0:0:0:
192,192,2816,1,0,0:0:0:0:
320,192,2950,1,0,0:0:0:0:
448,192,3084,1,0,0:0:0:0:
192,192,3218,1,0,0:0:0:0:
320,192,3352,1,0,0:0:0:0:
64,192,3486,1,0,0:0:0:0:
448,192,3620,1,0,0:0:0:0:
320,192,3754,1,0,0:0:0:0:
192,192,3888,1,0,0:0:0:0:
64,192,4021,1,0,0:0:0:0:
320,192,4155,1,0,0:0:0:0:
192,192,4289,1,0,0:0:0:0:
448,192,4423,1,0,0:0:0:0:
64,192,4557,1,0,0:0:0:0:
320,192,4691,1,0,0:0:0:0:
192,192,4825,1,0,0:0:0:0:
448,192,4959,1,0,0:0:0:0:
64,192,5093,1,0,0:0:0:0:
320,192,5227,1,0,0:0:0:0:
192,192,5361,1,0,0:0:0:0:
448,192,5495,1,0,0:0:0:0:
320,192,5629,1,0,0:0:0:0:
64,192,5763,1,0,0:0:0:0:
448,192,5896,1,0,0:0:0:0:
192,192,6030,1,0,0:0:0:0:
320,192,6164,1,0,0:0:0:0:
64,192,6298,1,0,0:0:0:0:
192,192,6432,1,0,0:0:0:0:
320,192,6566,1,0,0:0:0:0:
64,192,6700,1,0,0:0:0:0:
448,192,6834,1,0,0:0:0:0:
320,192,6968,1,0,0:0:0:0:
192,192,7102,1,0,0:0:0:0:
448,192,7236,1,0,0:0:0:0:
64,192,7370,1,0,0:0:0:0:
320,192,7504,1,0,0:0:0:0:
192,192,7638,1,0,0:0:0:0:
448,192,7771,1,0,0:0:0:0:
64,192,7905,1,0,0:0:0:0:
320,192,8039,1,0,0:0:0:0:
192,192,8173,1,0,0:0:0:0:
64,192,8307,1,0,0:0:0:0:
320,192,8441,1,0,0:0:0:0:
448,192,8575,1,0,0:0:0:0:
192,192,8709,1,0,0:0:0:0:
320,192,8843,1,0,0:0:0:0:
64,192,8977,1,0,0:0:0:0:
192,192,9111,1,0,0:0:0:0:
448,192,9245,1,0,0:0:0:0:
320,192,9379,1,0,0:0:0:0:
192,192,9513,1,0,0:0:0:0:
448,192,9646,1,0,0:0:0:0:
320,192,9780,1,0,0:0:0:0:
64,192,9914,1,0,0:0:0:0:
192,192,10048,1,0,0:0:0:0:
448,192,10182,1,0,0:0:0:0:
320,192,10316,1,0,0:0:0:0:
192,192,10450,1,0,0:0:0:0:
64,192,10584,1,0,0:0:0:0:
320,192,10718,1,0,0:0:0:0:
192,192,10852,1,0,0:0:0:0:
448,192,10986,1,0,0:0:0:0:
64,192,11120,1,0,0:0:0:0:
320,192,11254,1,0,0:0:0:0:
192,192,11388,1,0,0:0:0:0:
448,192,11521,1,0,0:0:0:0:
320,192,11655,1,0,0:0:0:0:
192,192,11789,1,0,0:0:0:0:
64,192,11923,1,0,0:0:0:0:
320,192,12057,1,0,0:0:0:0:
448,192,12191,1,0,0:0:0:0:
192,192,12325,1,0,0:0:0:0:
64,192,12459,1,0,0:0:0:0:
448,192,12593,1,0,0:0:0:0:
320,192,12727,1,0,0:0:0:0:
64,192,12861,1,0,0:0:0:0:
192,192,12995,1,0,0:0:0:0:
448,192,13129,1,0,0:0:0:0:
64,192,13263,1,0,0:0:0:0:
320,192,13396,1,0,0:0:0:0:
448,192,13530,1,0,0:0:0:0:
192,192,13664,1,0,0:0:0:0:
320,192,13798,1,0,0:0:0:0:
64,192,13932,1,0,0:0:0:0:
192,192,14066,1,0,0:0:0:0:
448,192,14200,1,0,0:0:0:0:
64,192,14334,1,0,0:0:0:0:
320,192,14468,1,0,0:0:0:0:
192,192,14602,1,0,0:0:0:0:
448,192,14635,128,0,14769:0:0:0:0:
64,192,14736,1,0,0:0:0:0:
320,192,14870,1,0,0:0:0:0:
448,192,15004,1,0,0:0:0:0:
192,192,15138,1,0,0:0:0:0:
320,192,15271,1,0,0:0:0:0:
64,192,15405,1,0,0:0:0:0:
192,192,15539,1,0,0:0:0:0:
320,192,15673,1,0,0:0:0:0:
64,192,15807,1,0,0:0:0:0:
448,192,15941,1,0,0:0:0:0:
192,192,16075,1,0,0:0:0:0:
320,192,16209,1,0,0:0:0:0:
64,192,16343,1,0,0:0:0:0:
192,192,16477,1,0,0:0:0:0:
448,192,16611,1,0,0:0:0:0:
64,192,16745,1,0,0:0:0:0:
320,192,16879,1,0,0:0:0:0:
192,192,17013,1,0,0:0:0:0:
448,192,17146,1,0,0:0:0:0:
320,192,17280,1,0,0:0:0:0:
192,192,17414,1,0,0:0:0:0:
448,192,17548,1,0,0:0:0:0:
320,192,17682,1,0,0:0:0:0:
64,192,17816,1,0,0:0:0:0:
192,192,17850,128,0,18117:0:0:0:0:
448,192,17950,1,0,0:0:0:0:
320,192,18084,1,0,0:0:0:0:
64,192,18218,1,0,0:0:0:0:
320,192,18352,1,0,0:0:0:0:
192,192,18486,1,0,0:0:0:0:
448,192,18620,1,0,0:0:0:0:
64,192,18754,1,0,0:0:0:0:
320,192,18888,1,0,0:0:0:0:
448,192,19021,1,0,0:0:0:0:
64,192,19155,1,0,0:0:0:0:
192,192,19289,1,0,0:0:0:0:
448,192,19423,1,0,0:0:0:0:
320,192,19557,1,0,0:0:0:0:
64,192,19691,1,0,0:0:0:0:
448,192,19825,1,0,0:0:0:0:
320,192,19959,1,0,0:0:0:0:
192,192,20093,1,0,0:0:0:0:
448,192,20227,1,0,0:0:0:0:
64,192,20361,1,0,0:0:0:0:
320,192,20495,1,0,0:0:0:0:
448,192,20629,1,0,0:0:0:0:
192,192,20763,1,0,0:0:0:0:
320,192,20896,1,0,0:0:0:0:
64,192,21030,1,0,0:0:0:0:
320,192,21097,128,0,21298:0:0:0:0:
448,192,21164,1,0,0:0:0:0:
192,192,21298,1,0,0:0:0:0:
64,192,21432,1,0,0:0:0:0:
448,192,21566,1,0,0:0:0:0:
192,192,21700,1,0,0:0:0:0:
320,192,21834,1,0,0:0:0:0:
64,192,21968,1,0,0:0:0:0:
192,192,22102,1,0,0:0:0:0:
448,192,22236,1,0,0:0:0:0:
320,192,22370,1,0,0:0:0:0:
64,192,22504,1,0,0:0:0:0:
448,192,22638,1,0,0:0:0:0:
192,192,22771,1,0,0:0:0:0:
320,192,22905,1,0,0:0:0:0:
448,192,23039,1,0,0:0:0:0:
64,192,23173,1,0,0:0:0:0:
192,192,23307,1,0,0:0:0:0:
448,192,23441,1,0,0:0:0:0:
320,192,23575,1,0,0:0:0:0:
64,192,23709,1,0,0:0:0:0:
448,192,23843,1,0,0:0:0:0:
192,192,23977,1,0,0:0:0:0:
320,192,24111,1,0,0:0:0:0:
64,192,24245,1,0,0:0:0:0:
192,192,24379,1,0,0:0:0:0:
448,192,24513,1,0,0:0:0:0:
64,192,24646,1,0,0:0:0:0:
320,192,24780,1,0,0:0:0:0:
192,192,24914,1,0,0:0:0:0:
64,192,25048,1,0,0:0:0:0:
448,192,25182,1,0,0:0:0:0:
320,192,25316,1,0,0:0:0:0:
192,192,25450,1,0,0:0:0:0:
448,192,25584,1,0,0:0:0:0:
64,192,25718,1,0,0:0:0:0:
320,192,25852,1,0,0:0:0:0:
192,192,25986,1,0,0:0:0:0:
448,192,26053,128,0,26254:0:0:0:0:
64,192,26120,1,0,0:0:0:0:
192,192,26254,1,0,0:0:0:0:
320,192,26388,1,0,0:0:0:0:
448,192,26521,1,0,0:0:0:0:
64,192,26655,1,0,0:0:0:0:
192,192,26789,1,0,0:0:0:0:
320,192,26923,1,0,0:0:0:0:
64,192,27057,1,0,0:0:0:0:
448,192,27191,1,0,0:0:0:0:
320,192,27325,1,0,0:0:0:0:
192,192,27459,1,0,0:0:0:0:
64,192,27593,1,0,0:0:0:0:
448,192,27727,1,0,0:0:0:0:
192,192,27861,1,0,0:0:0:0:
320,192,27995,1,0,0:0:0:0:
64,192,28129,1,0,0:0:0:0:
192,192,28263,1,0,0:0:0:0:
448,192,28396,1,0,0:0:0:0:
64,192,28530,1,0,0:0:0:0:
320,192,28664,1,0,0:0:0:0:
192,192,28798,1,0,0:0:0:0:
448,192,28932,1,0,0:0:0:0:
320,192,29066,1,0,0:0:0:0:
64,192,29200,1,0,0:0:0:0:
192,192,29334,1,0,0:0:0:0:
448,192,29468,1,0,0:0:0:0:
64,192,29568,128,0,29769:0:0:0:0:
192,192,29602,1,0,0:0:0:0:
320,192,29736,1,0,0:0:0:0:
448,192,29870,1,0,0:0:0:0:
192,192,30004,1,0,0:0:0:0:
320,192,30138,1,0,0:0:0:0:
64,192,30271,1,0,0:0:0:0:
192,192,30405,1,0,0:0:0:0:
448,192,30539,1,0,0:0:0:0:
320,192,30673,1,0,0:0:0:0:
192,192,30807,1,0,0:0:0:0:
64,192,30941,1,0,0:0:0:0:
320,192,31075,1,0,0:0:0:0:
192,192,31209,1,0,0:0:0:0:
448,192,31343,1,0,0:0:0:0:
320,192,31477,1,0,0:0:0:0:
64,192,31611,1,0,0:0:0:0:
192,192,31745,1,0,0:0:0:0:
448,192,31879,1,0,0:0:0:0:
320,192,32013,1,0,0:0:0:0:
64,192,32146,1,0,0:0:0:0:
448,192,32280,1,0,0:0:0:0:
320,192,32414,1,0,0:0:0:0:
64,192,32548,1,0,0:0:0:0:
192,192,32682,1,0,0:0:0:0:
320,192,32816,1,0,0:0:0:0:
64,192,32850,128,0,33084:0:0:0:0:
448,192,32950,1,0,0:0:0:0:
192,192,33084,1,0,0:0:0:0:
320,192,33218,1,0,0:0:0:0:
64,192,33352,1,0,0:0:0:0:
192,192,33486,1,0,0:0:0:0:
448,192,33620,1,0,0:0:0:0:
320,192,33754,1,0,0:0:0:0:
192,192,33888,1,0,0:0:0:0:
448,192,34021,1,0,0:0:0:0:
64,192,34155,1,0,0:0:0:0:
320,192,34289,1,0,0:0:0:0:
192,192,34423,1,0,0:0:0:0:
448,192,34557,1,0,0:0:0:0:
320,192,34691,1,0,0:0:0:0:
192,192,34825,1,0,0:0:0:0:
448,192,34959,1,0,0:0:0:0:
64,192,35093,1,0,0:0:0:0:
192,192,35227,1,0,0:0:0:0:
320,192,35361,1,0,0:0:0:0:
448,192,35495,1,0,0:0:0:0:
192,192,35629,1,0,0:0:0:0:
64,192,35763,1,0,0:0:0:0:
448,192,35896,1,0,0:0:0:0:
192,192,36030,1,0,0:0:0:0:
320,192,36164,1,0,0:0:0:0:
64,192,36298,1,0,0:0:0:0:
192,192,36432,1,0,0:0:0:0:
448,192,36566,1,0,0:0:0:0:
320,192,36700,1,0,0:0:0:0:
64,192,36834,1,0,0:0:0:0:
448,192,36968,1,0,0:0:0:0:
192,192,37102,1,0,0:0:0:0:
64,192,37236,1,0,0:0:0:0:
320,192,37370,1,0,0:0:0:0:
64,192,37504,1,0,0:0:0:0:
448,192,37638,1,0,0:0:0:0:
192,192,37771,1,0,0:0:0:0:
320,192,37905,1,0,0:0:0:0:
448,192,38039,1,0,0:0:0:0:
64,192,38173,1,0,0:0:0:0:
192,192,38307,1,0,0:0:0:0:
448,192,38441,1,0,0:0:0:0:
320,192,38575,1,0,0:0:0:0:
192,192,38709,128,0,43530:0:0:0:0:
64,192,38709,1,0,0:0:0:0:
448,192,38843,1,0,0:0:0:0:
320,192,38977,1,0,0:0:0:0:
64,192,39111,1,0,0:0:0:0:
448,192,39245,1,0,0:0:0:0:
320,192,39379,1,0,0:0:0:0:
448,192,39513,1,0,0:0:0:0:
64,192,39646,1,0,0:0:0:0:
320,192,39780,1,0,0:0:0:0:
64,192,39914,1,0,0:0:0:0:
448,192,40048,1,0,0:0:0:0:
320,192,40182,1,0,0:0:0:0:
64,192,40316,1,0,0:0:0:0:
448,192,40450,1,0,0:0:0:0:
64,192,40584,1,0,0:0:0:0:
320,192,40718,1,0,0:0:0:0:
448,192,40852,1,0,0:0:0:0:
64,192,40986,1,0,0:0:0:0:
320,192,41120,1,0,0:0:0:0:
64,192,41254,1,0,0:0:0:0:
448,192,41388,1,0,0:0:0:0:
320,192,41521,1,0,0:0:0:0:
64,192,41655,1,0,0:0:0:0:
448,192,41789,1,0,0:0:0:0:
320,192,41923,1,0,0:0:0:0:
448,192,42057,1,0,0:0:0:0:
64,192,42191,1,0,0:0:0:0:
320,192,42325,1,0,0:0:0:0:
448,192,42459,1,0,0:0:0:0:
64,192,42593,1,0,0:0:0:0:
320,192,42727,1,0,0:0:0:0:
64,192,42861,1,0,0:0:0:0:
448,192,42995,1,0,0:0:0:0:
320,192,43129,1,0,0:0:0:0:
64,192,43263,1,0,0:0:0:0:
448,192,43396,1,0,0:0:0:0:
64,192,43530,1,0,0:0:0:0:
320,192,43530,128,0,48352:0:0:0:0:
192,192,43664,1,0,0:0:0:0:
448,192,43798,1,0,0:0:0:0:
64,192,43932,1,0,0:0:0:0:
192,192,44066,1,0,0:0:0:0:
64,192,44200,1,0,0:0:0:0:
448,192,44334,1,0,0:0:0:0:
192,192,44468,1,0,0:0:0:0:
64,192,44602,1,0,0:0:0:0:
192,192,44736,1,0,0:0:0:0:
448,192,44870,1,0,0:0:0:0:
64,192,45004,1,0,0:0:0:0:
192,192,45138,1,0,0:0:0:0:
448,192,45271,1,0,0:0:0:0:
192,192,45405,1,0,0:0:0:0:
64,192,45539,1,0,0:0:0:0:
448,192,45673,1,0,0:0:0:0:
192,192,45807,1,0,0:0:0:0:
64,192,45941,1,0,0:0:0:0:
192,192,46075,1,0,0:0:0:0:
448,192,46209,1,0,0:0:0:0:
64,192,46343,1,0,0:0:0:0:
448,192,46477,1,0,0:0:0:0:
192,192,46611,1,0,0:0:0:0:
64,192,46745,1,0,0:0:0:0:
448,192,46879,1,0,0:0:0:0:
64,192,47013,1,0,0:0:0:0:
448,192,47146,1,0,0:0:0:0:
192,192,47280,1,0,0:0:0:0:
64,192,47414,1,0,0:0:0:0:
192,192,47548,1,0,0:0:0:0:
448,192,47682,1,0,0:0:0:0:
64,192,47816,1,0,0:0:0:0:
192,192,47950,1,0,0:0:0:0:
64,192,48084,1,0,0:0:0:0:
448,192,48218,1,0,0:0:0:0:
64,192,48352,128,0,53173:0:0:0:0:
192,192,48352,1,0,0:0:0:0:
320,192,48486,1,0,0:0:0:0:
448,192,48620,1,0,0:0:0:0:
192,192,48754,1,0,0:0:0:0:
320,192,48888,1,0,0:0:0:0:
192,192,49021,1,0,0:0:0:0:
448,192,49155,1,0,0:0:0:0:
320,192,49289,1,0,0:0:0:0:
192,192,49423,1,0,0:0:0:0:
320,192,49557,1,0,0:0:0:0:
448,192,49691,1,0,0:0:0:0:
192,192,49825,1,0,0:0:0:0:
448,192,49959,1,0,0:0:0:0:
192,192,50093,1,0,0:0:0:0:
320,192,50227,1,0,0:0:0:0:
448,192,50361,1,0,0:0:0:0:
320,192,50495,1,0,0:0:0:0:
192,192,50629,1,0,0:0:0:0:
448,192,50763,1,0,0:0:0:0:
320,192,50896,1,0,0:0:0:0:
192,192,51030,1,0,0:0:0:0:
320,192,51164,1,0,0:0:0:0:
448,192,51298,1,0,0:0:0:0:
192,192,51432,1,0,0:0:0:0:
448,192,51566,1,0,0:0:0:0:
192,192,51700,1,0,0:0:0:0:
320,192,51834,1,0,0:0:0:0:
192,192,51968,1,0,0:0:0:0:
448,192,52102,1,0,0:0:0:0:
320,192,52236,1,0,0:0:0:0:
448,192,52370,1,0,0:0:0:0:
192,192,52504,1,0,0:0:0:0:
320,192,52638,1,0,0:0:0:0:
448,192,52771,1,0,0:0:0:0:
192,192,52905,1,0,0:0:0:0:
320,192,53039,1,0,0:0:0:0:
448,192,53173,128,0,57928:0:0:0:0:
192,192,53173,1,0,0:0:0:0:
320,192,53307,1,0,0:0:0:0:
64,192,53441,1,0,0:0:0:0:
192,192,53575,1,0,0:0:0:0:
320,192,53709,1,0,0:0:0:0:
192,192,53843,1,0,0:0:0:0:
64,192,53977,1,0,0:0:0:0:
320,192,54111,1,0,0:0:0:0:
192,192,54245,1,0,0:0:0:0:
64,192,54379,1,0,0:0:0:0:
192,192,54513,1,0,0:0:0:0:
320,192,54646,1,0,0:0:0:0:
64,192,54780,1,0,0:0:0:0:
320,192,54914,1,0,0:0:0:0:
192,192,55048,1,0,0:0:0:0:
64,192,55182,1,0,0:0:0:0:
320,192,55316,1,0,0:0:0:0:
192,192,55450,1,0,0:0:0:0:
64,192,55584,1,0,0:0:0:0:
320,192,55584,1,0,0:0:0:0:
192,192,55718,1,0,0:0:0:0:
64,192,55852,1,0,0:0:0:0:
320,192,55986,1,0,0:0:0:0:
192,192,56120,1,0,0:0:0:0:
320,192,56254,1,0,0:0:0:0:
64,192,56388,1,0,0:0:0:0:
192,192,56521,1,0,0:0:0:0:
320,192,56655,1,0,0:0:0:0:
64,192,56789,1,0,0:0:0:0:
192,192,56923,5,0,0:0:0:0:
320,192,57057,1,0,0:0:0:0:
192,192,57191,1,0,0:0:0:0:
64,192,57325,128,0,57928:0:0:0:0:
320,192,57459,1,0,0:0:0:0:
192,192,57593,1,0,0:0:0:0:
320,192,57727,128,0,57928:0:0:0:0:
192,192,57861,128,0,57928:0:0:0:0:
448,192,57995,128,0,58262:0:0:0:0:
64,192,57995,128,0,58061:0:0:0:0:
320,192,57995,128,0,58061:0:0:0:0:
192,192,58128,1,0,0:0:0:0:
64,192,58262,1,0,0:0:0:0:
320,192,58262,128,0,58530:0:0:0:0:
64,192,58396,1,0,0:0:0:0:
448,192,58530,1,0,0:0:0:0:
192,192,58530,128,0,58798:0:0:0:0:
448,192,58664,1,0,0:0:0:0:
320,192,58798,1,0,0:0:0:0:
64,192,58798,128,0,58999:0:0:0:0:
320,192,58932,1,0,0:0:0:0:
448,192,59066,1,0,0:0:0:0:
192,192,59066,1,0,0:0:0:0:
64,192,59066,128,0,59334:0:0:0:0:
320,192,59200,1,0,0:0:0:0:
192,192,59334,128,0,59602:0:0:0:0:
448,192,59334,1,0,0:0:0:0:
448,192,59468,1,0,0:0:0:0:
320,192,59602,128,0,59870:0:0:0:0:
64,192,59602,128,0,59669:0:0:0:0:
64,192,59736,128,0,59803:0:0:0:0:
192,192,59870,128,0,59936:0:0:0:0:
448,192,59870,128,0,60070:0:0:0:0:
192,192,60003,128,0,60070:0:0:0:0:
448,192,60137,128,0,60405:0:0:0:0:
64,192,60137,1,0,0:0:0:0:
320,192,60137,1,0,0:0:0:0:
192,192,60271,1,0,0:0:0:0:
320,192,60405,128,0,60673:0:0:0:0:
64,192,60405,1,0,0:0:0:0:
64,192,60539,1,0,0:0:0:0:
192,192,60673,128,0,60941:0:0:0:0:
448,192,60673,128,0,60740:0:0:0:0:
448,192,60807,128,0,61142:0:0:0:0:
64,192,60941,128,0,61142:0:0:0:0:
320,192,60941,1,0,0:0:0:0:
320,192,61075,1,0,0:0:0:0:
64,192,61209,128,0,61477:0:0:0:0:
192,192,61209,1,0,0:0:0:0:
448,192,61209,1,0,0:0:0:0:
320,192,61343,1,0,0:0:0:0:
192,192,61477,128,0,61745:0:0:0:0:
448,192,61477,1,0,0:0:0:0:
448,192,61611,1,0,0:0:0:0:
320,192,61745,128,0,62012:0:0:0:0:
64,192,61745,128,0,61811:0:0:0:0:
64,192,61878,128,0,62213:0:0:0:0:
192,192,62012,1,0,0:0:0:0:
448,192,62012,128,0,62213:0:0:0:0:
192,192,62146,1,0,0:0:0:0:
320,192,62280,128,0,62347:0:0:0:0:
64,192,62280,128,0,62347:0:0:0:0:
448,192,62280,128,0,62548:0:0:0:0:
192,192,62414,1,0,0:0:0:0:
320,192,62548,128,0,62816:0:0:0:0:
64,192,62548,1,0,0:0:0:0:
64,192,62682,1,0,0:0:0:0:
192,192,62816,128,0,63084:0:0:0:0:
448,192,62816,1,0,0:0:0:0:
448,192,62950,1,0,0:0:0:0:
64,192,63084,128,0,63285:0:0:0:0:
320,192,63084,1,0,0:0:0:0:
320,192,63218,1,0,0:0:0:0:
64,192,63352,128,0,63620:0:0:0:0:
448,192,63352,1,0,0:0:0:0:
192,192,63352,1,0,0:0:0:0:
320,192,63486,128,0,63620:0:0:0:0:
192,192,63620,128,0,63887:0:0:0:0:
448,192,63620,1,0,0:0:0:0:
448,192,63753,1,0,0:0:0:0:
320,192,63887,128,0,64155:0:0:0:0:
64,192,63887,128,0,64088:0:0:0:0:
192,192,64021,1,0,0:0:0:0:
64,192,64155,1,0,0:0:0:0:
448,192,64155,128,0,64356:0:0:0:0:
192,192,64289,1,0,0:0:0:0:
64,192,64423,1,0,0:0:0:0:
320,192,64423,1,0,0:0:0:0:
448,192,64423,128,0,64691:0:0:0:0:
192,192,64557,1,0,0:0:0:0:
320,192,64691,128,0,64959:0:0:0:0:
64,192,64691,1,0,0:0:0:0:
64,192,64825,1,0,0:0:0:0:
192,192,64959,128,0,65227:0:0:0:0:
448,192,64959,1,0,0:0:0:0:
448,192,65093,1,0,0:0:0:0:
64,192,65227,1,0,0:0:0:0:
320,192,65227,128,0,65271:0:0:0:0:
192,192,65316,128,0,65361:0:0:0:0:
448,192,65361,1,0,0:0:0:0:
320,192,65405,128,0,65450:0:0:0:0:
64,192,65495,128,0,65561:0:0:0:0:
192,192,65495,1,0,0:0:0:0:
448,192,65495,1,0,0:0:0:0:
64,192,65628,128,0,65695:0:0:0:0:
320,192,65628,1,0,0:0:0:0:
448,192,65762,128,0,65829:0:0:0:0:
192,192,65762,1,0,0:0:0:0:
448,192,65896,128,0,65963:0:0:0:0:
192,192,65896,1,0,0:0:0:0:
64,192,66030,128,0,66075:0:0:0:0:
320,192,66030,1,0,0:0:0:0:
192,192,66120,128,0,66164:0:0:0:0:
320,192,66164,1,0,0:0:0:0:
64,192,66209,128,0,66253:0:0:0:0:
448,192,66298,128,0,66343:0:0:0:0:
192,192,66298,1,0,0:0:0:0:
320,192,66387,128,0,66432:0:0:0:0:
192,192,66432,1,0,0:0:0:0:
448,192,66477,128,0,66521:0:0:0:0:
64,192,66566,128,0,66834:0:0:0:0:
192,192,66566,128,0,66633:0:0:0:0:
320,192,66566,128,0,66633:0:0:0:0:
448,192,66700,1,0,0:0:0:0:
192,192,66834,128,0,67102:0:0:0:0:
320,192,66834,1,0,0:0:0:0:
320,192,66968,1,0,0:0:0:0:
448,192,67102,128,0,67370:0:0:0:0:
64,192,67102,1,0,0:0:0:0:
64,192,67236,1,0,0:0:0:0:
192,192,67370,1,0,0:0:0:0:
320,192,67370,128,0,67570:0:0:0:0:
192,192,67503,1,0,0:0:0:0:
320,192,67637,128,0,67905:0:0:0:0:
448,192,67637,1,0,0:0:0:0:
64,192,67637,1,0,0:0:0:0:
192,192,67771,1,0,0:0:0:0:
448,192,67905,128,0,68173:0:0:0:0:
64,192,67905,1,0,0:0:0:0:
64,192,68039,1,0,0:0:0:0:
192,192,68173,128,0,68441:0:0:0:0:
320,192,68173,128,0,68240:0:0:0:0:
320,192,68307,128,0,68374:0:0:0:0:
64,192,68441,128,0,68642:0:0:0:0:
448,192,68441,128,0,68508:0:0:0:0:
448,192,68575,128,0,68642:0:0:0:0:
64,192,68709,128,0,68977:0:0:0:0:
320,192,68709,1,0,0:0:0:0:
192,192,68709,1,0,0:0:0:0:
448,192,68843,1,0,0:0:0:0:
192,192,68977,128,0,69245:0:0:0:0:
320,192,68977,1,0,0:0:0:0:
320,192,69111,1,0,0:0:0:0:
448,192,69245,128,0,69512:0:0:0:0:
64,192,69245,128,0,69311:0:0:0:0:
64,192,69378,128,0,69713:0:0:0:0:
320,192,69512,128,0,69713:0:0:0:0:
192,192,69512,1,0,0:0:0:0:
192,192,69646,1,0,0:0:0:0:
448,192,69780,1,0,0:0:0:0:
64,192,69780,1,0,0:0:0:0:
320,192,69780,128,0,70048:0:0:0:0:
192,192,69914,1,0,0:0:0:0:
448,192,70048,128,0,70316:0:0:0:0:
64,192,70048,1,0,0:0:0:0:
64,192,70182,1,0,0:0:0:0:
192,192,70316,128,0,70584:0:0:0:0:
320,192,70316,128,0,70383:0:0:0:0:
320,192,70450,128,0,70785:0:0:0:0:
448,192,70584,1,0,0:0:0:0:
64,192,70584,128,0,70785:0:0:0:0:
448,192,70718,1,0,0:0:0:0:
64,192,70852,128,0,71120:0:0:0:0:
320,192,70852,128,0,70919:0:0:0:0:
192,192,70852,128,0,70919:0:0:0:0:
448,192,70986,1,0,0:0:0:0:
192,192,71120,128,0,71387:0:0:0:0:
320,192,71120,1,0,0:0:0:0:
320,192,71253,1,0,0:0:0:0:
448,192,71387,128,0,71655:0:0:0:0:
64,192,71387,1,0,0:0:0:0:
64,192,71521,1,0,0:0:0:0:
320,192,71655,128,0,71856:0:0:0:0:
192,192,71655,1,0,0:0:0:0:
192,192,71789,1,0,0:0:0:0:
320,192,71923,128,0,72191:0:0:0:0:
64,192,71923,1,0,0:0:0:0:
448,192,71923,1,0,0:0:0:0:
192,192,72057,128,0,72191:0:0:0:0:
448,192,72191,128,0,72459:0:0:0:0:
64,192,72191,1,0,0:0:0:0:
64,192,72325,1,0,0:0:0:0:
192,192,72459,128,0,72727:0:0:0:0:
320,192,72459,128,0,72660:0:0:0:0:
448,192,72593,1,0,0:0:0:0:
320,192,72727,1,0,0:0:0:0:
64,192,72727,128,0,72928:0:0:0:0:
448,192,72861,1,0,0:0:0:0:
64,192,72995,1,0,0:0:0:0:
192,192,72995,128,0,73128:0:0:0:0:
320,192,72995,1,0,0:0:0:0:
448,192,73128,128,0,73195:0:0:0:0:
64,192,73128,1,0,0:0:0:0:
320,192,73262,1,0,0:0:0:0:
320,192,73329,1,0,0:0:0:0:
192,192,73396,128,0,73463:0:0:0:0:
320,192,73530,1,0,0:0:0:0:
448,192,73530,1,0,0:0:0:0:
64,192,73530,128,0,73664:0:0:0:0:
320,192,73664,128,0,73731:0:0:0:0:
448,192,73731,1,0,0:0:0:0:
192,192,73798,1,0,0:0:0:0:
320,192,73932,1,0,0:0:0:0:
64,192,73932,128,0,73999:0:0:0:0:
192,192,74066,1,0,0:0:0:0:
192,192,74133,1,0,0:0:0:0:
320,192,74200,1,0,0:0:0:0:
448,192,74200,128,0,74267:0:0:0:0:
192,192,74334,128,0,74468:0:0:0:0:
64,192,74468,1,0,0:0:0:0:
320,192,74535,1,0,0:0:0:0:
192,192,74602,128,0,74646:0:0:0:0:
448,192,74602,1,0,0:0:0:0:
64,192,74691,128,0,74736:0:0:0:0:
448,192,74736,1,0,0:0:0:0:
192,192,74780,128,0,74825:0:0:0:0:
64,192,74870,128,0,74936:0:0:0:0:
320,192,74870,1,0,0:0:0:0:
448,192,74959,1,0,0:0:0:0:
64,192,75003,128,0,75070:0:0:0:0:
320,192,75048,1,0,0:0:0:0:
64,192,75137,128,0,75405:0:0:0:0:
448,192,75137,128,0,75271:0:0:0:0:
192,192,75137,128,0,75204:0:0:0:0:
320,192,75271,1,0,0:0:0:0:
448,192,75405,1,0,0:0:0:0:
192,192,75405,128,0,75673:0:0:0:0:
448,192,75539,1,0,0:0:0:0:
64,192,75673,1,0,0:0:0:0:
320,192,75673,128,0,75941:0:0:0:0:
64,192,75807,1,0,0:0:0:0:
192,192,75941,1,0,0:0:0:0:
448,192,75941,128,0,76142:0:0:0:0:
192,192,76075,1,0,0:0:0:0:
64,192,76209,1,0,0:0:0:0:
320,192,76209,1,0,0:0:0:0:
448,192,76209,128,0,76477:0:0:0:0:
192,192,76343,1,0,0:0:0:0:
320,192,76477,128,0,76745:0:0:0:0:
64,192,76477,1,0,0:0:0:0:
192,192,76566,128,0,76655:0:0:0:0:
448,192,76655,128,0,76745:0:0:0:0:
192,192,76745,128,0,77012:0:0:0:0:
64,192,76745,1,0,0:0:0:0:
448,192,76834,128,0,76923:0:0:0:0:
320,192,76923,128,0,77012:0:0:0:0:
448,192,77012,128,0,77191:0:0:0:0:
64,192,77012,128,0,77191:0:0:0:0:
192,192,77102,128,0,77191:0:0:0:0:
320,192,77191,128,0,77280:0:0:0:0:
64,192,77280,128,0,77548:0:0:0:0:
448,192,77280,128,0,77459:0:0:0:0:
192,192,77280,128,0,77370:0:0:0:0:
320,192,77370,128,0,77459:0:0:0:0:
192,192,77459,128,0,77548:0:0:0:0:
448,192,77548,128,0,77727:0:0:0:0:
320,192,77548,128,0,77816:0:0:0:0:
64,192,77637,128,0,77727:0:0:0:0:
192,192,77727,128,0,77816:0:0:0:0:
448,192,77816,128,0,77905:0:0:0:0:
64,192,77816,128,0,78084:0:0:0:0:
320,192,77905,128,0,77995:0:0:0:0:
192,192,78084,1,0,0:0:0:0:
448,192,78084,128,0,78285:0:0:0:0:
192,192,78218,1,0,0:0:0:0:
448,192,78352,128,0,78620:0:0:0:0:
320,192,78352,1,0,0:0:0:0:
64,192,78352,1,0,0:0:0:0:
192,192,78486,1,0,0:0:0:0:
320,192,78620,128,0,78887:0:0:0:0:
64,192,78620,1,0,0:0:0:0:
64,192,78753,1,0,0:0:0:0:
192,192,78887,128,0,79155:0:0:0:0:
448,192,78887,128,0,78954:0:0:0:0:
448,192,79021,128,0,79356:0:0:0:0:
320,192,79155,1,0,0:0:0:0:
64,192,79155,128,0,79356:0:0:0:0:
320,192,79289,1,0,0:0:0:0:
64,192,79423,128,0,79691:0:0:0:0:
448,192,79423,128,0,79490:0:0:0:0:
192,192,79423,128,0,79557:0:0:0:0:
320,192,79557,1,0,0:0:0:0:
448,192,79691,1,0,0:0:0:0:
192,192,79691,128,0,79959:0:0:0:0:
448,192,79825,1,0,0:0:0:0:
64,192,79959,1,0,0:0:0:0:
320,192,79959,128,0,80227:0:0:0:0:
64,192,80093,1,0,0:0:0:0:
192,192,80227,1,0,0:0:0:0:
448,192,80227,128,0,80428:0:0:0:0:
192,192,80361,1,0,0:0:0:0:
64,192,80495,1,0,0:0:0:0:
320,192,80495,1,0,0:0:0:0:
448,192,80495,128,0,80762:0:0:0:0:
192,192,80628,128,0,80762:0:0:0:0:
320,192,80762,128,0,81030:0:0:0:0:
64,192,80762,1,0,0:0:0:0:
192,192,80852,128,0,80941:0:0:0:0:
448,192,80941,128,0,81030:0:0:0:0:
192,192,81030,128,0,81298:0:0:0:0:
64,192,81030,1,0,0:0:0:0:
448,192,81120,128,0,81209:0:0:0:0:
320,192,81209,128,0,81298:0:0:0:0:
448,192,81298,128,0,81477:0:0:0:0:
64,192,81298,128,0,81477:0:0:0:0:
192,192,81387,128,0,81477:0:0:0:0:
320,192,81477,128,0,81566:0:0:0:0:
64,192,81566,128,0,81834:0:0:0:0:
448,192,81566,128,0,81745:0:0:0:0:
192,192,81566,128,0,81655:0:0:0:0:
320,192,81655,128,0,81745:0:0:0:0:
192,192,81745,128,0,81834:0:0:0:0:
448,192,81834,128,0,82012:0:0:0:0:
320,192,81834,128,0,82102:0:0:0:0:
64,192,81923,128,0,82012:0:0:0:0:
192,192,82012,128,0,82102:0:0:0:0:
448,192,82102,128,0,82191:0:0:0:0:
64,192,82102,128,0,82370:0:0:0:0:
320,192,82191,128,0,82280:0:0:0:0:
192,192,82370,1,0,0:0:0:0:
448,192,82370,128,0,82570:0:0:0:0:
192,192,82503,1,0,0:0:0:0:
448,192,82637,128,0,82905:0:0:0:0:
320,192,82637,1,0,0:0:0:0:
64,192,82637,1,0,0:0:0:0:
192,192,82771,1,0,0:0:0:0:
320,192,82905,128,0,83173:0:0:0:0:
64,192,82905,1,0,0:0:0:0:
64,192,83039,1,0,0:0:0:0:
192,192,83173,128,0,83441:0:0:0:0:
448,192,83173,1,0,0:0:0:0:
448,192,83307,1,0,0:0:0:0:
64,192,83441,128,0,83642:0:0:0:0:
320,192,83441,1,0,0:0:0:0:
320,192,83575,1,0,0:0:0:0:
64,192,83709,128,0,83977:0:0:0:0:
192,192,83709,128,0,83843:0:0:0:0:
448,192,83709,128,0,83776:0:0:0:0:
448,192,83843,1,0,0:0:0:0:
192,192,83977,128,0,84245:0:0:0:0:
320,192,83977,1,0,0:0:0:0:
320,192,84111,1,0,0:0:0:0:
448,192,84245,128,0,84512:0:0:0:0:
64,192,84245,1,0,0:0:0:0:
64,192,84378,1,0,0:0:0:0:
192,192,84512,1,0,0:0:0:0:
320,192,84512,128,0,84713:0:0:0:0:
192,192,84646,1,0,0:0:0:0:
320,192,84780,128,0,85048:0:0:0:0:
448,192,84780,1,0,0:0:0:0:
64,192,84780,1,0,0:0:0:0:
192,192,84914,1,0,0:0:0:0:
448,192,85048,128,0,85316:0:0:0:0:
64,192,85048,1,0,0:0:0:0:
192,192,85137,128,0,85227:0:0:0:0:
320,192,85227,128,0,85316:0:0:0:0:
192,192,85316,128,0,85584:0:0:0:0:
64,192,85316,1,0,0:0:0:0:
448,192,85405,128,0,85495:0:0:0:0:
320,192,85495,128,0,85584:0:0:0:0:
448,192,85584,128,0,85762:0:0:0:0:
64,192,85584,128,0,85762:0:0:0:0:
320,192,85673,128,0,85762:0:0:0:0:
192,192,85762,128,0,85852:0:0:0:0:
64,192,85852,128,0,86120:0:0:0:0:
448,192,85852,128,0,86030:0:0:0:0:
320,192,85852,128,0,85941:0:0:0:0:
192,192,85941,128,0,86030:0:0:0:0:
320,192,86030,128,0,86120:0:0:0:0:
448,192,86120,128,0,86387:0:0:0:0:
192,192,86120,128,0,86298:0:0:0:0:
64,192,86209,128,0,86298:0:0:0:0:
320,192,86298,128,0,86387:0:0:0:0:
192,192,86387,128,0,86477:0:0:0:0:
64,192,86387,128,0,86655:0:0:0:0:
448,192,86477,128,0,86566:0:0:0:0:
192,192,86655,1,0,0:0:0:0:
320,192,86655,128,0,86856:0:0:0:0:
192,192,86789,1,0,0:0:0:0:
448,192,86923,1,0,0:0:0:0:
64,192,86923,1,0,0:0:0:0:
320,192,86923,128,0,87191:0:0:0:0:
192,192,87057,1,0,0:0:0:0:
448,192,87191,128,0,87459:0:0:0:0:
64,192,87191,1,0,0:0:0:0:
64,192,87325,1,0,0:0:0:0:
192,192,87459,128,0,87727:0:0:0:0:
320,192,87459,128,0,87526:0:0:0:0:
320,192,87593,128,0,87928:0:0:0:0:
448,192,87727,1,0,0:0:0:0:
64,192,87727,128,0,87928:0:0:0:0:
448,192,87861,1,0,0:0:0:0:
64,192,87995,128,0,88262:0:0:0:0:
320,192,87995,128,0,88128:0:0:0:0:
192,192,87995,128,0,88061:0:0:0:0:
448,192,88128,1,0,0:0:0:0:
192,192,88262,128,0,88530:0:0:0:0:
320,192,88262,1,0,0:0:0:0:
320,192,88396,1,0,0:0:0:0:
448,192,88530,128,0,88798:0:0:0:0:
64,192,88530,1,0,0:0:0:0:
64,192,88664,1,0,0:0:0:0:
320,192,88798,128,0,88999:0:0:0:0:
192,192,88798,1,0,0:0:0:0:
192,192,88932,1,0,0:0:0:0:
320,192,89066,128,0,89334:0:0:0:0:
64,192,89066,1,0,0:0:0:0:
448,192,89066,1,0,0:0:0:0:
192,192,89200,128,0,89334:0:0:0:0:
448,192,89334,128,0,89602:0:0:0:0:
64,192,89334,1,0,0:0:0:0:
192,192,89423,128,0,89512:0:0:0:0:
320,192,89512,128,0,89602:0:0:0:0:
192,192,89602,128,0,89870:0:0:0:0:
64,192,89602,1,0,0:0:0:0:
448,192,89691,128,0,89780:0:0:0:0:
320,192,89780,128,0,89870:0:0:0:0:
448,192,89870,128,0,90048:0:0:0:0:
64,192,89870,128,0,90048:0:0:0:0:
320,192,89959,128,0,90048:0:0:0:0:
192,192,90048,128,0,90137:0:0:0:0:
64,192,90137,128,0,90405:0:0:0:0:
448,192,90137,128,0,90316:0:0:0:0:
320,192,90137,128,0,90227:0:0:0:0:
192,192,90227,128,0,90316:0:0:0:0:
320,192,90316,128,0,90405:0:0:0:0:
448,192,90405,128,0,90673:0:0:0:0:
192,192,90405,128,0,90584:0:0:0:0:
64,192,90495,128,0,90584:0:0:0:0:
320,192,90584,128,0,90673:0:0:0:0:
192,192,90673,128,0,90762:0:0:0:0:
64,192,90673,128,0,90941:0:0:0:0:
448,192,90762,128,0,90852:0:0:0:0:
192,192,90941,1,0,0:0:0:0:
320,192,90941,128,0,91142:0:0:0:0:
192,192,91075,1,0,0:0:0:0:
448,192,91209,1,0,0:0:0:0:
64,192,91209,1,0,0:0:0:0:
320,192,91209,128,0,91477:0:0:0:0:
192,192,91343,1,0,0:0:0:0:
448,192,91477,128,0,91745:0:0:0:0:
64,192,91477,1,0,0:0:0:0:
64,192,91611,1,0,0:0:0:0:
192,192,91745,128,0,92012:0:0:0:0:
320,192,91745,1,0,0:0:0:0:
320,192,91878,1,0,0:0:0:0:
448,192,92012,1,0,0:0:0:0:
64,192,92012,128,0,92280:0:0:0:0:
448,192,92146,1,0,0:0:0:0:
320,192,92280,128,0,92682:0:0:0:0:
192,192,92414,1,0,0:0:0:0:
64,192,92548,128,0,92950:0:0:0:0:
448,192,92682,1,0,0:0:0:0:
192,192,92816,128,0,93218:0:0:0:0:
320,192,92950,1,0,0:0:0:0:
448,192,93084,128,0,93486:0:0:0:0:
64,192,93218,1,0,0:0:0:0:
320,192,93352,1,0,0:0:0:0:
192,192,93486,1,0,0:0:0:0:
320,192,93620,1,0,0:0:0:0:
192,192,93753,1,0,0:0:0:0:
64,192,93887,1,0,0:0:0:0:
320,192,94021,1,0,0:0:0:0:
192,192,94155,1,0,0:0:0:0:
448,192,94289,1,0,0:0:0:0:
64,192,94423,128,0,94825:0:0:0:0:
192,192,94557,1,0,0:0:0:0:
320,192,94691,128,0,95093:0:0:0:0:
448,192,94825,1,0,0:0:0:0:
192,192,94959,128,0,95361:0:0:0:0:
64,192,95093,1,0,0:0:0:0:
448,192,95227,128,0,95628:0:0:0:0:
320,192,95361,1,0,0:0:0:0:
64,192,95495,128,0,95896:0:0:0:0:
320,192,95628,1,0,0:0:0:0:
448,192,95762,128,0,96164:0:0:0:0:
192,192,95896,1,0,0:0:0:0:
320,192,96030,128,0,96432:0:0:0:0:
64,192,96164,1,0,0:0:0:0:
192,192,96298,128,0,96700:0:0:0:0:
448,192,96432,1,0,0:0:0:0:
64,192,96566,128,0,96968:0:0:0:0:
320,192,96700,1,0,0:0:0:0:
448,192,96834,128,0,97236:0:0:0:0:
320,192,96968,1,0,0:0:0:0:
192,192,97102,128,0,97503:0:0:0:0:
64,192,97236,1,0,0:0:0:0:
320,192,97370,128,0,97771:0:0:0:0:
448,192,97503,1,0,0:0:0:0:
64,192,97637,1,0,0:0:0:0:
192,192,97771,1,0,0:0:0:0:
320,192,97905,1,0,0:0:0:0:
448,192,98039,1,0,0:0:0:0:
64,192,98173,1,0,0:0:0:0:
320,192,98307,1,0,0:0:0:0:
192,192,98441,1,0,0:0:0:0:
64,192,98575,1,0,0:0:0:0:
320,192,98709,128,0,99111:0:0:0:0:
64,192,98843,1,0,0:0:0:0:
192,192,98977,128,0,99378:0:0:0:0:
448,192,99111,1,0,0:0:0:0:
64,192,99245,128,0,99646:0:0:0:0:
320,192,99378,1,0,0:0:0:0:
448,192,99512,128,0,99914:0:0:0:0:
192,192,99646,1,0,0:0:0:0:
64,192,99780,128,0,100182:0:0:0:0:
192,192,99914,1,0,0:0:0:0:
320,192,100048,128,0,100450:0:0:0:0:
448,192,100182,1,0,0:0:0:0:
192,192,100316,128,0,100718:0:0:0:0:
64,192,100450,1,0,0:0:0:0:
448,192,100584,128,0,100986:0:0:0:0:
320,192,100718,1,0,0:0:0:0:
64,192,100852,128,0,101253:0:0:0:0:
320,192,100986,1,0,0:0:0:0:
192,192,101120,128,0,101521:0:0:0:0:
448,192,101253,1,0,0:0:0:0:
320,192,101387,128,0,101789:0:0:0:0:
64,192,101521,1,0,0:0:0:0:
448,192,101655,128,0,102057:0:0:0:0:
192,192,101789,1,0,0:0:0:0:
64,192,101923,1,0,0:0:0:0:
320,192,102057,1,0,0:0:0:0:
192,192,102191,1,0,0:0:0:0:
448,192,102325,1,0,0:0:0:0:
320,192,102459,1,0,0:0:0:0:
64,192,102593,1,0,0:0:0:0:
192,192,102727,1,0,0:0:0:0:
448,192,102861,1,0,0:0:0:0:
64,192,102995,128,0,103396:0:0:0:0:
192,192,103128,1,0,0:0:0:0:
320,192,103262,128,0,103664:0:0:0:0:
448,192,103396,1,0,0:0:0:0:
192,192,103530,128,0,103932:0:0:0:0:
64,192,103664,1,0,0:0:0:0:
448,192,103798,128,0,104200:0:0:0:0:
320,192,103932,1,0,0:0:0:0:
64,192,104066,128,0,104468:0:0:0:0:
320,192,104200,1,0,0:0:0:0:
448,192,104334,128,0,104736:0:0:0:0:
192,192,104468,1,0,0:0:0:0:
320,192,104602,128,0,105003:0:0:0:0:
64,192,104736,1,0,0:0:0:0:
192,192,104870,128,0,105271:0:0:0:0:
448,192,105003,1,0,0:0:0:0:
64,192,105137,128,0,105539:0:0:0:0:
320,192,105271,1,0,0:0:0:0:
448,192,105405,128,0,105807:0:0:0:0:
320,192,105539,1,0,0:0:0:0:
192,192,105673,128,0,106075:0:0:0:0:
64,192,105807,1,0,0:0:0:0:
320,192,105941,128,0,106343:0:0:0:0:
448,192,106075,1,0,0:0:0:0:
64,192,106209,1,0,0:0:0:0:
192,192,106343,1,0,0:0:0:0:
448,192,106477,1,0,0:0:0:0:
64,192,106611,1,0,0:0:0:0:
320,192,106745,1,0,0:0:0:0:
192,192,106878,1,0,0:0:0:0:
64,192,107012,1,0,0:0:0:0:
320,192,107146,1,0,0:0:0:0:
448,192,107280,1,0,0:0:0:0:
64,192,107414,1,0,0:0:0:0:
192,192,107548,128,0,107950:0:0:0:0:
448,192,107682,1,0,0:0:0:0:
320,192,107816,128,0,108218:0:0:0:0:
64,192,107950,1,0,0:0:0:0:
448,192,108084,128,0,108486:0:0:0:0:
192,192,108218,1,0,0:0:0:0:
320,192,108352,128,0,108753:0:0:0:0:
64,192,108486,1,0,0:0:0:0:
192,192,108620,128,0,109021:0:0:0:0:
448,192,108753,1,0,0:0:0:0:
64,192,108887,128,0,109289:0:0:0:0:
320,192,109021,1,0,0:0:0:0:
192,192,109155,128,0,109423:0:0:0:0:
448,192,109289,1,0,0:0:0:0:
64,192,109423,128,0,113575:0:0:0:0:
320,192,109423,1,0,0:0:0:0:
192,192,109557,1,0,0:0:0:0:
448,192,109691,128,0,109959:0:0:0:0:
320,192,109825,1,0,0:0:0:0:
192,192,109959,128,0,110227:0:0:0:0:
448,192,110093,1,0,0:0:0:0:
320,192,110227,128,0,110495:0:0:0:0:
192,192,110361,1,0,0:0:0:0:
448,192,110495,128,0,110762:0:0:0:0:
320,192,110628,1,0,0:0:0:0:
192,192,110762,128,0,111030:0:0:0:0:
448,192,110896,1,0,0:0:0:0:
320,192,111030,128,0,111298:0:0:0:0:
448,192,111164,1,0,0:0:0:0:
192,192,111298,128,0,111566:0:0:0:0:
320,192,111432,1,0,0:0:0:0:
448,192,111566,128,0,111834:0:0:0:0:
192,192,111700,1,0,0:0:0:0:
320,192,111834,128,0,112102:0:0:0:0:
448,192,111968,1,0,0:0:0:0:
192,192,112102,128,0,112370:0:0:0:0:
320,192,112236,1,0,0:0:0:0:
448,192,112370,128,0,112637:0:0:0:0:
192,192,112503,1,0,0:0:0:0:
320,192,112637,128,0,112905:0:0:0:0:
192,192,112771,1,0,0:0:0:0:
448,192,112905,128,0,113173:0:0:0:0:
320,192,113039,1,0,0:0:0:0:
192,192,113173,128,0,113441:0:0:0:0:
448,192,113307,1,0,0:0:0:0:
320,192,113441,128,0,113709:0:0:0:0:
192,192,113575,1,0,0:0:0:0:
448,192,113709,128,0,115852:0:0:0:0:
64,192,113709,128,0,113843:0:0:0:0:
192,192,113843,1,0,0:0:0:0:
320,192,113977,128,0,114111:0:0:0:0:
192,192,114111,1,0,0:0:0:0:
64,192,114245,128,0,114378:0:0:0:0:
320,192,114378,1,0,0:0:0:0:
192,192,114512,128,0,114646:0:0:0:0:
64,192,114646,1,0,0:0:0:0:
320,192,114780,128,0,114914:0:0:0:0:
64,192,114914,1,0,0:0:0:0:
192,192,115048,128,0,115182:0:0:0:0:
320,192,115182,1,0,0:0:0:0:
64,192,115316,128,0,115450:0:0:0:0:
320,192,115450,1,0,0:0:0:0:
192,192,115584,128,0,115718:0:0:0:0:
64,192,115718,1,0,0:0:0:0:
192,192,115852,128,0,116923:0:0:0:0:
320,192,115852,128,0,115986:0:0:0:0:
448,192,115986,1,0,0:0:0:0:
64,192,116120,128,0,116253:0:0:0:0:
320,192,116253,1,0,0:0:0:0:
448,192,116387,128,0,116521:0:0:0:0:
64,192,116521,1,0,0:0:0:0:
320,192,116655,128,0,116789:0:0:0:0:
448,192,116789,1,0,0:0:0:0:
320,192,116923,128,0,117861:0:0:0:0:
64,192,116923,128,0,117057:0:0:0:0:
448,192,117057,1,0,0:0:0:0:
192,192,117191,128,0,117325:0:0:0:0:
64,192,117325,1,0,0:0:0:0:
448,192,117459,128,0,117593:0:0:0:0:
64,192,117593,1,0,0:0:0:0:
192,192,117727,128,0,117861:0:0:0:0:
64,192,117861,1,0,0:0:0:0:
448,192,117995,128,0,120137:0:0:0:0:
320,192,117995,128,0,118128:0:0:0:0:
192,192,118128,1,0,0:0:0:0:
64,192,118262,128,0,118396:0:0:0:0:
320,192,118396,1,0,0:0:0:0:
192,192,118530,128,0,118664:0:0:0:0:
320,192,118664,1,0,0:0:0:0:
64,192,118798,128,0,118932:0:0:0:0:
192,192,118932,1,0,0:0:0:0:
320,192,119066,128,0,119200:0:0:0:0:
64,192,119200,1,0,0:0:0:0:
192,192,119334,128,0,119468:0:0:0:0:
320,192,119468,1,0,0:0:0:0:
64,192,119602,128,0,119736:0:0:0:0:
192,192,119736,1,0,0:0:0:0:
320,192,119870,128,0,120003:0:0:0:0:
192,192,120003,1,0,0:0:0:0:
64,192,120137,128,0,122280:0:0:0:0:
320,192,120271,1,0,0:0:0:0:
192,192,120405,1,0,0:0:0:0:
448,192,120539,1,0,0:0:0:0:
320,192,120673,1,0,0:0:0:0:
192,192,120807,1,0,0:0:0:0:
320,192,120941,1,0,0:0:0:0:
448,192,121075,1,0,0:0:0:0:
320,192,121209,1,0,0:0:0:0:
192,192,121343,1,0,0:0:0:0:
448,192,121477,128,0,121611:0:0:0:0:
320,192,121611,1,0,0:0:0:0:
448,192,121745,128,0,121878:0:0:0:0:
192,192,121878,1,0,0:0:0:0:
448,192,122012,128,0,122146:0:0:0:0:
320,192,122146,1,0,0:0:0:0:
448,192,122280,128,0,122548:0:0:0:0:
192,192,122280,128,0,124825:0:0:0:0:
320,192,122414,1,0,0:0:0:0:
64,192,122548,128,0,122682:0:0:0:0:
320,192,122682,128,0,122950:0:0:0:0:
64,192,122816,128,0,122950:0:0:0:0:
448,192,122950,1,0,0:0:0:0:
64,192,123084,128,0,123352:0:0:0:0:
448,192,123218,1,0,0:0:0:0:
320,192,123352,1,0,0:0:0:0:
64,192,123486,1,0,0:0:0:0:
448,192,123620,128,0,123887:0:0:0:0:
320,192,123753,1,0,0:0:0:0:
64,192,123887,1,0,0:0:0:0:
448,192,124021,1,0,0:0:0:0:
320,192,124155,128,0,124423:0:0:0:0:
448,192,124289,1,0,0:0:0:0:
64,192,124423,128,0,124691:0:0:0:0:
320,192,124557,1,0,0:0:0:0:
448,192,124691,128,0,124959:0:0:0:0:
320,192,124825,1,0,0:0:0:0:
64,192,124959,128,0,125227:0:0:0:0:
192,192,124959,128,0,125093:0:0:0:0:
448,192,125093,1,0,0:0:0:0:
192,192,125227,128,0,125495:0:0:0:0:
320,192,125227,128,0,125361:0:0:0:0:
64,192,125361,1,0,0:0:0:0:
320,192,125495,128,0,125762:0:0:0:0:
448,192,125495,128,0,125628:0:0:0:0:
192,192,125628,1,0,0:0:0:0:
64,192,125762,128,0,125896:0:0:0:0:
192,192,125896,1,0,0:0:0:0:
448,192,126030,128,0,126164:0:0:0:0:
64,192,126164,1,0,0:0:0:0:
320,192,126298,128,0,126432:0:0:0:0:
448,192,126432,1,0,0:0:0:0:
192,192,126566,1,0,0:0:0:0:
64,192,126566,128,0,127102:0:0:0:0:
64,192,127637,1,0,0:0:0:0:
448,192,127637,128,0,128173:0:0:0:0:
320,192,128709,1,0,0:0:0:0:
64,192,128709,128,0,129245:0:0:0:0:
192,192,129780,128,0,130316:0:0:0:0:
320,192,130048,128,0,130584:0:0:0:0:
448,192,130316,128,0,130852:0:0:0:0:
192,192,130584,128,0,130852:0:0:0:0:
320,192,130852,128,0,131387:0:0:0:0:
64,192,130852,1,0,0:0:0:0:
192,192,131120,1,0,0:0:0:0:
64,192,131387,128,0,131923:0:0:0:0:
448,192,131387,1,0,0:0:0:0:
320,192,131655,128,0,131923:0:0:0:0:
448,192,131923,128,0,132459:0:0:0:0:
192,192,131923,1,0,0:0:0:0:
64,192,132191,1,0,0:0:0:0:
192,192,132459,128,0,132995:0:0:0:0:
320,192,132459,1,0,0:0:0:0:
64,192,132995,1,0,0:0:0:0:
320,192,132995,128,0,133530:0:0:0:0:
64,192,134066,128,0,134602:0:0:0:0:
192,192,135137,128,0,135673:0:0:0:0:
448,192,135137,1,0,0:0:0:0:
320,192,135405,128,0,135941:0:0:0:0:
64,192,135673,128,0,135941:0:0:0:0:
192,192,135941,1,0,0:0:0:0:
64,192,136209,1,0,0:0:0:0:
320,192,136209,128,0,136745:0:0:0:0:
192,192,136477,128,0,137012:0:0:0:0:
448,192,136745,128,0,137012:0:0:0:0:
320,192,137012,1,0,0:0:0:0:
64,192,137280,128,0,137816:0:0:0:0:
192,192,137280,1,0,0:0:0:0:
320,192,137548,128,0,138084:0:0:0:0:
192,192,137816,128,0,138084:0:0:0:0:
64,192,138084,1,0,0:0:0:0:
320,192,138318,1,0,0:0:0:0:
448,192,138352,128,0,138887:0:0:0:0:
192,192,138620,128,0,139155:0:0:0:0:
320,192,138887,128,0,139155:0:0:0:0:
448,192,139155,1,0,0:0:0:0:
320,192,139390,1,0,0:0:0:0:
64,192,139423,128,0,139492:0:0:0:0:
448,192,139492,128,0,139561:0:0:0:0:
192,192,139561,128,0,139631:0:0:0:0:
320,192,139700,128,0,139978:0:0:0:0:
448,192,139978,128,0,140590:0:0:0:0:
64,192,140284,128,0,140590:0:0:0:0:
192,192,140551,1,0,0:0:0:0:
320,192,140590,128,0,141203:0:0:0:0:
64,192,140896,128,0,141203:0:0:0:0:
192,192,141203,128,0,141952:0:0:0:0:
448,192,141578,128,0,141952:0:0:0:0:
64,192,141952,128,0,144581:0:0:0:0:
320,192,141952,1,0,0:0:0:0:
448,192,144678,128,0,144763:0:0:0:0:
320,192,144678,128,0,144763:0:0:0:0:
192,192,144678,128,0,144763:0:0:0:0:
64,192,144678,128,0,147405:0:0:0:0:
192,192,144848,1,0,0:0:0:0:
320,192,144933,1,0,0:0:0:0:
448,192,145018,1,0,0:0:0:0:
320,192,145189,1,0,0:0:0:0:
192,192,145189,1,0,0:0:0:0:
448,192,145359,1,0,0:0:0:0:
192,192,145359,1,0,0:0:0:0:
448,192,145530,1,0,0:0:0:0:
192,192,145700,1,0,0:0:0:0:
192,192,145871,1,0,0:0:0:0:
448,192,145871,1,0,0:0:0:0:
448,192,146212,1,0,0:0:0:0:
192,192,146212,1,0,0:0:0:0:
320,192,146382,1,0,0:0:0:0:
320,192,146553,1,0,0:0:0:0:
192,192,146723,1,0,0:0:0:0:
448,192,146723,1,0,0:0:0:0:
192,192,146893,1,0,0:0:0:0:
448,192,147064,1,0,0:0:0:0:
320,192,147064,1,0,0:0:0:0:
320,192,147234,1,0,0:0:0:0:
192,192,147405,128,0,148768:0:0:0:0:
448,192,147405,1,0,0:0:0:0:
320,192,147405,1,0,0:0:0:0:
448,192,147575,1,0,0:0:0:0:
320,192,147660,1,0,0:0:0:0:
64,192,147746,1,0,0:0:0:0:
320,192,147916,1,0,0:0:0:0:
448,192,147916,1,0,0:0:0:0:
64,192,148087,1,0,0:0:0:0:
448,192,148087,1,0,0:0:0:0:
64,192,148257,1,0,0:0:0:0:
448,192,148428,1,0,0:0:0:0:
64,192,148598,1,0,0:0:0:0:
448,192,148598,1,0,0:0:0:0:
320,192,148768,128,0,150132:0:0:0:0:
64,192,148939,1,0,0:0:0:0:
192,192,148939,1,0,0:0:0:0:
448,192,149109,1,0,0:0:0:0:
448,192,149280,1,0,0:0:0:0:
192,192,149450,1,0,0:0:0:0:
64,192,149450,1,0,0:0:0:0:
64,192,149621,1,0,0:0:0:0:
192,192,149791,1,0,0:0:0:0:
448,192,149791,1,0,0:0:0:0:
192,192,149962,1,0,0:0:0:0:
192,192,150132,1,0,0:0:0:0:
448,192,150132,1,0,0:0:0:0:
64,192,150132,128,0,150303:0:0:0:0:
320,192,150303,1,0,0:0:0:0:
448,192,150303,128,0,150729:0:0:0:0:
64,192,150388,128,0,151240:0:0:0:0:
192,192,150473,1,0,0:0:0:0:
320,192,150643,1,0,0:0:0:0:
192,192,150643,1,0,0:0:0:0:
320,192,150814,1,0,0:0:0:0:
448,192,150814,128,0,152092:0:0:0:0:
192,192,150984,1,0,0:0:0:0:
320,192,151155,1,0,0:0:0:0:
192,192,151325,1,0,0:0:0:0:
64,192,151325,128,0,152433:0:0:0:0:
320,192,151666,1,0,0:0:0:0:
192,192,151666,1,0,0:0:0:0:
192,192,151837,1,0,0:0:0:0:
320,192,152007,1,0,0:0:0:0:
192,192,152178,1,0,0:0:0:0:
448,192,152178,128,0,152774:0:0:0:0:
320,192,152348,1,0,0:0:0:0:
192,192,152518,1,0,0:0:0:0:
64,192,152518,128,0,152774:0:0:0:0:
320,192,152689,1,0,0:0:0:0:
192,192,152859,128,0,153456:0:0:0:0:
64,192,152859,128,0,153115:0:0:0:0:
448,192,152859,1,0,0:0:0:0:
320,192,153030,1,0,0:0:0:0:
448,192,153115,1,0,0:0:0:0:
64,192,153200,128,0,153541:0:0:0:0:
320,192,153371,1,0,0:0:0:0:
448,192,153371,1,0,0:0:0:0:
320,192,153541,128,0,154138:0:0:0:0:
192,192,153541,128,0,153797:0:0:0:0:
448,192,153712,1,0,0:0:0:0:
192,192,153882,128,0,154223:0:0:0:0:
64,192,154053,1,0,0:0:0:0:
448,192,154053,1,0,0:0:0:0:
320,192,154223,128,0,154479:0:0:0:0:
448,192,154223,128,0,154820:0:0:0:0:
192,192,154393,1,0,0:0:0:0:
64,192,154393,1,0,0:0:0:0:
320,192,154564,128,0,154905:0:0:0:0:
192,192,154734,1,0,0:0:0:0:
448,192,154905,128,0,155331:0:0:0:0:
64,192,154905,128,0,155160:0:0:0:0:
320,192,155075,128,0,155331:0:0:0:0:
192,192,155160,128,0,155501:0:0:0:0:
64,192,155246,128,0,155501:0:0:0:0:
320,192,155416,128,0,155501:0:0:0:0:
448,192,155416,128,0,155501:0:0:0:0:
64,192,155587,128,0,156268:0:0:0:0:
320,192,155587,128,0,155672:0:0:0:0:
192,192,155587,128,0,155672:0:0:0:0:
448,192,155587,128,0,155672:0:0:0:0:
192,192,155757,128,0,155842:0:0:0:0:
320,192,155928,128,0,156098:0:0:0:0:
448,192,155928,128,0,156098:0:0:0:0:
192,192,156098,1,0,0:0:0:0:
448,192,156268,128,0,156439:0:0:0:0:
192,192,156268,128,0,156439:0:0:0:0:
320,192,156268,1,0,0:0:0:0:
64,192,156439,128,0,156609:0:0:0:0:
320,192,156439,128,0,156609:0:0:0:0:
448,192,156609,1,0,0:0:0:0:
64,192,156780,128,0,157291:0:0:0:0:
192,192,156780,128,0,157121:0:0:0:0:
320,192,156950,1,0,0:0:0:0:
448,192,157121,1,0,0:0:0:0:
192,192,157291,128,0,157462:0:0:0:0:
320,192,157291,128,0,157632:0:0:0:0:
448,192,157462,1,0,0:0:0:0:
64,192,157632,128,0,157803:0:0:0:0:
192,192,157632,128,0,157973:0:0:0:0:
448,192,157632,1,0,0:0:0:0:
320,192,157803,128,0,158143:0:0:0:0:
448,192,157973,1,0,0:0:0:0:
64,192,157973,128,0,158314:0:0:0:0:
448,192,158314,128,0,158996:0:0:0:0:
320,192,158314,128,0,158399:0:0:0:0:
320,192,158484,128,0,158570:0:0:0:0:
64,192,158655,128,0,158825:0:0:0:0:
192,192,158655,128,0,158825:0:0:0:0:
320,192,158825,1,0,0:0:0:0:
192,192,158996,1,0,0:0:0:0:
320,192,158996,128,0,159166:0:0:0:0:
64,192,158996,128,0,159166:0:0:0:0:
192,192,159166,128,0,159337:0:0:0:0:
448,192,159166,128,0,159337:0:0:0:0:
320,192,159337,1,0,0:0:0:0:
64,192,159507,128,0,159848:0:0:0:0:
448,192,159507,128,0,160018:0:0:0:0:
192,192,159678,1,0,0:0:0:0:
320,192,159848,1,0,0:0:0:0:
192,192,160018,128,0,160359:0:0:0:0:
64,192,160018,128,0,160189:0:0:0:0:
320,192,160189,1,0,0:0:0:0:
320,192,160359,128,0,160700:0:0:0:0:
448,192,160359,128,0,160530:0:0:0:0:
64,192,160359,1,0,0:0:0:0:
192,192,160530,128,0,160871:0:0:0:0:
448,192,160700,128,0,161041:0:0:0:0:
64,192,160700,1,0,0:0:0:0:
64,192,161041,128,0,161723:0:0:0:0:
320,192,161041,1,0,0:0:0:0:
192,192,161041,128,0,161126:0:0:0:0:
192,192,161212,128,0,161297:0:0:0:0:
448,192,161382,128,0,161553:0:0:0:0:
320,192,161382,128,0,161553:0:0:0:0:
192,192,161553,1,0,0:0:0:0:
192,192,161723,128,0,161893:0:0:0:0:
448,192,161723,128,0,161893:0:0:0:0:
320,192,161723,1,0,0:0:0:0:
320,192,161893,128,0,162064:0:0:0:0:
64,192,161893,128,0,162064:0:0:0:0:
192,192,162064,1,0,0:0:0:0:
448,192,162234,128,0,162746:0:0:0:0:
320,192,162234,128,0,162575:0:0:0:0:
192,192,162405,1,0,0:0:0:0:
64,192,162575,1,0,0:0:0:0:
192,192,162746,128,0,163087:0:0:0:0:
320,192,162746,128,0,162916:0:0:0:0:
64,192,162916,1,0,0:0:0:0:
320,192,163087,128,0,163257:0:0:0:0:
448,192,163087,128,0,163428:0:0:0:0:
64,192,163087,1,0,0:0:0:0:
192,192,163257,128,0,163598:0:0:0:0:
320,192,163428,128,0,163768:0:0:0:0:
64,192,163428,1,0,0:0:0:0:
192,192,163768,1,0,0:0:0:0:
64,192,163768,128,0,164450:0:0:0:0:
448,192,163768,128,0,163854:0:0:0:0:
448,192,163939,128,0,164024:0:0:0:0:
192,192,163981,128,0,164109:0:0:0:0:
320,192,164109,128,0,164280:0:0:0:0:
448,192,164109,128,0,164280:0:0:0:0:
192,192,164280,1,0,0:0:0:0:
192,192,164450,128,0,165132:0:0:0:0:
448,192,164450,1,0,0:0:0:0:
320,192,164450,128,0,164621:0:0:0:0:
448,192,164621,128,0,164791:0:0:0:0:
320,192,164791,128,0,164962:0:0:0:0:
448,192,164962,1,0,0:0:0:0:
64,192,164962,128,0,165303:0:0:0:0:
448,192,165132,128,0,165729:0:0:0:0:
320,192,165303,128,0,165729:0:0:0:0:
192,192,165473,128,0,165729:0:0:0:0:
64,192,165643,128,0,165814:0:0:0:0:
320,192,165814,128,0,165984:0:0:0:0:
192,192,165814,128,0,166155:0:0:0:0:
448,192,165814,128,0,165984:0:0:0:0:
64,192,165984,128,0,166410:0:0:0:0:
320,192,166155,128,0,166410:0:0:0:0:
448,192,166155,128,0,166410:0:0:0:0:
192,192,166325,128,0,166496:0:0:0:0:
320,192,166496,1,0,0:0:0:0:
448,192,166496,128,0,166581:0:0:0:0:
64,192,166496,128,0,166581:0:0:0:0:
64,192,166666,128,0,166751:0:0:0:0:
320,192,166837,128,0,167007:0:0:0:0:
448,192,166837,128,0,167007:0:0:0:0:
192,192,167007,128,0,167092:0:0:0:0:
448,192,167178,1,0,0:0:0:0:
320,192,167178,128,0,167348:0:0:0:0:
64,192,167178,128,0,167348:0:0:0:0:
448,192,167348,128,0,167518:0:0:0:0:
192,192,167348,128,0,167518:0:0:0:0:
64,192,167518,128,0,167604:0:0:0:0:
320,192,167689,128,0,168030:0:0:0:0:
448,192,167689,128,0,168200:0:0:0:0:
64,192,167859,1,0,0:0:0:0:
192,192,168030,128,0,168115:0:0:0:0:
320,192,168200,128,0,168541:0:0:0:0:
64,192,168200,128,0,168371:0:0:0:0:
448,192,168371,1,0,0:0:0:0:
448,192,168541,128,0,168626:0:0:0:0:
64,192,168541,128,0,168882:0:0:0:0:
192,192,168541,128,0,168712:0:0:0:0:
320,192,168712,128,0,169053:0:0:0:0:
448,192,168882,128,0,169223:0:0:0:0:
192,192,168882,128,0,168967:0:0:0:0:
64,192,169223,128,0,169308:0:0:0:0:
320,192,169223,128,0,169308:0:0:0:0:
320,192,169393,128,0,169479:0:0:0:0:
192,192,169564,128,0,169734:0:0:0:0:
64,192,169564,128,0,169734:0:0:0:0:
448,192,169734,128,0,169820:0:0:0:0:
320,192,169905,128,0,170075:0:0:0:0:
64,192,169905,128,0,170075:0:0:0:0:
192,192,169905,1,0,0:0:0:0:
192,192,170075,128,0,170246:0:0:0:0:
448,192,170075,128,0,170246:0:0:0:0:
320,192,170246,128,0,170331:0:0:0:0:
192,192,170416,128,0,170757:0:0:0:0:
64,192,170416,128,0,170928:0:0:0:0:
448,192,170587,1,0,0:0:0:0:
320,192,170757,128,0,170842:0:0:0:0:
192,192,170928,128,0,171268:0:0:0:0:
448,192,170928,128,0,171098:0:0:0:0:
64,192,171098,1,0,0:0:0:0:
320,192,171268,128,0,171609:0:0:0:0:
64,192,171268,128,0,171354:0:0:0:0:
448,192,171268,128,0,171439:0:0:0:0:
192,192,171439,128,0,171780:0:0:0:0:
64,192,171609,128,0,171950:0:0:0:0:
448,192,171609,128,0,171695:0:0:0:0:
448,192,171950,128,0,172632:0:0:0:0:
192,192,171950,1,0,0:0:0:0:
320,192,171950,128,0,172035:0:0:0:0:
320,192,172121,128,0,172206:0:0:0:0:
192,192,172291,128,0,172462:0:0:0:0:
64,192,172291,128,0,172462:0:0:0:0:
320,192,172462,128,0,172547:0:0:0:0:
320,192,172632,128,0,172803:0:0:0:0:
192,192,172632,1,0,0:0:0:0:
64,192,172632,128,0,172803:0:0:0:0:
448,192,172803,128,0,172973:0:0:0:0:
192,192,172803,128,0,172973:0:0:0:0:
320,192,172973,128,0,173058:0:0:0:0:
64,192,173143,128,0,173655:0:0:0:0:
192,192,173143,128,0,173484:0:0:0:0:
448,192,173314,1,0,0:0:0:0:
320,192,173484,128,0,173570:0:0:0:0:
192,192,173655,128,0,173996:0:0:0:0:
448,192,173655,128,0,173825:0:0:0:0:
320,192,173996,128,0,174337:0:0:0:0:
64,192,173996,128,0,174166:0:0:0:0:
448,192,173996,128,0,174081:0:0:0:0:
192,192,174166,128,0,174507:0:0:0:0:
448,192,174337,128,0,174507:0:0:0:0:
64,192,174337,128,0,174422:0:0:0:0:
320,192,174507,128,0,174678:0:0:0:0:
64,192,174678,128,0,175359:0:0:0:0:
448,192,174678,128,0,174763:0:0:0:0:
192,192,174678,1,0,0:0:0:0:
448,192,174848,128,0,174933:0:0:0:0:
192,192,174891,128,0,175018:0:0:0:0:
320,192,175018,128,0,175189:0:0:0:0:
448,192,175018,128,0,175189:0:0:0:0:
192,192,175189,128,0,175274:0:0:0:0:
448,192,175359,128,0,175530:0:0:0:0:
192,192,175359,128,0,175530:0:0:0:0:
320,192,175359,1,0,0:0:0:0:
320,192,175530,128,0,175700:0:0:0:0:
64,192,175530,128,0,175700:0:0:0:0:
448,192,175700,128,0,175785:0:0:0:0:
64,192,175871,128,0,176041:0:0:0:0:
192,192,175871,128,0,176041:0:0:0:0:
448,192,176041,128,0,176212:0:0:0:0:
320,192,176041,128,0,176126:0:0:0:0:
64,192,176126,128,0,176467:0:0:0:0:
192,192,176212,128,0,176297:0:0:0:0:
320,192,176297,128,0,176382:0:0:0:0:
192,192,176382,128,0,176553:0:0:0:0:
320,192,176467,128,0,176638:0:0:0:0:
448,192,176553,128,0,176638:0:0:0:0:
64,192,176638,128,0,176723:0:0:0:0:
448,192,176723,128,0,176979:0:0:0:0:
320,192,176723,128,0,176893:0:0:0:0:
192,192,176723,128,0,176808:0:0:0:0:
64,192,176808,128,0,176979:0:0:0:0:
192,192,176893,128,0,177064:0:0:0:0:
320,192,176979,128,0,177149:0:0:0:0:
448,192,177064,128,0,177234:0:0:0:0:
64,192,177064,128,0,177320:0:0:0:0:
192,192,177149,128,0,177320:0:0:0:0:
320,192,177234,128,0,177320:0:0:0:0:
448,192,177320,128,0,177405:0:0:0:0:
320,192,177405,128,0,178428:0:0:0:0:
64,192,177405,1,0,0:0:0:0:
192,192,177405,1,0,0:0:0:0:
64,192,177746,128,0,177916:0:0:0:0:
192,192,177916,1,0,0:0:0:0:
192,192,178087,1,0,0:0:0:0:
448,192,178087,1,0,0:0:0:0:
64,192,178087,128,0,178257:0:0:0:0:
448,192,178257,128,0,178428:0:0:0:0:
192,192,178428,128,0,178598:0:0:0:0:
64,192,178598,128,0,180814:0:0:0:0:
320,192,178598,128,0,178939:0:0:0:0:
448,192,178768,1,0,0:0:0:0:
192,192,178939,128,0,179109:0:0:0:0:
448,192,179109,128,0,179280:0:0:0:0:
192,192,179280,128,0,179365:0:0:0:0:
320,192,179450,1,0,0:0:0:0:
448,192,179450,128,0,179621:0:0:0:0:
192,192,179450,1,0,0:0:0:0:
320,192,179621,128,0,179791:0:0:0:0:
192,192,179791,128,0,179962:0:0:0:0:
320,192,180132,1,0,0:0:0:0:
448,192,180132,1,0,0:0:0:0:
448,192,180473,128,0,180643:0:0:0:0:
192,192,180643,1,0,0:0:0:0:
192,192,180814,128,0,180984:0:0:0:0:
448,192,180814,128,0,181155:0:0:0:0:
320,192,180814,1,0,0:0:0:0:
320,192,180984,128,0,181155:0:0:0:0:
192,192,181070,128,0,181155:0:0:0:0:
64,192,181155,128,0,181496:0:0:0:0:
448,192,181325,128,0,181666:0:0:0:0:
192,192,181496,128,0,181837:0:0:0:0:
64,192,181666,1,0,0:0:0:0:
320,192,181837,128,0,182007:0:0:0:0:
448,192,181837,128,0,182178:0:0:0:0:
64,192,182007,128,0,182092:0:0:0:0:
192,192,182178,1,0,0:0:0:0:
320,192,182178,128,0,182348:0:0:0:0:
64,192,182178,1,0,0:0:0:0:
448,192,182263,128,0,182689:0:0:0:0:
192,192,182348,1,0,0:0:0:0:
320,192,182518,128,0,183882:0:0:0:0:
64,192,182518,1,0,0:0:0:0:
64,192,182859,1,0,0:0:0:0:
192,192,182859,1,0,0:0:0:0:
448,192,182859,1,0,0:0:0:0:
64,192,183200,128,0,183371:0:0:0:0:
192,192,183371,1,0,0:0:0:0:
64,192,183541,128,0,183712:0:0:0:0:
192,192,183541,1,0,0:0:0:0:
448,192,183541,1,0,0:0:0:0:
448,192,183712,128,0,183882:0:0:0:0:
192,192,183882,128,0,184053:0:0:0:0:
64,192,184053,128,0,185587:0:0:0:0:
320,192,184053,128,0,184393:0:0:0:0:
448,192,184223,1,0,0:0:0:0:
192,192,184393,128,0,184564:0:0:0:0:
448,192,184564,128,0,184734:0:0:0:0:
192,192,184734,128,0,184820:0:0:0:0:
320,192,184905,1,0,0:0:0:0:
192,192,184905,1,0,0:0:0:0:
448,192,184905,128,0,185075:0:0:0:0:
320,192,185075,128,0,185246:0:0:0:0:
192,192,185246,128,0,185416:0:0:0:0:
448,192,185587,1,0,0:0:0:0:
320,192,185587,1,0,0:0:0:0:
192,192,185587,128,0,186098:0:0:0:0:
448,192,185757,128,0,185928:0:0:0:0:
320,192,185814,128,0,185928:0:0:0:0:
64,192,185928,128,0,186098:0:0:0:0:
320,192,186098,128,0,186268:0:0:0:0:
192,192,186268,1,0,0:0:0:0:
64,192,186268,128,0,186609:0:0:0:0:
448,192,186268,128,0,186439:0:0:0:0:
320,192,186439,128,0,186780:0:0:0:0:
192,192,186609,128,0,186950:0:0:0:0:
448,192,186780,128,0,186950:0:0:0:0:
64,192,186950,128,0,187178:0:0:0:0:
192,192,187035,128,0,187291:0:0:0:0:
320,192,187178,128,0,187291:0:0:0:0:
448,192,187291,128,0,187518:0:0:0:0:
320,192,187405,128,0,187518:0:0:0:0:
192,192,187518,128,0,187632:0:0:0:0:
320,192,187632,128,0,187803:0:0:0:0:
448,192,187632,128,0,187717:0:0:0:0:
64,192,187632,128,0,187888:0:0:0:0:
192,192,187717,128,0,188058:0:0:0:0:
448,192,187803,128,0,188229:0:0:0:0:
320,192,187888,128,0,188229:0:0:0:0:
64,192,187973,128,0,188229:0:0:0:0:
192,192,188143,128,0,188314:0:0:0:0:
448,192,188314,1,0,0:0:0:0:
64,192,188314,1,0,0:0:0:0:
320,192,188314,128,0,188399:0:0:0:0:
320,192,188484,128,0,188825:0:0:0:0:
64,192,188655,128,0,188825:0:0:0:0:
192,192,188825,128,0,189337:0:0:0:0:
64,192,188996,1,0,0:0:0:0:
448,192,188996,1,0,0:0:0:0:
320,192,188996,128,0,189166:0:0:0:0:
64,192,189166,1,0,0:0:0:0:
320,192,189337,128,0,189507:0:0:0:0:
448,192,189422,128,0,190359:0:0:0:0:
64,192,189507,128,0,189848:0:0:0:0:
192,192,189507,1,0,0:0:0:0:
320,192,189678,1,0,0:0:0:0:
192,192,189848,128,0,190018:0:0:0:0:
320,192,190018,128,0,190189:0:0:0:0:
64,192,190189,128,0,190274:0:0:0:0:
320,192,190359,1,0,0:0:0:0:
64,192,190359,1,0,0:0:0:0:
192,192,190359,128,0,190530:0:0:0:0:
320,192,190530,128,0,190615:0:0:0:0:
448,192,190615,128,0,190871:0:0:0:0:
320,192,190700,128,0,191041:0:0:0:0:
192,192,190700,1,0,0:0:0:0:
64,192,190871,128,0,191723:0:0:0:0:
192,192,191041,1,0,0:0:0:0:
448,192,191041,1,0,0:0:0:0:
320,192,191382,128,0,191553:0:0:0:0:
448,192,191553,1,0,0:0:0:0:
192,192,191723,1,0,0:0:0:0:
320,192,191723,1,0,0:0:0:0:
448,192,191723,128,0,191808:0:0:0:0:
192,192,191893,128,0,191979:0:0:0:0:
320,192,191979,128,0,192234:0:0:0:0:
192,192,192064,128,0,192405:0:0:0:0:
64,192,192234,128,0,192746:0:0:0:0:
448,192,192234,128,0,192575:0:0:0:0:
320,192,192405,1,0,0:0:0:0:
192,192,192575,128,0,192916:0:0:0:0:
320,192,192746,128,0,192916:0:0:0:0:
64,192,192916,128,0,193257:0:0:0:0:
448,192,193001,128,0,193428:0:0:0:0:
192,192,193087,1,0,0:0:0:0:
320,192,193087,1,0,0:0:0:0:
320,192,193257,128,0,193598:0:0:0:0:
64,192,193428,128,0,193598:0:0:0:0:
192,192,193428,1,0,0:0:0:0:
448,192,193598,128,0,193768:0:0:0:0:
320,192,193768,1,0,0:0:0:0:
64,192,193768,1,0,0:0:0:0:
192,192,193768,128,0,194109:0:0:0:0:
448,192,193939,128,0,194280:0:0:0:0:
320,192,194109,128,0,194280:0:0:0:0:
64,192,194280,128,0,194621:0:0:0:0:
192,192,194450,1,0,0:0:0:0:
320,192,194450,1,0,0:0:0:0:
448,192,194450,128,0,194621:0:0:0:0:
192,192,194621,128,0,194791:0:0:0:0:
320,192,194791,128,0,194876:0:0:0:0:
448,192,194876,128,0,195303:0:0:0:0:
320,192,194962,128,0,195643:0:0:0:0:
64,192,194962,1,0,0:0:0:0:
192,192,195132,1,0,0:0:0:0:
64,192,195303,128,0,195643:0:0:0:0:
448,192,195473,1,0,0:0:0:0:
192,192,195643,128,0,195984:0:0:0:0:
320,192,195814,1,0,0:0:0:0:
64,192,195814,1,0,0:0:0:0:
448,192,195814,128,0,195984:0:0:0:0:
64,192,195984,128,0,196325:0:0:0:0:
320,192,196155,128,0,196496:0:0:0:0:
192,192,196155,1,0,0:0:0:0:
448,192,196325,128,0,196496:0:0:0:0:
64,192,196496,1,0,0:0:0:0:
192,192,196496,128,0,196666:0:0:0:0:
448,192,196666,128,0,197007:0:0:0:0:
192,192,196837,128,0,197007:0:0:0:0:
320,192,197007,128,0,197178:0:0:0:0:
448,192,197178,1,0,0:0:0:0:
192,192,197178,1,0,0:0:0:0:
64,192,197178,128,0,197518:0:0:0:0:
320,192,197348,128,0,197518:0:0:0:0:
192,192,197518,128,0,197689:0:0:0:0:
448,192,197689,128,0,198030:0:0:0:0:
320,192,197689,1,0,0:0:0:0:
64,192,198030,128,0,198200:0:0:0:0:
192,192,198030,128,0,198115:0:0:0:0:
192,192,198200,128,0,198371:0:0:0:0:
320,192,198200,128,0,198285:0:0:0:0:
64,192,198285,128,0,198371:0:0:0:0:
448,192,198371,128,0,198456:0:0:0:0:
320,192,198371,128,0,198541:0:0:0:0:
192,192,198456,128,0,198541:0:0:0:0:
64,192,198541,128,0,198626:0:0:0:0:
448,192,198541,128,0,198712:0:0:0:0:
320,192,198626,128,0,198712:0:0:0:0:
64,192,198712,128,0,198797:0:0:0:0:
192,192,198712,128,0,198797:0:0:0:0:
448,192,198797,128,0,198882:0:0:0:0:
320,192,198797,128,0,198882:0:0:0:0:
64,192,198882,128,0,198967:0:0:0:0:
192,192,198882,128,0,198967:0:0:0:0:
448,192,198967,128,0,199053:0:0:0:0:
320,192,198967,128,0,199053:0:0:0:0:
64,192,199053,128,0,199138:0:0:0:0:
192,192,199053,128,0,199138:0:0:0:0:
448,192,199138,128,0,199223:0:0:0:0:
320,192,199138,128,0,199223:0:0:0:0:
192,192,199223,128,0,199308:0:0:0:0:
64,192,199266,128,0,200246:0:0:0:0:
448,192,199393,1,0,0:0:0:0:
192,192,199564,1,0,0:0:0:0:
320,192,199564,1,0,0:0:0:0:
448,192,199564,128,0,199734:0:0:0:0:
192,192,199905,1,0,0:0:0:0:
320,192,199905,128,0,200075:0:0:0:0:
192,192,200246,128,0,200416:0:0:0:0:
320,192,200246,1,0,0:0:0:0:
448,192,200246,128,0,200331:0:0:0:0:
64,192,200416,128,0,201439:0:0:0:0:
320,192,200416,128,0,200757:0:0:0:0:
448,192,200587,1,0,0:0:0:0:
448,192,200757,1,0,0:0:0:0:
192,192,200757,128,0,200842:0:0:0:0:
192,192,200928,1,0,0:0:0:0:
320,192,200928,1,0,0:0:0:0:
448,192,200928,1,0,0:0:0:0:
320,192,201098,128,0,201183:0:0:0:0:
192,192,201183,1,0,0:0:0:0:
448,192,201268,1,0,0:0:0:0:
320,192,201268,1,0,0:0:0:0:
320,192,201439,128,0,201524:0:0:0:0:
192,192,201439,1,0,0:0:0:0:
448,192,201524,128,0,201865:0:0:0:0:
192,192,201609,1,0,0:0:0:0:
320,192,201609,1,0,0:0:0:0:
64,192,201609,128,0,201695:0:0:0:0:
320,192,201780,128,0,201893:0:0:0:0:
192,192,201893,128,0,201950:0:0:0:0:
448,192,201950,1,0,0:0:0:0:
64,192,201950,128,0,202121:0:0:0:0:
320,192,201950,128,0,202035:0:0:0:0:
448,192,202121,128,0,202462:0:0:0:0:
64,192,202291,1,0,0:0:0:0:
320,192,202291,128,0,202632:0:0:0:0:
192,192,202291,128,0,202462:0:0:0:0:
64,192,202462,128,0,202803:0:0:0:0:
192,192,202632,1,0,0:0:0:0:
448,192,202632,1,0,0:0:0:0:
320,192,202803,128,0,203143:0:0:0:0:
64,192,202973,1,0,0:0:0:0:
192,192,202973,128,0,203058:0:0:0:0:
448,192,203030,128,0,203314:0:0:0:0:
192,192,203143,128,0,203484:0:0:0:0:
64,192,203143,128,0,203484:0:0:0:0:
320,192,203314,1,0,0:0:0:0:
320,192,203484,128,0,203825:0:0:0:0:
448,192,203484,128,0,203570:0:0:0:0:
448,192,203655,1,0,0:0:0:0:
192,192,203655,1,0,0:0:0:0:
64,192,203655,1,0,0:0:0:0:
64,192,203825,128,0,204166:0:0:0:0:
192,192,203910,1,0,0:0:0:0:
320,192,203996,1,0,0:0:0:0:
448,192,203996,1,0,0:0:0:0:
448,192,204166,128,0,204507:0:0:0:0:
320,192,204337,1,0,0:0:0:0:
192,192,204337,128,0,204507:0:0:0:0:
64,192,204337,1,0,0:0:0:0:
320,192,204507,128,0,204678:0:0:0:0:
192,192,204678,128,0,204933:0:0:0:0:
448,192,204678,128,0,204763:0:0:0:0:
64,192,204678,1,0,0:0:0:0:
320,192,204763,128,0,204933:0:0:0:0:
448,192,204848,128,0,205018:0:0:0:0:
64,192,205018,128,0,205359:0:0:0:0:
192,192,205018,1,0,0:0:0:0:
320,192,205018,128,0,205189:0:0:0:0:
192,192,205189,128,0,205530:0:0:0:0:
448,192,205359,128,0,205530:0:0:0:0:
320,192,205359,1,0,0:0:0:0:
64,192,205530,128,0,205700:0:0:0:0:
192,192,205700,1,0,0:0:0:0:
320,192,205700,128,0,206041:0:0:0:0:
448,192,205700,1,0,0:0:0:0:
64,192,205871,128,0,206212:0:0:0:0:
192,192,205871,1,0,0:0:0:0:
448,192,206041,128,0,206212:0:0:0:0:
192,192,206212,128,0,206382:0:0:0:0:
320,192,206212,1,0,0:0:0:0:
448,192,206382,1,0,0:0:0:0:
320,192,206382,1,0,0:0:0:0:
64,192,206382,128,0,206553:0:0:0:0:
448,192,206553,128,0,206723:0:0:0:0:
320,192,206638,1,0,0:0:0:0:
192,192,206723,128,0,206979:0:0:0:0:
64,192,206723,1,0,0:0:0:0:
320,192,206893,128,0,207234:0:0:0:0:
192,192,207064,1,0,0:0:0:0:
64,192,207064,128,0,207234:0:0:0:0:
448,192,207064,1,0,0:0:0:0:
192,192,207234,128,0,207405:0:0:0:0:
64,192,207405,1,0,0:0:0:0:
448,192,207405,1,0,0:0:0:0:
320,192,207405,128,0,207518:0:0:0:0:
192,192,207518,128,0,207632:0:0:0:0:
448,192,207632,128,0,207746:0:0:0:0:
320,192,207746,1,0,0:0:0:0:
64,192,207746,128,0,207814:0:0:0:0:
192,192,207746,128,0,207882:0:0:0:0:
448,192,207814,128,0,207950:0:0:0:0:
320,192,207882,128,0,208018:0:0:0:0:
64,192,207950,128,0,208087:0:0:0:0:
448,192,208018,128,0,208087:0:0:0:0:
320,192,208087,128,0,208257:0:0:0:0:
192,192,208087,128,0,208257:0:0:0:0:
448,192,208172,128,0,208257:0:0:0:0:
64,192,208257,128,0,208342:0:0:0:0:
320,192,208342,128,0,208428:0:0:0:0:
192,192,208428,1,0,0:0:0:0:
64,192,208428,1,0,0:0:0:0:
448,192,208428,128,0,208598:0:0:0:0:
320,192,208513,128,0,208598:0:0:0:0:
192,192,208598,128,0,208683:0:0:0:0:
64,192,208598,128,0,208768:0:0:0:0:
320,192,208683,128,0,208768:0:0:0:0:
448,192,208726,128,0,208854:0:0:0:0:
192,192,208768,128,0,208854:0:0:0:0:
64,192,208854,128,0,208939:0:0:0:0:
320,192,208939,128,0,209024:0:0:0:0:
448,192,208939,128,0,209024:0:0:0:0:
192,192,209024,128,0,209109:0:0:0:0:
64,192,209109,128,0,209280:0:0:0:0:
448,192,209109,128,0,209195:0:0:0:0:
320,192,209109,128,0,209322:0:0:0:0:
192,192,209195,128,0,209280:0:0:0:0:
448,192,209280,128,0,209365:0:0:0:0:
64,192,209365,128,0,209422:0:0:0:0:
192,192,209365,128,0,209479:0:0:0:0:
320,192,209408,128,0,209535:0:0:0:0:
448,192,209450,128,0,209535:0:0:0:0:
64,192,209507,128,0,209621:0:0:0:0:
192,192,209564,128,0,209621:0:0:0:0:
320,192,209621,128,0,209706:0:0:0:0:
448,192,209621,128,0,209706:0:0:0:0:
192,192,209706,128,0,209791:0:0:0:0:
64,192,209706,128,0,209791:0:0:0:0:
320,192,209791,128,0,209848:0:0:0:0:
448,192,209791,128,0,209905:0:0:0:0:
64,192,209848,128,0,209905:0:0:0:0:
192,192,209905,128,0,209962:0:0:0:0:
320,192,209962,128,0,210075:0:0:0:0:
448,192,209962,128,0,210018:0:0:0:0:
192,192,210018,128,0,210075:0:0:0:0:
64,192,210075,128,0,210132:0:0:0:0:
448,192,210132,128,0,210217:0:0:0:0:
320,192,210175,128,0,210643:0:0:0:0:
64,192,210473,1,0,0:0:0:0:
192,192,210473,128,0,210643:0:0:0:0:
448,192,210473,1,0,0:0:0:0:
64,192,210643,128,0,211155:0:0:0:0:
448,192,210814,1,0,0:0:0:0:
320,192,210814,128,0,210984:0:0:0:0:
192,192,211155,1,0,0:0:0:0:
320,192,211155,128,0,211240:0:0:0:0:
448,192,211240,128,0,212178:0:0:0:0:
64,192,211325,128,0,211666:0:0:0:0:
192,192,211325,1,0,0:0:0:0:
320,192,211496,1,0,0:0:0:0:
320,192,211666,128,0,211751:0:0:0:0:
192,192,211666,1,0,0:0:0:0:
192,192,211837,1,0,0:0:0:0:
64,192,211837,1,0,0:0:0:0:
320,192,211837,1,0,0:0:0:0:
64,192,212007,128,0,212092:0:0:0:0:
320,192,212092,1,0,0:0:0:0:
192,192,212178,1,0,0:0:0:0:
64,192,212178,1,0,0:0:0:0:
320,192,212348,128,0,212433:0:0:0:0:
448,192,212433,128,0,212689:0:0:0:0:
320,192,212518,128,0,212774:0:0:0:0:
192,192,212518,1,0,0:0:0:0:
64,192,212518,128,0,212604:0:0:0:0:
64,192,212689,128,0,213541:0:0:0:0:
192,192,212859,1,0,0:0:0:0:
448,192,212859,128,0,212945:0:0:0:0:
320,192,212859,1,0,0:0:0:0:
448,192,213200,1,0,0:0:0:0:
320,192,213200,128,0,213371:0:0:0:0:
192,192,213200,1,0,0:0:0:0:
448,192,213541,128,0,213797:0:0:0:0:
320,192,213541,1,0,0:0:0:0:
192,192,213712,128,0,213797:0:0:0:0:
320,192,213797,128,0,214053:0:0:0:0:
448,192,213882,1,0,0:0:0:0:
64,192,213882,128,0,213967:0:0:0:0:
192,192,213882,128,0,214308:0:0:0:0:
64,192,214053,128,0,214393:0:0:0:0:
448,192,214053,1,0,0:0:0:0:
320,192,214223,1,0,0:0:0:0:
448,192,214393,128,0,214734:0:0:0:0:
192,192,214393,128,0,214479:0:0:0:0:
320,192,214564,1,0,0:0:0:0:
192,192,214564,1,0,0:0:0:0:
64,192,214564,1,0,0:0:0:0:
64,192,214734,128,0,214820:0:0:0:0:
320,192,214820,128,0,214905:0:0:0:0:
448,192,214905,1,0,0:0:0:0:
64,192,214905,128,0,215160:0:0:0:0:
192,192,215075,128,0,215416:0:0:0:0:
448,192,215246,128,0,215501:0:0:0:0:
64,192,215246,1,0,0:0:0:0:
320,192,215246,128,0,215331:0:0:0:0:
64,192,215416,128,0,215587:0:0:0:0:
448,192,215587,1,0,0:0:0:0:
192,192,215587,128,0,215928:0:0:0:0:
320,192,215587,128,0,215672:0:0:0:0:
320,192,215928,128,0,216098:0:0:0:0:
448,192,215928,1,0,0:0:0:0:
64,192,215928,1,0,0:0:0:0:
192,192,216098,128,0,218143:0:0:0:0:
64,192,216268,1,0,0:0:0:0:
448,192,216268,128,0,216439:0:0:0:0:
320,192,216609,1,0,0:0:0:0:
64,192,216609,1,0,0:0:0:0:
448,192,216609,1,0,0:0:0:0:
448,192,216780,128,0,217121:0:0:0:0:
320,192,216780,1,0,0:0:0:0:
64,192,216950,1,0,0:0:0:0:
64,192,217121,1,0,0:0:0:0:
320,192,217121,128,0,217206:0:0:0:0:
64,192,217291,1,0,0:0:0:0:
320,192,217291,1,0,0:0:0:0:
448,192,217291,1,0,0:0:0:0:
448,192,217462,128,0,217547:0:0:0:0:
64,192,217547,1,0,0:0:0:0:
320,192,217632,1,0,0:0:0:0:
448,192,217632,1,0,0:0:0:0:
64,192,217803,128,0,217888:0:0:0:0:
64,192,217973,1,0,0:0:0:0:
320,192,217973,1,0,0:0:0:0:
448,192,217973,128,0,218058:0:0:0:0:
64,192,218101,128,0,218186:0:0:0:0:
320,192,218143,128,0,218229:0:0:0:0:
448,192,218186,128,0,218229:0:0:0:0:
192,192,218229,128,0,218314:0:0:0:0:
64,192,218314,128,0,219848:0:0:0:0:
320,192,218314,1,0,0:0:0:0:
448,192,218314,128,0,218399:0:0:0:0:
320,192,218655,1,0,0:0:0:0:
448,192,218655,1,0,0:0:0:0:
192,192,218655,128,0,218825:0:0:0:0:
192,192,218996,1,0,0:0:0:0:
320,192,218996,128,0,219166:0:0:0:0:
448,192,219337,1,0,0:0:0:0:
320,192,219337,1,0,0:0:0:0:
192,192,219337,1,0,0:0:0:0:
192,192,219507,1,0,0:0:0:0:
448,192,219507,128,0,219848:0:0:0:0:
320,192,219678,1,0,0:0:0:0:
192,192,219848,1,0,0:0:0:0:
320,192,219848,128,0,219933:0:0:0:0:
64,192,219933,128,0,220018:0:0:0:0:
192,192,220018,128,0,220104:0:0:0:0:
320,192,220018,128,0,220189:0:0:0:0:
448,192,220018,128,0,220274:0:0:0:0:
64,192,220189,128,0,220359:0:0:0:0:
192,192,220274,128,0,220445:0:0:0:0:
320,192,220359,128,0,220530:0:0:0:0:
448,192,220359,128,0,220530:0:0:0:0:
64,192,220445,128,0,220530:0:0:0:0:
192,192,220530,128,0,220871:0:0:0:0:
320,192,220615,128,0,220700:0:0:0:0:
448,192,220615,128,0,220700:0:0:0:0:
64,192,220700,128,0,220785:0:0:0:0:
320,192,220785,128,0,220871:0:0:0:0:
448,192,220785,128,0,220871:0:0:0:0:
64,192,220871,128,0,221041:0:0:0:0:
320,192,220956,128,0,221041:0:0:0:0:
448,192,221041,1,0,0:0:0:0:
192,192,221041,128,0,221126:0:0:0:0:
64,192,221126,128,0,221553:0:0:0:0:
320,192,221382,1,0,0:0:0:0:
192,192,221553,128,0,222064:0:0:0:0:
448,192,221553,1,0,0:0:0:0:
320,192,221723,1,0,0:0:0:0:
64,192,221723,1,0,0:0:0:0:
448,192,221723,1,0,0:0:0:0:
320,192,222064,128,0,223768:0:0:0:0:
448,192,222064,1,0,0:0:0:0:
192,192,222234,1,0,0:0:0:0:
64,192,222234,1,0,0:0:0:0:
448,192,222405,1,0,0:0:0:0:
448,192,222746,1,0,0:0:0:0:
192,192,222916,1,0,0:0:0:0:
64,192,222916,1,0,0:0:0:0:
64,192,223087,1,0,0:0:0:0:
192,192,223087,1,0,0:0:0:0:
448,192,223087,1,0,0:0:0:0:
448,192,223428,1,0,0:0:0:0:
64,192,223428,1,0,0:0:0:0:
64,192,223768,128,0,224280:0:0:0:0:
448,192,223768,1,0,0:0:0:0:
192,192,223768,1,0,0:0:0:0:
448,192,224109,1,0,0:0:0:0:
320,192,224280,1,0,0:0:0:0:
192,192,224280,128,0,224791:0:0:0:0:
64,192,224450,1,0,0:0:0:0:
320,192,224450,1,0,0:0:0:0:
448,192,224450,1,0,0:0:0:0:
448,192,224791,128,0,224962:0:0:0:0:
320,192,224962,128,0,225814:0:0:0:0:
192,192,224962,1,0,0:0:0:0:
64,192,225132,1,0,0:0:0:0:
448,192,225303,128,0,225388:0:0:0:0:
64,192,225473,1,0,0:0:0:0:
192,192,225643,128,0,225729:0:0:0:0:
192,192,225814,128,0,226496:0:0:0:0:
64,192,225814,1,0,0:0:0:0:
448,192,225814,1,0,0:0:0:0:
320,192,225984,128,0,226070:0:0:0:0:
448,192,226155,1,0,0:0:0:0:
64,192,226155,128,0,226240:0:0:0:0:
320,192,226325,128,0,226410:0:0:0:0:
64,192,226496,128,0,227007:0:0:0:0:
320,192,226496,1,0,0:0:0:0:
448,192,226496,128,0,226581:0:0:0:0:
448,192,226837,1,0,0:0:0:0:
192,192,227007,128,0,227518:0:0:0:0:
320,192,227007,1,0,0:0:0:0:
320,192,227178,1,0,0:0:0:0:
64,192,227178,1,0,0:0:0:0:
448,192,227178,1,0,0:0:0:0:
320,192,227518,128,0,229223:0:0:0:0:
448,192,227518,128,0,227604:0:0:0:0:
192,192,227689,1,0,0:0:0:0:
64,192,227689,1,0,0:0:0:0:
448,192,227859,1,0,0:0:0:0:
192,192,228030,1,0,0:0:0:0:
64,192,228030,1,0,0:0:0:0:
448,192,228200,1,0,0:0:0:0:
192,192,228371,1,0,0:0:0:0:
64,192,228371,1,0,0:0:0:0:
64,192,228541,1,0,0:0:0:0:
192,192,228541,1,0,0:0:0:0:
448,192,228541,1,0,0:0:0:0:
448,192,228882,1,0,0:0:0:0:
64,192,228882,1,0,0:0:0:0:
64,192,229223,1,0,0:0:0:0:
192,192,229223,1,0,0:0:0:0:
448,192,229223,128,0,229734:0:0:0:0:
64,192,229564,1,0,0:0:0:0:
192,192,229734,1,0,0:0:0:0:
320,192,229734,128,0,230246:0:0:0:0:
64,192,229905,1,0,0:0:0:0:
192,192,229905,1,0,0:0:0:0:
448,192,229905,1,0,0:0:0:0:
64,192,230246,128,0,230587:0:0:0:0:
192,192,230246,1,0,0:0:0:0:
448,192,230416,1,0,0:0:0:0:
320,192,230416,1,0,0:0:0:0:
320,192,230587,1,0,0:0:0:0:
192,192,230587,128,0,231268:0:0:0:0:
448,192,230757,1,0,0:0:0:0:
64,192,230928,1,0,0:0:0:0:
448,192,231098,1,0,0:0:0:0:
320,192,231098,1,0,0:0:0:0:
448,192,231268,128,0,231950:0:0:0:0:
64,192,231268,1,0,0:0:0:0:
320,192,231268,1,0,0:0:0:0:
64,192,231609,1,0,0:0:0:0:
192,192,231609,1,0,0:0:0:0:
320,192,231950,1,0,0:0:0:0:
192,192,231950,1,0,0:0:0:0:
64,192,231950,128,0,232462:0:0:0:0:
448,192,232291,1,0,0:0:0:0:
192,192,232462,128,0,232973:0:0:0:0:
320,192,232462,1,0,0:0:0:0:
448,192,232632,1,0,0:0:0:0:
64,192,232632,1,0,0:0:0:0:
320,192,232632,1,0,0:0:0:0:
448,192,232973,128,0,233314:0:0:0:0:
64,192,232973,1,0,0:0:0:0:
64,192,233143,1,0,0:0:0:0:
320,192,233143,1,0,0:0:0:0:
320,192,233314,128,0,233996:0:0:0:0:
192,192,233314,1,0,0:0:0:0:
192,192,233484,1,0,0:0:0:0:
64,192,233484,1,0,0:0:0:0:
448,192,233655,1,0,0:0:0:0:
192,192,233825,1,0,0:0:0:0:
64,192,233825,1,0,0:0:0:0:
64,192,233996,128,0,234678:0:0:0:0:
448,192,233996,1,0,0:0:0:0:
192,192,233996,1,0,0:0:0:0:
320,192,234166,1,0,0:0:0:0:
448,192,234337,1,0,0:0:0:0:
320,192,234337,1,0,0:0:0:0:
192,192,234678,128,0,235189:0:0:0:0:
320,192,234678,1,0,0:0:0:0:
448,192,234678,1,0,0:0:0:0:
64,192,235018,1,0,0:0:0:0:
320,192,235189,128,0,235700:0:0:0:0:
448,192,235189,1,0,0:0:0:0:
192,192,235359,1,0,0:0:0:0:
64,192,235359,1,0,0:0:0:0:
448,192,235359,1,0,0:0:0:0:
64,192,235700,128,0,236041:0:0:0:0:
192,192,235700,1,0,0:0:0:0:
192,192,235871,1,0,0:0:0:0:
320,192,235871,1,0,0:0:0:0:
448,192,235871,1,0,0:0:0:0:
448,192,236041,128,0,236723:0:0:0:0:
320,192,236041,1,0,0:0:0:0:
192,192,236212,128,0,236254:0:0:0:0:
64,192,236212,128,0,236254:0:0:0:0:
192,192,236382,128,0,236446:0:0:0:0:
64,192,236382,128,0,236446:0:0:0:0:
64,192,236553,128,0,236638:0:0:0:0:
192,192,236553,128,0,236638:0:0:0:0:
64,192,236723,128,0,236979:0:0:0:0:
320,192,236723,128,0,236808:0:0:0:0:
192,192,236893,128,0,237064:0:0:0:0:
448,192,236893,128,0,236979:0:0:0:0:
320,192,237064,128,0,237320:0:0:0:0:
64,192,237064,128,0,237149:0:0:0:0:
448,192,237064,128,0,237149:0:0:0:0:
192,192,237149,128,0,237320:0:0:0:0:
64,192,237234,128,0,237320:0:0:0:0:
448,192,237234,128,0,237320:0:0:0:0:
64,192,237405,1,0,0:0:0:0:
320,192,237405,128,0,237660:0:0:0:0:
448,192,237405,128,0,237746:0:0:0:0:
192,192,237575,1,0,0:0:0:0:
320,192,237746,1,0,0:0:0:0:
192,192,237746,128,0,238001:0:0:0:0:
64,192,237746,128,0,238087:0:0:0:0:
448,192,237916,1,0,0:0:0:0:
320,192,238087,128,0,238342:0:0:0:0:
448,192,238087,128,0,238428:0:0:0:0:
192,192,238257,1,0,0:0:0:0:
320,192,238428,1,0,0:0:0:0:
64,192,238428,1,0,0:0:0:0:
192,192,238428,1,0,0:0:0:0:
320,192,238598,128,0,239024:0:0:0:0:
448,192,238598,128,0,239109:0:0:0:0:
64,192,238768,1,0,0:0:0:0:
192,192,238939,1,0,0:0:0:0:
64,192,238939,1,0,0:0:0:0:
320,192,239109,1,0,0:0:0:0:
192,192,239109,128,0,239280:0:0:0:0:
64,192,239109,128,0,239450:0:0:0:0:
448,192,239280,1,0,0:0:0:0:
192,192,239365,1,0,0:0:0:0:
320,192,239450,128,0,239706:0:0:0:0:
448,192,239450,128,0,239791:0:0:0:0:
64,192,239621,1,0,0:0:0:0:
320,192,239791,1,0,0:0:0:0:
192,192,239791,1,0,0:0:0:0:
64,192,239791,1,0,0:0:0:0:
448,192,239962,128,0,240473:0:0:0:0:
320,192,239962,128,0,240388:0:0:0:0:
64,192,240132,1,0,0:0:0:0:
192,192,240132,1,0,0:0:0:0:
64,192,240303,1,0,0:0:0:0:
320,192,240473,1,0,0:0:0:0:
192,192,240473,128,0,240729:0:0:0:0:
64,192,240473,128,0,240814:0:0:0:0:
448,192,240643,1,0,0:0:0:0:
320,192,240814,128,0,241070:0:0:0:0:
448,192,240814,128,0,241155:0:0:0:0:
64,192,240984,1,0,0:0:0:0:
320,192,241155,1,0,0:0:0:0:
192,192,241155,1,0,0:0:0:0:
64,192,241155,1,0,0:0:0:0:
448,192,241325,128,0,241666:0:0:0:0:
320,192,241325,128,0,241581:0:0:0:0:
64,192,241496,1,0,0:0:0:0:
192,192,241666,128,0,241751:0:0:0:0:
64,192,241666,128,0,242007:0:0:0:0:
320,192,241837,1,0,0:0:0:0:
448,192,241837,1,0,0:0:0:0:
192,192,241837,1,0,0:0:0:0:
448,192,242007,128,0,242348:0:0:0:0:
320,192,242007,128,0,242092:0:0:0:0:
192,192,242092,1,0,0:0:0:0:
64,192,242178,1,0,0:0:0:0:
320,192,242178,1,0,0:0:0:0:
320,192,242348,128,0,242518:0:0:0:0:
192,192,242348,128,0,242433:0:0:0:0:
192,192,242518,128,0,242689:0:0:0:0:
64,192,242518,128,0,242604:0:0:0:0:
448,192,242518,1,0,0:0:0:0:
320,192,242689,128,0,242859:0:0:0:0:
448,192,242689,128,0,242774:0:0:0:0:
448,192,242859,1,0,0:0:0:0:
192,192,242859,128,0,243115:0:0:0:0:
64,192,242859,128,0,243200:0:0:0:0:
320,192,243030,1,0,0:0:0:0:
192,192,243200,1,0,0:0:0:0:
320,192,243200,128,0,243456:0:0:0:0:
448,192,243200,128,0,243541:0:0:0:0:
64,192,243371,1,0,0:0:0:0:
192,192,243541,128,0,243797:0:0:0:0:
64,192,243541,128,0,243882:0:0:0:0:
320,192,243712,1,0,0:0:0:0:
192,192,243882,1,0,0:0:0:0:
448,192,243882,1,0,0:0:0:0:
320,192,243882,1,0,0:0:0:0:
192,192,244053,128,0,244308:0:0:0:0:
64,192,244053,128,0,244393:0:0:0:0:
448,192,244223,1,0,0:0:0:0:
320,192,244393,128,0,244479:0:0:0:0:
448,192,244393,128,0,244479:0:0:0:0:
192,192,244564,1,0,0:0:0:0:
320,192,244564,128,0,244734:0:0:0:0:
448,192,244564,128,0,244905:0:0:0:0:
64,192,244734,1,0,0:0:0:0:
320,192,244820,1,0,0:0:0:0:
192,192,244905,128,0,245160:0:0:0:0:
64,192,244905,128,0,245246:0:0:0:0:
448,192,245075,1,0,0:0:0:0:
192,192,245246,1,0,0:0:0:0:
320,192,245246,1,0,0:0:0:0:
448,192,245246,1,0,0:0:0:0:
64,192,245416,128,0,245928:0:0:0:0:
192,192,245416,128,0,245842:0:0:0:0:
448,192,245587,1,0,0:0:0:0:
320,192,245587,1,0,0:0:0:0:
448,192,245757,1,0,0:0:0:0:
192,192,245928,1,0,0:0:0:0:
320,192,245928,128,0,246183:0:0:0:0:
448,192,245928,128,0,246268:0:0:0:0:
64,192,246098,1,0,0:0:0:0:
192,192,246268,128,0,246524:0:0:0:0:
64,192,246268,128,0,246609:0:0:0:0:
448,192,246439,1,0,0:0:0:0:
192,192,246609,1,0,0:0:0:0:
320,192,246609,1,0,0:0:0:0:
448,192,246609,1,0,0:0:0:0:
64,192,246780,128,0,247121:0:0:0:0:
192,192,246780,128,0,247035:0:0:0:0:
448,192,246950,1,0,0:0:0:0:
320,192,247121,128,0,247206:0:0:0:0:
448,192,247121,128,0,247462:0:0:0:0:
192,192,247291,1,0,0:0:0:0:
64,192,247291,1,0,0:0:0:0:
320,192,247291,1,0,0:0:0:0:
64,192,247462,128,0,247803:0:0:0:0:
192,192,247462,128,0,247547:0:0:0:0:
320,192,247547,1,0,0:0:0:0:
448,192,247632,1,0,0:0:0:0:
192,192,247632,1,0,0:0:0:0:
448,192,247803,128,0,247973:0:0:0:0:
320,192,247803,128,0,247888:0:0:0:0:
64,192,247888,1,0,0:0:0:0:
192,192,247973,128,0,248058:0:0:0:0:
320,192,247973,128,0,248143:0:0:0:0:
448,192,248058,1,0,0:0:0:0:
192,192,248143,128,0,248314:0:0:0:0:
64,192,248143,128,0,248229:0:0:0:0:
448,192,248314,128,0,248570:0:0:0:0:
320,192,248314,128,0,248655:0:0:0:0:
64,192,248314,1,0,0:0:0:0:
192,192,248484,1,0,0:0:0:0:
448,192,248655,1,0,0:0:0:0:
64,192,248655,128,0,248910:0:0:0:0:
192,192,248655,128,0,248996:0:0:0:0:
448,192,248825,1,0,0:0:0:0:
448,192,248996,128,0,249251:0:0:0:0:
320,192,248996,128,0,249337:0:0:0:0:
192,192,249166,1,0,0:0:0:0:
448,192,249337,1,0,0:0:0:0:
64,192,249337,1,0,0:0:0:0:
192,192,249337,1,0,0:0:0:0:
448,192,249507,128,0,249933:0:0:0:0:
320,192,249507,128,0,250018:0:0:0:0:
64,192,249678,1,0,0:0:0:0:
192,192,249848,1,0,0:0:0:0:
64,192,249848,1,0,0:0:0:0:
448,192,250018,1,0,0:0:0:0:
64,192,250018,128,0,250189:0:0:0:0:
192,192,250018,128,0,250359:0:0:0:0:
320,192,250189,1,0,0:0:0:0:
64,192,250274,1,0,0:0:0:0:
448,192,250359,128,0,250615:0:0:0:0:
320,192,250359,128,0,250700:0:0:0:0:
192,192,250530,1,0,0:0:0:0:
448,192,250700,1,0,0:0:0:0:
192,192,250700,1,0,0:0:0:0:
64,192,250700,1,0,0:0:0:0:
320,192,250871,128,0,251382:0:0:0:0:
448,192,250871,128,0,251297:0:0:0:0:
64,192,251041,1,0,0:0:0:0:
192,192,251041,1,0,0:0:0:0:
192,192,251212,1,0,0:0:0:0:
448,192,251382,1,0,0:0:0:0:
64,192,251382,128,0,251638:0:0:0:0:
192,192,251382,128,0,251723:0:0:0:0:
320,192,251553,1,0,0:0:0:0:
448,192,251723,128,0,251979:0:0:0:0:
320,192,251723,128,0,252064:0:0:0:0:
64,192,251893,1,0,0:0:0:0:
448,192,252064,1,0,0:0:0:0:
192,192,252064,1,0,0:0:0:0:
64,192,252064,1,0,0:0:0:0:
320,192,252234,128,0,252575:0:0:0:0:
448,192,252234,128,0,252490:0:0:0:0:
192,192,252405,1,0,0:0:0:0:
64,192,252575,128,0,252660:0:0:0:0:
192,192,252575,128,0,252916:0:0:0:0:
320,192,252746,1,0,0:0:0:0:
448,192,252746,1,0,0:0:0:0:
64,192,252746,1,0,0:0:0:0:
448,192,252916,128,0,253172:0:0:0:0:
320,192,252916,128,0,253001:0:0:0:0:
64,192,253001,1,0,0:0:0:0:
192,192,253087,1,0,0:0:0:0:
320,192,253087,128,0,253257:0:0:0:0:
64,192,253257,128,0,253428:0:0:0:0:
192,192,253257,128,0,253342:0:0:0:0:
192,192,253428,128,0,253598:0:0:0:0:
320,192,253428,128,0,253513:0:0:0:0:
448,192,253428,1,0,0:0:0:0:
448,192,253598,128,0,253768:0:0:0:0:
320,192,253598,128,0,253683:0:0:0:0:
320,192,253768,1,0,0:0:0:0:
64,192,253768,128,0,254024:0:0:0:0:
192,192,253768,128,0,254109:0:0:0:0:
448,192,253939,1,0,0:0:0:0:
64,192,254109,1,0,0:0:0:0:
448,192,254109,128,0,254365:0:0:0:0:
320,192,254109,128,0,254450:0:0:0:0:
192,192,254280,1,0,0:0:0:0:
64,192,254450,128,0,254706:0:0:0:0:
192,192,254450,128,0,254791:0:0:0:0:
448,192,254621,1,0,0:0:0:0:
64,192,254791,1,0,0:0:0:0:
448,192,254791,1,0,0:0:0:0:
320,192,254791,1,0,0:0:0:0:
64,192,254962,128,0,255388:0:0:0:0:
192,192,254962,128,0,255473:0:0:0:0:
448,192,255132,1,0,0:0:0:0:
320,192,255303,1,0,0:0:0:0:
448,192,255303,1,0,0:0:0:0:
64,192,255473,1,0,0:0:0:0:
448,192,255473,128,0,255643:0:0:0:0:
320,192,255473,128,0,255814:0:0:0:0:
192,192,255643,1,0,0:0:0:0:
448,192,255729,1,0,0:0:0:0:
64,192,255814,128,0,256070:0:0:0:0:
192,192,255814,128,0,256155:0:0:0:0:
320,192,255984,1,0,0:0:0:0:
64,192,256155,1,0,0:0:0:0:
320,192,256155,1,0,0:0:0:0:
448,192,256155,1,0,0:0:0:0:
192,192,256325,128,0,256837:0:0:0:0:
64,192,256325,128,0,256751:0:0:0:0:
448,192,256496,1,0,0:0:0:0:
320,192,256496,1,0,0:0:0:0:
320,192,256666,1,0,0:0:0:0:
64,192,256837,1,0,0:0:0:0:
448,192,256837,128,0,257092:0:0:0:0:
320,192,256837,128,0,257178:0:0:0:0:
192,192,257007,1,0,0:0:0:0:
64,192,257178,128,0,257433:0:0:0:0:
192,192,257178,128,0,257518:0:0:0:0:
448,192,257348,1,0,0:0:0:0:
64,192,257518,1,0,0:0:0:0:
320,192,257518,1,0,0:0:0:0:
448,192,257518,1,0,0:0:0:0:
192,192,257689,128,0,258030:0:0:0:0:
64,192,257689,128,0,257945:0:0:0:0:
320,192,257859,1,0,0:0:0:0:
448,192,258030,128,0,258115:0:0:0:0:
320,192,258030,128,0,258371:0:0:0:0:
192,192,258200,1,0,0:0:0:0:
64,192,258200,1,0,0:0:0:0:
448,192,258200,1,0,0:0:0:0:
64,192,258371,128,0,258712:0:0:0:0:
192,192,258371,128,0,258456:0:0:0:0:
448,192,258456,1,0,0:0:0:0:
320,192,258541,1,0,0:0:0:0:
192,192,258541,1,0,0:0:0:0:
320,192,258712,128,0,258797:0:0:0:0:
448,192,258712,128,0,258882:0:0:0:0:
64,192,258797,1,0,0:0:0:0:
192,192,258882,128,0,258967:0:0:0:0:
320,192,258882,128,0,259053:0:0:0:0:
448,192,258967,1,0,0:0:0:0:
192,192,259053,128,0,259223:0:0:0:0:
64,192,259053,128,0,259138:0:0:0:0:
448,192,259223,128,0,261439:0:0:0:0:
320,192,259223,1,0,0:0:0:0:
64,192,259223,1,0,0:0:0:0:
192,192,259564,1,0,0:0:0:0:
64,192,259734,1,0,0:0:0:0:
320,192,259905,1,0,0:0:0:0:
192,192,259905,1,0,0:0:0:0:
64,192,259905,1,0,0:0:0:0:
320,192,260075,1,0,0:0:0:0:
192,192,260075,1,0,0:0:0:0:
64,192,260160,1,0,0:0:0:0:
192,192,260246,1,0,0:0:0:0:
320,192,260416,1,0,0:0:0:0:
64,192,260416,1,0,0:0:0:0:
192,192,260757,1,0,0:0:0:0:
320,192,260757,1,0,0:0:0:0:
64,192,260928,1,0,0:0:0:0:
320,192,261098,1,0,0:0:0:0:
192,192,261268,1,0,0:0:0:0:
64,192,261268,1,0,0:0:0:0:
320,192,261268,1,0,0:0:0:0:
64,192,261439,128,0,261609:0:0:0:0:
320,192,261609,128,0,261780:0:0:0:0:
448,192,261780,128,0,261950:0:0:0:0:
192,192,261780,1,0,0:0:0:0:
320,192,261950,1,0,0:0:0:0:
64,192,261950,128,0,262291:0:0:0:0:
192,192,261950,1,0,0:0:0:0:
320,192,262291,128,0,262462:0:0:0:0:
448,192,262462,1,0,0:0:0:0:
192,192,262462,128,0,262973:0:0:0:0:
448,192,262632,1,0,0:0:0:0:
320,192,262632,1,0,0:0:0:0:
64,192,262632,1,0,0:0:0:0:
320,192,262803,1,0,0:0:0:0:
64,192,262803,1,0,0:0:0:0:
448,192,262888,1,0,0:0:0:0:
64,192,262973,128,0,263070:0:0:0:0:
448,192,263070,128,0,263168:0:0:0:0:
192,192,263143,1,0,0:0:0:0:
64,192,263143,1,0,0:0:0:0:
320,192,263168,128,0,263484:0:0:0:0:
64,192,263484,1,0,0:0:0:0:
192,192,263484,128,0,263825:0:0:0:0:
448,192,263655,1,0,0:0:0:0:
64,192,263825,1,0,0:0:0:0:
320,192,263825,128,0,263996:0:0:0:0:
448,192,263996,1,0,0:0:0:0:
192,192,263996,128,0,264166:0:0:0:0:
64,192,263996,1,0,0:0:0:0:
448,192,264166,128,0,264337:0:0:0:0:
64,192,264337,128,0,264507:0:0:0:0:
320,192,264507,128,0,264678:0:0:0:0:
448,192,264507,1,0,0:0:0:0:
64,192,264678,128,0,265189:0:0:0:0:
192,192,264678,1,0,0:0:0:0:
448,192,264678,1,0,0:0:0:0:
320,192,265018,1,0,0:0:0:0:
192,192,265189,128,0,265700:0:0:0:0:
448,192,265189,1,0,0:0:0:0:
448,192,265359,1,0,0:0:0:0:
320,192,265359,1,0,0:0:0:0:
64,192,265359,1,0,0:0:0:0:
64,192,265530,1,0,0:0:0:0:
320,192,265530,1,0,0:0:0:0:
448,192,265615,1,0,0:0:0:0:
320,192,265700,128,0,265785:0:0:0:0:
448,192,265785,128,0,265871:0:0:0:0:
192,192,265871,1,0,0:0:0:0:
64,192,265871,128,0,266212:0:0:0:0:
320,192,265871,1,0,0:0:0:0:
320,192,266212,1,0,0:0:0:0:
448,192,266212,128,0,266382:0:0:0:0:
64,192,266382,128,0,266553:0:0:0:0:
192,192,266553,1,0,0:0:0:0:
448,192,266553,128,0,266638:0:0:0:0:
320,192,266638,128,0,266893:0:0:0:0:
448,192,266723,1,0,0:0:0:0:
192,192,266723,1,0,0:0:0:0:
64,192,266723,1,0,0:0:0:0:
64,192,266893,128,0,267064:0:0:0:0:
448,192,267064,128,0,267234:0:0:0:0:
192,192,267234,128,0,267405:0:0:0:0:
320,192,267234,1,0,0:0:0:0:
64,192,267405,1,0,0:0:0:0:
448,192,267405,1,0,0:0:0:0:
320,192,267405,128,0,267575:0:0:0:0:
64,192,267575,128,0,267746:0:0:0:0:
320,192,267746,128,0,267916:0:0:0:0:
192,192,267916,128,0,268087:0:0:0:0:
64,192,267916,1,0,0:0:0:0:
64,192,268087,128,0,268257:0:0:0:0:
320,192,268087,1,0,0:0:0:0:
448,192,268087,1,0,0:0:0:0:
448,192,268257,128,0,268428:0:0:0:0:
320,192,268257,1,0,0:0:0:0:
192,192,268342,1,0,0:0:0:0:
64,192,268428,128,0,268598:0:0:0:0:
192,192,268598,1,0,0:0:0:0:
448,192,268598,128,0,268768:0:0:0:0:
320,192,268598,1,0,0:0:0:0:
64,192,268683,128,0,268854:0:0:0:0:
320,192,268768,128,0,268939:0:0:0:0:
192,192,268854,128,0,269024:0:0:0:0:
64,192,268939,128,0,269109:0:0:0:0:
448,192,268939,1,0,0:0:0:0:
320,192,269024,128,0,269109:0:0:0:0:
448,192,269109,128,0,269280:0:0:0:0:
192,192,269109,1,0,0:0:0:0:
320,192,269195,128,0,269280:0:0:0:0:
192,192,269280,128,0,269365:0:0:0:0:
64,192,269280,1,0,0:0:0:0:
320,192,269365,128,0,269450:0:0:0:0:
448,192,269450,1,0,0:0:0:0:
192,192,269450,1,0,0:0:0:0:
64,192,269450,128,0,269621:0:0:0:0:
320,192,269535,128,0,269706:0:0:0:0:
192,192,269621,128,0,269706:0:0:0:0:
448,192,269706,128,0,269791:0:0:0:0:
320,192,269791,128,0,269962:0:0:0:0:
192,192,269791,1,0,0:0:0:0:
64,192,269791,1,0,0:0:0:0:
448,192,269876,128,0,270047:0:0:0:0:
64,192,269962,128,0,270047:0:0:0:0:
192,192,269962,1,0,0:0:0:0:
320,192,270047,128,0,270132:0:0:0:0:
64,192,270132,128,0,270388:0:0:0:0:
192,192,270132,128,0,270303:0:0:0:0:
448,192,270132,1,0,0:0:0:0:
320,192,270303,128,0,270558:0:0:0:0:
64,192,270473,128,0,270814:0:0:0:0:
448,192,270473,1,0,0:0:0:0:
192,192,270473,128,0,270643:0:0:0:0:
320,192,270643,128,0,270814:0:0:0:0:
448,192,270814,128,0,271070:0:0:0:0:
192,192,270814,128,0,270899:0:0:0:0:
192,192,270984,128,0,271325:0:0:0:0:
448,192,271155,128,0,271240:0:0:0:0:
64,192,271155,1,0,0:0:0:0:
320,192,271155,128,0,271240:0:0:0:0:
448,192,271325,128,0,271581:0:0:0:0:
64,192,271325,128,0,271666:0:0:0:0:
320,192,271410,128,0,271751:0:0:0:0:
192,192,271496,1,0,0:0:0:0:
448,192,271666,128,0,272007:0:0:0:0:
192,192,271666,128,0,271751:0:0:0:0:
64,192,271837,128,0,272007:0:0:0:0:
320,192,271837,1,0,0:0:0:0:
192,192,271837,128,0,271922:0:0:0:0:
320,192,272007,128,0,272178:0:0:0:0:
64,192,272092,1,0,0:0:0:0:
192,192,272178,128,0,272348:0:0:0:0:
448,192,272178,128,0,272263:0:0:0:0:
64,192,272348,128,0,272518:0:0:0:0:
448,192,272348,128,0,272433:0:0:0:0:
320,192,272518,128,0,272689:0:0:0:0:
192,192,272518,1,0,0:0:0:0:
448,192,272518,128,0,272774:0:0:0:0:
192,192,272689,128,0,272859:0:0:0:0:
64,192,272689,128,0,272774:0:0:0:0:
448,192,272859,1,0,0:0:0:0:
320,192,272859,128,0,273200:0:0:0:0:
64,192,272859,128,0,273030:0:0:0:0:
448,192,273200,128,0,273371:0:0:0:0:
64,192,273200,1,0,0:0:0:0:
192,192,273200,128,0,273371:0:0:0:0:
320,192,273371,128,0,273541:0:0:0:0:
64,192,273541,128,0,273626:0:0:0:0:
192,192,273541,1,0,0:0:0:0:
64,192,273712,128,0,273797:0:0:0:0:
320,192,273712,128,0,273797:0:0:0:0:
448,192,273797,128,0,274053:0:0:0:0:
192,192,273882,1,0,0:0:0:0:
64,192,273882,1,0,0:0:0:0:
320,192,273882,1,0,0:0:0:0:
320,192,274053,128,0,274393:0:0:0:0:
64,192,274053,128,0,274905:0:0:0:0:
192,192,274223,1,0,0:0:0:0:
192,192,274393,128,0,274479:0:0:0:0:
192,192,274564,1,0,0:0:0:0:
320,192,274564,1,0,0:0:0:0:
448,192,274564,128,0,274649:0:0:0:0:
320,192,274734,1,0,0:0:0:0:
448,192,274734,128,0,274905:0:0:0:0:
192,192,274905,128,0,275075:0:0:0:0:
320,192,275075,128,0,275246:0:0:0:0:
448,192,275246,128,0,275382:0:0:0:0:
64,192,275246,1,0,0:0:0:0:
192,192,275246,128,0,275314:0:0:0:0:
320,192,275314,128,0,275450:0:0:0:0:
64,192,275382,128,0,275450:0:0:0:0:
192,192,275450,128,0,275518:0:0:0:0:
320,192,275518,128,0,275587:0:0:0:0:
448,192,275587,128,0,275842:0:0:0:0:
192,192,275587,1,0,0:0:0:0:
64,192,275587,128,0,275757:0:0:0:0:
320,192,275757,128,0,275928:0:0:0:0:
192,192,275842,128,0,276013:0:0:0:0:
448,192,275928,128,0,276013:0:0:0:0:
64,192,275928,128,0,276098:0:0:0:0:
320,192,276013,128,0,276098:0:0:0:0:
192,192,276098,128,0,276183:0:0:0:0:
320,192,276183,128,0,276268:0:0:0:0:
448,192,276268,1,0,0:0:0:0:
192,192,276268,1,0,0:0:0:0:
64,192,276268,128,0,276439:0:0:0:0:
320,192,276354,128,0,276524:0:0:0:0:
448,192,276439,128,0,276609:0:0:0:0:
192,192,276524,128,0,276723:0:0:0:0:
64,192,276609,1,0,0:0:0:0:
320,192,276609,128,0,276837:0:0:0:0:
448,192,276723,128,0,276950:0:0:0:0:
64,192,276780,1,0,0:0:0:0:
192,192,276837,128,0,277121:0:0:0:0:
320,192,276950,1,0,0:0:0:0:
64,192,276950,128,0,277121:0:0:0:0:
448,192,277078,128,0,277291:0:0:0:0:
320,192,277121,1,0,0:0:0:0:
64,192,277206,128,0,277376:0:0:0:0:
192,192,277291,128,0,277462:0:0:0:0:
320,192,277376,128,0,277547:0:0:0:0:
64,192,277462,128,0,277547:0:0:0:0:
448,192,277547,128,0,277632:0:0:0:0:
320,192,277632,1,0,0:0:0:0:
64,192,277632,1,0,0:0:0:0:
192,192,277632,128,0,277803:0:0:0:0:
448,192,277717,128,0,277888:0:0:0:0:
64,192,277803,128,0,277973:0:0:0:0:
320,192,277888,128,0,278058:0:0:0:0:
448,192,277973,1,0,0:0:0:0:
192,192,277973,128,0,278143:0:0:0:0:
64,192,278058,128,0,278229:0:0:0:0:
320,192,278143,128,0,278229:0:0:0:0:
192,192,278229,128,0,278314:0:0:0:0:
320,192,278314,1,0,0:0:0:0:
448,192,278314,128,0,278484:0:0:0:0:
64,192,278314,128,0,278484:0:0:0:0:
192,192,278399,128,0,278570:0:0:0:0:
320,192,278484,128,0,278655:0:0:0:0:
448,192,278570,128,0,278655:0:0:0:0:
192,192,278655,1,0,0:0:0:0:
64,192,278655,128,0,278825:0:0:0:0:
320,192,278740,128,0,278825:0:0:0:0:
448,192,278825,1,0,0:0:0:0:
192,192,278825,128,0,278910:0:0:0:0:
64,192,278910,128,0,279251:0:0:0:0:
448,192,278996,128,0,279166:0:0:0:0:
320,192,278996,1,0,0:0:0:0:
192,192,279053,128,0,279251:0:0:0:0:
320,192,279166,128,0,279337:0:0:0:0:
448,192,279251,128,0,279422:0:0:0:0:
192,192,279337,128,0,279507:0:0:0:0:
64,192,279337,1,0,0:0:0:0:
320,192,279422,128,0,279678:0:0:0:0:
64,192,279507,128,0,279678:0:0:0:0:
448,192,279592,128,0,279763:0:0:0:0:
192,192,279678,128,0,279848:0:0:0:0:
64,192,279848,128,0,279933:0:0:0:0:
448,192,279848,128,0,279933:0:0:0:0:
320,192,279848,128,0,280018:0:0:0:0:
192,192,279933,128,0,280018:0:0:0:0:
448,192,280018,128,0,280189:0:0:0:0:
64,192,280018,128,0,280104:0:0:0:0:
320,192,280104,128,0,280189:0:0:0:0:
64,192,280189,128,0,280274:0:0:0:0:
192,192,280189,128,0,280274:0:0:0:0:
320,192,280274,128,0,280359:0:0:0:0:
192,192,280359,128,0,280445:0:0:0:0:
64,192,280359,128,0,280530:0:0:0:0:
448,192,280359,128,0,280445:0:0:0:0:
320,192,280445,128,0,280615:0:0:0:0:
448,192,280530,128,0,280615:0:0:0:0:
64,192,280615,128,0,280700:0:0:0:0:
192,192,280615,128,0,280700:0:0:0:0:
320,192,280700,128,0,280785:0:0:0:0:
448,192,280700,128,0,280785:0:0:0:0:
64,192,280785,128,0,280871:0:0:0:0:
192,192,280785,128,0,280871:0:0:0:0:
448,192,280871,128,0,280935:0:0:0:0:
320,192,280913,128,0,280977:0:0:0:0:
64,192,280956,128,0,281020:0:0:0:0:
192,192,280999,128,0,281062:0:0:0:0:
448,192,281041,128,0,281723:0:0:0:0:
320,192,281041,128,0,281297:0:0:0:0:
192,192,281382,128,0,281467:0:0:0:0:
320,192,281382,1,0,0:0:0:0:
64,192,281382,1,0,0:0:0:0:
192,192,281553,128,0,281638:0:0:0:0:
320,192,281723,1,0,0:0:0:0:
64,192,281723,128,0,281808:0:0:0:0:
192,192,281893,1,0,0:0:0:0:
448,192,281893,128,0,281979:0:0:0:0:
320,192,282064,128,0,282234:0:0:0:0:
192,192,282064,1,0,0:0:0:0:
64,192,282064,128,0,282149:0:0:0:0:
64,192,282234,128,0,282575:0:0:0:0:
448,192,282234,128,0,282575:0:0:0:0:
192,192,282405,1,0,0:0:0:0:
320,192,282575,128,0,282916:0:0:0:0:
448,192,282746,128,0,283001:0:0:0:0:
192,192,282746,1,0,0:0:0:0:
64,192,282746,128,0,282831:0:0:0:0:
64,192,282916,128,0,283172:0:0:0:0:
192,192,283001,128,0,283342:0:0:0:0:
448,192,283087,128,0,283172:0:0:0:0:
320,192,283087,1,0,0:0:0:0:
448,192,283257,128,0,283342:0:0:0:0:
64,192,283257,128,0,283428:0:0:0:0:
320,192,283428,1,0,0:0:0:0:
448,192,283428,128,0,283768:0:0:0:0:
192,192,283428,128,0,283513:0:0:0:0:
320,192,283598,128,0,283768:0:0:0:0:
64,192,283598,128,0,284024:0:0:0:0:
192,192,283768,128,0,284024:0:0:0:0:
448,192,283939,128,0,284280:0:0:0:0:
192,192,284109,1,0,0:0:0:0:
320,192,284109,128,0,284450:0:0:0:0:
64,192,284109,128,0,284195:0:0:0:0:
64,192,284280,128,0,284535:0:0:0:0:
448,192,284450,128,0,284535:0:0:0:0:
192,192,284450,128,0,284706:0:0:0:0:
64,192,284621,128,0,284706:0:0:0:0:
448,192,284621,128,0,284791:0:0:0:0:
192,192,284791,1,0,0:0:0:0:
320,192,284791,128,0,284876:0:0:0:0:
64,192,284791,128,0,285132:0:0:0:0:
320,192,284962,128,0,285388:0:0:0:0:
448,192,284962,128,0,285132:0:0:0:0:
192,192,285132,128,0,285388:0:0:0:0:
448,192,285303,128,0,285473:0:0:0:0:
192,192,285473,128,0,285729:0:0:0:0:
64,192,285473,128,0,285643:0:0:0:0:
320,192,285473,1,0,0:0:0:0:
320,192,285643,128,0,285899:0:0:0:0:
448,192,285729,128,0,286070:0:0:0:0:
64,192,285814,128,0,285899:0:0:0:0:
192,192,285814,1,0,0:0:0:0:
320,192,285984,128,0,286155:0:0:0:0:
64,192,285984,128,0,286070:0:0:0:0:
448,192,286155,128,0,286325:0:0:0:0:
64,192,286155,1,0,0:0:0:0:
192,192,286155,128,0,286240:0:0:0:0:
192,192,286325,128,0,286496:0:0:0:0:
448,192,286496,128,0,286751:0:0:0:0:
64,192,286496,128,0,286581:0:0:0:0:
320,192,286581,128,0,286837:0:0:0:0:
64,192,286837,128,0,287007:0:0:0:0:
448,192,286837,128,0,286922:0:0:0:0:
192,192,286837,1,0,0:0:0:0:
320,192,287007,128,0,287348:0:0:0:0:
64,192,287178,1,0,0:0:0:0:
192,192,287178,128,0,287263:0:0:0:0:
192,192,287348,128,0,287433:0:0:0:0:
448,192,287348,128,0,287689:0:0:0:0:
192,192,287518,1,0,0:0:0:0:
320,192,287518,128,0,287689:0:0:0:0:
64,192,287518,128,0,287604:0:0:0:0:
64,192,287689,128,0,288030:0:0:0:0:
192,192,287689,128,0,288030:0:0:0:0:
448,192,287859,1,0,0:0:0:0:
320,192,288030,128,0,288456:0:0:0:0:
448,192,288115,128,0,288456:0:0:0:0:
192,192,288200,1,0,0:0:0:0:
64,192,288200,128,0,288285:0:0:0:0:
64,192,288371,128,0,288712:0:0:0:0:
192,192,288456,1,0,0:0:0:0:
448,192,288541,1,0,0:0:0:0:
320,192,288541,128,0,288626:0:0:0:0:
320,192,288712,128,0,288797:0:0:0:0:
448,192,288712,128,0,289053:0:0:0:0:
64,192,288882,128,0,289138:0:0:0:0:
320,192,288882,1,0,0:0:0:0:
192,192,288882,128,0,288967:0:0:0:0:
192,192,289053,128,0,289138:0:0:0:0:
320,192,289138,128,0,289223:0:0:0:0:
192,192,289223,128,0,289351:0:0:0:0:
64,192,289223,128,0,289308:0:0:0:0:
448,192,289223,128,0,289393:0:0:0:0:
320,192,289308,128,0,289436:0:0:0:0:
64,192,289393,128,0,289457:0:0:0:0:
192,192,289436,128,0,289500:0:0:0:0:
448,192,289479,128,0,289543:0:0:0:0:
320,192,289521,128,0,289734:0:0:0:0:
192,192,289564,128,0,289649:0:0:0:0:
64,192,289564,128,0,289734:0:0:0:0:
448,192,289649,128,0,289820:0:0:0:0:
192,192,289734,128,0,289820:0:0:0:0:
320,192,289820,128,0,289905:0:0:0:0:
64,192,289905,128,0,289990:0:0:0:0:
448,192,289905,128,0,290075:0:0:0:0:
320,192,289990,128,0,290160:0:0:0:0:
64,192,290075,128,0,290160:0:0:0:0:
192,192,290160,128,0,290246:0:0:0:0:
64,192,290246,128,0,290331:0:0:0:0:
448,192,290246,128,0,290331:0:0:0:0:
320,192,290246,128,0,290288:0:0:0:0:
192,192,290310,128,0,290416:0:0:0:0:
320,192,290374,128,0,290501:0:0:0:0:
448,192,290416,128,0,290587:0:0:0:0:
64,192,290416,128,0,290501:0:0:0:0:
192,192,290501,128,0,290643:0:0:0:0:
320,192,290587,128,0,290729:0:0:0:0:
64,192,290643,128,0,290729:0:0:0:0:
448,192,290729,128,0,290842:0:0:0:0:
192,192,290729,128,0,290928:0:0:0:0:
64,192,290928,128,0,291013:0:0:0:0:
448,192,290928,128,0,291098:0:0:0:0:
320,192,290928,128,0,291013:0:0:0:0:
192,192,291013,128,0,291098:0:0:0:0:
64,192,291098,128,0,291183:0:0:0:0:
320,192,291098,128,0,291268:0:0:0:0:
448,192,291183,128,0,291268:0:0:0:0:
64,192,291268,128,0,291439:0:0:0:0:
192,192,291268,128,0,291354:0:0:0:0:
448,192,291354,128,0,291524:0:0:0:0:
192,192,291439,128,0,291524:0:0:0:0:
320,192,291524,128,0,291609:0:0:0:0:
64,192,291609,128,0,291695:0:0:0:0:
448,192,291609,128,0,291695:0:0:0:0:
192,192,291609,128,0,291780:0:0:0:0:
320,192,291695,128,0,291780:0:0:0:0:
448,192,291780,128,0,291865:0:0:0:0:
64,192,291780,128,0,291865:0:0:0:0:
320,192,291865,128,0,291950:0:0:0:0:
448,192,291950,128,0,292121:0:0:0:0:
192,192,291950,128,0,292035:0:0:0:0:
64,192,291950,128,0,292121:0:0:0:0:
320,192,292035,128,0,292178:0:0:0:0:
192,192,292121,128,0,292234:0:0:0:0:
64,192,292206,128,0,292291:0:0:0:0:
320,192,292291,128,0,292376:0:0:0:0:
448,192,292291,128,0,292376:0:0:0:0:
192,192,292376,128,0,292462:0:0:0:0:
64,192,292462,128,0,292632:0:0:0:0:
320,192,292462,128,0,292547:0:0:0:0:
448,192,292462,128,0,292632:0:0:0:0:
192,192,292547,128,0,292689:0:0:0:0:
320,192,292632,128,0,292746:0:0:0:0:
448,192,292717,128,0,292803:0:0:0:0:
64,192,292803,128,0,292888:0:0:0:0:
192,192,292803,128,0,292888:0:0:0:0:
320,192,292888,128,0,292973:0:0:0:0:
192,192,292973,128,0,293058:0:0:0:0:
64,192,292973,128,0,293143:0:0:0:0:
448,192,292973,128,0,293143:0:0:0:0:
320,192,293058,128,0,293200:0:0:0:0:
192,192,293143,128,0,293257:0:0:0:0:
64,192,293229,128,0,293314:0:0:0:0:
320,192,293314,128,0,293399:0:0:0:0:
448,192,293314,128,0,293399:0:0:0:0:
192,192,293399,128,0,293484:0:0:0:0:
64,192,293484,128,0,293655:0:0:0:0:
320,192,293484,128,0,293570:0:0:0:0:
448,192,293484,128,0,293655:0:0:0:0:
192,192,293570,128,0,293712:0:0:0:0:
320,192,293655,128,0,293768:0:0:0:0:
448,192,293740,128,0,293825:0:0:0:0:
64,192,293825,128,0,293910:0:0:0:0:
192,192,293825,128,0,293910:0:0:0:0:
320,192,293910,128,0,293996:0:0:0:0:
64,192,293996,128,0,294251:0:0:0:0:
192,192,293996,128,0,294081:0:0:0:0:
448,192,293996,128,0,294251:0:0:0:0:
320,192,294081,128,0,294166:0:0:0:0:
192,192,294166,128,0,294337:0:0:0:0:
320,192,294251,128,0,294422:0:0:0:0:
64,192,294337,128,0,294592:0:0:0:0:
448,192,294337,128,0,294592:0:0:0:0:
192,192,294422,128,0,294507:0:0:0:0:
320,192,294507,128,0,294592:0:0:0:0:
192,192,294592,128,0,294678:0:0:0:0:
320,192,294678,128,0,294763:0:0:0:0:
448,192,294678,128,0,294848:0:0:0:0:
64,192,294678,128,0,294848:0:0:0:0:
192,192,294763,128,0,294905:0:0:0:0:
320,192,294848,128,0,294962:0:0:0:0:
448,192,294933,128,0,295018:0:0:0:0:
192,192,295018,128,0,295104:0:0:0:0:
64,192,295018,128,0,295104:0:0:0:0:
320,192,295104,128,0,295189:0:0:0:0:
448,192,295189,128,0,295359:0:0:0:0:
192,192,295189,128,0,295274:0:0:0:0:
64,192,295189,128,0,295359:0:0:0:0:
320,192,295274,128,0,295416:0:0:0:0:
192,192,295359,128,0,295473:0:0:0:0:
64,192,295445,128,0,295530:0:0:0:0:
448,192,295530,128,0,295615:0:0:0:0:
320,192,295530,128,0,295615:0:0:0:0:
192,192,295615,128,0,295700:0:0:0:0:
320,192,295700,128,0,295785:0:0:0:0:
448,192,295700,128,0,295842:0:0:0:0:
64,192,295700,128,0,295871:0:0:0:0:
192,192,295785,128,0,295928:0:0:0:0:
320,192,295871,128,0,295984:0:0:0:0:
448,192,295928,128,0,296041:0:0:0:0:
64,192,296013,128,0,296126:0:0:0:0:
192,192,296084,128,0,296183:0:0:0:0:
320,192,296155,128,0,296240:0:0:0:0:
64,192,296212,128,0,296297:0:0:0:0:
448,192,296212,128,0,296354:0:0:0:0:
192,192,296268,128,0,296467:0:0:0:0:
320,192,296325,128,0,296410:0:0:0:0:
64,192,296382,128,0,296467:0:0:0:0:
448,192,296439,128,0,296524:0:0:0:0:
320,192,296496,128,0,296581:0:0:0:0:
192,192,296553,128,0,296638:0:0:0:0:
64,192,296553,128,0,296638:0:0:0:0:
448,192,296609,128,0,296666:0:0:0:0:
320,192,296666,128,0,296723:0:0:0:0:
448,192,296723,128,0,296893:0:0:0:0:
64,192,296723,128,0,296979:0:0:0:0:
192,192,296723,128,0,296808:0:0:0:0:
320,192,296808,128,0,296979:0:0:0:0:
192,192,296893,128,0,296979:0:0:0:0:
448,192,296979,128,0,297064:0:0:0:0:
192,192,297064,128,0,297234:0:0:0:0:
320,192,297064,128,0,297149:0:0:0:0:
64,192,297064,128,0,297149:0:0:0:0:
448,192,297149,128,0,297320:0:0:0:0:
64,192,297234,128,0,297320:0:0:0:0:
320,192,297234,128,0,297320:0:0:0:0:
192,192,297320,128,0,297405:0:0:0:0:
64,192,297405,128,0,297490:0:0:0:0:
448,192,297405,128,0,297575:0:0:0:0:
320,192,297405,128,0,297660:0:0:0:0:
192,192,297575,128,0,297660:0:0:0:0:
64,192,297660,128,0,297746:0:0:0:0:
320,192,297746,128,0,297831:0:0:0:0:
192,192,297746,128,0,297916:0:0:0:0:
448,192,297746,128,0,298001:0:0:0:0:
64,192,297831,128,0,298087:0:0:0:0:
320,192,297916,128,0,298001:0:0:0:0:
192,192,298001,128,0,298087:0:0:0:0:
448,192,298087,128,0,298342:0:0:0:0:
320,192,298087,128,0,298257:0:0:0:0:
192,192,298257,128,0,298342:0:0:0:0:
320,192,298342,128,0,298428:0:0:0:0:
192,192,298428,128,0,298598:0:0:0:0:
448,192,298428,128,0,298513:0:0:0:0:
64,192,298428,128,0,298683:0:0:0:0:
448,192,298598,128,0,298768:0:0:0:0:
320,192,298598,128,0,298683:0:0:0:0:
192,192,298683,128,0,298768:0:0:0:0:
64,192,298768,128,0,298939:0:0:0:0:
320,192,298768,128,0,299024:0:0:0:0:
192,192,298854,128,0,298939:0:0:0:0:
448,192,298939,128,0,299024:0:0:0:0:
64,192,299024,128,0,299109:0:0:0:0:
192,192,299109,128,0,299195:0:0:0:0:
320,192,299109,128,0,299280:0:0:0:0:
448,192,299109,128,0,299365:0:0:0:0:
64,192,299280,128,0,299450:0:0:0:0:
192,192,299280,128,0,299365:0:0:0:0:
320,192,299365,128,0,299450:0:0:0:0:
192,192,299450,128,0,299706:0:0:0:0:
448,192,299450,128,0,299621:0:0:0:0:
64,192,299621,128,0,299706:0:0:0:0:
320,192,299706,128,0,299791:0:0:0:0:
192,192,299791,128,0,299876:0:0:0:0:
64,192,299791,128,0,299962:0:0:0:0:
448,192,299791,128,0,300047:0:0:0:0:
320,192,299876,128,0,299962:0:0:0:0:
192,192,299962,128,0,300047:0:0:0:0:
320,192,300047,128,0,300132:0:0:0:0:
64,192,300132,128,0,300729:0:0:0:0:
192,192,300132,128,0,300473:0:0:0:0:
448,192,300132,128,0,300729:0:0:0:0:
320,192,300473,128,0,300814:0:0:0:0:
192,192,300814,128,0,301496:0:0:0:0:
64,192,300814,128,0,301070:0:0:0:0:
448,192,300814,128,0,301070:0:0:0:0:
64,192,301155,128,0,301240:0:0:0:0:
448,192,301155,128,0,301240:0:0:0:0:
320,192,301240,128,0,301325:0:0:0:0:
64,192,301325,128,0,301410:0:0:0:0:
448,192,301325,128,0,301410:0:0:0:0:
320,192,301496,128,0,301581:0:0:0:0:
64,192,301496,128,0,301922:0:0:0:0:
448,192,301496,128,0,302092:0:0:0:0:
192,192,301581,128,0,301837:0:0:0:0:
320,192,301837,128,0,302007:0:0:0:0:
192,192,302007,128,0,302092:0:0:0:0:
64,192,302007,128,0,302092:0:0:0:0:
320,192,302092,128,0,302178:0:0:0:0:
448,192,302178,128,0,302348:0:0:0:0:
64,192,302178,128,0,302263:0:0:0:0:
192,192,302178,128,0,302774:0:0:0:0:
320,192,302348,128,0,302774:0:0:0:0:
64,192,302518,128,0,302774:0:0:0:0:
448,192,302689,128,0,302774:0:0:0:0:
448,192,302859,128,0,304905:0:0:0:0:
320,192,302859,128,0,303115:0:0:0:0:
64,192,302859,128,0,303285:0:0:0:0:
192,192,302859,128,0,303456:0:0:0:0:
320,192,303200,128,0,303285:0:0:0:0:
64,192,303371,128,0,303456:0:0:0:0:
320,192,303541,1,0,0:0:0:0:
192,192,303541,1,0,0:0:0:0:
64,192,303541,1,0,0:0:0:0:
320,192,303712,1,0,0:0:0:0:
64,192,303882,1,0,0:0:0:0:
192,192,304053,1,0,0:0:0:0:
64,192,304053,1,0,0:0:0:0:
320,192,304393,1,0,0:0:0:0:
192,192,304393,1,0,0:0:0:0:
320,192,304564,1,0,0:0:0:0:
64,192,304734,1,0,0:0:0:0:
64,192,304905,1,0,0:0:0:0:
320,192,304905,1,0,0:0:0:0:
192,192,304905,128,0,305416:0:0:0:0:
320,192,305075,1,0,0:0:0:0:
448,192,305246,1,0,0:0:0:0:
64,192,305416,128,0,305501:0:0:0:0:
448,192,305416,128,0,305501:0:0:0:0:
320,192,305416,128,0,307547:0:0:0:0:
64,192,305757,1,0,0:0:0:0:
448,192,305928,1,0,0:0:0:0:
192,192,306098,1,0,0:0:0:0:
192,192,306268,1,0,0:0:0:0:
64,192,306268,1,0,0:0:0:0:
448,192,306268,1,0,0:0:0:0:
448,192,306439,1,0,0:0:0:0:
64,192,306609,1,0,0:0:0:0:
64,192,306780,128,0,307632:0:0:0:0:
448,192,306780,1,0,0:0:0:0:
448,192,307121,1,0,0:0:0:0:
192,192,307121,1,0,0:0:0:0:
192,192,307291,1,0,0:0:0:0:
448,192,307462,1,0,0:0:0:0:
448,192,307632,128,0,308229:0:0:0:0:
320,192,307632,1,0,0:0:0:0:
192,192,307632,1,0,0:0:0:0:
192,192,307803,1,0,0:0:0:0:
64,192,307973,1,0,0:0:0:0:
320,192,307973,1,0,0:0:0:0:
192,192,308143,128,0,308314:0:0:0:0:
448,192,308314,128,0,308399:0:0:0:0:
320,192,308314,128,0,308399:0:0:0:0:
64,192,308314,128,0,309848:0:0:0:0:
320,192,308655,1,0,0:0:0:0:
192,192,308825,1,0,0:0:0:0:
320,192,308996,1,0,0:0:0:0:
448,192,308996,1,0,0:0:0:0:
192,192,308996,1,0,0:0:0:0:
448,192,309166,1,0,0:0:0:0:
192,192,309337,1,0,0:0:0:0:
320,192,309507,1,0,0:0:0:0:
448,192,309507,1,0,0:0:0:0:
192,192,309848,1,0,0:0:0:0:
448,192,309848,128,0,310274:0:0:0:0:
320,192,310018,128,0,310274:0:0:0:0:
192,192,310189,128,0,310359:0:0:0:0:
320,192,310359,128,0,310700:0:0:0:0:
448,192,310359,1,0,0:0:0:0:
64,192,310359,128,0,310530:0:0:0:0:
192,192,310530,128,0,310785:0:0:0:0:
448,192,310700,128,0,310785:0:0:0:0:
320,192,310785,128,0,310871:0:0:0:0:
192,192,310871,128,0,310956:0:0:0:0:
64,192,310871,128,0,310956:0:0:0:0:
448,192,310871,128,0,311638:0:0:0:0:
192,192,311041,128,0,311382:0:0:0:0:
64,192,311212,128,0,311638:0:0:0:0:
320,192,311382,128,0,311638:0:0:0:0:
192,192,311553,128,0,311723:0:0:0:0:
64,192,311723,128,0,311893:0:0:0:0:
320,192,311723,128,0,312064:0:0:0:0:
448,192,311723,1,0,0:0:0:0:
192,192,311893,128,0,312149:0:0:0:0:
448,192,312064,128,0,312149:0:0:0:0:
320,192,312149,128,0,312234:0:0:0:0:
448,192,312234,128,0,312362:0:0:0:0:
64,192,312234,128,0,312533:0:0:0:0:
192,192,312234,128,0,312362:0:0:0:0:
320,192,312362,128,0,312447:0:0:0:0:
192,192,312447,128,0,312746:0:0:0:0:
320,192,312533,128,0,312682:0:0:0:0:
448,192,312618,128,0,312774:0:0:0:0:
64,192,312703,128,0,312831:0:0:0:0:
320,192,312774,128,0,313001:0:0:0:0:
192,192,312831,128,0,312945:0:0:0:0:
448,192,312916,128,0,313001:0:0:0:0:
64,192,312973,128,0,313087:0:0:0:0:
192,192,313030,128,0,313087:0:0:0:0:
320,192,313087,128,0,313200:0:0:0:0:
448,192,313087,128,0,313342:0:0:0:0:
64,192,313172,128,0,313285:0:0:0:0:
192,192,313172,128,0,313342:0:0:0:0:
320,192,313285,128,0,313598:0:0:0:0:
64,192,313371,128,0,313513:0:0:0:0:
448,192,313428,128,0,313598:0:0:0:0:
192,192,313428,128,0,313513:0:0:0:0:
192,192,313598,128,0,313683:0:0:0:0:
64,192,313598,128,0,313683:0:0:0:0:
320,192,313683,128,0,313768:0:0:0:0:
448,192,313683,128,0,313768:0:0:0:0:
64,192,313768,128,0,314024:0:0:0:0:
192,192,313768,128,0,314280:0:0:0:0:
320,192,314109,1,0,0:0:0:0:
64,192,314109,128,0,314365:0:0:0:0:
448,192,314109,128,0,314195:0:0:0:0:
448,192,314280,128,0,314450:0:0:0:0:
320,192,314365,128,0,314450:0:0:0:0:
64,192,314450,128,0,314706:0:0:0:0:
192,192,314450,128,0,314535:0:0:0:0:
320,192,314535,128,0,314621:0:0:0:0:
192,192,314621,128,0,314820:0:0:0:0:
448,192,314621,128,0,314706:0:0:0:0:
320,192,314706,128,0,314763:0:0:0:0:
64,192,314791,128,0,314876:0:0:0:0:
448,192,314791,128,0,314876:0:0:0:0:
320,192,314848,128,0,314933:0:0:0:0:
192,192,314905,128,0,314990:0:0:0:0:
448,192,314962,128,0,315303:0:0:0:0:
64,192,314962,128,0,315303:0:0:0:0:
192,192,315132,1,0,0:0:0:0:
192,192,315303,128,0,315643:0:0:0:0:
320,192,315303,1,0,0:0:0:0:
448,192,315473,128,0,315643:0:0:0:0:
320,192,315473,1,0,0:0:0:0:
64,192,315473,128,0,315558:0:0:0:0:
64,192,315643,128,0,316070:0:0:0:0:
448,192,315729,1,0,0:0:0:0:
320,192,315814,1,0,0:0:0:0:
192,192,315814,128,0,315899:0:0:0:0:
448,192,315984,128,0,316240:0:0:0:0:
192,192,315984,128,0,316070:0:0:0:0:
320,192,316155,1,0,0:0:0:0:
192,192,316155,1,0,0:0:0:0:
64,192,316155,1,0,0:0:0:0:
448,192,316325,128,0,316410:0:0:0:0:
192,192,316325,128,0,316751:0:0:0:0:
64,192,316325,128,0,316581:0:0:0:0:
448,192,316666,1,0,0:0:0:0:
64,192,316666,128,0,317178:0:0:0:0:
448,192,316837,1,0,0:0:0:0:
192,192,316837,1,0,0:0:0:0:
320,192,316837,128,0,316922:0:0:0:0:
320,192,317007,128,0,317092:0:0:0:0:
448,192,317178,128,0,317433:0:0:0:0:
192,192,317178,128,0,317263:0:0:0:0:
64,192,317348,128,0,317604:0:0:0:0:
192,192,317348,128,0,317433:0:0:0:0:
192,192,317518,128,0,318115:0:0:0:0:
320,192,317518,1,0,0:0:0:0:
448,192,317518,1,0,0:0:0:0:
448,192,317689,128,0,318115:0:0:0:0:
64,192,317689,1,0,0:0:0:0:
320,192,317689,1,0,0:0:0:0:
64,192,318030,128,0,318115:0:0:0:0:
320,192,318115,128,0,318200:0:0:0:0:
192,192,318200,1,0,0:0:0:0:
64,192,318200,128,0,318285:0:0:0:0:
448,192,318200,128,0,318285:0:0:0:0:
320,192,318285,128,0,318371:0:0:0:0:
192,192,318371,128,0,318456:0:0:0:0:
448,192,318371,128,0,318626:0:0:0:0:
64,192,318371,1,0,0:0:0:0:
320,192,318456,128,0,318541:0:0:0:0:
64,192,318541,128,0,318712:0:0:0:0:
192,192,318626,128,0,318712:0:0:0:0:
448,192,318712,128,0,318882:0:0:0:0:
320,192,318712,128,0,318797:0:0:0:0:
64,192,318797,128,0,318882:0:0:0:0:
320,192,318882,128,0,319053:0:0:0:0:
192,192,318882,128,0,318967:0:0:0:0:
64,192,318967,128,0,319138:0:0:0:0:
448,192,319053,128,0,319138:0:0:0:0:
192,192,319138,128,0,319223:0:0:0:0:
64,192,319223,128,0,319399:0:0:0:0:
448,192,319223,128,0,319487:0:0:0:0:
320,192,319223,128,0,319311:0:0:0:0:
192,192,319399,128,0,319575:0:0:0:0:
64,192,319487,128,0,319752:0:0:0:0:
320,192,319575,128,0,319752:0:0:0:0:
448,192,319575,128,0,319840:0:0:0:0:
192,192,319752,128,0,319840:0:0:0:0:
320,192,319840,128,0,319928:0:0:0:0:
448,192,319928,128,0,320193:0:0:0:0:
64,192,319928,128,0,320105:0:0:0:0:
192,192,319928,128,0,320017:0:0:0:0:
320,192,320105,128,0,320281:0:0:0:0:
192,192,320193,128,0,320458:0:0:0:0:
448,192,320281,128,0,320458:0:0:0:0:
64,192,320281,128,0,320370:0:0:0:0:
320,192,320458,128,0,320634:0:0:0:0:
64,192,320458,128,0,320546:0:0:0:0:
192,192,320546,128,0,320634:0:0:0:0:
448,192,320634,128,0,320911:0:0:0:0:
64,192,320634,128,0,320819:0:0:0:0:
192,192,320819,128,0,320911:0:0:0:0:
320,192,320911,128,0,321189:0:0:0:0:
192,192,321004,128,0,321189:0:0:0:0:
64,192,321004,128,0,321282:0:0:0:0:
448,192,321189,128,0,321282:0:0:0:0:
320,192,321282,128,0,321374:0:0:0:0:
448,192,321374,128,0,321621:0:0:0:0:
64,192,321374,128,0,321467:0:0:0:0:
192,192,321374,128,0,321529:0:0:0:0:
320,192,321529,128,0,321745:0:0:0:0:
192,192,321621,128,0,321745:0:0:0:0:
448,192,321745,128,0,321930:0:0:0:0:
64,192,321745,128,0,321837:0:0:0:0:
192,192,321930,128,0,322115:0:0:0:0:
320,192,321930,128,0,322022:0:0:0:0:
64,192,321930,128,0,322815:0:0:0:0:
320,192,322115,128,0,322415:0:0:0:0:
448,192,322115,128,0,322215:0:0:0:0:
192,192,322415,128,0,322615:0:0:0:0:
448,192,322515,128,0,322715:0:0:0:0:
320,192,322515,128,0,322615:0:0:0:0:
192,192,322715,128,0,322815:0:0:0:0:
320,192,322815,128,0,322915:0:0:0:0:
192,192,322915,128,0,323019:0:0:0:0:
448,192,322915,128,0,323053:0:0:0:0:
64,192,322915,128,0,323019:0:0:0:0:
320,192,323019,128,0,323192:0:0:0:0:
64,192,323123,128,0,323192:0:0:0:0:
192,192,323123,128,0,323331:0:0:0:0:
448,192,323158,128,0,323401:0:0:0:0:
320,192,323296,128,0,323401:0:0:0:0:
64,192,323296,128,0,323435:0:0:0:0:
192,192,323435,128,0,323540:0:0:0:0:
320,192,323505,128,0,323852:0:0:0:0:
448,192,323505,128,0,323852:0:0:0:0:
64,192,323540,128,0,323644:0:0:0:0:
192,192,323644,128,0,323956:0:0:0:0:
64,192,323957,128,0,324300:0:0:0:0:
320,192,323957,128,0,324397:0:0:0:0:
448,192,323957,128,0,324300:0:0:0:0:
448,192,324397,128,0,324883:0:0:0:0:
192,192,324397,128,0,324810:0:0:0:0:
64,192,324397,128,0,324810:0:0:0:0:
320,192,324883,128,0,325140:0:0:0:0:
192,192,324883,128,0,325225:0:0:0:0:
64,192,324883,128,0,325140:0:0:0:0:
320,192,325225,128,0,326029:0:0:0:0:
64,192,325225,128,0,326125:0:0:0:0:
448,192,325225,128,0,325521:0:0:0:0:
192,192,325619,128,0,326077:0:0:0:0:
448,192,325619,128,0,325980:0:0:0:0:
320,192,326198,128,0,330073:0:0:0:0:
64,192,326198,128,0,330198:0:0:0:0:
192,192,326198,128,0,330135:0:0:0:0:
448,192,326198,128,0,330010:0:0:0:0:
448,192,330073,128,0,330135:0:0:0:0:
320,192,330135,128,0,330198:0:0:0:0:
192,192,330198,128,0,330260:0:0:0:0:
64,192,330260,128,0,330323:0:0:0:0:
448,192,330323,128,0,330385:0:0:0:0:
192,192,330448,1,0,0:0:0:0:
320,192,330698,1,0,0:0:0:0:
448,192,330948,1,0,0:0:0:0:
192,192,331198,1,0,0:0:0:0:
64,192,331448,1,0,0:0:0:0:
320,192,331698,1,0,0:0:0:0:
192,192,331948,1,0,0:0:0:0:
320,192,332198,1,0,0:0:0:0:
448,192,332448,1,0,0:0:0:0:
192,192,332698,1,0,0:0:0:0:
64,192,332948,1,0,0:0:0:0:
448,192,333198,1,0,0:0:0:0:
320,192,333448,1,0,0:0:0:0:
192,192,333698,1,0,0:0:0:0:
320,192,333948,1,0,0:0:0:0:
64,192,334114,1,0,0:0:0:0:
192,192,334156,1,0,0:0:0:0:
448,192,334198,1,0,0:0:0:0:
64,192,334448,1,0,0:0:0:0:
320,192,334698,1,0,0:0:0:0:
448,192,334948,1,0,0:0:0:0:
320,192,335198,1,0,0:0:0:0:
192,192,335448,1,0,0:0:0:0:
448,192,335698,1,0,0:0:0:0:
64,192,335948,1,0,0:0:0:0:
192,192,336198,1,0,0:0:0:0:
320,192,336448,1,0,0:0:0:0:
192,192,336698,1,0,0:0:0:0:
64,192,336948,1,0,0:0:0:0:
448,192,337198,1,0,0:0:0:0:
320,192,337448,1,0,0:0:0:0:
192,192,337698,1,0,0:0:0:0:
320,192,337948,1,0,0:0:0:0:
448,192,338198,1,0,0:0:0:0:
64,192,338198,1,0,0:0:0:0:
192,192,338448,1,0,0:0:0:0:
64,192,338698,1,0,0:0:0:0:
448,192,338948,1,0,0:0:0:0:
320,192,339198,1,0,0:0:0:0:
192,192,339448,1,0,0:0:0:0:
448,192,339698,1,0,0:0:0:0:
64,192,339948,1,0,0:0:0:0:
192,192,340198,1,0,0:0:0:0:
448,192,340448,1,0,0:0:0:0:
320,192,340698,1,0,0:0:0:0:
64,192,340948,1,0,0:0:0:0:
192,192,341198,1,0,0:0:0:0:
448,192,341198,1,0,0:0:0:0:
320,192,341448,1,0,0:0:0:0:
64,192,341698,1,0,0:0:0:0:
192,192,341948,1,0,0:0:0:0:
448,192,342198,128,0,342698:0:0:0:0:
320,192,342198,1,0,0:0:0:0:
64,192,342448,128,0,342948:0:0:0:0:
320,192,342698,128,0,343198:0:0:0:0:
448,192,342948,128,0,343448:0:0:0:0:
192,192,343198,1,0,0:0:0:0:
64,192,343448,1,0,0:0:0:0:
320,192,343698,1,0,0:0:0:0:
192,192,343948,1,0,0:0:0:0:
320,192,344198,128,0,344698:0:0:0:0:
448,192,344448,128,0,344948:0:0:0:0:
192,192,344698,128,0,345198:0:0:0:0:
320,192,344948,128,0,345448:0:0:0:0:
64,192,345198,128,0,345698:0:0:0:0:
448,192,345448,128,0,345948:0:0:0:0:
320,192,345698,128,0,346198:0:0:0:0:
192,192,345948,128,0,346198:0:0:0:0:
64,192,346198,128,0,346698:0:0:0:0:
448,192,346198,1,0,0:0:0:0:
192,192,346448,128,0,346948:0:0:0:0:
320,192,346698,128,0,347198:0:0:0:0:
448,192,346948,128,0,347448:0:0:0:0:
64,192,347198,1,0,0:0:0:0:
192,192,347448,1,0,0:0:0:0:
448,192,347698,1,0,0:0:0:0:
320,192,347948,1,0,0:0:0:0:
64,192,348198,128,0,348698:0:0:0:0:
192,192,348448,128,0,348948:0:0:0:0:
320,192,348698,128,0,349198:0:0:0:0:
448,192,348948,128,0,349448:0:0:0:0:
192,192,349198,128,0,349698:0:0:0:0:
64,192,349448,128,0,349948:0:0:0:0:
320,192,349698,128,0,350198:0:0:0:0:
192,192,349948,128,0,350198:0:0:0:0:
64,192,350198,1,0,0:0:0:0:
448,192,350198,128,0,350698:0:0:0:0:
192,192,350448,128,0,350948:0:0:0:0:
320,192,350698,128,0,351198:0:0:0:0:
64,192,350948,128,0,351448:0:0:0:0:
448,192,351198,1,0,0:0:0:0:
192,192,351448,1,0,0:0:0:0:
320,192,351698,1,0,0:0:0:0:
64,192,351948,1,0,0:0:0:0:
192,192,352198,128,0,352698:0:0:0:0:
320,192,352448,128,0,352948:0:0:0:0:
64,192,352698,128,0,353198:0:0:0:0:
448,192,352948,128,0,353448:0:0:0:0:
192,192,353198,128,0,353698:0:0:0:0:
320,192,353448,128,0,353948:0:0:0:0:
448,192,353698,128,0,354198:0:0:0:0:
64,192,353948,128,0,354198:0:0:0:0:
192,192,354198,128,0,354698:0:0:0:0:
320,192,354198,1,0,0:0:0:0:
448,192,354448,128,0,354948:0:0:0:0:
64,192,354698,128,0,355198:0:0:0:0:
320,192,354948,128,0,355448:0:0:0:0:
192,192,355198,1,0,0:0:0:0:
448,192,355448,1,0,0:0:0:0:
64,192,355698,1,0,0:0:0:0:
192,192,355948,1,0,0:0:0:0:
320,192,356198,128,0,356715:0:0:0:0:
448,192,356456,128,0,356973:0:0:0:0:
64,192,356715,128,0,357232:0:0:0:0:
192,192,356973,128,0,357497:0:0:0:0:
320,192,357232,128,0,357762:0:0:0:0:
64,192,357497,128,0,358028:0:0:0:0:
448,192,357762,128,0,358322:0:0:0:0:
320,192,358028,128,0,358322:0:0:0:0:
64,192,358322,128,0,358871:0:0:0:0:
192,192,358322,1,0,0:0:0:0:
320,192,358596,1,0,0:0:0:0:
448,192,358871,128,0,359420:0:0:0:0:
192,192,358871,1,0,0:0:0:0:
64,192,359146,1,0,0:0:0:0:
192,192,359420,128,0,359970:0:0:0:0:
320,192,359970,128,0,360519:0:0:0:0:
192,192,360519,1,0,0:0:0:0:
64,192,360519,128,0,361600:0:0:0:0:
320,192,360789,1,0,0:0:0:0:
448,192,361059,1,0,0:0:0:0:
192,192,361329,1,0,0:0:0:0:
448,192,361600,128,0,361875:0:0:0:0:
192,192,361875,128,0,362151:0:0:0:0:
64,192,362151,128,0,362427:0:0:0:0:
448,192,362427,128,0,362703:0:0:0:0:
192,192,362703,1,0,0:0:0:0:
320,192,362703,128,0,362974:0:0:0:0:
448,192,362974,128,0,363109:0:0:0:0:
64,192,362974,1,0,0:0:0:0:
448,192,363245,128,0,363787:0:0:0:0:
192,192,363245,1,0,0:0:0:0:
320,192,363516,1,0,0:0:0:0:
64,192,363787,128,0,364058:0:0:0:0:
192,192,364058,128,0,364329:0:0:0:0:
320,192,364329,128,0,364600:0:0:0:0:
448,192,364600,128,0,364871:0:0:0:0:
192,192,364871,1,0,0:0:0:0:
64,192,364871,128,0,365143:0:0:0:0:
448,192,365143,1,0,0:0:0:0:
320,192,365143,128,0,365416:0:0:0:0:
192,192,365416,1,0,0:0:0:0:
64,192,365416,128,0,365689:0:0:0:0:
320,192,365689,1,0,0:0:0:0:
448,192,365689,128,0,365961:0:0:0:0:
192,192,365961,128,0,366234:0:0:0:0:
64,192,366234,128,0,366507:0:0:0:0:
448,192,366507,128,0,366780:0:0:0:0:
192,192,366780,128,0,367052:0:0:0:0:
448,192,367052,1,0,0:0:0:0:
320,192,367052,128,0,367598:0:0:0:0:
64,192,367325,1,0,0:0:0:0:
192,192,367598,128,0,368143:0:0:0:0:
448,192,367598,1,0,0:0:0:0:
64,192,367871,1,0,0:0:0:0:
448,192,368143,128,0,368689:0:0:0:0:
192,192,368689,128,0,369234:0:0:0:0:
64,192,369234,128,0,370325:0:0:0:0:
448,192,369234,1,0,0:0:0:0:
320,192,369507,1,0,0:0:0:0:
192,192,369780,1,0,0:0:0:0:
320,192,370052,1,0,0:0:0:0:
448,192,370325,128,0,370598:0:0:0:0:
192,192,370325,1,0,0:0:0:0:
320,192,370598,128,0,370871:0:0:0:0:
64,192,370598,1,0,0:0:0:0:
192,192,370871,128,0,371143:0:0:0:0:
64,192,370871,1,0,0:0:0:0:
448,192,371143,128,0,371416:0:0:0:0:
320,192,371143,1,0,0:0:0:0:
192,192,371416,128,0,372234:0:0:0:0:
64,192,371416,1,0,0:0:0:0:
448,192,371689,1,0,0:0:0:0:
320,192,371961,1,0,0:0:0:0:
64,192,372234,128,0,372371:0:0:0:0:
448,192,372234,1,0,0:0:0:0:
64,192,372507,128,0,373598:0:0:0:0:
320,192,372507,1,0,0:0:0:0:
192,192,372780,1,0,0:0:0:0:
320,192,373052,1,0,0:0:0:0:
448,192,373325,1,0,0:0:0:0:
320,192,373598,1,0,0:0:0:0:
192,192,373598,128,0,373871:0:0:0:0:
64,192,373871,128,0,374143:0:0:0:0:
448,192,374143,128,0,374416:0:0:0:0:
192,192,374416,128,0,374689:0:0:0:0:
64,192,374689,128,0,374961:0:0:0:0:
192,192,374961,128,0,375234:0:0:0:0:
320,192,375234,128,0,375507:0:0:0:0:
448,192,375507,128,0,375780:0:0:0:0:
192,192,375780,1,0,0:0:0:0:
64,192,375780,128,0,376325:0:0:0:0:
448,192,376052,1,0,0:0:0:0:
192,192,376325,128,0,376871:0:0:0:0:
320,192,376325,1,0,0:0:0:0:
64,192,376598,1,0,0:0:0:0:
320,192,376871,128,0,377416:0:0:0:0:
192,192,377416,128,0,377961:0:0:0:0:
448,192,377961,128,0,379052:0:0:0:0:
64,192,377961,1,0,0:0:0:0:
192,192,378234,1,0,0:0:0:0:
320,192,378507,1,0,0:0:0:0:
64,192,378780,1,0,0:0:0:0:
320,192,379052,128,0,379325:0:0:0:0:
64,192,379325,128,0,379598:0:0:0:0:
192,192,379598,128,0,379871:0:0:0:0:
448,192,379871,128,0,380007:0:0:0:0:
64,192,380143,1,0,0:0:0:0:
448,192,380143,128,0,380961:0:0:0:0:
192,192,380416,1,0,0:0:0:0:
320,192,380689,1,0,0:0:0:0:
64,192,380961,128,0,381098:0:0:0:0:
192,192,380961,1,0,0:0:0:0:
64,192,381234,128,0,381780:0:0:0:0:
320,192,381746,1,0,0:0:0:0:
448,192,381780,128,0,382325:0:0:0:0:
320,192,382325,128,0,383143:0:0:0:0:
192,192,382325,1,0,0:0:0:0:
448,192,382598,1,0,0:0:0:0:
64,192,382871,1,0,0:0:0:0:
192,192,383143,128,0,383416:0:0:0:0:
448,192,383143,1,0,0:0:0:0:
64,192,383416,128,0,383689:0:0:0:0:
192,192,383689,128,0,383961:0:0:0:0:
320,192,383961,128,0,384234:0:0:0:0:
448,192,384234,128,0,384507:0:0:0:0:
192,192,384507,128,0,384780:0:0:0:0:
64,192,384507,1,0,0:0:0:0:
448,192,384780,128,0,384916:0:0:0:0:
320,192,384780,1,0,0:0:0:0:
448,192,385052,128,0,386143:0:0:0:0:
64,192,385052,1,0,0:0:0:0:
192,192,385325,1,0,0:0:0:0:
320,192,385598,1,0,0:0:0:0:
64,192,385871,1,0,0:0:0:0:
320,192,386143,1,0,0:0:0:0:
192,192,386143,128,0,386416:0:0:0:0:
64,192,386416,128,0,387234:0:0:0:0:
448,192,386416,1,0,0:0:0:0:
192,192,386689,1,0,0:0:0:0:
320,192,386961,1,0,0:0:0:0:
448,192,387234,128,0,387507:0:0:0:0:
192,192,387234,1,0,0:0:0:0:
320,192,387507,128,0,388325:0:0:0:0:
192,192,387507,1,0,0:0:0:0:
64,192,387780,1,0,0:0:0:0:
192,192,388052,1,0,0:0:0:0:
448,192,388325,1,0,0:0:0:0:
64,192,388598,128,0,388734:0:0:0:0:
320,192,388598,1,0,0:0:0:0:
192,192,388734,128,0,388871:0:0:0:0:
320,192,388871,128,0,389152:0:0:0:0:
448,192,388871,1,0,0:0:0:0:
192,192,389152,128,0,389433:0:0:0:0:
64,192,389152,1,0,0:0:0:0:
448,192,389433,1,0,0:0:0:0:
64,192,389433,128,0,389573:0:0:0:0:
64,192,389714,128,0,390557:0:0:0:0:
448,192,389714,1,0,0:0:0:0:
192,192,389995,1,0,0:0:0:0:
320,192,390276,1,0,0:0:0:0:
192,192,390557,1,0,0:0:0:0:
448,192,390557,128,0,390716:0:0:0:0:
448,192,390875,128,0,391528:0:0:0:0:
192,192,390875,1,0,0:0:0:0:
64,192,391193,128,0,393180:0:0:0:0:
320,192,391193,1,0,0:0:0:0:
192,192,391528,1,0,0:0:0:0:
448,192,391863,128,0,392533:0:0:0:0:
320,192,391863,128,0,392365:0:0:0:0:
192,192,392198,1,0,0:0:0:0:
192,192,392533,128,0,394490:0:0:0:0:
320,192,392533,128,0,394490:0:0:0:0:
448,192,393396,128,0,394490:0:0:0:0:
64,192,393396,128,0,394490:0:0:0:0:
64,192,394633,128,0,395233:0:0:0:0:
320,192,394633,128,0,395833:0:0:0:0:
448,192,394633,1,0,0:0:0:0:
192,192,394633,1,0,0:0:0:0:
192,192,394933,1,0,0:0:0:0:
192,192,395233,128,0,397033:0:0:0:0:
448,192,395233,1,0,0:0:0:0:
64,192,395533,1,0,0:0:0:0:
448,192,395833,128,0,396433:0:0:0:0:
64,192,395833,1,0,0:0:0:0:
320,192,396133,1,0,0:0:0:0:
320,192,396433,128,0,398233:0:0:0:0:
64,192,396433,1,0,0:0:0:0:
448,192,396733,1,0,0:0:0:0:
448,192,397033,128,0,398833:0:0:0:0:
64,192,397033,1,0,0:0:0:0:
192,192,397333,1,0,0:0:0:0:
64,192,397633,1,0,0:0:0:0:
192,192,397933,1,0,0:0:0:0:
192,192,398233,128,0,398533:0:0:0:0:
64,192,398233,1,0,0:0:0:0:
64,192,398533,128,0,399433:0:0:0:0:
320,192,398533,1,0,0:0:0:0:
320,192,398833,128,0,399133:0:0:0:0:
192,192,398833,1,0,0:0:0:0:
192,192,399133,128,0,399733:0:0:0:0:
448,192,399133,1,0,0:0:0:0:
320,192,399433,1,0,0:0:0:0:
448,192,399433,128,0,399883:0:0:0:0:
320,192,399733,128,0,402433:0:0:0:0:
64,192,399733,1,0,0:0:0:0:
448,192,400033,128,0,401833:0:0:0:0:
192,192,400033,1,0,0:0:0:0:
192,192,400333,1,0,0:0:0:0:
64,192,400633,1,0,0:0:0:0:
64,192,400933,1,0,0:0:0:0:
192,192,401233,1,0,0:0:0:0:
192,192,401533,1,0,0:0:0:0:
192,192,401833,128,0,403033:0:0:0:0:
64,192,401833,1,0,0:0:0:0:
448,192,402133,1,0,0:0:0:0:
64,192,402433,128,0,403633:0:0:0:0:
448,192,402433,1,0,0:0:0:0:
320,192,402733,1,0,0:0:0:0:
448,192,403033,128,0,405433:0:0:0:0:
320,192,403033,1,0,0:0:0:0:
192,192,403333,1,0,0:0:0:0:
320,192,403633,128,0,404233:0:0:0:0:
192,192,403633,1,0,0:0:0:0:
64,192,403933,1,0,0:0:0:0:
64,192,404233,128,0,405733:0:0:0:0:
192,192,404233,1,0,0:0:0:0:
320,192,404533,1,0,0:0:0:0:
320,192,404833,1,0,0:0:0:0:
192,192,405133,1,0,0:0:0:0:
192,192,405433,128,0,406033:0:0:0:0:
320,192,405433,1,0,0:0:0:0:
320,192,405733,128,0,406333:0:0:0:0:
448,192,405733,1,0,0:0:0:0:
448,192,406033,128,0,408433:0:0:0:0:
64,192,406033,1,0,0:0:0:0:
64,192,406333,128,0,406633:0:0:0:0:
192,192,406333,1,0,0:0:0:0:
192,192,406633,128,0,407233:0:0:0:0:
320,192,406633,1,0,0:0:0:0:
64,192,406933,1,0,0:0:0:0:
320,192,407233,128,0,407833:0:0:0:0:
64,192,407233,1,0,0:0:0:0:
192,192,407533,1,0,0:0:0:0:
192,192,407833,128,0,409633:0:0:0:0:
64,192,407833,1,0,0:0:0:0:
320,192,408133,1,0,0:0:0:0:
320,192,408433,128,0,409033:0:0:0:0:
64,192,408433,1,0,0:0:0:0:
448,192,408733,1,0,0:0:0:0:
448,192,409033,128,0,410233:0:0:0:0:
64,192,409033,1,0,0:0:0:0:
320,192,409333,1,0,0:0:0:0:
64,192,409633,128,0,410833:0:0:0:0:
320,192,409633,1,0,0:0:0:0:
192,192,409933,1,0,0:0:0:0:
320,192,410233,128,0,411133:0:0:0:0:
192,192,410233,1,0,0:0:0:0:
448,192,410533,1,0,0:0:0:0:
192,192,410833,128,0,411433:0:0:0:0:
448,192,410833,1,0,0:0:0:0:
448,192,411133,128,0,412033:0:0:0:0:
64,192,411133,1,0,0:0:0:0:
320,192,411433,128,0,412633:0:0:0:0:
64,192,411433,1,0,0:0:0:0:
192,192,411733,1,0,0:0:0:0:
64,192,412033,128,0,413683:0:0:0:0:
192,192,412033,1,0,0:0:0:0:
448,192,412333,1,0,0:0:0:0:
448,192,412633,128,0,412933:0:0:0:0:
192,192,412633,1,0,0:0:0:0:
320,192,412933,128,0,413683:0:0:0:0:
192,192,412933,1,0,0:0:0:0:
192,192,413233,128,0,413683:0:0:0:0:
448,192,413233,1,0,0:0:0:0:
448,192,413533,128,0,413683:0:0:0:0:
448,192,413833,128,0,414283:0:0:0:0:
64,192,413833,128,0,414583:0:0:0:0:
320,192,413833,128,0,414283:0:0:0:0:
192,192,413833,128,0,413983:0:0:0:0:
192,192,414133,128,0,414883:0:0:0:0:
448,192,414433,128,0,415183:0:0:0:0:
320,192,414433,128,0,414883:0:0:0:0:
64,192,414733,128,0,415483:0:0:0:0:
320,192,415033,128,0,415783:0:0:0:0:
192,192,415033,128,0,415483:0:0:0:0:
448,192,415333,128,0,416083:0:0:0:0:
192,192,415633,128,0,416383:0:0:0:0:
64,192,415633,128,0,416083:0:0:0:0:
320,192,415933,128,0,416083:0:0:0:0:
448,192,416233,128,0,417283:0:0:0:0:
64,192,416233,128,0,416983:0:0:0:0:
320,192,416233,128,0,416683:0:0:0:0:
192,192,416533,128,0,417283:0:0:0:0:
320,192,416833,128,0,417583:0:0:0:0:
64,192,417133,128,0,417583:0:0:0:0:
192,192,417433,128,0,417883:0:0:0:0:
448,192,417433,128,0,418183:0:0:0:0:
64,192,417733,128,0,417883:0:0:0:0:
320,192,417733,128,0,418183:0:0:0:0:
64,192,418033,128,0,418483:0:0:0:0:
192,192,418033,128,0,418783:0:0:0:0:
320,192,418333,128,0,418483:0:0:0:0:
448,192,418333,128,0,418483:0:0:0:0:
448,192,418633,128,0,419683:0:0:0:0:
64,192,418633,128,0,418783:0:0:0:0:
320,192,418633,128,0,419383:0:0:0:0:
192,192,418933,128,0,419083:0:0:0:0:
64,192,418933,128,0,419083:0:0:0:0:
192,192,419233,128,0,420283:0:0:0:0:
64,192,419233,128,0,419983:0:0:0:0:
320,192,419533,128,0,420883:0:0:0:0:
448,192,419833,128,0,420583:0:0:0:0:
64,192,420133,128,0,420883:0:0:0:0:
192,192,420433,128,0,421183:0:0:0:0:
448,192,420733,128,0,420883:0:0:0:0:
64,192,421033,128,0,421483:0:0:0:0:
320,192,421033,128,0,421783:0:0:0:0:
448,192,421033,128,0,421483:0:0:0:0:
192,192,421333,128,0,422083:0:0:0:0:
64,192,421633,128,0,422383:0:0:0:0:
448,192,421633,128,0,422083:0:0:0:0:
320,192,421933,128,0,422683:0:0:0:0:
192,192,422233,128,0,422983:0:0:0:0:
448,192,422233,128,0,422683:0:0:0:0:
64,192,422533,128,0,423283:0:0:0:0:
448,192,422833,128,0,423283:0:0:0:0:
320,192,422833,128,0,423583:0:0:0:0:
192,192,423133,128,0,423283:0:0:0:0:
448,192,423433,128,0,423883:0:0:0:0:
64,192,423433,128,0,424183:0:0:0:0:
192,192,423433,128,0,424483:0:0:0:0:
320,192,423733,128,0,424483:0:0:0:0:
448,192,424033,128,0,424783:0:0:0:0:
64,192,424333,128,0,424783:0:0:0:0:
320,192,424633,128,0,425383:0:0:0:0:
192,192,424633,128,0,425083:0:0:0:0:
64,192,424933,128,0,425383:0:0:0:0:
448,192,424933,128,0,425083:0:0:0:0:
192,192,425233,128,0,425683:0:0:0:0:
448,192,425233,128,0,425683:0:0:0:0:
320,192,425533,128,0,425683:0:0:0:0:
64,192,425533,128,0,425983:0:0:0:0:
320,192,425833,128,0,426583:0:0:0:0:
448,192,425833,128,0,426283:0:0:0:0:
192,192,425833,128,0,426283:0:0:0:0:
64,192,426133,128,0,426883:0:0:0:0:
192,192,426433,128,0,427183:0:0:0:0:
448,192,426433,128,0,426883:0:0:0:0:
320,192,426733,128,0,427483:0:0:0:0:
64,192,427033,128,0,427783:0:0:0:0:
448,192,427033,128,0,427483:0:0:0:0:
192,192,427333,128,0,428383:0:0:0:0:
448,192,427633,128,0,428083:0:0:0:0:
320,192,427633,128,0,428083:0:0:0:0:
64,192,427933,128,0,428083:0:0:0:0:
448,192,428233,128,0,429283:0:0:0:0:
320,192,428233,128,0,428683:0:0:0:0:
64,192,428233,128,0,428983:0:0:0:0:
192,192,428533,128,0,428983:0:0:0:0:
320,192,428833,128,0,429283:0:0:0:0:
192,192,429133,128,0,429883:0:0:0:0:
64,192,429133,128,0,429583:0:0:0:0:
448,192,429433,128,0,430183:0:0:0:0:
320,192,429433,128,0,430783:0:0:0:0:
64,192,429733,128,0,430483:0:0:0:0:
192,192,430033,128,0,430483:0:0:0:0:
448,192,430333,128,0,430483:0:0:0:0:
448,192,430633,128,0,431383:0:0:0:0:
64,192,430633,128,0,431683:0:0:0:0:
192,192,430633,128,0,431083:0:0:0:0:
320,192,430933,128,0,431383:0:0:0:0:
192,192,431233,128,0,431683:0:0:0:0:
320,192,431533,128,0,432283:0:0:0:0:
448,192,431533,128,0,431983:0:0:0:0:
192,192,431833,128,0,432283:0:0:0:0:
64,192,431833,128,0,432583:0:0:0:0:
448,192,432133,128,0,432883:0:0:0:0:
192,192,432433,128,0,433188:0:0:0:0:
320,192,432433,128,0,432883:0:0:0:0:
64,192,432733,128,0,432883:0:0:0:0:
320,192,433033,128,0,433500:0:0:0:0:
64,192,433033,128,0,433811:0:0:0:0:
448,192,433033,128,0,434123:0:0:0:0:
192,192,433344,128,0,433811:0:0:0:0:
320,192,433656,128,0,434123:0:0:0:0:
64,192,433967,128,0,434445:0:0:0:0:
192,192,433967,128,0,434779:0:0:0:0:
320,192,434279,128,0,435112:0:0:0:0:
448,192,434279,128,0,435529:0:0:0:0:
64,192,434612,128,0,435404:0:0:0:0:
192,192,434945,128,0,435445:0:0:0:0:
320,192,435279,128,0,435487:0:0:0:0:
64,192,435529,128,0,435651:0:0:0:0:
192,192,435570,128,0,435691:0:0:0:0:
320,192,435612,128,0,436888:0:0:0:0:
448,192,435651,128,0,435771:0:0:0:0:
448,192,436888,128,0,437080:0:0:0:0:
320,192,437272,128,0,437489:0:0:0:0:
192,192,437706,128,0,437956:0:0:0:0:
320,192,438208,128,0,438541:0:0:0:0:
192,192,438819,1,0,0:0:0:0:
448,192,438872,128,0,439144:0:0:0:0:
320,192,439144,128,0,439417:0:0:0:0:
192,192,439417,1,0,0:0:0:0:
64,192,439417,128,0,439962:0:0:0:0:
448,192,439690,128,0,440235:0:0:0:0:
320,192,439962,128,0,440235:0:0:0:0:
192,192,439962,1,0,0:0:0:0:
64,192,440235,128,0,440500:0:0:0:0:
320,192,440500,128,0,440797:0:0:0:0:
64,192,440797,128,0,441054:0:0:0:0:
448,192,441054,1,0,0:0:0:0:
320,192,441054,128,0,441589:0:0:0:0:
64,192,441321,128,0,441857:0:0:0:0:
192,192,441589,128,0,441857:0:0:0:0:
448,192,441589,1,0,0:0:0:0:
320,192,441857,128,0,442125:0:0:0:0:
64,192,442125,1,0,0:0:0:0:
448,192,442126,128,0,442661:0:0:0:0:
320,192,442393,128,0,442929:0:0:0:0:
64,192,442661,128,0,443217:0:0:0:0:
192,192,442929,128,0,443217:0:0:0:0:
448,192,443217,128,0,443494:0:0:0:0:
320,192,443217,1,0,0:0:0:0:
192,192,443494,128,0,443772:0:0:0:0:
320,192,443772,1,0,0:0:0:0:
64,192,443772,128,0,444328:0:0:0:0:
448,192,444050,128,0,444605:0:0:0:0:
320,192,444328,128,0,444605:0:0:0:0:
192,192,444328,1,0,0:0:0:0:
64,192,444605,128,0,444870:0:0:0:0:
192,192,444870,128,0,445147:0:0:0:0:
320,192,445147,128,0,445409:0:0:0:0:
448,192,445409,128,0,445964:0:0:0:0:
64,192,445686,128,0,446229:0:0:0:0:
192,192,445964,128,0,446496:0:0:0:0:
320,192,446229,128,0,446764:0:0:0:0:
448,192,446496,128,0,447044:0:0:0:0:
64,192,446496,1,0,0:0:0:0:
192,192,446764,128,0,447311:0:0:0:0:
320,192,447044,128,0,447599:0:0:0:0:
64,192,447311,128,0,447599:0:0:0:0:
192,192,447599,1,0,0:0:0:0:
448,192,447599,128,0,447899:0:0:0:0:
64,192,447899,128,0,448199:0:0:0:0:
192,192,448161,1,0,0:0:0:0:
320,192,448199,128,0,448799:0:0:0:0:
448,192,448499,128,0,449099:0:0:0:0:
64,192,448799,128,0,449099:0:0:0:0:
192,192,448799,1,0,0:0:0:0:
320,192,449099,128,0,449399:0:0:0:0:
64,192,449399,128,0,449699:0:0:0:0:
320,192,449699,128,0,449999:0:0:0:0:
448,192,449999,1,0,0:0:0:0:
64,192,449999,128,0,450599:0:0:0:0:
320,192,450299,128,0,450958:0:0:0:0:
192,192,450599,128,0,450958:0:0:0:0:
448,192,450599,1,0,0:0:0:0:
64,192,450958,128,0,451292:0:0:0:0:
448,192,451292,128,0,451971:0:0:0:0:
320,192,451292,1,0,0:0:0:0:
192,192,451631,128,0,452311:0:0:0:0:
64,192,451971,128,0,452651:0:0:0:0:
320,192,452311,128,0,452651:0:0:0:0:
192,192,452651,1,0,0:0:0:0:
448,192,452651,128,0,452991:0:0:0:0:
64,192,452991,128,0,453332:0:0:0:0:
320,192,453332,1,0,0:0:0:0:
192,192,453332,128,0,454014:0:0:0:0:
64,192,453673,128,0,454389:0:0:0:0:
448,192,453972,1,0,0:0:0:0:
320,192,454014,128,0,454389:0:0:0:0:
192,192,454389,128,0,454764:0:0:0:0:
320,192,454764,128,0,455192:0:0:0:0:
448,192,455192,128,0,455618:0:0:0:0:
192,192,455618,128,0,456475:0:0:0:0:
448,192,456047,128,0,456904:0:0:0:0:
64,192,456475,128,0,456904:0:0:0:0:
192,192,456904,128,0,457335:0:0:0:0:
320,192,457335,128,0,457573:0:0:0:0:
64,192,457796,128,0,458010:0:0:0:0:
192,192,458287,128,0,458587:0:0:0:0:
320,192,458887,128,0,459187:0:0:0:0:
448,192,459587,128,0,459946:0:0:0:0:
320,192,459646,128,0,460546:0:0:0:0:
64,192,459646,1,0,0:0:0:0:
192,192,459946,128,0,460246:0:0:0:0:
448,192,460246,128,0,460846:0:0:0:0:
64,192,460546,128,0,461446:0:0:0:0:
320,192,460846,128,0,461146:0:0:0:0:
192,192,461146,128,0,461746:0:0:0:0:
448,192,461446,128,0,462346:0:0:0:0:
320,192,461746,128,0,462046:0:0:0:0:
192,192,462046,128,0,462646:0:0:0:0:
64,192,462346,128,0,463246:0:0:0:0:
448,192,462646,128,0,462946:0:0:0:0:
320,192,462946,128,0,463546:0:0:0:0:
192,192,463246,128,0,463846:0:0:0:0:
64,192,463546,128,0,464146:0:0:0:0:
448,192,463846,128,0,464446:0:0:0:0:
320,192,464146,128,0,464446:0:0:0:0:
64,192,464446,128,0,464758:0:0:0:0:
192,192,464498,128,0,465383:0:0:0:0:
320,192,464758,128,0,465071:0:0:0:0:
64,192,465071,128,0,465696:0:0:0:0:
448,192,465383,128,0,466321:0:0:0:0:
192,192,465696,128,0,466008:0:0:0:0:
320,192,466008,128,0,466633:0:0:0:0:
64,192,466321,128,0,467286:0:0:0:0:
192,192,466633,128,0,466946:0:0:0:0:
320,192,466946,128,0,467627:0:0:0:0:
448,192,467286,128,0,468377:0:0:0:0:
64,192,467627,128,0,468002:0:0:0:0:
192,192,468002,128,0,468777:0:0:0:0:
320,192,468377,128,0,469177:0:0:0:0:
448,192,468777,128,0,469677:0:0:0:0:
64,192,469177,128,0,470374:0:0:0:0:
192,192,469677,128,0,470374:0:0:0:0:
448,192,470374,128,0,481579:0:0:0:0:
320,192,470374,1,0,0:0:0:0:
448,192,481668,1,0,0:0:0:0:
