osu file format v14

[General]
AudioFilename: audio.mp3
AudioLeadIn: 0
PreviewTime: 63689
Countdown: 0
SampleSet: Soft
StackLeniency: 0.7
Mode: 3
LetterboxInBreaks: 0
SpecialStyle: 0
WidescreenStoryboard: 0

[Editor]
DistanceSpacing: 0.1
BeatDivisor: 6
GridSize: 32
TimelineZoom: 2.100006

[Metadata]
Title:Lord=Crossight
TitleUnicode:Lord=Crossight
Artist:penoreri
ArtistUnicode:ぺのれり
Creator:Aras25
Version:CS' 4K EXHAUST
Source:SOUND VOLTEX III GRAVITY WARS
Tags:sdvx 5th KAC original song contest EPISODE 21 rasis theme Alisceasparku Critical_Star erlinadewi- Shinzo-
BeatmapID:1058052
BeatmapSetID:497026

[Difficulty]
HPDrainRate:8
CircleSize:4
OverallDifficulty:8
ApproachRate:5
SliderMultiplier:1.4
SliderTickRate:1

[Events]
//Background and Video events
0,0,"thanks ajee.png",0,0
//Break Periods
//Storyboard Layer 0 (Background)
//Storyboard Layer 1 (Fail)
//Storyboard Layer 2 (Pass)
//Storyboard Layer 3 (Foreground)
//Storyboard Sound Samples

[TimingPoints]
778,389.61038961039,4,2,1,30,1,0
64674,-100,4,2,1,30,0,1
92726,-100,4,2,1,30,0,0

[HitObjects]
448,192,583,5,0,0:0:0:0:
64,192,648,1,0,0:0:0:0:
192,192,713,1,0,0:0:0:0:
320,192,778,1,0,0:0:0:0:
448,192,842,1,0,0:0:0:0:
192,192,907,1,0,0:0:0:0:
64,192,972,1,0,0:0:0:0:
448,192,1037,1,0,0:0:0:0:
320,192,1102,1,0,0:0:0:0:
192,192,1167,1,0,0:0:0:0:
64,192,1232,1,0,0:0:0:0:
320,192,1297,1,0,0:0:0:0:
192,192,1362,1,0,0:0:0:0:
448,192,1427,1,0,0:0:0:0:
320,192,1492,1,0,0:0:0:0:
64,192,1557,1,0,0:0:0:0:
192,192,1622,1,0,0:0:0:0:
320,192,1687,1,0,0:0:0:0:
448,192,1752,1,8,0:0:0:0:
64,192,1752,1,0,0:0:0:0:
192,192,1752,1,0,0:0:0:0:
448,192,1881,1,8,0:0:0:0:
320,192,1881,1,0,0:0:0:0:
64,192,1881,1,0,0:0:0:0:
192,192,1946,1,0,0:0:0:0:
320,192,2011,1,0,0:0:0:0:
64,192,2076,1,0,0:0:0:0:
448,192,2141,1,0,0:0:0:0:
192,192,2206,1,2,0:0:0:0:
64,192,2206,1,0,0:0:0:0:
320,192,2271,1,2,0:0:0:0:
448,192,2336,128,2,2531:0:0:0:0:
64,192,2336,128,4,2531:0:0:0:0:
192,192,2336,1,0,0:0:0:0:
64,192,2628,128,2,2823:0:0:0:0:
320,192,2628,128,0,2823:0:0:0:0:
448,192,2628,1,0,0:0:0:0:
448,192,2920,128,2,7790:0:0:0:0:
192,192,2920,1,4,0:0:0:0:
64,192,2920,1,0,0:0:0:0:
320,192,2920,128,0,3115:0:0:0:0:
64,192,3894,1,0,0:0:0:0:
192,192,4187,1,0,0:0:0:0:
320,192,4479,1,0,0:0:0:0:
192,192,4771,1,0,0:0:0:0:
64,192,5063,1,0,0:0:0:0:
320,192,5453,1,0,0:0:0:0:
64,192,5745,1,0,0:0:0:0:
192,192,6037,1,0,0:0:0:0:
64,192,6881,1,0,0:0:0:0:
192,192,6946,1,0,0:0:0:0:
320,192,7011,1,0,0:0:0:0:
64,192,7076,1,0,0:0:0:0:
192,192,7206,1,0,0:0:0:0:
320,192,7336,1,0,0:0:0:0:
64,192,7466,1,0,0:0:0:0:
192,192,7596,1,0,0:0:0:0:
320,192,7790,1,0,0:0:0:0:
192,192,7855,1,0,0:0:0:0:
64,192,7920,1,0,0:0:0:0:
320,192,7985,1,0,0:0:0:0:
448,192,8050,1,0,0:0:0:0:
64,192,8115,1,0,0:0:0:0:
192,192,8180,1,0,0:0:0:0:
320,192,8245,1,0,0:0:0:0:
448,192,8310,1,0,0:0:0:0:
192,192,8375,1,2,0:0:0:0:
64,192,8375,1,0,0:0:0:0:
448,192,8472,1,8,0:0:0:0:
64,192,8472,1,0,0:0:0:0:
192,192,8472,1,0,0:0:0:0:
320,192,8570,1,0,0:0:0:0:
320,192,8862,1,0,0:0:0:0:
448,192,9154,1,0,0:0:0:0:
64,192,10128,1,0,0:0:0:0:
320,192,10420,1,0,0:0:0:0:
448,192,10713,1,0,0:0:0:0:
64,192,10713,1,0,0:0:0:0:
192,192,10907,1,0,0:0:0:0:
64,192,10907,1,0,0:0:0:0:
320,192,11102,1,0,0:0:0:0:
448,192,11102,1,0,0:0:0:0:
320,192,11297,1,0,0:0:0:0:
192,192,11297,1,0,0:0:0:0:
448,192,11492,1,0,0:0:0:0:
192,192,11492,1,0,0:0:0:0:
64,192,11687,1,0,0:0:0:0:
320,192,11687,128,0,11979:0:0:0:0:
192,192,11979,1,0,0:0:0:0:
64,192,11979,128,0,12271:0:0:0:0:
320,192,12271,1,0,0:0:0:0:
448,192,12271,128,0,13148:0:0:0:0:
192,192,13148,1,8,0:0:0:0:
320,192,13196,1,8,0:0:0:0:
448,192,13245,1,0,0:0:0:0:
64,192,13245,1,0,0:0:0:0:
192,192,13245,1,0,0:0:0:0:
192,192,13440,1,2,0:0:0:0:
320,192,13440,1,0,0:0:0:0:
448,192,13635,1,8,0:0:0:0:
64,192,13635,1,0,0:0:0:0:
192,192,13732,1,2,0:0:0:0:
448,192,13829,1,0,0:0:0:0:
64,192,13829,1,0,0:0:0:0:
320,192,13829,1,0,0:0:0:0:
192,192,13927,1,8,0:0:0:0:
448,192,14024,1,2,0:0:0:0:
64,192,14024,1,0,0:0:0:0:
320,192,14122,1,0,0:0:0:0:
64,192,14219,1,0,0:0:0:0:
192,192,14316,1,0,0:0:0:0:
448,192,14414,1,0,0:0:0:0:
320,192,14414,1,0,0:0:0:0:
192,192,14511,1,0,0:0:0:0:
64,192,14511,1,0,0:0:0:0:
320,192,14609,1,0,0:0:0:0:
448,192,14609,1,0,0:0:0:0:
192,192,14706,1,0,0:0:0:0:
64,192,14706,1,0,0:0:0:0:
64,192,14803,1,4,0:0:0:0:
320,192,14803,1,8,0:0:0:0:
448,192,14803,1,0,0:0:0:0:
192,192,14901,1,0,0:0:0:0:
320,192,14998,1,0,0:0:0:0:
448,192,15096,1,0,0:0:0:0:
192,192,15193,1,2,0:0:0:0:
320,192,15193,1,0,0:0:0:0:
64,192,15290,1,0,0:0:0:0:
448,192,15388,1,0,0:0:0:0:
320,192,15485,1,0,0:0:0:0:
192,192,15583,1,2,0:0:0:0:
448,192,15583,1,0,0:0:0:0:
64,192,15680,1,0,0:0:0:0:
320,192,15778,1,0,0:0:0:0:
448,192,15875,1,0,0:0:0:0:
192,192,15972,1,2,0:0:0:0:
64,192,15972,1,0,0:0:0:0:
320,192,16070,1,0,0:0:0:0:
64,192,16167,1,0,0:0:0:0:
192,192,16265,1,0,0:0:0:0:
448,192,16362,1,2,0:0:0:0:
64,192,16362,1,0,0:0:0:0:
320,192,16459,1,0,0:0:0:0:
448,192,16557,1,0,0:0:0:0:
64,192,16654,1,0,0:0:0:0:
192,192,16752,1,2,0:0:0:0:
448,192,16752,1,0,0:0:0:0:
64,192,16849,1,0,0:0:0:0:
320,192,16946,1,0,0:0:0:0:
192,192,17044,1,0,0:0:0:0:
320,192,17141,1,2,0:0:0:0:
448,192,17141,1,0,0:0:0:0:
64,192,17239,1,0,0:0:0:0:
192,192,17336,1,0,0:0:0:0:
320,192,17336,1,0,0:0:0:0:
448,192,17433,1,0,0:0:0:0:
192,192,17531,1,2,0:0:0:0:
64,192,17531,1,0,0:0:0:0:
320,192,17628,1,0,0:0:0:0:
448,192,17726,1,8,0:0:0:0:
64,192,17726,1,0,0:0:0:0:
192,192,17823,1,8,0:0:0:0:
320,192,17823,1,0,0:0:0:0:
64,192,17920,128,2,18115:0:0:0:0:
448,192,17920,1,0,0:0:0:0:
320,192,18115,1,0,0:0:0:0:
448,192,18115,1,0,0:0:0:0:
64,192,18213,1,0,0:0:0:0:
192,192,18213,128,0,18407:0:0:0:0:
64,192,18407,1,0,0:0:0:0:
320,192,18505,1,0,0:0:0:0:
448,192,18505,128,0,18700:0:0:0:0:
64,192,18700,1,2,0:0:0:0:
192,192,18700,1,0,0:0:0:0:
320,192,18797,128,0,18992:0:0:0:0:
448,192,18797,1,0,0:0:0:0:
64,192,18992,1,0,0:0:0:0:
448,192,18992,1,0,0:0:0:0:
192,192,19089,128,2,19284:0:0:0:0:
320,192,19089,1,0,0:0:0:0:
448,192,19284,1,0,0:0:0:0:
320,192,19284,1,0,0:0:0:0:
192,192,19381,1,0,0:0:0:0:
64,192,19479,1,2,0:0:0:0:
448,192,19479,1,0,0:0:0:0:
320,192,19576,1,0,0:0:0:0:
192,192,19576,1,0,0:0:0:0:
64,192,19674,1,0,0:0:0:0:
448,192,19674,1,0,0:0:0:0:
192,192,19771,1,0,0:0:0:0:
448,192,19868,1,2,0:0:0:0:
320,192,19868,1,0,0:0:0:0:
192,192,19966,1,0,0:0:0:0:
64,192,19966,1,0,0:0:0:0:
320,192,20063,1,0,0:0:0:0:
64,192,20161,1,0,0:0:0:0:
192,192,20161,1,0,0:0:0:0:
320,192,20258,1,2,0:0:0:0:
448,192,20258,1,0,0:0:0:0:
192,192,20355,1,0,0:0:0:0:
448,192,20453,1,0,0:0:0:0:
64,192,20453,1,0,0:0:0:0:
320,192,20550,1,0,0:0:0:0:
64,192,20550,1,0,0:0:0:0:
448,192,20648,1,2,0:0:0:0:
192,192,20648,1,0,0:0:0:0:
320,192,20745,1,0,0:0:0:0:
64,192,20842,1,8,0:0:0:0:
448,192,20842,1,0,0:0:0:0:
192,192,20842,1,0,0:0:0:0:
448,192,21037,1,2,0:0:0:0:
320,192,21037,1,0,0:0:0:0:
64,192,21037,128,0,21232:0:0:0:0:
192,192,21232,1,0,0:0:0:0:
320,192,21297,1,0,0:0:0:0:
448,192,21362,1,0,0:0:0:0:
64,192,21427,1,8,0:0:0:0:
192,192,21427,1,0,0:0:0:0:
320,192,21524,1,2,0:0:0:0:
448,192,21524,1,0,0:0:0:0:
192,192,21622,1,0,0:0:0:0:
448,192,21719,1,2,0:0:0:0:
64,192,21719,1,0,0:0:0:0:
64,192,21914,128,4,22206:0:0:0:0:
192,192,21914,1,2,0:0:0:0:
448,192,21914,1,0,0:0:0:0:
192,192,22206,1,2,0:0:0:0:
448,192,22206,128,4,22401:0:0:0:0:
320,192,22206,1,0,0:0:0:0:
64,192,22401,1,8,0:0:0:0:
192,192,22401,1,0,0:0:0:0:
448,192,22498,1,0,0:0:0:0:
320,192,22498,1,2,0:0:0:0:
192,192,22596,1,0,0:0:0:0:
448,192,22693,1,8,0:0:0:0:
64,192,22693,1,0,0:0:0:0:
320,192,22742,1,8,0:0:0:0:
192,192,22790,128,4,22985:0:0:0:0:
448,192,22985,1,0,0:0:0:0:
320,192,23034,1,0,0:0:0:0:
64,192,23083,1,0,0:0:0:0:
192,192,23083,1,0,0:0:0:0:
448,192,23180,1,0,0:0:0:0:
64,192,23278,1,0,0:0:0:0:
192,192,23326,1,0,0:0:0:0:
320,192,23375,1,0,0:0:0:0:
448,192,23375,1,0,0:0:0:0:
64,192,23472,1,0,0:0:0:0:
448,192,23570,1,0,0:0:0:0:
320,192,23618,1,0,0:0:0:0:
192,192,23667,1,0,0:0:0:0:
64,192,23667,1,0,0:0:0:0:
320,192,23765,1,4,0:0:0:0:
448,192,23862,1,8,0:0:0:0:
64,192,23862,1,0,0:0:0:0:
320,192,23959,128,2,24349:0:0:0:0:
192,192,23959,1,0,0:0:0:0:
64,192,24349,128,0,24544:0:0:0:0:
192,192,24446,128,0,24641:0:0:0:0:
320,192,24544,128,2,24739:0:0:0:0:
448,192,24544,128,0,24836:0:0:0:0:
192,192,24739,128,0,24933:0:0:0:0:
320,192,24836,128,0,25031:0:0:0:0:
448,192,24933,128,2,25128:0:0:0:0:
64,192,24933,128,0,25226:0:0:0:0:
192,192,25128,128,0,25323:0:0:0:0:
320,192,25226,128,0,25420:0:0:0:0:
448,192,25323,128,2,25615:0:0:0:0:
64,192,25323,1,0,0:0:0:0:
64,192,25518,128,0,25713:0:0:0:0:
192,192,25615,128,0,25713:0:0:0:0:
448,192,25713,1,2,0:0:0:0:
320,192,25713,1,0,0:0:0:0:
192,192,25810,1,0,0:0:0:0:
64,192,25907,1,0,0:0:0:0:
192,192,26037,1,0,0:0:0:0:
448,192,26135,1,0,0:0:0:0:
192,192,26232,1,0,0:0:0:0:
64,192,26329,1,0,0:0:0:0:
192,192,26427,1,0,0:0:0:0:
448,192,26524,1,0,0:0:0:0:
320,192,26622,1,0,0:0:0:0:
192,192,26719,1,0,0:0:0:0:
64,192,26816,1,0,0:0:0:0:
448,192,26914,1,0,0:0:0:0:
320,192,27011,1,0,0:0:0:0:
64,192,27109,1,0,0:0:0:0:
192,192,27206,1,0,0:0:0:0:
320,192,27303,1,0,0:0:0:0:
448,192,27303,1,0,0:0:0:0:
64,192,27661,1,0,0:0:0:0:
64,192,28050,1,0,0:0:0:0:
320,192,28050,1,0,0:0:0:0:
192,192,28440,1,0,0:0:0:0:
320,192,28829,1,0,0:0:0:0:
448,192,28829,128,0,29414:0:0:0:0:
64,192,29414,1,0,0:0:0:0:
320,192,29511,1,0,0:0:0:0:
192,192,29609,128,0,29998:0:0:0:0:
448,192,29998,1,0,0:0:0:0:
192,192,30193,1,0,0:0:0:0:
448,192,30388,1,0,0:0:0:0:
64,192,30388,128,0,30778:0:0:0:0:
320,192,30778,1,0,0:0:0:0:
192,192,30972,1,0,0:0:0:0:
448,192,31167,128,0,31849:0:0:0:0:
64,192,31167,1,0,0:0:0:0:
320,192,31557,128,0,31849:0:0:0:0:
64,192,31849,1,0,0:0:0:0:
192,192,31898,1,0,0:0:0:0:
448,192,31946,1,0,0:0:0:0:
320,192,31946,1,0,0:0:0:0:
192,192,32336,1,0,0:0:0:0:
64,192,32726,1,0,0:0:0:0:
448,192,32726,1,0,0:0:0:0:
192,192,32920,1,0,0:0:0:0:
320,192,33115,1,0,0:0:0:0:
448,192,33310,1,0,0:0:0:0:
448,192,33505,1,0,0:0:0:0:
64,192,33505,128,0,34284:0:0:0:0:
320,192,33797,128,0,34089:0:0:0:0:
448,192,34089,128,0,34284:0:0:0:0:
192,192,34089,128,0,34479:0:0:0:0:
320,192,34284,128,0,34674:0:0:0:0:
448,192,34479,128,0,34868:0:0:0:0:
320,192,34868,1,0,0:0:0:0:
192,192,34966,1,0,0:0:0:0:
64,192,35063,1,0,0:0:0:0:
448,192,35063,1,0,0:0:0:0:
192,192,35355,1,0,0:0:0:0:
320,192,35648,1,0,0:0:0:0:
448,192,35648,128,0,36037:0:0:0:0:
64,192,36037,1,0,0:0:0:0:
192,192,36232,1,0,0:0:0:0:
320,192,36232,128,0,36622:0:0:0:0:
64,192,36622,1,0,0:0:0:0:
448,192,36622,1,0,0:0:0:0:
192,192,36719,1,0,0:0:0:0:
320,192,36816,1,0,0:0:0:0:
192,192,36914,1,0,0:0:0:0:
448,192,37011,1,0,0:0:0:0:
192,192,37109,1,0,0:0:0:0:
320,192,37206,1,0,0:0:0:0:
64,192,37206,1,0,0:0:0:0:
448,192,37303,1,0,0:0:0:0:
192,192,37303,1,0,0:0:0:0:
320,192,37401,1,0,0:0:0:0:
64,192,37401,1,0,0:0:0:0:
192,192,37498,1,0,0:0:0:0:
320,192,37596,1,0,0:0:0:0:
448,192,37596,1,0,0:0:0:0:
192,192,37693,1,0,0:0:0:0:
448,192,37790,1,0,0:0:0:0:
64,192,37790,1,0,0:0:0:0:
320,192,37888,1,0,0:0:0:0:
448,192,37985,1,0,0:0:0:0:
192,192,37985,1,0,0:0:0:0:
320,192,38083,1,0,0:0:0:0:
192,192,38180,1,0,0:0:0:0:
64,192,38180,1,0,0:0:0:0:
64,192,38375,1,0,0:0:0:0:
448,192,38375,1,0,0:0:0:0:
192,192,38472,1,0,0:0:0:0:
320,192,38472,1,0,0:0:0:0:
448,192,38570,1,0,0:0:0:0:
64,192,38570,1,0,0:0:0:0:
192,192,38667,1,0,0:0:0:0:
320,192,38765,1,0,0:0:0:0:
448,192,38862,1,0,0:0:0:0:
64,192,38959,128,0,39057:0:0:0:0:
192,192,39057,128,0,39154:0:0:0:0:
320,192,39154,128,0,39252:0:0:0:0:
448,192,39252,128,0,39349:0:0:0:0:
192,192,39349,128,0,39446:0:0:0:0:
64,192,39446,128,0,39544:0:0:0:0:
320,192,39544,128,0,39641:0:0:0:0:
192,192,39641,128,0,39739:0:0:0:0:
448,192,39739,1,2,0:0:0:0:
320,192,39739,1,0,0:0:0:0:
64,192,39739,1,0,0:0:0:0:
192,192,39836,1,0,0:0:0:0:
320,192,39933,1,0,0:0:0:0:
64,192,40031,1,0,0:0:0:0:
192,192,40128,1,0,0:0:0:0:
448,192,40128,1,0,0:0:0:0:
320,192,40226,1,0,0:0:0:0:
192,192,40323,1,2,0:0:0:0:
64,192,40323,1,0,0:0:0:0:
320,192,40420,1,0,0:0:0:0:
64,192,40518,1,8,0:0:0:0:
448,192,40518,1,0,0:0:0:0:
192,192,40518,1,0,0:0:0:0:
320,192,40615,1,0,0:0:0:0:
192,192,40713,1,0,0:0:0:0:
64,192,40810,1,0,0:0:0:0:
320,192,40907,1,0,0:0:0:0:
448,192,40907,1,0,0:0:0:0:
192,192,41005,1,0,0:0:0:0:
448,192,41102,1,2,0:0:0:0:
64,192,41102,1,0,0:0:0:0:
320,192,41200,1,0,0:0:0:0:
64,192,41297,1,2,0:0:0:0:
448,192,41297,1,0,0:0:0:0:
320,192,41394,1,0,0:0:0:0:
192,192,41492,1,0,0:0:0:0:
320,192,41589,1,2,0:0:0:0:
448,192,41589,1,0,0:0:0:0:
64,192,41687,1,0,0:0:0:0:
192,192,41784,1,0,0:0:0:0:
320,192,41881,1,2,0:0:0:0:
448,192,41881,1,0,0:0:0:0:
192,192,41979,1,0,0:0:0:0:
64,192,42076,1,8,0:0:0:0:
448,192,42076,1,0,0:0:0:0:
320,192,42076,1,0,0:0:0:0:
192,192,42174,1,0,0:0:0:0:
320,192,42271,1,0,0:0:0:0:
64,192,42271,1,0,0:0:0:0:
448,192,42368,1,0,0:0:0:0:
192,192,42466,1,0,0:0:0:0:
64,192,42466,1,0,0:0:0:0:
320,192,42563,1,0,0:0:0:0:
64,192,42661,1,2,0:0:0:0:
448,192,42661,1,0,0:0:0:0:
192,192,42758,1,0,0:0:0:0:
448,192,42855,1,2,0:0:0:0:
320,192,42855,1,0,0:0:0:0:
192,192,42953,1,0,0:0:0:0:
64,192,43050,1,0,0:0:0:0:
192,192,43148,1,0,0:0:0:0:
320,192,43245,1,0,0:0:0:0:
64,192,43342,1,0,0:0:0:0:
192,192,43440,1,2,0:0:0:0:
448,192,43440,1,0,0:0:0:0:
320,192,43537,1,0,0:0:0:0:
448,192,43635,1,8,0:0:0:0:
64,192,43635,1,0,0:0:0:0:
192,192,43635,1,0,0:0:0:0:
320,192,43732,1,0,0:0:0:0:
192,192,43829,1,0,0:0:0:0:
448,192,43829,1,0,0:0:0:0:
64,192,43927,1,0,0:0:0:0:
448,192,44024,1,0,0:0:0:0:
192,192,44024,1,0,0:0:0:0:
320,192,44122,1,0,0:0:0:0:
448,192,44219,1,2,0:0:0:0:
64,192,44219,1,0,0:0:0:0:
192,192,44316,1,0,0:0:0:0:
320,192,44414,1,2,0:0:0:0:
448,192,44414,1,0,0:0:0:0:
192,192,44511,1,0,0:0:0:0:
64,192,44609,1,2,0:0:0:0:
320,192,44609,1,0,0:0:0:0:
448,192,44706,1,2,0:0:0:0:
192,192,44706,1,0,0:0:0:0:
320,192,44803,1,0,0:0:0:0:
192,192,44901,1,2,0:0:0:0:
64,192,44901,1,0,0:0:0:0:
320,192,44998,1,2,0:0:0:0:
448,192,44998,1,0,0:0:0:0:
64,192,45096,1,0,0:0:0:0:
192,192,45193,1,8,0:0:0:0:
448,192,45193,1,0,0:0:0:0:
320,192,45193,1,0,0:0:0:0:
64,192,45290,1,0,0:0:0:0:
320,192,45388,1,2,0:0:0:0:
448,192,45388,1,0,0:0:0:0:
192,192,45485,1,0,0:0:0:0:
64,192,45583,1,0,0:0:0:0:
320,192,45583,1,0,0:0:0:0:
192,192,45680,1,2,0:0:0:0:
448,192,45680,1,0,0:0:0:0:
448,192,45778,1,2,0:0:0:0:
64,192,45778,1,0,0:0:0:0:
320,192,45875,1,0,0:0:0:0:
64,192,45972,1,2,0:0:0:0:
192,192,45972,1,4,0:0:0:0:
320,192,46070,1,0,0:0:0:0:
448,192,46167,1,0,0:0:0:0:
192,192,46265,1,0,0:0:0:0:
64,192,46265,1,0,0:0:0:0:
320,192,46362,1,0,0:0:0:0:
192,192,46459,1,0,0:0:0:0:
64,192,46557,1,2,0:0:0:0:
448,192,46557,1,0,0:0:0:0:
320,192,46654,1,0,0:0:0:0:
448,192,46752,1,8,0:0:0:0:
192,192,46752,1,0,0:0:0:0:
64,192,46752,1,0,0:0:0:0:
320,192,46849,1,0,0:0:0:0:
64,192,46946,1,0,0:0:0:0:
192,192,47044,1,0,0:0:0:0:
448,192,47141,1,0,0:0:0:0:
320,192,47239,1,0,0:0:0:0:
64,192,47336,1,2,0:0:0:0:
192,192,47336,1,0,0:0:0:0:
320,192,47433,1,0,0:0:0:0:
448,192,47531,128,6,47823:0:0:0:0:
64,192,47531,1,0,0:0:0:0:
192,192,47531,1,0,0:0:0:0:
64,192,47823,1,2,0:0:0:0:
320,192,47823,1,0,0:0:0:0:
192,192,48115,128,2,48700:0:0:0:0:
448,192,48115,1,0,0:0:0:0:
64,192,48115,1,0,0:0:0:0:
320,192,48310,1,8,0:0:0:0:
448,192,48310,1,0,0:0:0:0:
64,192,48310,1,0,0:0:0:0:
448,192,48505,1,2,0:0:0:0:
64,192,48505,1,0,0:0:0:0:
320,192,48700,128,0,49089:0:0:0:0:
64,192,48797,1,2,0:0:0:0:
192,192,48797,1,0,0:0:0:0:
64,192,48894,1,2,0:0:0:0:
192,192,48894,1,0,0:0:0:0:
64,192,49089,1,6,0:0:0:0:
448,192,49089,128,0,49674:0:0:0:0:
192,192,49187,1,0,0:0:0:0:
320,192,49284,1,0,0:0:0:0:
192,192,49381,1,0,0:0:0:0:
64,192,49479,1,0,0:0:0:0:
320,192,49576,1,0,0:0:0:0:
192,192,49674,1,2,0:0:0:0:
64,192,49674,128,0,50063:0:0:0:0:
192,192,49868,128,8,50258:0:0:0:0:
448,192,49868,1,0,0:0:0:0:
320,192,50063,128,0,50453:0:0:0:0:
448,192,50258,128,0,50648:0:0:0:0:
64,192,50453,128,2,50648:0:0:0:0:
192,192,50453,1,0,0:0:0:0:
192,192,50648,128,6,50940:0:0:0:0:
320,192,50648,1,0,0:0:0:0:
448,192,50940,1,2,0:0:0:0:
64,192,50940,1,0,0:0:0:0:
320,192,51037,128,4,51329:0:0:0:0:
64,192,51232,1,2,0:0:0:0:
192,192,51232,1,0,0:0:0:0:
448,192,51427,128,12,51816:0:0:0:0:
64,192,51427,1,0,0:0:0:0:
320,192,51427,1,0,0:0:0:0:
192,192,51622,1,2,0:0:0:0:
64,192,51622,1,0,0:0:0:0:
192,192,51816,1,8,0:0:0:0:
64,192,51816,1,0,0:0:0:0:
320,192,51914,1,8,0:0:0:0:
448,192,51914,1,0,0:0:0:0:
64,192,52011,1,2,0:0:0:0:
448,192,52011,1,0,0:0:0:0:
192,192,52109,1,0,0:0:0:0:
448,192,52206,1,6,0:0:0:0:
320,192,52206,1,0,0:0:0:0:
64,192,52206,1,0,0:0:0:0:
192,192,52303,1,0,0:0:0:0:
320,192,52401,128,0,52596:0:0:0:0:
192,192,52596,1,2,0:0:0:0:
448,192,52596,1,0,0:0:0:0:
320,192,52693,1,0,0:0:0:0:
64,192,52693,128,0,52888:0:0:0:0:
192,192,52888,1,0,0:0:0:0:
320,192,52888,1,0,0:0:0:0:
448,192,52985,128,2,53180:0:0:0:0:
64,192,52985,1,0,0:0:0:0:
320,192,53180,1,0,0:0:0:0:
448,192,53278,1,0,0:0:0:0:
64,192,53278,1,0,0:0:0:0:
320,192,53375,1,2,0:0:0:0:
192,192,53375,1,0,0:0:0:0:
64,192,53472,1,0,0:0:0:0:
320,192,53570,128,0,53765:0:0:0:0:
192,192,53570,128,0,53765:0:0:0:0:
448,192,53765,1,2,0:0:0:0:
64,192,53765,1,0,0:0:0:0:
192,192,53862,1,0,0:0:0:0:
320,192,53959,128,0,54154:0:0:0:0:
448,192,54154,1,2,0:0:0:0:
64,192,54154,1,0,0:0:0:0:
320,192,54252,1,0,0:0:0:0:
192,192,54252,128,0,54446:0:0:0:0:
320,192,54446,1,0,0:0:0:0:
64,192,54544,128,2,54739:0:0:0:0:
448,192,54544,1,0,0:0:0:0:
192,192,54739,1,0,0:0:0:0:
64,192,54836,1,0,0:0:0:0:
320,192,54836,1,0,0:0:0:0:
448,192,54933,1,2,0:0:0:0:
192,192,54933,1,0,0:0:0:0:
320,192,55031,1,0,0:0:0:0:
192,192,55128,128,0,55323:0:0:0:0:
64,192,55128,128,0,55323:0:0:0:0:
320,192,55323,1,2,0:0:0:0:
448,192,55323,1,0,0:0:0:0:
192,192,55420,1,0,0:0:0:0:
64,192,55518,128,0,55713:0:0:0:0:
320,192,55713,1,2,0:0:0:0:
448,192,55713,1,0,0:0:0:0:
192,192,55810,128,0,56005:0:0:0:0:
64,192,56005,1,0,0:0:0:0:
448,192,56102,128,2,56297:0:0:0:0:
320,192,56102,1,0,0:0:0:0:
64,192,56297,1,0,0:0:0:0:
320,192,56394,1,0,0:0:0:0:
448,192,56394,1,0,0:0:0:0:
192,192,56492,1,2,0:0:0:0:
64,192,56492,1,0,0:0:0:0:
320,192,56589,1,0,0:0:0:0:
448,192,56687,128,0,56881:0:0:0:0:
64,192,56687,128,0,56881:0:0:0:0:
192,192,56881,128,2,57271:0:0:0:0:
320,192,56881,1,0,0:0:0:0:
448,192,57174,128,0,57271:0:0:0:0:
64,192,57174,128,0,57271:0:0:0:0:
320,192,57271,1,2,0:0:0:0:
448,192,57466,128,0,57661:0:0:0:0:
64,192,57661,1,10,0:0:0:0:
320,192,57661,1,0,0:0:0:0:
192,192,57661,1,0,0:0:0:0:
192,192,57855,1,8,0:0:0:0:
64,192,57855,1,0,0:0:0:0:
320,192,57855,1,0,0:0:0:0:
64,192,58050,1,10,0:0:0:0:
448,192,58050,1,0,0:0:0:0:
192,192,58148,1,8,0:0:0:0:
320,192,58148,1,0,0:0:0:0:
448,192,58245,1,0,0:0:0:0:
64,192,58245,1,0,0:0:0:0:
192,192,58342,1,8,0:0:0:0:
320,192,58342,1,0,0:0:0:0:
448,192,58440,1,2,0:0:0:0:
192,192,58440,1,0,0:0:0:0:
64,192,58440,1,0,0:0:0:0:
320,192,58635,1,8,0:0:0:0:
192,192,58732,1,8,0:0:0:0:
64,192,58829,1,8,0:0:0:0:
448,192,58927,1,0,0:0:0:0:
320,192,58927,1,0,0:0:0:0:
64,192,59024,1,0,0:0:0:0:
192,192,59024,1,0,0:0:0:0:
320,192,59122,1,0,0:0:0:0:
448,192,59122,1,0,0:0:0:0:
64,192,59219,1,8,0:0:0:0:
448,192,59219,1,0,0:0:0:0:
192,192,59219,1,0,0:0:0:0:
448,192,59414,128,0,59706:0:0:0:0:
64,192,59414,128,0,59706:0:0:0:0:
320,192,59414,1,0,0:0:0:0:
192,192,59414,1,0,0:0:0:0:
192,192,59609,128,0,59706:0:0:0:0:
320,192,59609,128,0,59706:0:0:0:0:
192,192,59803,1,2,0:0:0:0:
64,192,59803,128,0,60583:0:0:0:0:
448,192,59803,1,4,0:0:0:0:
320,192,59803,1,0,0:0:0:0:
320,192,60096,1,8,0:0:0:0:
448,192,60193,1,2,0:0:0:0:
192,192,60290,1,0,0:0:0:0:
320,192,60388,1,8,0:0:0:0:
448,192,60388,1,0,0:0:0:0:
192,192,60485,1,8,0:0:0:0:
448,192,60583,1,0,0:0:0:0:
192,192,60648,1,0,0:0:0:0:
320,192,60713,1,0,0:0:0:0:
64,192,60778,1,2,0:0:0:0:
448,192,60778,128,0,61167:0:0:0:0:
192,192,60778,1,0,0:0:0:0:
64,192,61167,1,8,0:0:0:0:
320,192,61167,1,0,0:0:0:0:
192,192,61265,1,0,0:0:0:0:
64,192,61362,1,2,0:0:0:0:
448,192,61362,1,0,0:0:0:0:
320,192,61362,1,0,0:0:0:0:
192,192,61654,128,0,61752:0:0:0:0:
320,192,61752,128,0,61849:0:0:0:0:
448,192,61849,128,0,61946:0:0:0:0:
64,192,61946,128,8,62044:0:0:0:0:
320,192,61946,1,0,0:0:0:0:
192,192,62044,128,0,62141:0:0:0:0:
448,192,62141,128,0,62239:0:0:0:0:
320,192,62239,128,0,62336:0:0:0:0:
64,192,62336,128,2,62433:0:0:0:0:
448,192,62336,1,0,0:0:0:0:
192,192,62433,128,0,62531:0:0:0:0:
320,192,62531,128,0,62628:0:0:0:0:
448,192,62628,128,8,62726:0:0:0:0:
192,192,62628,1,0,0:0:0:0:
64,192,62726,128,2,62823:0:0:0:0:
320,192,62726,1,0,0:0:0:0:
448,192,62823,128,8,62920:0:0:0:0:
192,192,62823,1,0,0:0:0:0:
64,192,62920,1,8,0:0:0:0:
320,192,62920,128,0,63018:0:0:0:0:
448,192,63018,1,8,0:0:0:0:
192,192,63018,128,0,63115:0:0:0:0:
64,192,63115,1,0,0:0:0:0:
64,192,63505,128,0,63797:0:0:0:0:
448,192,63505,128,0,63602:0:0:0:0:
192,192,63894,128,0,64187:0:0:0:0:
64,192,63894,128,0,63992:0:0:0:0:
448,192,64284,128,0,64576:0:0:0:0:
192,192,64284,128,0,64381:0:0:0:0:
448,192,64674,1,2,0:0:0:0:
320,192,64674,1,4,0:0:0:0:
192,192,64674,128,0,64868:0:0:0:0:
64,192,64674,128,0,64868:0:0:0:0:
448,192,64868,1,8,0:0:0:0:
320,192,64868,1,0,0:0:0:0:
192,192,64966,1,2,0:0:0:0:
64,192,64966,1,0,0:0:0:0:
320,192,65161,1,2,0:0:0:0:
448,192,65161,1,0,0:0:0:0:
64,192,65258,128,8,66037:0:0:0:0:
192,192,65258,1,0,0:0:0:0:
448,192,65258,1,0,0:0:0:0:
192,192,65550,1,2,0:0:0:0:
448,192,65648,1,8,0:0:0:0:
320,192,65648,1,0,0:0:0:0:
192,192,65745,128,0,65842:0:0:0:0:
448,192,65842,128,2,65940:0:0:0:0:
320,192,65940,128,2,66037:0:0:0:0:
192,192,66037,128,8,66135:0:0:0:0:
448,192,66037,1,0,0:0:0:0:
64,192,66135,128,0,66232:0:0:0:0:
192,192,66232,1,2,0:0:0:0:
320,192,66232,128,0,66427:0:0:0:0:
448,192,66232,128,0,66427:0:0:0:0:
192,192,66427,1,8,0:0:0:0:
64,192,66427,1,0,0:0:0:0:
320,192,66524,1,2,0:0:0:0:
448,192,66524,1,0,0:0:0:0:
192,192,66719,1,2,0:0:0:0:
64,192,66719,1,0,0:0:0:0:
320,192,66816,1,8,0:0:0:0:
64,192,66816,1,0,0:0:0:0:
448,192,66816,128,0,67206:0:0:0:0:
320,192,67109,1,2,0:0:0:0:
192,192,67206,1,8,0:0:0:0:
64,192,67206,1,0,0:0:0:0:
448,192,67401,1,2,0:0:0:0:
192,192,67401,1,0,0:0:0:0:
320,192,67498,1,2,0:0:0:0:
192,192,67596,1,8,0:0:0:0:
64,192,67596,1,0,0:0:0:0:
448,192,67596,1,0,0:0:0:0:
64,192,67790,128,4,67985:0:0:0:0:
448,192,67790,1,2,0:0:0:0:
320,192,67790,1,0,0:0:0:0:
192,192,67985,1,8,0:0:0:0:
320,192,67985,1,0,0:0:0:0:
448,192,68180,1,0,0:0:0:0:
64,192,68180,1,0,0:0:0:0:
320,192,68278,1,2,0:0:0:0:
64,192,68375,1,8,0:0:0:0:
448,192,68375,1,0,0:0:0:0:
192,192,68375,1,0,0:0:0:0:
320,192,68570,1,2,0:0:0:0:
448,192,68570,1,0,0:0:0:0:
64,192,68765,1,8,0:0:0:0:
192,192,68765,1,0,0:0:0:0:
320,192,68765,1,0,0:0:0:0:
64,192,68959,1,0,0:0:0:0:
192,192,68959,1,0,0:0:0:0:
320,192,69057,1,2,0:0:0:0:
448,192,69154,1,8,0:0:0:0:
192,192,69154,1,0,0:0:0:0:
64,192,69154,1,0,0:0:0:0:
448,192,69349,1,0,0:0:0:0:
320,192,69349,128,0,69544:0:0:0:0:
64,192,69349,128,2,69544:0:0:0:0:
448,192,69544,1,8,0:0:0:0:
192,192,69544,1,0,0:0:0:0:
320,192,69641,1,0,0:0:0:0:
64,192,69641,1,0,0:0:0:0:
320,192,69836,1,2,0:0:0:0:
192,192,69836,1,0,0:0:0:0:
64,192,69933,1,8,0:0:0:0:
448,192,69933,1,0,0:0:0:0:
192,192,69998,1,0,0:0:0:0:
320,192,70063,1,0,0:0:0:0:
448,192,70128,1,2,0:0:0:0:
64,192,70128,1,0,0:0:0:0:
320,192,70193,1,0,0:0:0:0:
192,192,70258,1,0,0:0:0:0:
448,192,70323,1,8,0:0:0:0:
64,192,70323,128,0,70453:0:0:0:0:
192,192,70388,128,0,70518:0:0:0:0:
320,192,70453,128,0,70583:0:0:0:0:
448,192,70518,128,0,70648:0:0:0:0:
64,192,70583,128,0,70713:0:0:0:0:
192,192,70648,128,0,70778:0:0:0:0:
320,192,70713,128,8,70842:0:0:0:0:
448,192,70778,128,0,70842:0:0:0:0:
192,192,70842,128,0,70907:0:0:0:0:
320,192,70907,1,0,0:0:0:0:
448,192,70907,1,2,0:0:0:0:
64,192,70907,1,0,0:0:0:0:
192,192,71102,1,8,0:0:0:0:
64,192,71102,1,0,0:0:0:0:
448,192,71102,1,0,0:0:0:0:
64,192,71297,1,0,0:0:0:0:
448,192,71394,1,2,0:0:0:0:
320,192,71394,1,0,0:0:0:0:
64,192,71492,1,8,0:0:0:0:
192,192,71492,1,0,0:0:0:0:
320,192,71589,1,0,0:0:0:0:
448,192,71687,1,2,0:0:0:0:
64,192,71687,1,0,0:0:0:0:
320,192,71784,1,2,0:0:0:0:
192,192,71784,1,0,0:0:0:0:
448,192,71881,1,8,0:0:0:0:
64,192,71881,1,0,0:0:0:0:
192,192,71881,1,0,0:0:0:0:
320,192,72076,1,2,0:0:0:0:
448,192,72076,1,0,0:0:0:0:
192,192,72174,1,2,0:0:0:0:
64,192,72271,1,8,0:0:0:0:
320,192,72271,1,0,0:0:0:0:
448,192,72271,128,0,72855:0:0:0:0:
320,192,72661,128,8,72855:0:0:0:0:
64,192,72661,1,0,0:0:0:0:
192,192,72661,1,0,0:0:0:0:
64,192,72855,1,2,0:0:0:0:
192,192,72985,1,2,0:0:0:0:
448,192,73050,1,8,0:0:0:0:
320,192,73050,1,0,0:0:0:0:
64,192,73115,1,0,0:0:0:0:
192,192,73180,1,0,0:0:0:0:
448,192,73245,1,2,0:0:0:0:
64,192,73245,1,0,0:0:0:0:
320,192,73342,1,8,0:0:0:0:
448,192,73342,1,0,0:0:0:0:
192,192,73440,1,8,0:0:0:0:
64,192,73440,1,0,0:0:0:0:
320,192,73537,1,8,0:0:0:0:
448,192,73537,1,0,0:0:0:0:
192,192,73635,1,0,0:0:0:0:
64,192,73732,1,0,0:0:0:0:
448,192,73829,128,2,74219:0:0:0:0:
320,192,73829,1,4,0:0:0:0:
192,192,73829,1,0,0:0:0:0:
64,192,74122,128,0,74316:0:0:0:0:
192,192,74219,128,2,74414:0:0:0:0:
320,192,74316,128,2,74511:0:0:0:0:
448,192,74414,1,12,0:0:0:0:
64,192,74414,128,0,74706:0:0:0:0:
192,192,74609,128,2,74803:0:0:0:0:
320,192,74706,128,2,74901:0:0:0:0:
448,192,74803,128,12,75096:0:0:0:0:
64,192,74803,1,0,0:0:0:0:
192,192,74998,128,2,75193:0:0:0:0:
320,192,75096,128,2,75290:0:0:0:0:
64,192,75193,128,12,75485:0:0:0:0:
448,192,75193,128,0,75388:0:0:0:0:
192,192,75290,1,0,0:0:0:0:
320,192,75388,1,2,0:0:0:0:
448,192,75485,1,2,0:0:0:0:
320,192,75583,1,12,0:0:0:0:
64,192,75583,1,0,0:0:0:0:
192,192,75583,128,0,75972:0:0:0:0:
64,192,75972,1,0,0:0:0:0:
448,192,75972,128,0,76362:0:0:0:0:
192,192,76362,1,8,0:0:0:0:
64,192,76362,1,0,0:0:0:0:
320,192,76459,1,8,0:0:0:0:
448,192,76459,1,0,0:0:0:0:
192,192,76557,1,8,0:0:0:0:
64,192,76557,1,0,0:0:0:0:
320,192,76654,1,8,0:0:0:0:
448,192,76752,1,8,0:0:0:0:
64,192,76752,1,0,0:0:0:0:
192,192,76849,1,8,0:0:0:0:
320,192,76849,1,0,0:0:0:0:
448,192,76946,1,8,0:0:0:0:
64,192,76946,1,0,0:0:0:0:
320,192,77044,1,8,0:0:0:0:
192,192,77141,1,2,0:0:0:0:
448,192,77141,128,4,77336:0:0:0:0:
64,192,77141,128,0,77336:0:0:0:0:
320,192,77336,1,8,0:0:0:0:
192,192,77336,1,0,0:0:0:0:
64,192,77433,1,2,0:0:0:0:
448,192,77433,1,0,0:0:0:0:
192,192,77628,1,2,0:0:0:0:
320,192,77628,1,0,0:0:0:0:
64,192,77726,1,8,0:0:0:0:
192,192,77726,1,0,0:0:0:0:
448,192,77726,128,0,78505:0:0:0:0:
192,192,78018,1,2,0:0:0:0:
320,192,78115,1,8,0:0:0:0:
64,192,78115,1,0,0:0:0:0:
192,192,78213,128,0,78310:0:0:0:0:
64,192,78310,128,2,78407:0:0:0:0:
192,192,78407,128,2,78505:0:0:0:0:
320,192,78505,128,8,78602:0:0:0:0:
64,192,78505,1,0,0:0:0:0:
448,192,78602,128,0,78700:0:0:0:0:
64,192,78700,128,0,78894:0:0:0:0:
192,192,78700,128,0,78894:0:0:0:0:
320,192,78700,1,2,0:0:0:0:
448,192,78894,1,8,0:0:0:0:
320,192,78894,1,0,0:0:0:0:
192,192,78992,1,0,0:0:0:0:
64,192,78992,1,2,0:0:0:0:
192,192,79187,1,2,0:0:0:0:
64,192,79187,1,0,0:0:0:0:
320,192,79284,128,8,79674:0:0:0:0:
448,192,79284,1,0,0:0:0:0:
64,192,79284,1,0,0:0:0:0:
64,192,79576,1,2,0:0:0:0:
192,192,79674,1,8,0:0:0:0:
448,192,79674,1,0,0:0:0:0:
320,192,79868,1,2,0:0:0:0:
64,192,79868,1,0,0:0:0:0:
192,192,79966,1,2,0:0:0:0:
320,192,80063,1,8,0:0:0:0:
448,192,80063,1,0,0:0:0:0:
64,192,80063,1,0,0:0:0:0:
192,192,80258,1,2,0:0:0:0:
448,192,80258,1,0,0:0:0:0:
320,192,80453,1,8,0:0:0:0:
448,192,80453,1,0,0:0:0:0:
64,192,80453,1,0,0:0:0:0:
192,192,80550,1,0,0:0:0:0:
64,192,80648,1,0,0:0:0:0:
448,192,80648,1,0,0:0:0:0:
320,192,80745,1,2,0:0:0:0:
192,192,80842,1,8,0:0:0:0:
448,192,80842,1,0,0:0:0:0:
64,192,80842,1,0,0:0:0:0:
192,192,81037,1,2,0:0:0:0:
64,192,81037,1,0,0:0:0:0:
192,192,81167,1,2,0:0:0:0:
320,192,81167,1,0,0:0:0:0:
320,192,81297,1,2,0:0:0:0:
448,192,81297,1,0,0:0:0:0:
448,192,81427,1,2,0:0:0:0:
64,192,81427,1,0,0:0:0:0:
320,192,81557,1,0,0:0:0:0:
192,192,81557,1,0,0:0:0:0:
192,192,81687,1,2,0:0:0:0:
64,192,81687,1,0,0:0:0:0:
448,192,81816,128,6,81914:0:0:0:0:
64,192,81816,128,0,82011:0:0:0:0:
320,192,81914,128,0,82011:0:0:0:0:
192,192,82011,128,0,82109:0:0:0:0:
64,192,82109,128,0,82206:0:0:0:0:
448,192,82206,128,8,82401:0:0:0:0:
320,192,82206,128,0,82303:0:0:0:0:
192,192,82303,128,0,82401:0:0:0:0:
64,192,82401,128,0,82498:0:0:0:0:
320,192,82498,128,0,82596:0:0:0:0:
192,192,82596,128,2,82693:0:0:0:0:
64,192,82596,128,0,82790:0:0:0:0:
448,192,82693,128,0,82790:0:0:0:0:
320,192,82790,128,0,82888:0:0:0:0:
192,192,82888,128,8,82985:0:0:0:0:
448,192,82985,128,2,83180:0:0:0:0:
64,192,82985,128,0,83083:0:0:0:0:
192,192,83083,128,0,83180:0:0:0:0:
320,192,83180,128,8,83278:0:0:0:0:
64,192,83180,1,0,0:0:0:0:
448,192,83278,128,8,83375:0:0:0:0:
192,192,83278,1,0,0:0:0:0:
64,192,83375,1,2,0:0:0:0:
320,192,83375,1,0,0:0:0:0:
192,192,83570,1,0,0:0:0:0:
320,192,83667,1,0,0:0:0:0:
64,192,83667,1,0,0:0:0:0:
448,192,83765,1,0,0:0:0:0:
64,192,83862,1,0,0:0:0:0:
192,192,83959,1,0,0:0:0:0:
448,192,83959,1,0,0:0:0:0:
320,192,84057,1,0,0:0:0:0:
448,192,84154,1,2,0:0:0:0:
64,192,84154,1,0,0:0:0:0:
320,192,84252,1,0,0:0:0:0:
64,192,84349,1,0,0:0:0:0:
192,192,84349,1,0,0:0:0:0:
320,192,84446,1,8,0:0:0:0:
448,192,84544,1,8,0:0:0:0:
192,192,84544,1,0,0:0:0:0:
64,192,84641,1,0,0:0:0:0:
192,192,84739,1,8,0:0:0:0:
320,192,84739,1,0,0:0:0:0:
448,192,84836,1,8,0:0:0:0:
192,192,84933,1,2,0:0:0:0:
320,192,84933,1,0,0:0:0:0:
64,192,84933,128,0,85226:0:0:0:0:
448,192,85128,128,0,85226:0:0:0:0:
320,192,85128,128,0,85226:0:0:0:0:
448,192,85323,128,8,85518:0:0:0:0:
320,192,85323,128,0,85518:0:0:0:0:
64,192,85323,128,0,85518:0:0:0:0:
64,192,85615,1,0,0:0:0:0:
448,192,85615,1,0,0:0:0:0:
64,192,85713,128,2,86102:0:0:0:0:
448,192,85713,128,0,86102:0:0:0:0:
192,192,85713,1,0,0:0:0:0:
320,192,85907,128,0,86102:0:0:0:0:
192,192,86102,1,2,0:0:0:0:
320,192,86200,1,8,0:0:0:0:
64,192,86297,1,0,0:0:0:0:
448,192,86297,1,0,0:0:0:0:
192,192,86394,1,8,0:0:0:0:
320,192,86492,1,2,0:0:0:0:
64,192,86492,1,0,0:0:0:0:
448,192,86492,128,0,86881:0:0:0:0:
64,192,86784,128,0,86881:0:0:0:0:
192,192,86784,128,8,86881:0:0:0:0:
64,192,87076,128,2,87563:0:0:0:0:
448,192,87076,1,0,0:0:0:0:
192,192,87076,1,0,0:0:0:0:
192,192,87368,1,0,0:0:0:0:
448,192,87466,1,2,0:0:0:0:
320,192,87466,1,0,0:0:0:0:
192,192,87563,1,0,0:0:0:0:
320,192,87661,1,8,0:0:0:0:
448,192,87661,1,0,0:0:0:0:
64,192,87661,1,0,0:0:0:0:
192,192,87855,1,0,0:0:0:0:
320,192,87953,1,0,0:0:0:0:
448,192,88050,1,2,0:0:0:0:
64,192,88050,128,0,88440:0:0:0:0:
192,192,88050,1,0,0:0:0:0:
448,192,88342,128,8,88440:0:0:0:0:
320,192,88342,128,0,88440:0:0:0:0:
192,192,88635,1,2,0:0:0:0:
64,192,88635,1,0,0:0:0:0:
320,192,88635,128,0,89024:0:0:0:0:
64,192,89024,1,2,0:0:0:0:
448,192,89024,1,0,0:0:0:0:
448,192,89219,128,8,89609:0:0:0:0:
64,192,89219,1,0,0:0:0:0:
320,192,89219,1,0,0:0:0:0:
192,192,89414,1,8,0:0:0:0:
192,192,89609,1,2,0:0:0:0:
64,192,89609,1,0,0:0:0:0:
320,192,89609,1,0,0:0:0:0:
64,192,89803,128,0,89868:0:0:0:0:
192,192,89868,128,0,89933:0:0:0:0:
320,192,89933,128,0,89998:0:0:0:0:
448,192,89998,128,0,90063:0:0:0:0:
64,192,90063,128,0,90128:0:0:0:0:
192,192,90128,128,0,90193:0:0:0:0:
448,192,90193,128,0,90258:0:0:0:0:
320,192,90258,128,0,90323:0:0:0:0:
192,192,90323,128,0,90388:0:0:0:0:
64,192,90388,128,0,90453:0:0:0:0:
320,192,90453,128,0,90518:0:0:0:0:
448,192,90518,128,0,90583:0:0:0:0:
192,192,90583,128,0,90648:0:0:0:0:
320,192,90648,128,0,90713:0:0:0:0:
64,192,90713,128,0,90778:0:0:0:0:
192,192,90778,128,0,90842:0:0:0:0:
448,192,90842,128,0,90907:0:0:0:0:
320,192,90907,128,0,90972:0:0:0:0:
64,192,90972,128,0,91037:0:0:0:0:
192,192,91037,128,0,91102:0:0:0:0:
320,192,91102,128,0,91167:0:0:0:0:
64,192,91167,1,0,0:0:0:0:
448,192,91167,128,0,91557:0:0:0:0:
192,192,91557,128,0,91946:0:0:0:0:
320,192,91557,1,0,0:0:0:0:
64,192,91946,1,8,0:0:0:0:
448,192,91946,1,0,0:0:0:0:
320,192,92044,1,8,0:0:0:0:
192,192,92044,1,0,0:0:0:0:
448,192,92141,1,8,0:0:0:0:
64,192,92141,1,0,0:0:0:0:
320,192,92239,1,8,0:0:0:0:
192,192,92336,1,8,0:0:0:0:
64,192,92336,1,0,0:0:0:0:
448,192,92433,1,8,0:0:0:0:
320,192,92433,1,0,0:0:0:0:
192,192,92531,1,8,0:0:0:0:
64,192,92531,1,0,0:0:0:0:
320,192,92628,1,8,0:0:0:0:
448,192,92628,1,0,0:0:0:0:
448,192,92726,1,2,0:0:0:0:
192,192,92726,1,4,0:0:0:0:
64,192,92726,128,0,92920:0:0:0:0:
320,192,92920,1,8,0:0:0:0:
448,192,92920,1,0,0:0:0:0:
192,192,93018,128,2,93213:0:0:0:0:
64,192,93018,1,0,0:0:0:0:
64,192,93213,1,2,0:0:0:0:
448,192,93310,128,8,94089:0:0:0:0:
320,192,93310,1,0,0:0:0:0:
192,192,93310,1,0,0:0:0:0:
320,192,93602,1,2,0:0:0:0:
192,192,93700,1,8,0:0:0:0:
64,192,93700,1,0,0:0:0:0:
192,192,93894,1,2,0:0:0:0:
320,192,93992,1,2,0:0:0:0:
192,192,94089,1,8,0:0:0:0:
64,192,94089,1,0,0:0:0:0:
320,192,94187,1,0,0:0:0:0:
448,192,94284,1,2,0:0:0:0:
64,192,94284,128,0,94479:0:0:0:0:
192,192,94284,1,0,0:0:0:0:
320,192,94479,1,8,0:0:0:0:
192,192,94479,1,0,0:0:0:0:
448,192,94576,128,2,94771:0:0:0:0:
64,192,94576,1,0,0:0:0:0:
192,192,94771,1,2,0:0:0:0:
320,192,94868,128,8,95063:0:0:0:0:
448,192,94868,1,0,0:0:0:0:
64,192,94868,1,0,0:0:0:0:
448,192,95063,1,0,0:0:0:0:
192,192,95063,1,0,0:0:0:0:
64,192,95161,128,2,95355:0:0:0:0:
320,192,95161,1,0,0:0:0:0:
192,192,95355,1,0,0:0:0:0:
448,192,95453,1,2,0:0:0:0:
320,192,95453,1,0,0:0:0:0:
192,192,95550,1,2,0:0:0:0:
448,192,95648,1,8,0:0:0:0:
64,192,95648,1,0,0:0:0:0:
320,192,95648,1,0,0:0:0:0:
192,192,95745,1,0,0:0:0:0:
448,192,95842,1,2,0:0:0:0:
64,192,95842,1,0,0:0:0:0:
320,192,95842,128,0,96037:0:0:0:0:
64,192,96037,1,8,0:0:0:0:
192,192,96037,1,0,0:0:0:0:
448,192,96135,128,2,96329:0:0:0:0:
320,192,96135,1,0,0:0:0:0:
192,192,96329,1,2,0:0:0:0:
320,192,96427,1,8,0:0:0:0:
64,192,96427,128,0,97206:0:0:0:0:
448,192,96427,1,0,0:0:0:0:
192,192,96719,1,2,0:0:0:0:
320,192,96816,1,8,0:0:0:0:
448,192,96816,1,0,0:0:0:0:
192,192,97011,1,2,0:0:0:0:
320,192,97109,1,2,0:0:0:0:
192,192,97206,1,8,0:0:0:0:
448,192,97206,1,0,0:0:0:0:
320,192,97303,1,0,0:0:0:0:
192,192,97401,1,2,0:0:0:0:
448,192,97401,1,0,0:0:0:0:
64,192,97401,1,0,0:0:0:0:
448,192,97596,1,8,0:0:0:0:
320,192,97596,1,0,0:0:0:0:
64,192,97596,1,0,0:0:0:0:
192,192,97693,1,2,0:0:0:0:
448,192,97790,1,0,0:0:0:0:
320,192,97888,1,2,0:0:0:0:
448,192,97985,1,8,0:0:0:0:
192,192,97985,1,0,0:0:0:0:
64,192,97985,1,0,0:0:0:0:
64,192,98180,1,2,0:0:0:0:
448,192,98180,1,0,0:0:0:0:
192,192,98278,1,2,0:0:0:0:
320,192,98278,1,0,0:0:0:0:
192,192,98375,1,8,0:0:0:0:
64,192,98375,1,0,0:0:0:0:
448,192,98375,1,0,0:0:0:0:
64,192,98570,1,2,0:0:0:0:
320,192,98570,1,0,0:0:0:0:
448,192,98667,1,0,0:0:0:0:
192,192,98667,1,2,0:0:0:0:
64,192,98765,1,8,0:0:0:0:
320,192,98765,1,0,0:0:0:0:
192,192,98862,1,0,0:0:0:0:
320,192,98959,1,2,0:0:0:0:
448,192,98959,1,0,0:0:0:0:
64,192,98959,128,0,99154:0:0:0:0:
448,192,99154,1,8,0:0:0:0:
192,192,99154,1,0,0:0:0:0:
320,192,99252,128,2,99446:0:0:0:0:
64,192,99252,1,0,0:0:0:0:
192,192,99349,1,0,0:0:0:0:
320,192,99544,128,8,100518:0:0:0:0:
448,192,99544,1,0,0:0:0:0:
64,192,99544,1,0,0:0:0:0:
64,192,99836,1,2,0:0:0:0:
192,192,99933,1,8,0:0:0:0:
448,192,99933,1,0,0:0:0:0:
64,192,100128,1,2,0:0:0:0:
192,192,100226,1,2,0:0:0:0:
64,192,100323,1,8,0:0:0:0:
448,192,100323,1,0,0:0:0:0:
192,192,100518,1,2,0:0:0:0:
448,192,100518,1,0,0:0:0:0:
64,192,100518,128,0,100713:0:0:0:0:
320,192,100713,1,8,0:0:0:0:
448,192,100713,1,0,0:0:0:0:
64,192,100810,1,2,0:0:0:0:
192,192,100810,128,0,101005:0:0:0:0:
64,192,101005,1,2,0:0:0:0:
320,192,101102,128,8,101492:0:0:0:0:
192,192,101102,1,0,0:0:0:0:
448,192,101102,1,0,0:0:0:0:
448,192,101394,1,2,0:0:0:0:
192,192,101492,1,8,0:0:0:0:
64,192,101492,1,0,0:0:0:0:
320,192,101687,1,2,0:0:0:0:
448,192,101687,1,0,0:0:0:0:
192,192,101784,1,2,0:0:0:0:
448,192,101881,1,8,0:0:0:0:
320,192,101881,1,0,0:0:0:0:
64,192,101881,1,0,0:0:0:0:
192,192,101979,1,0,0:0:0:0:
448,192,102076,128,2,102271:0:0:0:0:
64,192,102076,1,0,0:0:0:0:
320,192,102076,1,0,0:0:0:0:
192,192,102271,1,8,0:0:0:0:
64,192,102271,1,0,0:0:0:0:
320,192,102368,128,2,102563:0:0:0:0:
448,192,102368,1,0,0:0:0:0:
448,192,102563,1,2,0:0:0:0:
192,192,102661,1,8,0:0:0:0:
64,192,102661,128,0,102855:0:0:0:0:
320,192,102661,1,0,0:0:0:0:
448,192,102855,1,0,0:0:0:0:
320,192,102855,1,0,0:0:0:0:
192,192,102953,1,2,0:0:0:0:
64,192,103050,1,8,0:0:0:0:
320,192,103050,1,0,0:0:0:0:
448,192,103050,1,0,0:0:0:0:
192,192,103245,1,2,0:0:0:0:
64,192,103245,1,0,0:0:0:0:
320,192,103342,1,2,0:0:0:0:
448,192,103440,1,8,0:0:0:0:
192,192,103440,1,0,0:0:0:0:
64,192,103440,1,0,0:0:0:0:
448,192,103635,1,2,0:0:0:0:
320,192,103635,128,0,104219:0:0:0:0:
192,192,103635,1,0,0:0:0:0:
64,192,103829,1,8,0:0:0:0:
192,192,103927,1,8,0:0:0:0:
64,192,104024,1,8,0:0:0:0:
192,192,104122,1,8,0:0:0:0:
64,192,104219,128,2,104316:0:0:0:0:
448,192,104219,1,0,0:0:0:0:
192,192,104316,128,0,104414:0:0:0:0:
320,192,104316,1,0,0:0:0:0:
448,192,104414,128,8,104511:0:0:0:0:
64,192,104414,1,0,0:0:0:0:
320,192,104511,128,8,104609:0:0:0:0:
192,192,104511,1,0,0:0:0:0:
64,192,104609,128,8,104706:0:0:0:0:
448,192,104609,1,0,0:0:0:0:
192,192,104706,128,0,104803:0:0:0:0:
320,192,104706,1,0,0:0:0:0:
448,192,104803,128,2,104901:0:0:0:0:
64,192,104803,1,0,0:0:0:0:
320,192,104901,128,0,104998:0:0:0:0:
192,192,104901,1,0,0:0:0:0:
64,192,104998,128,8,105096:0:0:0:0:
448,192,104998,1,0,0:0:0:0:
192,192,105096,128,8,105193:0:0:0:0:
320,192,105096,1,0,0:0:0:0:
64,192,105193,1,2,0:0:0:0:
448,192,105193,1,0,0:0:0:0:
320,192,105485,1,2,0:0:0:0:
192,192,105485,1,0,0:0:0:0:
192,192,105778,1,6,0:0:0:0:
64,192,105778,1,0,0:0:0:0:
448,192,105778,1,0,0:0:0:0:
320,192,105778,1,0,0:0:0:0:
320,192,106070,1,2,0:0:0:0:
448,192,106070,1,0,0:0:0:0:
192,192,106167,1,8,0:0:0:0:
64,192,106167,1,0,0:0:0:0:
192,192,106362,1,2,0:0:0:0:
320,192,106459,1,2,0:0:0:0:
448,192,106557,1,8,0:0:0:0:
64,192,106557,1,0,0:0:0:0:
320,192,106752,1,2,0:0:0:0:
448,192,106752,1,0,0:0:0:0:
64,192,106752,1,0,0:0:0:0:
192,192,106849,1,0,0:0:0:0:
320,192,106946,1,8,0:0:0:0:
448,192,107044,1,2,0:0:0:0:
64,192,107044,1,0,0:0:0:0:
192,192,107044,1,0,0:0:0:0:
320,192,107141,1,0,0:0:0:0:
192,192,107239,1,2,0:0:0:0:
448,192,107336,1,8,0:0:0:0:
64,192,107336,1,0,0:0:0:0:
320,192,107336,1,0,0:0:0:0:
192,192,107433,1,0,0:0:0:0:
448,192,107531,1,0,0:0:0:0:
320,192,107628,1,2,0:0:0:0:
64,192,107628,1,0,0:0:0:0:
192,192,107628,1,0,0:0:0:0:
448,192,107726,1,8,0:0:0:0:
320,192,107823,1,0,0:0:0:0:
448,192,107920,1,2,0:0:0:0:
64,192,107920,1,0,0:0:0:0:
192,192,107920,1,0,0:0:0:0:
320,192,108018,1,2,0:0:0:0:
448,192,108115,1,8,0:0:0:0:
64,192,108115,1,0,0:0:0:0:
192,192,108213,1,0,0:0:0:0:
320,192,108310,1,2,0:0:0:0:
448,192,108310,1,0,0:0:0:0:
64,192,108310,1,0,0:0:0:0:
192,192,108407,1,0,0:0:0:0:
320,192,108505,1,8,0:0:0:0:
448,192,108602,1,2,0:0:0:0:
64,192,108602,1,0,0:0:0:0:
192,192,108602,1,0,0:0:0:0:
320,192,108700,1,0,0:0:0:0:
64,192,108797,1,2,0:0:0:0:
192,192,108894,1,8,0:0:0:0:
448,192,108894,1,0,0:0:0:0:
320,192,108894,1,0,0:0:0:0:
64,192,108992,1,0,0:0:0:0:
192,192,109089,1,0,0:0:0:0:
320,192,109187,1,2,0:0:0:0:
192,192,109284,1,8,0:0:0:0:
448,192,109284,1,0,0:0:0:0:
64,192,109381,1,0,0:0:0:0:
448,192,109479,1,2,0:0:0:0:
320,192,109479,1,0,0:0:0:0:
192,192,109576,1,2,0:0:0:0:
64,192,109576,1,0,0:0:0:0:
448,192,109674,1,8,0:0:0:0:
320,192,109674,1,0,0:0:0:0:
192,192,109771,1,0,0:0:0:0:
448,192,109868,1,8,0:0:0:0:
320,192,109868,1,0,0:0:0:0:
64,192,109868,128,0,110453:0:0:0:0:
192,192,110063,1,8,0:0:0:0:
448,192,110063,1,0,0:0:0:0:
320,192,110161,1,2,0:0:0:0:
448,192,110258,1,0,0:0:0:0:
192,192,110355,1,2,0:0:0:0:
320,192,110453,1,8,0:0:0:0:
448,192,110453,128,0,111037:0:0:0:0:
192,192,110550,1,0,0:0:0:0:
64,192,110648,1,2,0:0:0:0:
320,192,110745,1,2,0:0:0:0:
64,192,110842,1,8,0:0:0:0:
192,192,110842,1,0,0:0:0:0:
320,192,110940,1,0,0:0:0:0:
64,192,111037,1,2,0:0:0:0:
192,192,111037,1,0,0:0:0:0:
320,192,111135,1,2,0:0:0:0:
448,192,111232,1,8,0:0:0:0:
64,192,111232,1,0,0:0:0:0:
320,192,111329,1,0,0:0:0:0:
192,192,111427,1,2,0:0:0:0:
64,192,111427,1,0,0:0:0:0:
448,192,111427,1,0,0:0:0:0:
64,192,111622,1,8,0:0:0:0:
192,192,111622,1,0,0:0:0:0:
448,192,111719,1,2,0:0:0:0:
320,192,111719,1,0,0:0:0:0:
448,192,111914,128,2,112109:0:0:0:0:
192,192,111914,1,0,0:0:0:0:
64,192,112011,1,8,0:0:0:0:
320,192,112011,128,0,112206:0:0:0:0:
64,192,112206,128,0,112401:0:0:0:0:
448,192,112206,1,0,0:0:0:0:
192,192,112303,128,2,112498:0:0:0:0:
320,192,112303,1,0,0:0:0:0:
448,192,112498,128,0,112693:0:0:0:0:
64,192,112498,1,0,0:0:0:0:
320,192,112596,128,2,112790:0:0:0:0:
192,192,112596,1,0,0:0:0:0:
64,192,112790,128,8,112985:0:0:0:0:
448,192,112790,1,0,0:0:0:0:
192,192,112888,128,0,112985:0:0:0:0:
448,192,112985,1,0,0:0:0:0:
320,192,112985,1,2,0:0:0:0:
64,192,113083,128,0,113278:0:0:0:0:
192,192,113083,1,0,0:0:0:0:
448,192,113180,128,8,113375:0:0:0:0:
320,192,113180,1,0,0:0:0:0:
64,192,113375,1,0,0:0:0:0:
192,192,113375,128,0,113570:0:0:0:0:
320,192,113472,1,2,0:0:0:0:
448,192,113472,128,0,113667:0:0:0:0:
320,192,113667,1,0,0:0:0:0:
192,192,113667,128,0,113862:0:0:0:0:
64,192,113765,128,0,113959:0:0:0:0:
448,192,113765,1,0,0:0:0:0:
192,192,113959,1,2,0:0:0:0:
448,192,113959,1,0,0:0:0:0:
64,192,114057,128,0,114154:0:0:0:0:
192,192,114154,128,2,114252:0:0:0:0:
320,192,114154,1,0,0:0:0:0:
448,192,114252,128,2,114349:0:0:0:0:
320,192,114349,128,8,114446:0:0:0:0:
192,192,114446,128,0,114544:0:0:0:0:
64,192,114544,128,2,114641:0:0:0:0:
448,192,114544,1,0,0:0:0:0:
320,192,114641,128,0,114739:0:0:0:0:
448,192,114739,128,8,114836:0:0:0:0:
192,192,114836,128,2,114933:0:0:0:0:
64,192,114836,1,0,0:0:0:0:
320,192,114933,128,0,115031:0:0:0:0:
448,192,115031,128,2,115128:0:0:0:0:
192,192,115128,128,8,115226:0:0:0:0:
320,192,115128,1,0,0:0:0:0:
64,192,115226,128,0,115323:0:0:0:0:
320,192,115323,128,0,115420:0:0:0:0:
192,192,115420,128,2,115518:0:0:0:0:
448,192,115518,128,8,115615:0:0:0:0:
64,192,115518,1,0,0:0:0:0:
320,192,115615,128,8,115713:0:0:0:0:
192,192,115615,1,0,0:0:0:0:
64,192,115713,1,8,0:0:0:0:
448,192,115713,1,0,0:0:0:0:
320,192,115810,1,8,0:0:0:0:
192,192,115810,1,0,0:0:0:0:
64,192,115907,1,8,0:0:0:0:
448,192,115907,1,0,0:0:0:0:
192,192,116005,1,8,0:0:0:0:
320,192,116005,1,0,0:0:0:0:
64,192,116102,128,2,116589:0:0:0:0:
448,192,116102,1,0,0:0:0:0:
192,192,116297,1,0,0:0:0:0:
320,192,116394,1,0,0:0:0:0:
448,192,116492,1,0,0:0:0:0:
320,192,116589,1,0,0:0:0:0:
192,192,116687,1,10,0:0:0:0:
64,192,116687,1,0,0:0:0:0:
448,192,116687,128,0,117174:0:0:0:0:
320,192,116881,1,0,0:0:0:0:
192,192,116979,1,0,0:0:0:0:
64,192,117076,1,0,0:0:0:0:
192,192,117174,1,0,0:0:0:0:
320,192,117271,1,10,0:0:0:0:
448,192,117271,1,0,0:0:0:0:
64,192,117271,1,0,0:0:0:0:
192,192,117466,128,2,118927:0:0:0:0:
64,192,117466,128,4,123894:0:0:0:0:
320,192,117466,128,0,118440:0:0:0:0:
448,192,117466,1,0,0:0:0:0:
448,192,118440,1,0,0:0:0:0:
320,192,118927,1,0,0:0:0:0:
192,192,119349,1,0,0:0:0:0:
448,192,119739,1,0,0:0:0:0:
320,192,120128,1,0,0:0:0:0:
448,192,120583,1,0,0:0:0:0:
192,192,121094,1,0,0:0:0:0:
192,192,121703,128,0,123894:0:0:0:0:
320,192,121784,128,0,123894:0:0:0:0:
448,192,121873,128,0,123894:0:0:0:0:
