osu file format v14

[General]
AudioFilename: audio.mp3
AudioLeadIn: 0
PreviewTime: 63114
Countdown: 0
SampleSet: Normal
StackLeniency: 0.7
Mode: 1
LetterboxInBreaks: 0
WidescreenStoryboard: 1

[Editor]
DistanceSpacing: 0.9
BeatDivisor: 4
GridSize: 16
TimelineZoom: 1.2

[Metadata]
Title:Lord=Crossight
TitleUnicode:Lord=Crossight
Artist:penoreri
ArtistUnicode:ぺのれり
Creator:cdhsausageboy
Version:Futsuu
Source:SOUND VOLTEX III GRAVITY WARS
Tags:悲しい嘘 sdvx RASIS KAC Original Song Contest yaoyujie0332
BeatmapID:1342739
BeatmapSetID:632309

[Difficulty]
HPDrainRate:6
CircleSize:5
OverallDifficulty:4.5
ApproachRate:5
SliderMultiplier:1.4
SliderTickRate:1

[Events]
//Background and Video events
0,0,"Crossight.png",0,0
//Break Periods
2,27470,38538
//Storyboard Layer 0 (Background)
//Storyboard Layer 1 (Fail)
//Storyboard Layer 2 (Pass)
//Storyboard Layer 3 (Foreground)
//Storyboard Sound Samples

[TimingPoints]
777,389.61038961039,4,1,0,100,1,0
64673,-100,4,1,0,100,0,1
92725,-100,4,1,0,100,0,0
117465,-100,4,2,0,100,0,0

[HitObjects]
160,160,2335,5,0,0:0:0:0:
160,160,2627,1,0,0:0:0:0:
160,160,2919,1,0,0:0:0:0:
288,224,3893,1,8,0:0:0:0:
240,192,5452,1,8,0:0:0:0:
240,192,7010,1,8,0:0:0:0:
240,192,8471,1,8,0:0:0:0:
240,192,10127,1,8,0:0:0:0:
240,192,10906,1,8,0:0:0:0:
240,192,11296,1,8,0:0:0:0:
240,192,11686,1,8,0:0:0:0:
176,224,13244,1,8,0:0:0:0:
176,224,13634,1,8,0:0:0:0:
256,144,14023,1,0,0:0:0:0:
256,144,14413,1,0,0:0:0:0:
256,144,14802,1,0,0:0:0:0:
240,144,15582,1,0,0:0:0:0:
208,176,15971,1,8,0:0:0:0:
304,176,16361,1,0,0:0:0:0:
288,160,17140,1,0,0:0:0:0:
288,160,17530,1,0,0:0:0:0:
256,208,17919,1,8,0:0:0:0:
240,192,18504,1,8,0:0:0:0:
240,192,19088,1,8,0:0:0:0:
240,192,19673,1,8,0:0:0:0:
240,192,20257,1,8,0:0:0:0:
240,192,20841,1,8,0:0:0:0:
320,192,21036,1,0,0:0:0:0:
256,192,21621,1,0,0:0:0:0:
256,192,22205,1,0,0:0:0:0:
256,192,22789,1,0,0:0:0:0:
256,192,23374,1,8,0:0:0:0:
288,192,23958,1,0,0:0:0:0:
288,160,24543,1,0,0:0:0:0:
272,176,24932,1,0,0:0:0:0:
304,208,25322,1,8,0:0:0:0:
256,192,25712,12,0,27270,0:0:0:0:
192,160,39738,5,0,0:0:0:0:
192,160,40322,1,0,0:0:0:0:
208,176,40517,1,8,0:0:0:0:
272,176,41296,1,0,0:0:0:0:
96,96,41588,1,0,0:0:0:0:
208,144,41880,1,0,0:0:0:0:
160,144,42075,1,8,0:0:0:0:
192,160,42854,5,0,0:0:0:0:
192,160,43438,1,0,0:0:0:0:
208,176,43633,1,8,0:0:0:0:
272,176,44412,1,0,0:0:0:0:
192,128,44705,1,0,0:0:0:0:
208,144,44996,1,0,0:0:0:0:
160,144,45191,1,8,0:0:0:0:
192,160,45971,5,0,0:0:0:0:
192,160,46555,1,0,0:0:0:0:
208,176,46750,1,8,0:0:0:0:
272,176,47529,1,0,0:0:0:0:
112,96,47822,1,0,0:0:0:0:
208,144,48113,1,0,0:0:0:0:
160,144,48308,1,8,0:0:0:0:
192,160,49088,5,0,0:0:0:0:
192,160,49672,1,0,0:0:0:0:
208,176,49867,1,8,0:0:0:0:
272,176,50647,1,8,0:0:0:0:
272,160,51036,1,8,0:0:0:0:
224,128,51426,1,8,0:0:0:0:
352,208,51815,1,8,0:0:0:0:
320,224,52010,1,0,0:0:0:0:
320,224,52205,1,0,0:0:0:0:
224,240,52984,1,0,0:0:0:0:
160,160,53374,1,0,0:0:0:0:
160,192,53569,1,8,0:0:0:0:
128,176,53764,1,0,0:0:0:0:
224,144,54543,1,0,0:0:0:0:
240,192,54932,1,8,0:0:0:0:
240,192,55127,1,8,0:0:0:0:
80,176,55322,1,0,0:0:0:0:
80,176,56101,1,0,0:0:0:0:
192,192,56491,1,0,0:0:0:0:
192,192,56686,1,0,0:0:0:0:
288,192,56880,1,8,0:0:0:0:
288,192,57173,1,8,0:0:0:0:
192,176,57660,1,0,0:0:0:0:
192,176,58049,1,0,0:0:0:0:
288,176,58439,1,12,0:0:0:0:
256,224,59413,1,0,0:0:0:0:
272,208,59802,1,12,0:0:0:0:
272,208,60777,1,12,0:0:0:0:
256,192,61361,12,12,63114,0:0:0:0:
336,192,64673,5,8,0:0:0:0:
320,192,64965,1,8,0:0:0:0:
320,192,65257,1,8,0:0:0:0:
272,224,66231,1,0,0:0:0:0:
272,224,66523,1,0,0:0:0:0:
272,224,66815,1,0,0:0:0:0:
448,208,67400,1,8,0:0:0:0:
304,240,67789,1,0,0:0:0:0:
160,240,68179,1,8,0:0:0:0:
48,256,68569,1,0,0:0:0:0:
80,240,68764,1,0,0:0:0:0:
240,224,68958,1,8,0:0:0:0:
304,208,69348,1,0,0:0:0:0:
256,160,69640,1,0,0:0:0:0:
256,224,70906,1,8,0:0:0:0:
272,224,71881,1,8,0:0:0:0:
224,160,72075,1,0,0:0:0:0:
272,208,72270,1,8,0:0:0:0:
240,176,72660,1,0,0:0:0:0:
240,224,73828,1,0,0:0:0:0:
224,208,74413,1,8,0:0:0:0:
304,224,74802,1,0,0:0:0:0:
288,192,75192,1,8,0:0:0:0:
288,192,75582,1,8,0:0:0:0:
176,160,76361,1,8,0:0:0:0:
336,192,77140,5,8,0:0:0:0:
320,192,77432,1,8,0:0:0:0:
320,192,77724,1,8,0:0:0:0:
272,224,78698,1,0,0:0:0:0:
272,224,78990,1,0,0:0:0:0:
272,224,79282,1,0,0:0:0:0:
448,208,79867,1,8,0:0:0:0:
304,240,80256,1,0,0:0:0:0:
160,240,80646,1,8,0:0:0:0:
352,192,81036,1,0,0:0:0:0:
288,160,81426,1,8,0:0:0:0:
464,224,81815,1,8,0:0:0:0:
464,224,82595,1,8,0:0:0:0:
352,224,83374,1,0,0:0:0:0:
224,176,84543,1,8,0:0:0:0:
352,192,84932,1,0,0:0:0:0:
352,192,85127,1,8,0:0:0:0:
320,192,85322,1,8,0:0:0:0:
336,208,85712,1,0,0:0:0:0:
352,208,86101,1,8,0:0:0:0:
144,176,86491,1,8,0:0:0:0:
160,176,86783,1,8,0:0:0:0:
160,176,87075,1,8,0:0:0:0:
240,128,88049,1,0,0:0:0:0:
240,128,88341,1,0,0:0:0:0:
240,128,88634,1,0,0:0:0:0:
256,160,89218,1,8,0:0:0:0:
48,32,89608,2,0,L|576:256,1,560
224,176,91945,1,0,0:0:0:0:
176,144,92725,1,0,0:0:0:0:
304,192,93309,1,8,0:0:0:0:
288,176,94283,1,0,0:0:0:0:
304,208,94867,1,8,0:0:0:0:
288,208,95452,1,8,0:0:0:0:
176,144,95841,1,0,0:0:0:0:
304,192,96425,1,8,0:0:0:0:
288,176,97399,1,0,0:0:0:0:
304,208,97983,1,8,0:0:0:0:
288,208,98568,1,8,0:0:0:0:
176,144,98958,1,0,0:0:0:0:
304,192,99542,1,8,0:0:0:0:
288,176,100516,1,0,0:0:0:0:
304,208,101100,1,8,0:0:0:0:
288,208,101685,1,8,0:0:0:0:
176,144,102075,1,0,0:0:0:0:
304,192,102854,1,8,0:0:0:0:
256,192,103634,12,0,105192,0:0:0:0:
192,176,106751,5,0,0:0:0:0:
208,192,107335,1,8,0:0:0:0:
208,192,107919,1,8,0:0:0:0:
176,144,108309,1,0,0:0:0:0:
304,192,108893,1,8,0:0:0:0:
288,176,109867,1,0,0:0:0:0:
304,208,110451,1,8,0:0:0:0:
288,208,111036,1,8,0:0:0:0:
176,144,111426,1,0,0:0:0:0:
304,192,112010,1,8,0:0:0:0:
288,176,112984,1,0,0:0:0:0:
304,208,113568,1,8,0:0:0:0:
288,208,114153,1,8,0:0:0:0:
176,144,114543,1,0,0:0:0:0:
304,192,115127,1,8,0:0:0:0:
288,176,116101,1,4,0:0:0:0:
304,208,116685,1,12,0:0:0:0:
176,176,117270,1,4,0:0:0:0:
256,192,117465,12,0,121751,0:0:0:0:
