osu file format v14

[General]
AudioFilename: audio.mp3
AudioLeadIn: 0
PreviewTime: 63874
Countdown: 0
SampleSet: None
StackLeniency: 0.2
Mode: 0
LetterboxInBreaks: 0
WidescreenStoryboard: 1

[Editor]
Bookmarks: 1391,7656,7754,7827,7997,8143,8264,8265,8385,8482,8555,8628,8701,8774,8847,8920,8993,9066,9139,9236,9625,9916,10890,11182,11474,15565,28030,63874,65433,71667,73809,77900,81797,82576,91926,93485,104394,105952
DistanceSpacing: 0.3
BeatDivisor: 4
GridSize: 16
TimelineZoom: 3.5

[Metadata]
Title:Lord=Crossight
TitleUnicode:Lord=Crossight
Artist:penoreri
ArtistUnicode:ぺのれり
Creator:Naidaaka
Version:+hitsounds
Source:SOUND VOLTEX III GRAVITY WARS
Tags:tfw K.Flat is good af
BeatmapID:1559510
BeatmapSetID:738982

[Difficulty]
HPDrainRate:4
CircleSize:4.4
OverallDifficulty:9
ApproachRate:9.4
SliderMultiplier:2.2
SliderTickRate:1

[Events]
//Background and Video events
0,0,"rafis.png",0,0
//Break Periods
//Storyboard Layer 0 (Background)
//Storyboard Layer 1 (Fail)
//Storyboard Layer 2 (Pass)
//Storyboard Layer 3 (Foreground)
//Storyboard Sound Samples

[TimingPoints]
1391,389.61038961039,4,1,1,60,1,0
3079,389.61038961039,4,1,1,60,1,0
3079,-71.4285714285714,4,1,1,60,0,0
3663,-322.58064516129,4,1,1,60,0,0
4540,-322.58064516129,4,1,1,5,0,0
4637,-322.58064516129,4,1,1,60,0,0
7656,389.61038961039,4,1,1,60,1,0
7656,-142.857142857143,4,1,1,60,0,0
7754,-71.4285714285714,4,1,1,60,0,0
7827,389.61038961039,4,1,1,60,1,0
7827,-100,4,1,1,60,0,0
7997,389.61038961039,4,1,1,60,1,0
8143,389.61038961039,4,1,1,60,1,0
8264,389.61038961039,4,1,1,60,1,0
8385,389.61038961039,4,1,1,60,1,0
8482,389.61038961039,4,1,1,60,1,0
8555,389.61038961039,4,1,1,60,1,0
8628,389.61038961039,4,1,1,60,1,0
8701,389.61038961039,4,1,1,60,1,0
8774,389.61038961039,4,1,1,60,1,0
8847,389.61038961039,4,1,1,60,1,0
8920,389.61038961039,4,1,1,60,1,0
8993,389.61038961039,4,1,1,60,1,0
9066,389.61038961039,4,1,1,60,1,0
9139,389.61038961039,4,1,1,60,1,0
9236,389.61038961039,4,1,1,60,1,0
9625,389.61038961039,4,1,1,60,1,0
9916,389.61038961039,4,1,1,60,1,0
10890,389.61038961039,4,1,1,60,1,0
13032,-1000,4,1,1,60,0,0
14006,-83.3333333333333,4,1,1,60,0,0
15565,389.61038961039,4,1,1,60,1,0
18852,389.61038961039,4,1,1,60,1,0
18852,-83.3333333333333,4,1,1,60,0,0
19241,-100,4,1,1,60,0,0
19460,389.61038961039,4,1,1,60,1,0
19557,-125,4,1,1,60,0,0
19849,-166.666666666667,4,1,1,60,0,0
20141,-250,4,1,1,60,0,0
20434,-166.666666666667,4,1,1,60,0,0
20726,-250,4,1,1,60,0,0
21018,-166.666666666667,4,1,1,60,0,0
21310,-200,4,1,1,60,0,0
21602,-250,4,1,1,60,0,0
21797,389.61038961039,4,1,1,60,1,0
21797,-250,4,1,1,60,0,0
22186,-66.6666666666667,4,1,1,60,0,0
22284,-66.6666666666667,4,1,1,5,0,0
22381,-55.5555555555556,4,1,1,60,0,0
23452,-142.857142857143,4,1,1,60,0,0
23745,-66.6666666666667,4,1,1,60,0,0
23842,-66.6666666666667,4,1,1,60,0,0
23939,-66.6666666666667,4,1,1,60,0,0
24134,-66.6666666666667,4,1,1,60,0,0
24232,-142.857142857143,4,1,1,60,0,0
24719,-200,4,1,1,60,0,0
24819,-100,4,1,1,60,0,0
37381,-200,4,1,1,60,0,0
37965,-100,4,1,1,60,0,0
40498,-400,4,1,1,60,0,0
40985,-400,4,1,1,5,0,0
41082,-100,4,1,1,60,0,0
41277,-80,4,1,1,60,0,0
41569,-80,4,1,1,5,0,0
41667,-100,4,1,1,60,0,0
42056,-238.095238095238,4,1,1,60,0,0
42835,-100,4,1,1,60,0,0
43615,-400,4,1,1,60,0,0
44102,-80,4,1,1,5,0,0
44199,-100,4,1,1,60,0,0
45173,-100,4,1,1,60,0,0
46732,-400,4,1,1,60,0,0
47219,-400,4,1,1,5,0,0
47316,-100,4,1,1,60,0,0
47511,-80,4,1,1,60,0,0
48095,-100,4,1,1,60,0,0
48290,-200,4,1,1,60,0,0
48485,-200,4,1,1,5,0,0
48582,-200,4,1,1,60,0,0
48777,-200,4,1,1,5,0,0
48874,-200,4,1,1,60,0,0
48972,-200,4,1,1,5,0,0
49069,-125,4,1,1,60,0,0
52965,-100,4,1,1,60,0,0
60173,-83.3333333333333,4,1,1,60,0,0
60952,-100,4,1,1,60,0,0
61537,-71.4285714285714,4,1,1,60,0,0
61732,-100,4,1,1,60,0,0
65433,-62.5,4,1,1,60,0,1
76342,-62.5,4,1,1,60,0,0
77121,-62.5,4,1,1,60,0,1
77316,-62.5,4,1,1,60,0,0
77511,-62.5,4,1,1,60,0,1
77706,-62.5,4,1,1,60,0,0
77900,-62.5,4,1,1,60,0,1
86082,-100,4,1,1,60,0,1
86861,-62.5,4,1,1,60,0,1
91926,-62.5,4,1,1,60,0,0
105952,-62.5,4,1,1,60,0,1
111407,-83.3333333333333,4,1,1,60,0,1
113258,-62.5,4,1,1,60,0,1
116667,-62.5,4,1,1,60,0,0
116861,-62.5,4,1,1,60,0,1
117154,-62.5,4,1,1,60,0,0
117446,-62.5,4,1,1,60,0,1
117738,-62.5,4,1,1,60,0,0
118030,-62.5,4,1,1,60,0,1
118128,-62.5,4,1,1,60,0,0
118225,-62.5,4,1,1,60,0,1
118322,-62.5,4,1,1,60,0,0
119175,389.61038961039,4,1,1,60,1,0
119686,389.61038961039,4,1,1,60,1,0
120090,389.61038961039,4,1,1,50,1,0
120479,389.61038961039,4,1,1,40,1,0
120892,389.61038961039,4,1,1,30,1,0
121330,389.61038961039,4,1,1,20,1,0
121841,389.61038961039,4,1,1,10,1,0
122449,389.61038961039,4,1,1,20,1,0

[Colours]
Combo1 : 74,134,255
Combo2 : 158,138,229
Combo3 : 253,255,255
Combo4 : 106,234,124

[HitObjects]
204,17,1391,5,0,0:0:0:0:
213,62,1455,1,0,0:0:0:0:
203,107,1520,1,0,0:0:0:0:
176,145,1585,1,0,0:0:0:0:
137,169,1650,1,0,0:0:0:0:
91,175,1715,1,0,0:0:0:0:
46,162,1780,5,0,0:0:0:0:
63,183,1845,1,0,0:0:0:0:
75,208,1910,1,0,0:0:0:0:
79,235,1975,1,0,0:0:0:0:
77,262,2040,1,0,0:0:0:0:
64,286,2105,1,0,0:0:0:0:
43,305,2170,5,0,0:0:0:0:
60,298,2235,1,0,0:0:0:0:
79,297,2300,1,0,0:0:0:0:
97,298,2365,1,0,0:0:0:0:
115,301,2429,1,0,0:0:0:0:
131,310,2494,1,0,0:0:0:0:
170,347,2559,5,0,0:0:0:0:
181,353,2624,1,0,0:0:0:0:
193,355,2689,1,0,0:0:0:0:
206,356,2754,1,0,0:0:0:0:
219,355,2819,1,0,0:0:0:0:
231,350,2884,1,0,0:0:0:0:
260,330,2949,1,0,0:0:0:0:
292,278,3014,1,0,0:0:0:0:
284,201,3079,6,0,B|306:120|256:87|256:87|268:108|264:133,1,153.999995300293,8|0,2:0|0:0,0:0:0:0:
292,278,3371,2,0,B|351:337|404:310|404:310|380:310|360:294,1,153.999995300293,8|0,2:0|0:0,0:0:0:0:
221,246,3663,6,0,B|139:267|135:328|135:328|144:309|164:302,1,153.449993912201,8|0,2:0|0:0,0:0:0:0:
227,331,4637,5,0,0:0:0:0:
144,189,4929,1,0,0:0:0:0:
144,275,5221,1,0,0:0:0:0:
192,117,5514,1,0,0:0:0:0:
230,194,5806,1,0,0:0:0:0:
193,33,6195,5,0,0:0:0:0:
266,76,6488,1,0,0:0:0:0:
434,63,6780,1,0,0:0:0:0:
447,78,7656,2,0,L|467:73,2,19.2499994125366
446,107,7827,5,0,0:0:0:0:
342,140,7997,5,0,0:0:0:0:
250,81,8143,5,0,0:0:0:0:
173,50,8264,1,0,0:0:0:0:
95,78,8385,1,0,0:0:0:0:
69,138,8482,5,0,0:0:0:0:
73,158,8555,1,0,0:0:0:0:
77,178,8628,1,0,0:0:0:0:
81,198,8701,1,0,0:0:0:0:
113,216,8774,5,0,0:0:0:0:
109,232,8847,1,0,0:0:0:0:
106,248,8920,1,0,0:0:0:0:
103,264,8993,1,0,0:0:0:0:
82,291,9066,5,0,0:0:0:0:
84,302,9139,1,0,0:0:0:0:
116,335,9236,5,8,2:0:0:0:
274,363,9625,5,0,0:0:0:0:
362,345,9917,1,0,0:0:0:0:
277,342,10890,5,0,0:0:0:0:
365,324,11182,1,0,0:0:0:0:
393,238,11474,5,0,0:0:0:0:
332,170,11669,1,0,0:0:0:0:
242,188,11864,1,0,0:0:0:0:
271,102,12058,1,0,0:0:0:0:
422,152,12253,1,0,0:0:0:0:
393,238,12448,5,0,0:0:0:0:
332,170,12740,1,0,0:0:0:0:
152,201,13032,6,0,L|150:248,1,46.75
157,268,13909,1,0,0:0:0:0:
159,270,13958,1,0,0:0:0:0:
161,272,14006,6,0,L|166:135,1,131.99999597168,8|0,2:0|0:0,0:0:0:0:
117,75,14299,1,0,0:0:0:0:
245,124,14396,2,0,P|288:109|244:118,1,131.99999597168,0|8,0:0|2:0,0:0:0:0:
76,158,14688,2,0,P|33:143|77:152,1,131.99999597168
89,177,14981,5,0,0:0:0:0:
87,186,15029,1,0,0:0:0:0:
85,195,15078,1,0,0:0:0:0:
83,204,15127,1,0,0:0:0:0:
81,213,15175,5,0,0:0:0:0:
131,281,15273,1,0,0:0:0:0:
213,255,15370,1,0,0:0:0:0:
213,169,15467,1,0,0:0:0:0:
131,142,15565,5,0,0:0:0:0:
163,162,15662,1,0,0:0:0:0:
200,167,15759,1,0,0:0:0:0:
238,163,15857,1,0,0:0:0:0:
298,80,15954,5,0,0:0:0:0:
322,70,16052,1,0,0:0:0:0:
348,71,16149,1,0,0:0:0:0:
373,79,16246,1,0,0:0:0:0:
370,225,16344,5,0,0:0:0:0:
353,212,16441,1,0,0:0:0:0:
343,193,16539,1,0,0:0:0:0:
339,173,16636,1,0,0:0:0:0:
459,90,16733,5,0,0:0:0:0:
456,106,16831,1,0,0:0:0:0:
447,121,16928,1,0,0:0:0:0:
435,131,17026,1,0,0:0:0:0:
339,173,17123,5,0,0:0:0:0:
323,177,17220,1,0,0:0:0:0:
245,140,17318,1,0,0:0:0:0:
232,157,17415,1,0,0:0:0:0:
193,321,17513,5,0,0:0:0:0:
197,305,17610,1,0,0:0:0:0:
268,256,17707,1,0,0:0:0:0:
257,236,17805,1,0,0:0:0:0:
138,121,17902,5,0,0:0:0:0:
149,132,18000,1,0,0:0:0:0:
156,218,18097,1,0,0:0:0:0:
177,218,18194,1,0,0:0:0:0:
211,67,18292,5,0,0:0:0:0:
163,0,18389,1,0,0:0:0:0:
84,26,18487,1,0,0:0:0:0:
84,108,18584,1,0,0:0:0:0:
163,134,18681,5,0,0:0:0:0:
355,52,18852,1,0,0:0:0:0:
378,64,18949,6,0,L|360:133,1,65.9999979858399
450,151,19144,1,0,0:0:0:0:
463,172,19241,6,0,L|412:222,1,55
482,284,19460,1,0,0:0:0:0:
483,308,19557,6,0,L|414:326,1,44
306,317,19752,1,0,0:0:0:0:
305,341,19849,6,0,L|358:356,1,32.99999899292
481,260,20044,1,0,0:0:0:0:
482,284,20141,6,0,L|444:295,1,22
305,293,20336,1,0,0:0:0:0:
304,317,20434,6,0,L|361:333,1,32.99999899292
480,236,20628,1,0,0:0:0:0:
481,260,20726,6,0,L|443:271,1,22
306,269,20921,1,0,0:0:0:0:
305,293,21018,6,0,L|362:309,1,32.99999899292
249,199,21213,1,0,0:0:0:0:
227,208,21310,6,0,L|238:258,1,27.5
280,112,21505,1,0,0:0:0:0:
261,97,21602,6,0,L|231:126,1,22
366,66,21797,1,8,2:0:0:0:
454,110,21894,6,0,L|473:107,2,11
280,112,22089,1,8,2:0:0:0:
272,132,22186,2,0,L|278:225,1,82.5000031471254
299,331,22381,6,0,B|322:318|358:331|358:331|291:275|215:339,1,197.99999395752,8|0,2:0|0:0,0:0:0:0:
154,328,22673,2,0,B|153:354|124:379|124:379|206:349|189:251,1,197.99999395752,8|0,2:0|0:0,0:0:0:0:
230,204,22965,2,0,B|207:190|200:152|200:152|185:238|278:272,1,197.99999395752,8|0,2:0|0:0,0:0:0:0:
276,141,23258,2,0,P|254:90|195:75,1,98.9999969787599,8|0,2:0|0:0,0:0:0:0:
44,80,23452,6,0,L|22:77,2,19.2499994125366,0|0|8,0:0|0:0|2:0,0:0:0:0:
132,96,23647,1,0,0:0:0:0:
152,114,23745,2,0,L|135:210,1,82.5000031471254,0|8,0:0|2:0,0:0:0:0:
44,349,23939,1,0,0:0:0:0:
24,331,24037,2,0,L|38:249,1,82.5000031471254,0|8,0:0|2:0,0:0:0:0:
138,196,24232,6,0,L|141:174,2,19.2499994125366
55,323,24426,1,8,2:0:0:0:
74,343,24524,1,0,0:0:0:0:
359,338,24719,6,0,L|347:255,1,82.5,8|0,2:0|0:0,0:0:0:0:
331,168,25108,1,0,0:0:0:0:
347,165,25206,1,0,0:0:0:0:
363,162,25303,5,8,2:0:0:0:
362,90,25400,1,0,0:0:0:0:
294,67,25498,1,0,0:0:0:0:
251,125,25595,1,0,0:0:0:0:
294,183,25693,5,8,2:0:0:0:
275,187,25790,1,0,0:0:0:0:
256,191,25887,5,0,0:0:0:0:
308,261,25985,1,0,0:0:0:0:
256,331,26082,1,8,2:0:0:0:
175,303,26180,1,0,0:0:0:0:
174,217,26277,5,0,0:0:0:0:
193,285,26374,1,0,0:0:0:0:
153,345,26472,5,0,0:0:0:0:
93,353,26569,1,0,0:0:0:0:
51,324,26667,1,0,0:0:0:0:
34,289,26764,1,0,0:0:0:0:
30,261,26861,5,0,0:0:0:0:
35,239,26959,1,0,0:0:0:0:
43,224,27056,1,0,0:0:0:0:
52,217,27154,1,0,0:0:0:0:
116,162,27251,5,0,0:0:0:0:
120,134,27348,1,0,0:0:0:0:
115,112,27446,1,0,0:0:0:0:
107,97,27543,1,0,0:0:0:0:
98,90,27641,1,0,0:0:0:0:
89,83,27738,1,0,0:0:0:0:
78,79,27835,1,0,0:0:0:0:
67,77,27933,1,0,0:0:0:0:
56,77,28030,5,0,0:0:0:0:
274,198,28420,1,0,0:0:0:0:
222,133,28809,1,0,0:0:0:0:
267,64,29199,1,0,0:0:0:0:
346,86,29589,1,0,0:0:0:0:
351,168,30173,5,0,0:0:0:0:
343,188,30271,1,0,0:0:0:0:
359,224,30368,5,0,0:0:0:0:
438,244,30758,5,0,0:0:0:0:
442,327,30952,1,0,0:0:0:0:
366,357,31147,1,0,0:0:0:0:
313,292,31537,5,0,0:0:0:0:
359,224,31732,1,0,0:0:0:0:
438,244,31926,5,0,0:0:0:0:
284,371,32316,1,0,0:0:0:0:
130,244,32608,1,0,0:0:0:0:
125,250,32657,1,0,0:0:0:0:
120,256,32706,5,0,0:0:0:0:
58,193,33095,1,0,0:0:0:0:
81,108,33485,5,0,0:0:0:0:
166,86,33680,1,0,0:0:0:0:
228,148,33874,1,0,0:0:0:0:
205,233,34069,1,0,0:0:0:0:
251,63,34264,5,0,0:0:0:0:
290,210,34556,1,0,0:0:0:0:
228,148,34848,5,0,0:0:0:0:
205,233,35043,1,0,0:0:0:0:
267,295,35238,1,0,0:0:0:0:
352,272,35433,1,0,0:0:0:0:
375,187,35628,5,0,0:0:0:0:
355,197,35725,1,0,0:0:0:0:
311,190,35822,5,0,0:0:0:0:
462,122,36115,1,0,0:0:0:0:
228,148,36407,5,0,0:0:0:0:
173,79,36602,1,0,0:0:0:0:
242,24,36797,1,0,0:0:0:0:
141,162,36991,1,0,0:0:0:0:
242,300,37381,5,0,0:0:0:0:
264,316,37576,2,0,L|145:324,1,110
129,314,38063,1,0,0:0:0:0:
111,300,38160,5,0,0:0:0:0:
71,220,38355,1,0,0:0:0:0:
133,158,38550,1,0,0:0:0:0:
212,198,38745,1,0,0:0:0:0:
197,285,38939,1,0,0:0:0:0:
234,190,39134,1,0,0:0:0:0:
219,277,39329,5,0,0:0:0:0:
298,317,39719,5,0,0:0:0:0:
323,311,39816,1,0,0:0:0:0:
349,306,39913,1,0,0:0:0:0:
375,300,40011,1,0,0:0:0:0:
456,233,40108,5,0,0:0:0:0:
436,228,40206,1,0,0:0:0:0:
415,224,40303,1,0,0:0:0:0:
394,219,40400,1,0,0:0:0:0:
329,165,40498,6,0,L|257:172,1,68.75
223,177,41082,1,0,0:0:0:0:
286,80,41277,2,0,B|343:33|343:33|329:165,1,206.25,8|0,2:0|0:0,0:0:0:0:
327,190,41667,1,0,0:0:0:0:
302,274,41861,1,0,0:0:0:0:
258,196,42056,6,0,L|326:189,2,69.2999978851319
212,273,42835,1,8,2:0:0:0:
160,345,43030,1,0,0:0:0:0:
76,318,43225,1,0,0:0:0:0:
76,229,43420,1,0,0:0:0:0:
160,203,43615,6,0,L|228:196,1,68.75
266,191,44199,1,0,0:0:0:0:
349,219,44394,1,8,2:0:0:0:
401,147,44589,1,0,0:0:0:0:
349,76,44784,1,0,0:0:0:0:
265,103,44978,5,0,0:0:0:0:
437,228,45173,1,0,0:0:0:0:
380,347,45368,5,0,0:0:0:0:
380,347,45465,1,0,0:0:0:0:
292,338,45660,5,0,0:0:0:0:
292,338,45757,1,0,0:0:0:0:
261,210,45952,5,8,2:0:0:0:
239,124,46147,1,0,0:0:0:0:
217,38,46343,5,0,0:0:0:0:
201,98,46537,1,0,0:0:0:0:
186,158,46732,6,0,L|171:227,1,68.75
162,262,47316,1,0,0:0:0:0:
98,160,47511,2,0,B|118:116|69:81|69:81|15:105|2:148|2:213|76:242,1,275,8|0,2:0|0:0,0:0:0:0:
162,262,48095,1,0,0:0:0:0:
183,267,48193,1,0,0:0:0:0:
212,298,48290,6,0,L|280:303,1,55
384,244,48582,2,0,L|316:249,1,55
223,317,48874,2,0,L|270:320,1,27.5
466,330,49069,5,8,2:0:0:0:
509,240,49264,1,0,0:0:0:0:
472,147,49459,1,0,0:0:0:0:
448,159,49556,1,0,0:0:0:0:
449,132,49654,1,0,0:0:0:0:
274,119,49848,5,0,0:0:0:0:
258,123,49946,1,0,0:0:0:0:
242,127,50043,1,0,0:0:0:0:
226,131,50141,1,0,0:0:0:0:
170,69,50237,5,0,0:0:0:0:
161,83,50335,1,0,0:0:0:0:
153,97,50432,1,0,0:0:0:0:
144,111,50530,1,0,0:0:0:0:
61,107,50627,5,8,2:0:0:0:
64,123,50725,1,0,0:0:0:0:
68,139,50822,1,0,0:0:0:0:
72,155,50920,1,0,0:0:0:0:
10,210,51016,5,0,0:0:0:0:
24,220,51114,1,0,0:0:0:0:
38,228,51211,1,0,0:0:0:0:
52,237,51309,1,0,0:0:0:0:
46,318,51407,6,0,P|105:302|133:229,1,132
207,270,51797,6,0,P|206:208|143:162,1,132
266,12,52186,6,0,P|207:28|179:101,1,132
105,60,52576,5,0,0:0:0:0:
100,103,52673,1,0,0:0:0:0:
119,142,52770,1,0,0:0:0:0:
156,165,52868,1,0,0:0:0:0:
246,146,52965,6,0,L|364:120,2,110,8|0|0,2:0|0:0|0:0,0:0:0:0:
156,165,53452,2,0,B|142:207|142:207|158:278,1,110
244,348,53745,2,0,B|258:306|258:306|242:235,1,110,8|0,2:0|0:0,0:0:0:0:
141,157,54037,2,0,B|127:199|127:199|143:270,1,110,8|0,2:0|0:0,0:0:0:0:
259,357,54329,1,8,2:0:0:0:
374,146,54524,6,0,P|433:163|489:135,2,110
404,32,55011,2,0,B|438:12|438:12|422:100,1,110
374,251,55303,2,0,B|359:215|359:215|373:145,1,110,8|0,2:0|0:0,0:0:0:0:
453,265,55595,2,0,P|426:320|360:323,1,110,8|0,2:0|0:0,0:0:0:0:
310,298,55887,1,8,2:0:0:0:
101,175,56082,6,0,P|80:124|99:62,2,110
199,111,56569,2,0,P|159:110|195:126,1,110
330,98,56861,2,0,P|350:64|318:87,1,110,8|0,2:0|0:0,0:0:0:0:
275,217,57154,2,0,P|294:251|290:212,1,110,8|0,2:0|0:0,0:0:0:0:
268,143,57446,1,8,2:0:0:0:
273,326,57641,6,0,P|329:322|374:267,1,110
459,246,57933,2,0,P|405:249|366:286,1,110
438,322,58225,1,0,0:0:0:0:
207,271,58420,6,0,L|201:236,6,27.5
188,292,58809,1,0,0:0:0:0:
173,300,58907,1,0,0:0:0:0:
158,308,59004,1,0,0:0:0:0:
143,316,59102,1,0,0:0:0:0:
105,306,59199,5,8,2:0:0:0:
83,151,59394,2,0,L|87:111,2,27.5
55,239,59589,5,0,0:0:0:0:
131,229,59686,5,0,0:0:0:0:
165,171,59784,5,0,0:0:0:0:
170,122,59881,5,0,0:0:0:0:
161,90,59978,5,0,0:0:0:0:
141,70,60076,5,0,0:0:0:0:
120,61,60173,6,0,B|161:86|161:86|261:75,1,131.99999597168,8|0,2:0|0:0,0:0:0:0:
402,37,60465,1,0,0:0:0:0:
358,21,60563,6,0,B|335:64|335:64|355:172,1,131.99999597168,8|0,2:0|0:0,0:0:0:0:
369,263,60855,1,0,0:0:0:0:
406,289,60952,2,0,L|397:335,2,27.5
332,237,61147,6,0,L|309:358,1,110
296,357,61407,1,0,0:0:0:0:
290,361,61472,1,0,0:0:0:0:
284,365,61537,2,0,L|300:278,1,76.9999976501466
340,75,61732,5,0,0:0:0:0:
294,12,61829,1,0,0:0:0:0:
221,36,61927,1,0,0:0:0:0:
221,113,62024,1,0,0:0:0:0:
294,137,62121,5,0,0:0:0:0:
236,89,62218,1,0,0:0:0:0:
160,100,62315,1,0,0:0:0:0:
122,167,62413,1,0,0:0:0:0:
143,240,62510,1,0,0:0:0:0:
109,308,62607,1,0,0:0:0:0:
34,329,62706,5,0,0:0:0:0:
54,253,62803,1,0,0:0:0:0:
129,232,62900,1,0,0:0:0:0:
184,287,62998,1,0,0:0:0:0:
164,363,63095,5,0,0:0:0:0:
140,280,63192,1,0,0:0:0:0:
181,205,63289,1,0,0:0:0:0:
264,181,63387,1,0,0:0:0:0:
340,226,63485,5,0,0:0:0:0:
407,259,63582,1,0,0:0:0:0:
477,234,63679,1,0,0:0:0:0:
507,165,63777,1,0,0:0:0:0:
477,96,63874,5,0,0:0:0:0:
451,108,64264,5,0,0:0:0:0:
425,120,64654,5,0,0:0:0:0:
266,78,65043,1,0,0:0:0:0:
107,120,65433,6,0,P|88:211|180:275,1,176
318,226,65725,2,0,P|248:164|147:211,1,176,8|0,2:0|0:0,0:0:0:0:
121,356,66017,2,0,P|209:326|218:215,1,176,8|0,2:0|0:0,0:0:0:0:
181,235,66309,5,0,0:0:0:0:
400,290,66504,1,0,0:0:0:0:
444,293,66602,5,0,0:0:0:0:
380,354,66700,1,0,0:0:0:0:
302,313,66797,1,0,0:0:0:0:
318,226,66894,1,0,0:0:0:0:
405,214,66991,6,0,P|455:186|438:73,1,176
218,154,67284,2,0,L|410:136,1,176,8|0,2:0|0:0,0:0:0:0:
401,17,67576,2,0,B|295:27|295:27|273:15|273:15|252:30|252:30|144:40,1,264,8|0,2:0|0:0,0:0:0:0:
130,161,67965,2,0,L|218:154,1,88
35,80,68160,5,0,0:0:0:0:
26,114,68258,1,0,0:0:0:0:
130,161,68355,5,0,0:0:0:0:
139,195,68453,1,0,0:0:0:0:
70,286,68550,6,0,B|115:317|115:317|270:298|270:298,1,176
411,278,68842,1,0,0:0:0:0:
441,295,68939,6,0,L|344:308,1,88
395,200,69134,2,0,L|492:187,1,88
277,226,69330,5,0,0:0:0:0:
232,152,69427,1,0,0:0:0:0:
250,68,69524,1,0,0:0:0:0:
321,20,69622,1,0,0:0:0:0:
406,31,69719,5,0,0:0:0:0:
383,58,69816,1,0,0:0:0:0:
373,145,69913,5,0,0:0:0:0:
337,147,70010,1,0,0:0:0:0:
241,110,70108,6,0,P|163:68|79:111,1,176,8|0,2:0|0:0,0:0:0:0:
144,236,70400,2,0,B|190:258|190:258|218:182|164:146,1,176,8|0,2:0|0:0,0:0:0:0:
53,192,70693,5,0,0:0:0:0:
51,203,70757,1,0,0:0:0:0:
49,215,70822,1,0,0:0:0:0:
47,226,70887,1,0,0:0:0:0:
45,238,70952,1,0,0:0:0:0:
43,249,71017,1,0,0:0:0:0:
41,261,71082,5,0,0:0:0:0:
47,284,71147,1,0,0:0:0:0:
65,306,71212,1,0,0:0:0:0:
95,324,71277,1,0,0:0:0:0:
135,330,71342,1,0,0:0:0:0:
180,318,71407,1,0,0:0:0:0:
223,288,71472,1,0,0:0:0:0:
279,273,71537,1,0,0:0:0:0:
341,288,71602,1,0,0:0:0:0:
383,344,71667,6,0,B|357:375|303:353|303:353|295:313|320:253|387:246|435:278,1,264
487,317,72056,2,0,P|500:265|480:212,1,88
454,149,72251,2,0,P|426:103|374:79,1,88
311,53,72446,2,0,P|258:40|205:59,1,88
191,127,72641,5,0,0:0:0:0:
140,56,72739,1,0,0:0:0:0:
56,83,72836,1,0,0:0:0:0:
56,171,72934,1,0,0:0:0:0:
140,199,73030,6,0,B|54:169|54:169|110:332,1,264
223,227,73420,2,0,L|140:199,1,88
110,332,73615,2,0,L|193:360,1,88
325,320,73809,5,0,0:0:0:0:
305,240,73906,1,0,0:0:0:0:
222,227,74004,5,0,0:0:0:0:
300,262,74101,1,0,0:0:0:0:
382,234,74198,1,0,0:0:0:0:
420,158,74296,1,0,0:0:0:0:
395,76,74393,5,0,0:0:0:0:
381,98,74491,1,0,0:0:0:0:
372,184,74589,6,0,B|359:321|475:344|475:344|441:321|434:250,1,264,8|0,2:0|0:0,0:0:0:0:
395,76,74978,1,0,0:0:0:0:
368,77,75076,1,0,0:0:0:0:
341,78,75173,5,8,2:0:0:0:
390,139,75271,1,0,0:0:0:0:
347,205,75368,1,0,0:0:0:0:
270,185,75466,1,0,0:0:0:0:
266,106,75563,5,8,2:0:0:0:
303,183,75660,1,0,0:0:0:0:
274,263,75757,1,0,0:0:0:0:
196,299,75855,1,0,0:0:0:0:
116,268,75953,5,8,2:0:0:0:
202,223,76050,1,0,0:0:0:0:
272,291,76147,1,0,0:0:0:0:
229,378,76245,1,0,0:0:0:0:
133,365,76342,5,8,2:0:0:0:
110,347,76732,5,0,0:0:0:0:
36,281,77121,5,0,0:0:0:0:
39,254,77218,1,0,0:0:0:0:
43,228,77315,1,0,0:0:0:0:
47,202,77413,1,0,0:0:0:0:
128,159,77511,5,0,0:0:0:0:
125,140,77608,1,0,0:0:0:0:
122,122,77705,1,0,0:0:0:0:
120,104,77803,1,0,0:0:0:0:
55,69,77900,6,0,B|109:91|109:91|232:70,1,176
380,31,78193,2,0,P|433:21|379:50,1,176,8|0,2:0|0:0,0:0:0:0:
225,90,78485,2,0,P|164:81|225:71,1,176,8|0,2:0|0:0,0:0:0:0:
261,108,78777,5,0,0:0:0:0:
408,285,78972,1,0,0:0:0:0:
425,325,79069,5,0,0:0:0:0:
341,297,79167,1,0,0:0:0:0:
341,209,79264,1,0,0:0:0:0:
425,182,79361,1,0,0:0:0:0:
476,253,79459,6,0,L|287:269,1,176
183,381,79751,2,0,L|372:365,1,176,8|0,2:0|0:0,0:0:0:0:
142,251,80043,2,0,B|86:201|86:201|16:268|85:382,1,264,8|0,2:0|0:0,0:0:0:0:
208,304,80433,2,0,P|226:256|212:207,1,88
161,156,80628,5,0,0:0:0:0:
146,124,80725,1,0,0:0:0:0:
49,102,80822,5,0,0:0:0:0:
63,80,80919,1,0,0:0:0:0:
142,31,81017,6,0,B|191:8|191:8|319:27,1,176
493,102,81309,1,0,0:0:0:0:
476,133,81407,6,0,L|388:144,1,88
311,25,81602,2,0,L|398:36,1,88
381,242,81797,5,8,2:0:0:0:
307,211,81926,5,8,2:0:0:0:
277,137,82056,5,8,2:0:0:0:
309,64,82186,5,8,2:0:0:0:
228,200,82316,1,8,2:0:0:0:
230,53,82446,1,8,2:0:0:0:
258,274,82576,5,8,2:0:0:0:
206,280,82673,1,0,0:0:0:0:
162,252,82770,1,0,0:0:0:0:
146,203,82868,1,0,0:0:0:0:
233,109,82966,5,8,2:0:0:0:
254,137,83063,1,0,0:0:0:0:
252,174,83160,1,0,0:0:0:0:
228,200,83258,1,0,0:0:0:0:
265,304,83355,5,8,2:0:0:0:
197,311,83452,1,0,0:0:0:0:
140,275,83549,1,0,0:0:0:0:
119,211,83647,1,0,0:0:0:0:
140,147,83745,5,8,2:0:0:0:
146,235,83842,1,0,0:0:0:0:
67,270,83940,1,0,0:0:0:0:
7,205,84037,1,0,0:0:0:0:
52,129,84135,5,8,2:0:0:0:
76,104,84232,1,0,0:0:0:0:
88,71,84329,1,0,0:0:0:0:
86,36,84427,1,0,0:0:0:0:
70,5,84524,5,0,0:0:0:0:
44,86,84621,1,0,0:0:0:0:
88,160,84718,1,0,0:0:0:0:
172,176,84816,1,0,0:0:0:0:
240,125,84914,5,0,0:0:0:0:
322,64,85011,1,0,0:0:0:0:
423,83,85109,1,0,0:0:0:0:
476,172,85206,1,0,0:0:0:0:
446,271,85303,5,0,0:0:0:0:
322,64,85498,1,0,0:0:0:0:
205,275,85693,5,8,2:0:0:0:
285,241,85887,1,0,0:0:0:0:
216,189,86082,1,8,2:0:0:0:
430,233,86277,1,0,0:0:0:0:
446,271,86374,1,0,0:0:0:0:
471,239,86472,6,0,B|508:190|508:190|480:37,1,165,8|0,2:0|0:0,0:0:0:0:
423,31,86861,1,0,0:0:0:0:
341,4,86958,1,0,0:0:0:0:
265,41,87055,1,0,0:0:0:0:
235,122,87153,1,0,0:0:0:0:
270,200,87251,6,0,P|280:291|228:361,1,176
56,189,87543,2,0,P|129:134|216:144,1,176
153,380,87835,2,0,P|68:343|34:263,1,176,8|0,2:0|0:0,0:0:0:0:
159,255,88128,1,0,0:0:0:0:
130,275,88225,5,0,0:0:0:0:
115,208,88322,1,0,0:0:0:0:
148,148,88420,5,0,0:0:0:0:
141,60,88517,1,0,0:0:0:0:
56,38,88615,1,0,0:0:0:0:
9,113,88712,1,0,0:0:0:0:
66,180,88809,6,0,B|121:201|121:201|265:177,1,176
369,162,89102,2,0,B|314:134|314:134|336:258,1,176
466,340,89394,2,0,B|451:255|451:255|474:187|474:187|451:80,1,264,8|0,2:0|0:0,0:0:0:0:
441,51,89784,1,0,0:0:0:0:
314,135,89978,6,0,L|347:313,1,176
242,362,90271,1,0,0:0:0:0:
210,378,90368,6,0,L|193:283,1,88
170,165,90563,5,0,0:0:0:0:
166,147,90627,1,0,0:0:0:0:
162,130,90692,1,0,0:0:0:0:
159,113,90758,5,0,0:0:0:0:
123,131,90822,1,0,0:0:0:0:
104,167,90887,1,0,0:0:0:0:
110,207,90952,1,0,0:0:0:0:
138,236,91017,1,0,0:0:0:0:
177,244,91082,1,0,0:0:0:0:
214,228,91147,1,0,0:0:0:0:
251,212,91213,1,0,0:0:0:0:
290,220,91278,1,0,0:0:0:0:
318,249,91343,1,0,0:0:0:0:
324,289,91408,1,0,0:0:0:0:
305,325,91473,1,0,0:0:0:0:
270,344,91538,5,0,0:0:0:0:
251,276,91602,1,0,0:0:0:0:
272,210,91667,1,0,0:0:0:0:
324,164,91732,1,0,0:0:0:0:
333,88,91797,1,0,0:0:0:0:
281,25,91861,1,0,0:0:0:0:
192,24,91926,5,0,0:0:0:0:
171,47,92316,1,0,0:0:0:0:
150,70,92705,5,0,0:0:0:0:
147,97,92802,1,0,0:0:0:0:
143,123,92899,1,0,0:0:0:0:
139,149,92997,1,0,0:0:0:0:
58,192,93095,5,0,0:0:0:0:
61,211,93192,1,0,0:0:0:0:
64,229,93289,1,0,0:0:0:0:
66,247,93387,1,0,0:0:0:0:
130,281,93485,6,0,B|182:308|182:308|308:285,1,176,8|0,2:0|0:0,0:0:0:0:
388,225,93777,2,0,B|336:198|336:198|210:221,1,176,8|0,2:0|0:0,0:0:0:0:
403,304,94069,2,0,P|461:262|422:153,1,176,8|0,2:0|0:0,0:0:0:0:
324,75,94361,1,0,0:0:0:0:
339,107,94459,6,0,P|374:117|425:100,1,88
282,6,94654,2,0,P|255:31|245:83,1,88
231,250,94848,2,0,P|261:218|269:176,1,88
83,143,95043,6,0,B|113:203|189:184|189:184|143:176|131:139,1,176,8|0,2:0|0:0,0:0:0:0:
95,60,95335,2,0,P|24:85|22:199,1,176,8|0,2:0|0:0,0:0:0:0:
110,267,95628,2,0,B|79:229|28:254|28:254|23:298|68:376|151:337,1,264,8|0,2:0|0:0,0:0:0:0:
288,335,96017,6,0,P|248:337|210:375,1,88
200,261,96211,2,0,P|218:225|204:173,1,88
308,221,96407,2,0,P|329:254|381:268,1,88
422,119,96602,6,0,B|380:73|380:73|374:203,1,176,8|0,2:0|0:0,0:0:0:0:
420,352,96894,2,0,B|455:304|455:304|460:184,1,176,8|0,2:0|0:0,0:0:0:0:
334,0,97186,2,0,B|299:48|299:48|294:168,1,176,8|0,2:0|0:0,0:0:0:0:
242,289,97478,1,0,0:0:0:0:
225,320,97576,6,0,L|133:312,1,88
61,230,97771,2,0,L|153:222,1,88
225,140,97965,2,0,L|133:132,1,88
61,50,98160,6,0,B|21:56|9:15|9:15|71:-16|131:29,1,176,8|0,2:0|0:0,0:0:0:0:
240,108,98452,1,0,0:0:0:0:
225,140,98550,2,0,L|133:132,1,88
261,27,98745,6,0,P|314:63|291:174,1,176,8|0,2:0|0:0,0:0:0:0:
268,309,99037,1,0,0:0:0:0:
234,299,99134,2,0,P|229:252|254:214,1,88
461,268,99329,6,0,P|382:294|322:236,1,176,8|0,2:0|0:0,0:0:0:0:
347,138,99621,1,0,0:0:0:0:
379,122,99719,6,0,B|437:97|437:97|398:230,1,176,8|0,2:0|0:0,0:0:0:0:
268,309,100011,2,0,B|219:333|219:333|75:313,1,176,8|0,2:0|0:0,0:0:0:0:
0,221,100303,2,0,B|49:197|49:197|193:217,1,176,8|0,2:0|0:0,0:0:0:0:
237,292,100595,1,0,0:0:0:0:
268,309,100693,6,0,P|283:270|275:219,1,88
228,154,100887,2,0,P|213:115|221:64,1,88
366,52,101082,2,0,P|339:84|291:103,1,88
128,106,101277,6,0,B|46:109|22:43|22:43|46:62|77:66,1,176,8|0,2:0|0:0,0:0:0:0:
173,36,101569,2,0,P|205:71|141:184,1,176,8|0,2:0|0:0,0:0:0:0:
83,226,101861,2,0,B|18:263|18:263|60:351|189:320,1,264,8|0,2:0|0:0,0:0:0:0:
265,271,102251,5,0,0:0:0:0:
297,257,102348,1,0,0:0:0:0:
382,254,102446,5,0,0:0:0:0:
406,262,102543,1,0,0:0:0:0:
476,324,102641,5,0,0:0:0:0:
484,339,102738,1,0,0:0:0:0:
378,368,102835,6,0,P|370:280|447:222,1,176,8|0,2:0|0:0,0:0:0:0:
489,100,103128,2,0,P|416:150|328:113,1,176,8|0,2:0|0:0,0:0:0:0:
201,137,103420,2,0,P|248:140|284:183,1,88,8|0,2:0|0:0,0:0:0:0:
172,258,103615,6,0,B|178:222|210:213|210:213|252:277|199:330,1,176
121,336,103907,2,0,P|81:259|125:180,1,176
264,85,104199,2,0,P|241:122|201:137,1,88
36,39,104394,5,8,2:0:0:0:
75,20,104491,1,0,0:0:0:0:
119,17,104588,1,0,0:0:0:0:
161,30,104686,1,0,0:0:0:0:
195,57,104784,5,0,0:0:0:0:
248,126,104881,1,0,0:0:0:0:
331,152,104978,1,8,2:0:0:0:
413,125,105076,1,0,0:0:0:0:
465,56,105173,5,0,0:0:0:0:
388,94,105270,1,0,0:0:0:0:
354,173,105367,1,0,0:0:0:0:
379,255,105465,1,0,0:0:0:0:
451,302,105563,5,8,2:0:0:0:
403,208,105660,1,0,0:0:0:0:
298,224,105758,1,0,0:0:0:0:
281,328,105855,1,0,0:0:0:0:
376,377,105952,6,0,P|306:309|218:339,1,176,8|0,2:0|0:0,0:0:0:0:
162,357,106245,2,0,P|77:366|22:302,1,176,8|0,2:0|0:0,0:0:0:0:
103,203,106537,2,0,B|165:188|165:188|104:304,1,176,8|0,2:0|0:0,0:0:0:0:
24,160,106829,1,0,0:0:0:0:
2,131,106926,6,0,L|97:107,1,88
230,59,107121,1,0,0:0:0:0:
290,49,107218,1,0,0:0:0:0:
350,63,107315,1,0,0:0:0:0:
399,98,107413,1,0,0:0:0:0:
432,150,107511,6,0,B|453:197|453:197|424:328,1,176,8|0,2:0|0:0,0:0:0:0:
233,246,107803,2,0,P|190:220|248:235,1,176,8|0,2:0|0:0,0:0:0:0:
325,328,108095,2,0,P|323:378|307:320,1,176,8|0,2:0|0:0,0:0:0:0:
350,207,108387,1,0,0:0:0:0:
384,199,108485,6,0,P|354:246|306:248,1,88
224,257,108680,2,0,P|168:254|142:213,1,88
93,147,108874,2,0,P|67:97|89:54,1,88
202,12,109069,5,8,2:0:0:0:
221,33,109133,1,0,0:0:0:0:
227,61,109198,1,0,0:0:0:0:
218,89,109263,1,0,0:0:0:0:
198,110,109329,5,0,0:0:0:0:
192,138,109394,1,0,0:0:0:0:
201,166,109458,1,0,0:0:0:0:
229,173,109524,1,0,0:0:0:0:
256,164,109589,5,0,0:0:0:0:
276,143,109654,1,8,2:0:0:0:
268,115,109718,1,0,0:0:0:0:
246,96,109783,1,0,0:0:0:0:
218,89,109848,5,0,0:0:0:0:
140,109,109946,1,0,0:0:0:0:
109,181,110043,1,0,0:0:0:0:
124,259,110141,1,0,0:0:0:0:
192,298,110238,5,0,0:0:0:0:
268,277,110335,1,0,0:0:0:0:
347,276,110433,1,0,0:0:0:0:
401,333,110530,1,0,0:0:0:0:
324,351,110628,5,8,2:0:0:0:
319,323,110725,1,0,0:0:0:0:
329,297,110822,1,0,0:0:0:0:
347,276,110920,1,0,0:0:0:0:
423,257,111017,5,0,0:0:0:0:
426,229,111114,1,0,0:0:0:0:
417,203,111211,1,8,2:0:0:0:
400,182,111309,1,0,0:0:0:0:
324,163,111407,6,0,P|285:158|244:168,1,65.9999979858399
176,199,111602,2,0,P|149:179|129:153,1,65.9999979858399
182,37,111797,5,8,2:0:0:0:
187,65,111894,1,0,0:0:0:0:
177,91,111991,1,0,0:0:0:0:
159,112,112089,1,0,0:0:0:0:
83,131,112186,5,8,2:0:0:0:
80,159,112283,1,0,0:0:0:0:
89,185,112380,1,0,0:0:0:0:
106,206,112478,1,8,2:0:0:0:
51,267,112576,5,0,0:0:0:0:
77,286,112673,1,0,0:0:0:0:
109,292,112770,1,8,2:0:0:0:
142,287,112868,1,0,0:0:0:0:
157,370,112965,5,0,0:0:0:0:
191,353,113062,1,0,0:0:0:0:
217,324,113159,1,0,0:0:0:0:
231,287,113258,5,0,0:0:0:0:
315,297,113355,1,0,0:0:0:0:
373,236,113452,1,0,0:0:0:0:
357,152,113550,1,0,0:0:0:0:
280,117,113647,1,0,0:0:0:0:
206,158,113745,5,8,2:0:0:0:
125,203,113843,1,0,0:0:0:0:
40,165,113940,1,0,0:0:0:0:
22,73,114037,1,8,2:0:0:0:
86,5,114134,5,0,0:0:0:0:
125,82,114231,1,0,0:0:0:0:
115,168,114329,2,0,P|89:221|91:268,1,88,8|0,2:0|0:0,0:0:0:0:
240,303,114524,2,0,P|208:253|166:231,1,88
61,343,114719,2,0,P|119:340|159:314,1,88
312,242,114913,5,0,0:0:0:0:
382,193,115010,1,0,0:0:0:0:
404,109,115107,1,0,0:0:0:0:
365,32,115205,1,0,0:0:0:0:
286,0,115303,5,8,2:0:0:0:
263,74,115400,1,0,0:0:0:0:
292,146,115497,1,0,0:0:0:0:
360,183,115595,1,8,2:0:0:0:
414,229,115693,5,0,0:0:0:0:
437,285,115790,1,0,0:0:0:0:
428,336,115887,1,8,2:0:0:0:
397,368,115985,1,0,0:0:0:0:
362,374,116082,5,0,0:0:0:0:
365,347,116180,1,0,0:0:0:0:
368,320,116277,1,0,0:0:0:0:
371,293,116374,1,0,0:0:0:0:
274,262,116472,5,0,0:0:0:0:
290,240,116570,1,0,0:0:0:0:
306,218,116667,1,0,0:0:0:0:
322,196,116764,1,0,0:0:0:0:
254,121,116862,5,8,2:0:0:0:
260,118,116960,1,0,0:0:0:0:
266,115,117057,1,0,0:0:0:0:
272,112,117154,1,0,0:0:0:0:
278,109,117251,1,0,0:0:0:0:
284,106,117348,1,0,0:0:0:0:
377,85,117446,5,8,2:0:0:0:
376,91,117544,1,0,0:0:0:0:
376,98,117641,1,0,0:0:0:0:
375,105,117738,1,0,0:0:0:0:
375,111,117835,1,0,0:0:0:0:
374,118,117932,1,0,0:0:0:0:
318,189,118030,5,0,0:0:0:0:
250,23,118225,1,8,2:0:0:0:
149,48,119175,5,0,0:0:0:0:
99,124,119686,5,0,0:0:0:0:
88,203,120090,5,0,0:0:0:0:
112,272,120479,5,0,0:0:0:0:
148,309,120892,5,0,0:0:0:0:
176,320,121330,5,0,0:0:0:0:
192,326,121841,5,0,0:0:0:0:
216,336,122449,5,0,0:0:0:0:
216,336,122497,5,0,0:0:0:0:
216,336,122546,5,0,0:0:0:0:
216,336,122595,5,0,0:0:0:0:
