osu file format v14

[General]
AudioFilename: audio.mp3
AudioLeadIn: 0
PreviewTime: 63509
Countdown: 0
SampleSet: Soft
StackLeniency: 0.7
Mode: 3
LetterboxInBreaks: 0
SpecialStyle: 0
WidescreenStoryboard: 1

[Editor]
DistanceSpacing: 2
BeatDivisor: 4
GridSize: 8
TimelineZoom: 1.5

[Metadata]
Title:Lord=Crossight
TitleUnicode:Lord=Crossight
Artist:penoreri
ArtistUnicode:ぺのれり
Creator:Fresh Chicken
Version:NOVICE
Source:SOUND VOLTEX III GRAVITY WARS
Tags:
BeatmapID:1058021
BeatmapSetID:495619

[Difficulty]
HPDrainRate:7
CircleSize:4
OverallDifficulty:7
ApproachRate:5
SliderMultiplier:1.4
SliderTickRate:1

[Events]
//Background and Video events
0,0,"peno.png",0,0
//Break Periods
//Storyboard Layer 0 (Background)
//Storyboard Layer 1 (Fail)
//Storyboard Layer 2 (Pass)
//Storyboard Layer 3 (Foreground)
//Storyboard Sound Samples

[TimingPoints]
2335,389.61038961039,4,2,0,40,1,0
64678,-100,4,2,0,40,0,1
75587,-100,4,2,0,40,0,0
77146,-100,4,2,0,40,0,1
91172,-100,4,2,0,40,0,0

[HitObjects]
64,192,587,5,0,0:0:0:0:
448,192,782,128,0,1561:0:0:0:0:
320,192,1561,128,0,2340:0:0:0:0:
192,192,1756,128,0,2340:0:0:0:0:
64,192,2336,1,0,0:0:0:0:
448,192,2627,1,0,0:0:0:0:
192,192,2919,1,0,0:0:0:0:
64,192,2919,1,0,0:0:0:0:
320,192,3893,1,0,0:0:0:0:
192,192,4185,1,0,0:0:0:0:
64,192,4477,1,0,0:0:0:0:
192,192,4770,1,0,0:0:0:0:
320,192,5062,1,0,0:0:0:0:
64,192,5451,1,0,0:0:0:0:
192,192,5744,1,0,0:0:0:0:
320,192,6036,1,0,0:0:0:0:
448,192,7010,1,0,0:0:0:0:
320,192,7302,1,0,0:0:0:0:
192,192,7594,1,0,0:0:0:0:
64,192,7886,1,0,0:0:0:0:
320,192,8179,1,0,0:0:0:0:
64,192,8471,1,0,0:0:0:0:
448,192,8471,1,0,0:0:0:0:
192,192,8860,1,0,0:0:0:0:
320,192,9153,1,0,0:0:0:0:
64,192,10127,1,0,0:0:0:0:
192,192,10419,1,0,0:0:0:0:
320,192,10711,1,0,0:0:0:0:
448,192,11003,1,0,0:0:0:0:
320,192,11296,1,0,0:0:0:0:
64,192,11685,1,0,0:0:0:0:
192,192,11977,1,0,0:0:0:0:
320,192,12270,1,0,0:0:0:0:
448,192,13244,1,0,0:0:0:0:
64,192,13244,1,0,0:0:0:0:
320,192,13438,1,0,0:0:0:0:
192,192,13633,1,0,0:0:0:0:
64,192,13633,1,0,0:0:0:0:
320,192,13925,1,0,0:0:0:0:
448,192,13925,1,0,0:0:0:0:
64,192,14412,128,0,14802:0:0:0:0:
320,192,14802,1,0,0:0:0:0:
192,192,15192,1,0,0:0:0:0:
448,192,15581,1,0,0:0:0:0:
64,192,15971,1,0,0:0:0:0:
320,192,16360,1,0,0:0:0:0:
192,192,16750,1,0,0:0:0:0:
448,192,17140,1,0,0:0:0:0:
64,192,17529,1,0,0:0:0:0:
320,192,17724,1,0,0:0:0:0:
448,192,17724,1,0,0:0:0:0:
192,192,17919,1,0,0:0:0:0:
64,192,17919,1,0,0:0:0:0:
320,192,18211,1,0,0:0:0:0:
192,192,18503,1,0,0:0:0:0:
448,192,18698,1,0,0:0:0:0:
64,192,18990,1,0,0:0:0:0:
448,192,19283,1,0,0:0:0:0:
64,192,19575,1,0,0:0:0:0:
192,192,19867,1,0,0:0:0:0:
320,192,20159,1,0,0:0:0:0:
448,192,20451,1,0,0:0:0:0:
64,192,20744,1,0,0:0:0:0:
448,192,21036,1,0,0:0:0:0:
320,192,21328,1,0,0:0:0:0:
192,192,21620,1,0,0:0:0:0:
64,192,21912,1,0,0:0:0:0:
192,192,22205,1,0,0:0:0:0:
320,192,22497,1,0,0:0:0:0:
448,192,22789,1,0,0:0:0:0:
320,192,23081,1,0,0:0:0:0:
192,192,23373,1,0,0:0:0:0:
64,192,23666,1,0,0:0:0:0:
448,192,23958,128,0,24347:0:0:0:0:
192,192,23958,1,0,0:0:0:0:
64,192,24347,1,0,0:0:0:0:
320,192,24542,1,0,0:0:0:0:
448,192,24542,1,0,0:0:0:0:
192,192,24932,1,0,0:0:0:0:
64,192,24932,1,0,0:0:0:0:
320,192,25322,1,0,0:0:0:0:
448,192,25322,1,0,0:0:0:0:
192,192,25711,1,0,0:0:0:0:
64,192,25711,1,0,0:0:0:0:
448,192,25906,1,0,0:0:0:0:
320,192,26101,1,0,0:0:0:0:
192,192,26296,1,0,0:0:0:0:
64,192,26490,1,0,0:0:0:0:
448,192,26685,1,0,0:0:0:0:
320,192,26880,1,0,0:0:0:0:
192,192,27075,1,0,0:0:0:0:
64,192,27270,1,0,0:0:0:0:
192,192,27659,1,0,0:0:0:0:
320,192,28049,1,0,0:0:0:0:
448,192,28438,1,0,0:0:0:0:
192,192,28828,1,0,0:0:0:0:
448,192,29412,1,0,0:0:0:0:
320,192,29607,1,0,0:0:0:0:
64,192,29997,1,0,0:0:0:0:
192,192,30192,1,0,0:0:0:0:
320,192,30386,1,0,0:0:0:0:
448,192,30776,1,0,0:0:0:0:
320,192,30971,1,0,0:0:0:0:
192,192,31166,1,0,0:0:0:0:
64,192,31555,1,0,0:0:0:0:
320,192,31945,1,0,0:0:0:0:
64,192,32724,1,0,0:0:0:0:
192,192,32919,1,0,0:0:0:0:
320,192,33114,1,0,0:0:0:0:
448,192,33309,1,0,0:0:0:0:
64,192,33503,1,0,0:0:0:0:
192,192,33796,1,0,0:0:0:0:
320,192,34088,1,0,0:0:0:0:
448,192,34867,1,0,0:0:0:0:
320,192,35062,1,0,0:0:0:0:
192,192,35354,1,0,0:0:0:0:
64,192,35646,1,0,0:0:0:0:
448,192,36231,1,0,0:0:0:0:
192,192,36620,1,0,0:0:0:0:
64,192,37205,1,0,0:0:0:0:
320,192,37399,1,0,0:0:0:0:
64,192,37594,1,0,0:0:0:0:
448,192,37789,1,0,0:0:0:0:
192,192,37984,1,0,0:0:0:0:
320,192,38179,1,0,0:0:0:0:
192,192,38568,1,0,0:0:0:0:
448,192,38958,1,0,0:0:0:0:
320,192,39153,1,0,0:0:0:0:
192,192,39347,1,0,0:0:0:0:
64,192,39542,1,0,0:0:0:0:
320,192,39737,1,0,0:0:0:0:
448,192,39737,1,0,0:0:0:0:
192,192,40322,1,0,0:0:0:0:
320,192,40516,1,0,0:0:0:0:
64,192,40516,1,0,0:0:0:0:
192,192,41101,1,0,0:0:0:0:
448,192,41296,1,0,0:0:0:0:
448,192,41588,1,0,0:0:0:0:
448,192,41880,1,0,0:0:0:0:
192,192,42075,1,0,0:0:0:0:
64,192,42075,1,0,0:0:0:0:
64,192,42659,1,0,0:0:0:0:
64,192,42854,1,0,0:0:0:0:
192,192,43438,1,0,0:0:0:0:
448,192,43633,1,0,0:0:0:0:
64,192,43633,1,0,0:0:0:0:
320,192,44218,1,0,0:0:0:0:
320,192,44412,1,0,0:0:0:0:
192,192,44705,1,0,0:0:0:0:
64,192,44997,1,0,0:0:0:0:
320,192,45192,1,0,0:0:0:0:
448,192,45192,1,0,0:0:0:0:
192,192,45386,1,0,0:0:0:0:
320,192,45679,1,0,0:0:0:0:
448,192,45971,1,0,0:0:0:0:
192,192,46555,1,0,0:0:0:0:
320,192,46750,1,0,0:0:0:0:
448,192,46750,1,0,0:0:0:0:
448,192,47335,1,0,0:0:0:0:
320,192,47529,1,0,0:0:0:0:
192,192,47822,1,0,0:0:0:0:
64,192,48114,1,0,0:0:0:0:
320,192,48309,1,0,0:0:0:0:
448,192,48309,1,0,0:0:0:0:
192,192,48503,1,0,0:0:0:0:
320,192,48796,1,0,0:0:0:0:
192,192,49088,1,0,0:0:0:0:
64,192,49088,1,0,0:0:0:0:
320,192,49672,1,0,0:0:0:0:
448,192,49867,1,0,0:0:0:0:
64,192,49867,1,0,0:0:0:0:
192,192,50451,1,0,0:0:0:0:
320,192,50646,1,0,0:0:0:0:
192,192,50938,1,0,0:0:0:0:
64,192,51231,1,0,0:0:0:0:
320,192,51425,1,0,0:0:0:0:
448,192,51425,1,0,0:0:0:0:
192,192,51620,1,0,0:0:0:0:
320,192,51815,128,0,52205:0:0:0:0:
192,192,52205,1,0,0:0:0:0:
64,192,52205,1,0,0:0:0:0:
64,192,52594,1,0,0:0:0:0:
448,192,52984,1,0,0:0:0:0:
448,192,53373,1,0,0:0:0:0:
192,192,53763,1,0,0:0:0:0:
192,192,54153,1,0,0:0:0:0:
320,192,54542,1,0,0:0:0:0:
320,192,54932,1,0,0:0:0:0:
448,192,55322,1,0,0:0:0:0:
448,192,55711,1,0,0:0:0:0:
64,192,56101,1,0,0:0:0:0:
64,192,56490,1,0,0:0:0:0:
448,192,56880,128,0,57172:0:0:0:0:
192,192,57172,1,0,0:0:0:0:
64,192,57464,128,0,58438:0:0:0:0:
448,192,57659,1,0,0:0:0:0:
320,192,57854,1,0,0:0:0:0:
192,192,58049,1,0,0:0:0:0:
320,192,58244,1,0,0:0:0:0:
448,192,58438,128,0,59218:0:0:0:0:
192,192,58633,1,0,0:0:0:0:
64,192,58828,1,0,0:0:0:0:
192,192,59023,1,0,0:0:0:0:
64,192,59218,1,0,0:0:0:0:
320,192,59412,1,0,0:0:0:0:
192,192,59607,1,0,0:0:0:0:
64,192,59802,1,0,0:0:0:0:
448,192,59802,128,0,60581:0:0:0:0:
192,192,60094,1,0,0:0:0:0:
64,192,60386,1,0,0:0:0:0:
192,192,60581,1,0,0:0:0:0:
64,192,60776,1,0,0:0:0:0:
320,192,60776,128,0,61166:0:0:0:0:
192,192,61166,1,0,0:0:0:0:
448,192,61360,1,0,0:0:0:0:
64,192,61360,128,0,61945:0:0:0:0:
320,192,61750,1,0,0:0:0:0:
192,192,61945,1,0,0:0:0:0:
448,192,61945,1,0,0:0:0:0:
64,192,62140,1,0,0:0:0:0:
192,192,62335,1,0,0:0:0:0:
320,192,62335,1,0,0:0:0:0:
448,192,62529,1,0,0:0:0:0:
64,192,62724,1,0,0:0:0:0:
192,192,62919,1,0,0:0:0:0:
320,192,63114,1,0,0:0:0:0:
448,192,63503,1,0,0:0:0:0:
320,192,63893,1,0,0:0:0:0:
192,192,64283,1,0,0:0:0:0:
448,192,64672,1,0,0:0:0:0:
64,192,64672,128,0,64964:0:0:0:0:
192,192,64964,1,0,0:0:0:0:
448,192,65257,1,0,0:0:0:0:
64,192,65257,128,0,66231:0:0:0:0:
320,192,65646,1,0,0:0:0:0:
192,192,65841,1,0,0:0:0:0:
320,192,66036,1,0,0:0:0:0:
448,192,66231,128,0,66523:0:0:0:0:
192,192,66231,1,0,0:0:0:0:
320,192,66523,1,0,0:0:0:0:
448,192,66815,128,0,67205:0:0:0:0:
64,192,66815,1,0,0:0:0:0:
192,192,67205,1,0,0:0:0:0:
320,192,67399,1,0,0:0:0:0:
64,192,67594,1,0,0:0:0:0:
448,192,67789,1,0,0:0:0:0:
192,192,67984,1,0,0:0:0:0:
448,192,68179,1,0,0:0:0:0:
320,192,68373,1,0,0:0:0:0:
64,192,68568,1,0,0:0:0:0:
192,192,68763,1,0,0:0:0:0:
320,192,68958,1,0,0:0:0:0:
448,192,69153,1,0,0:0:0:0:
64,192,69347,128,0,69640:0:0:0:0:
320,192,69640,1,0,0:0:0:0:
64,192,69932,1,0,0:0:0:0:
448,192,69932,1,0,0:0:0:0:
320,192,70127,128,0,70906:0:0:0:0:
192,192,70906,1,0,0:0:0:0:
64,192,70906,128,0,71296:0:0:0:0:
448,192,71296,1,0,0:0:0:0:
320,192,71490,1,0,0:0:0:0:
192,192,71490,1,0,0:0:0:0:
448,192,71685,1,0,0:0:0:0:
320,192,71880,1,0,0:0:0:0:
64,192,71880,1,0,0:0:0:0:
192,192,72075,1,0,0:0:0:0:
320,192,72270,1,0,0:0:0:0:
448,192,72270,128,0,72659:0:0:0:0:
64,192,72659,1,0,0:0:0:0:
320,192,72854,1,0,0:0:0:0:
192,192,73049,1,0,0:0:0:0:
448,192,73049,1,0,0:0:0:0:
64,192,73244,1,0,0:0:0:0:
320,192,73438,1,0,0:0:0:0:
192,192,73633,1,0,0:0:0:0:
448,192,73828,128,0,74218:0:0:0:0:
320,192,73828,1,0,0:0:0:0:
192,192,74412,1,0,0:0:0:0:
64,192,74412,1,0,0:0:0:0:
192,192,74802,1,0,0:0:0:0:
320,192,74802,1,0,0:0:0:0:
320,192,75192,1,0,0:0:0:0:
448,192,75192,1,0,0:0:0:0:
192,192,75581,1,0,0:0:0:0:
64,192,75581,128,0,75971:0:0:0:0:
320,192,75971,128,0,76360:0:0:0:0:
192,192,76360,1,0,0:0:0:0:
64,192,76360,1,0,0:0:0:0:
192,192,76555,1,0,0:0:0:0:
64,192,76555,1,0,0:0:0:0:
320,192,76750,1,0,0:0:0:0:
448,192,76750,1,0,0:0:0:0:
448,192,76945,1,0,0:0:0:0:
320,192,76945,1,0,0:0:0:0:
448,192,77140,128,0,77432:0:0:0:0:
64,192,77140,1,0,0:0:0:0:
320,192,77432,1,0,0:0:0:0:
448,192,77724,128,0,78698:0:0:0:0:
64,192,77724,1,0,0:0:0:0:
192,192,78114,1,0,0:0:0:0:
320,192,78309,1,0,0:0:0:0:
192,192,78503,1,0,0:0:0:0:
320,192,78698,1,0,0:0:0:0:
64,192,78698,128,0,78990:0:0:0:0:
192,192,78990,1,0,0:0:0:0:
64,192,79283,128,0,79672:0:0:0:0:
448,192,79283,1,0,0:0:0:0:
320,192,79672,1,0,0:0:0:0:
192,192,79867,1,0,0:0:0:0:
448,192,80062,1,0,0:0:0:0:
64,192,80257,1,0,0:0:0:0:
320,192,80451,1,0,0:0:0:0:
64,192,80646,1,0,0:0:0:0:
192,192,80841,1,0,0:0:0:0:
448,192,81036,1,0,0:0:0:0:
320,192,81166,1,0,0:0:0:0:
192,192,81296,1,0,0:0:0:0:
64,192,81425,1,0,0:0:0:0:
192,192,81555,1,0,0:0:0:0:
320,192,81685,1,0,0:0:0:0:
448,192,81815,128,0,82010:0:0:0:0:
64,192,82010,1,0,0:0:0:0:
192,192,82205,128,0,82399:0:0:0:0:
448,192,82399,1,0,0:0:0:0:
320,192,82594,128,0,82789:0:0:0:0:
64,192,82789,1,0,0:0:0:0:
192,192,82984,128,0,83179:0:0:0:0:
448,192,83179,1,0,0:0:0:0:
320,192,83373,1,0,0:0:0:0:
64,192,83373,128,0,84153:0:0:0:0:
448,192,83958,1,0,0:0:0:0:
320,192,84153,1,0,0:0:0:0:
192,192,84347,1,0,0:0:0:0:
448,192,84542,1,0,0:0:0:0:
64,192,84542,1,0,0:0:0:0:
320,192,84737,1,0,0:0:0:0:
192,192,84932,1,0,0:0:0:0:
64,192,84932,1,0,0:0:0:0:
448,192,85127,1,0,0:0:0:0:
192,192,85322,1,0,0:0:0:0:
64,192,85322,1,0,0:0:0:0:
320,192,85614,1,0,0:0:0:0:
192,192,85711,128,0,86101:0:0:0:0:
64,192,85711,128,0,86101:0:0:0:0:
448,192,86101,1,0,0:0:0:0:
320,192,86101,1,0,0:0:0:0:
64,192,86296,1,0,0:0:0:0:
192,192,86490,1,0,0:0:0:0:
448,192,86490,128,0,86783:0:0:0:0:
64,192,86783,1,0,0:0:0:0:
320,192,87075,128,0,88049:0:0:0:0:
192,192,87075,1,0,0:0:0:0:
64,192,87464,1,0,0:0:0:0:
192,192,87659,1,0,0:0:0:0:
64,192,87854,1,0,0:0:0:0:
448,192,88049,128,0,88341:0:0:0:0:
192,192,88049,1,0,0:0:0:0:
64,192,88341,1,0,0:0:0:0:
192,192,88633,128,0,89023:0:0:0:0:
320,192,88633,1,0,0:0:0:0:
448,192,89023,1,0,0:0:0:0:
320,192,89218,1,0,0:0:0:0:
64,192,89218,128,0,89607:0:0:0:0:
320,192,89607,1,0,0:0:0:0:
448,192,89607,1,0,0:0:0:0:
192,192,89802,1,0,0:0:0:0:
64,192,89802,1,0,0:0:0:0:
320,192,89997,1,0,0:0:0:0:
448,192,90192,1,0,0:0:0:0:
64,192,90386,1,0,0:0:0:0:
192,192,90581,1,0,0:0:0:0:
320,192,90776,1,0,0:0:0:0:
448,192,90971,1,0,0:0:0:0:
64,192,91166,1,0,0:0:0:0:
448,192,91555,1,0,0:0:0:0:
192,192,91945,1,0,0:0:0:0:
64,192,91945,1,0,0:0:0:0:
320,192,92140,1,0,0:0:0:0:
448,192,92140,1,0,0:0:0:0:
192,192,92335,1,0,0:0:0:0:
64,192,92335,1,0,0:0:0:0:
320,192,92529,1,0,0:0:0:0:
448,192,92529,1,0,0:0:0:0:
192,192,92724,1,0,0:0:0:0:
64,192,92724,1,0,0:0:0:0:
448,192,92919,1,0,0:0:0:0:
192,192,93016,1,0,0:0:0:0:
320,192,93309,1,0,0:0:0:0:
64,192,93309,1,0,0:0:0:0:
448,192,93698,1,0,0:0:0:0:
192,192,94088,1,0,0:0:0:0:
320,192,94283,1,0,0:0:0:0:
448,192,94283,1,0,0:0:0:0:
64,192,94477,1,0,0:0:0:0:
320,192,94575,1,0,0:0:0:0:
192,192,94867,1,0,0:0:0:0:
448,192,94867,1,0,0:0:0:0:
64,192,95257,1,0,0:0:0:0:
320,192,95451,1,0,0:0:0:0:
448,192,95451,1,0,0:0:0:0:
64,192,95841,1,0,0:0:0:0:
192,192,95841,1,0,0:0:0:0:
448,192,96036,1,0,0:0:0:0:
192,192,96133,1,0,0:0:0:0:
64,192,96425,1,0,0:0:0:0:
320,192,96425,1,0,0:0:0:0:
448,192,96815,1,0,0:0:0:0:
320,192,97205,1,0,0:0:0:0:
192,192,97399,1,0,0:0:0:0:
64,192,97399,128,0,97984:0:0:0:0:
448,192,97984,128,0,98568:0:0:0:0:
320,192,97984,1,0,0:0:0:0:
192,192,98568,128,0,98958:0:0:0:0:
320,192,98958,1,0,0:0:0:0:
448,192,98958,1,0,0:0:0:0:
64,192,99153,1,0,0:0:0:0:
320,192,99250,1,0,0:0:0:0:
192,192,99542,1,0,0:0:0:0:
448,192,99542,1,0,0:0:0:0:
64,192,99932,1,0,0:0:0:0:
192,192,100322,1,0,0:0:0:0:
64,192,100516,1,0,0:0:0:0:
320,192,100516,1,0,0:0:0:0:
448,192,100711,1,0,0:0:0:0:
192,192,100809,1,0,0:0:0:0:
64,192,101101,1,0,0:0:0:0:
320,192,101101,1,0,0:0:0:0:
448,192,101490,1,0,0:0:0:0:
320,192,101880,1,0,0:0:0:0:
192,192,102075,1,0,0:0:0:0:
64,192,102075,1,0,0:0:0:0:
320,192,102270,1,0,0:0:0:0:
448,192,102367,1,0,0:0:0:0:
192,192,102659,1,0,0:0:0:0:
64,192,102659,1,0,0:0:0:0:
448,192,103049,1,0,0:0:0:0:
320,192,103438,1,0,0:0:0:0:
192,192,103633,1,0,0:0:0:0:
64,192,103633,1,0,0:0:0:0:
448,192,103828,1,0,0:0:0:0:
320,192,104023,1,0,0:0:0:0:
192,192,104218,1,0,0:0:0:0:
64,192,104412,1,0,0:0:0:0:
192,192,104607,1,0,0:0:0:0:
320,192,104802,1,0,0:0:0:0:
448,192,104997,1,0,0:0:0:0:
64,192,105192,128,0,105484:0:0:0:0:
192,192,105484,128,0,105776:0:0:0:0:
320,192,105776,1,0,0:0:0:0:
448,192,105776,128,0,106555:0:0:0:0:
64,192,106166,1,0,0:0:0:0:
320,192,106555,1,0,0:0:0:0:
64,192,106750,1,0,0:0:0:0:
192,192,106750,1,0,0:0:0:0:
448,192,106945,1,0,0:0:0:0:
192,192,107042,1,0,0:0:0:0:
64,192,107335,1,0,0:0:0:0:
320,192,107335,1,0,0:0:0:0:
448,192,107724,1,0,0:0:0:0:
320,192,107919,1,0,0:0:0:0:
192,192,108114,1,0,0:0:0:0:
448,192,108309,1,0,0:0:0:0:
320,192,108309,1,0,0:0:0:0:
64,192,108503,1,0,0:0:0:0:
320,192,108601,1,0,0:0:0:0:
192,192,108893,1,0,0:0:0:0:
448,192,108893,1,0,0:0:0:0:
64,192,109283,1,0,0:0:0:0:
320,192,109477,1,0,0:0:0:0:
448,192,109672,1,0,0:0:0:0:
64,192,109867,1,0,0:0:0:0:
192,192,109867,1,0,0:0:0:0:
448,192,110062,1,0,0:0:0:0:
192,192,110257,1,0,0:0:0:0:
64,192,110451,1,0,0:0:0:0:
320,192,110451,1,0,0:0:0:0:
448,192,110841,1,0,0:0:0:0:
64,192,111036,1,0,0:0:0:0:
320,192,111231,1,0,0:0:0:0:
192,192,111425,1,0,0:0:0:0:
64,192,111425,1,0,0:0:0:0:
448,192,111620,1,0,0:0:0:0:
192,192,111718,1,0,0:0:0:0:
320,192,112010,1,0,0:0:0:0:
64,192,112010,1,0,0:0:0:0:
448,192,112399,1,0,0:0:0:0:
64,192,112594,1,0,0:0:0:0:
192,192,112789,1,0,0:0:0:0:
320,192,112984,1,0,0:0:0:0:
448,192,112984,1,0,0:0:0:0:
64,192,113179,1,0,0:0:0:0:
320,192,113276,1,0,0:0:0:0:
448,192,113568,1,0,0:0:0:0:
192,192,113568,1,0,0:0:0:0:
64,192,113958,1,0,0:0:0:0:
320,192,114153,1,0,0:0:0:0:
448,192,114153,1,0,0:0:0:0:
192,192,114542,1,0,0:0:0:0:
64,192,114542,1,0,0:0:0:0:
448,192,114737,1,0,0:0:0:0:
192,192,114835,1,0,0:0:0:0:
320,192,115127,1,0,0:0:0:0:
64,192,115127,1,0,0:0:0:0:
448,192,115322,1,0,0:0:0:0:
320,192,115516,1,0,0:0:0:0:
192,192,115711,1,0,0:0:0:0:
64,192,115906,1,0,0:0:0:0:
320,192,116101,1,0,0:0:0:0:
448,192,116101,128,0,116685:0:0:0:0:
192,192,116685,1,0,0:0:0:0:
64,192,116685,128,0,117270:0:0:0:0:
320,192,117270,1,0,0:0:0:0:
448,192,117270,1,0,0:0:0:0:
192,192,117464,128,0,123893:0:0:0:0:
64,192,117464,128,0,123893:0:0:0:0:
