osu file format v14

[General]
AudioFilename: audio.mp3
AudioLeadIn: 0
PreviewTime: 63689
Countdown: 0
SampleSet: Soft
StackLeniency: 0.7
Mode: 3
LetterboxInBreaks: 0
SpecialStyle: 0
WidescreenStoryboard: 0

[Editor]
Bookmarks: 6881,25713,76362,108505
DistanceSpacing: 0.1
BeatDivisor: 4
GridSize: 32
TimelineZoom: 1.500006

[Metadata]
Title:Lord=Crossight
TitleUnicode:Lord=Crossight
Artist:penoreri
ArtistUnicode:ぺのれり
Creator:Aras25
Version:6K ADVANCED
Source:SOUND VOLTEX III GRAVITY WARS
Tags:sdvx 5th KAC original song contest EPISODE 21 rasis theme Alisceasparku Critical_Star erlinadewi- Shinzo-
BeatmapID:1058050
BeatmapSetID:497026

[Difficulty]
HPDrainRate:7.5
CircleSize:6
OverallDifficulty:7.5
ApproachRate:5
SliderMultiplier:1.4
SliderTickRate:1

[Events]
//Background and Video events
0,0,"thanks ajee.png",0,0
//Break Periods
//Storyboard Layer 0 (Background)
//Storyboard Layer 1 (Fail)
//Storyboard Layer 2 (Pass)
//Storyboard Layer 3 (Foreground)
//Storyboard Sound Samples

[TimingPoints]
778,389.61038961039,4,2,1,30,1,0
64674,-100,4,2,1,30,0,1
92726,-100,4,2,1,30,0,0

[HitObjects]
384,192,583,5,0,0:0:0:0:
128,192,648,1,0,0:0:0:0:
213,192,713,1,0,0:0:0:0:
469,192,778,1,0,0:0:0:0:
384,192,842,1,0,0:0:0:0:
298,192,907,1,0,0:0:0:0:
213,192,972,1,0,0:0:0:0:
128,192,1037,1,0,0:0:0:0:
298,192,1102,1,0,0:0:0:0:
384,192,1167,1,0,0:0:0:0:
469,192,1232,1,0,0:0:0:0:
42,192,1297,1,0,0:0:0:0:
128,192,1362,1,0,0:0:0:0:
213,192,1427,1,0,0:0:0:0:
298,192,1492,1,0,0:0:0:0:
384,192,1557,1,0,0:0:0:0:
128,192,1622,1,0,0:0:0:0:
213,192,1687,1,0,0:0:0:0:
298,192,1752,1,8,0:0:0:0:
384,192,1752,1,0,0:0:0:0:
128,192,1816,1,0,0:0:0:0:
469,192,1881,1,8,0:0:0:0:
384,192,1881,1,0,0:0:0:0:
42,192,1946,128,0,2336:0:0:0:0:
384,192,2336,128,2,2531:0:0:0:0:
469,192,2336,1,4,0:0:0:0:
213,192,2628,128,2,2823:0:0:0:0:
128,192,2628,1,4,0:0:0:0:
469,192,2920,128,2,8375:0:0:0:0:
42,192,2920,1,4,0:0:0:0:
128,192,3894,1,0,0:0:0:0:
42,192,4187,1,0,0:0:0:0:
213,192,4479,1,0,0:0:0:0:
128,192,4771,1,0,0:0:0:0:
384,192,5063,1,0,0:0:0:0:
298,192,5453,1,0,0:0:0:0:
213,192,5745,1,0,0:0:0:0:
384,192,6037,1,0,0:0:0:0:
128,192,6881,1,0,0:0:0:0:
213,192,6946,1,0,0:0:0:0:
298,192,7011,1,0,0:0:0:0:
384,192,7076,1,0,0:0:0:0:
213,192,7206,1,0,0:0:0:0:
42,192,7336,1,0,0:0:0:0:
128,192,7466,1,0,0:0:0:0:
384,192,7596,1,0,0:0:0:0:
298,192,7790,1,0,0:0:0:0:
213,192,7855,1,0,0:0:0:0:
128,192,7920,1,0,0:0:0:0:
42,192,7985,1,0,0:0:0:0:
384,192,8050,1,0,0:0:0:0:
298,192,8115,1,0,0:0:0:0:
213,192,8180,1,0,0:0:0:0:
128,192,8245,1,0,0:0:0:0:
42,192,8310,1,0,0:0:0:0:
298,192,8375,1,2,0:0:0:0:
213,192,8375,1,0,0:0:0:0:
384,192,8472,1,8,0:0:0:0:
128,192,8472,1,0,0:0:0:0:
213,192,8862,1,0,0:0:0:0:
469,192,9154,1,0,0:0:0:0:
298,192,10128,1,0,0:0:0:0:
213,192,10420,1,0,0:0:0:0:
469,192,10713,1,0,0:0:0:0:
42,192,10907,1,0,0:0:0:0:
384,192,11102,1,0,0:0:0:0:
128,192,11297,1,0,0:0:0:0:
213,192,11492,1,0,0:0:0:0:
298,192,11687,1,0,0:0:0:0:
42,192,11979,1,0,0:0:0:0:
469,192,12271,1,0,0:0:0:0:
42,192,13148,1,8,0:0:0:0:
213,192,13148,1,0,0:0:0:0:
469,192,13245,1,0,0:0:0:0:
298,192,13245,128,0,13732:0:0:0:0:
128,192,13440,1,2,0:0:0:0:
42,192,13635,1,8,0:0:0:0:
384,192,13635,1,0,0:0:0:0:
128,192,13732,1,2,0:0:0:0:
469,192,13829,128,0,14803:0:0:0:0:
42,192,13927,1,8,0:0:0:0:
213,192,13927,1,0,0:0:0:0:
128,192,14024,1,2,0:0:0:0:
384,192,14122,1,0,0:0:0:0:
298,192,14219,1,0,0:0:0:0:
213,192,14316,1,0,0:0:0:0:
42,192,14414,1,0,0:0:0:0:
128,192,14511,1,0,0:0:0:0:
384,192,14609,1,0,0:0:0:0:
298,192,14706,1,0,0:0:0:0:
42,192,14803,1,4,0:0:0:0:
213,192,14803,1,8,0:0:0:0:
384,192,14901,1,0,0:0:0:0:
298,192,14998,1,0,0:0:0:0:
213,192,15096,1,0,0:0:0:0:
128,192,15193,1,2,0:0:0:0:
469,192,15193,1,0,0:0:0:0:
384,192,15290,1,0,0:0:0:0:
298,192,15388,1,0,0:0:0:0:
213,192,15485,1,0,0:0:0:0:
42,192,15583,1,2,0:0:0:0:
128,192,15583,1,0,0:0:0:0:
384,192,15680,1,0,0:0:0:0:
213,192,15778,1,0,0:0:0:0:
298,192,15875,1,0,0:0:0:0:
42,192,15972,1,2,0:0:0:0:
384,192,15972,1,0,0:0:0:0:
128,192,16070,1,0,0:0:0:0:
298,192,16167,1,0,0:0:0:0:
213,192,16265,1,0,0:0:0:0:
469,192,16362,1,2,0:0:0:0:
128,192,16362,1,0,0:0:0:0:
213,192,16459,1,0,0:0:0:0:
384,192,16557,1,0,0:0:0:0:
298,192,16654,1,0,0:0:0:0:
128,192,16752,1,2,0:0:0:0:
469,192,16752,1,0,0:0:0:0:
213,192,16849,1,0,0:0:0:0:
298,192,16946,1,0,0:0:0:0:
384,192,17044,1,0,0:0:0:0:
469,192,17141,1,2,0:0:0:0:
42,192,17141,1,0,0:0:0:0:
213,192,17239,1,0,0:0:0:0:
384,192,17336,1,0,0:0:0:0:
298,192,17433,1,0,0:0:0:0:
213,192,17531,1,2,0:0:0:0:
469,192,17531,1,0,0:0:0:0:
128,192,17628,1,0,0:0:0:0:
42,192,17726,1,8,0:0:0:0:
298,192,17726,1,0,0:0:0:0:
213,192,17823,1,8,0:0:0:0:
469,192,17823,1,0,0:0:0:0:
384,192,17920,1,2,0:0:0:0:
128,192,17920,128,0,18213:0:0:0:0:
298,192,18115,1,0,0:0:0:0:
469,192,18213,128,0,18505:0:0:0:0:
213,192,18407,1,0,0:0:0:0:
128,192,18505,128,0,18797:0:0:0:0:
384,192,18700,1,2,0:0:0:0:
298,192,18797,128,0,19089:0:0:0:0:
42,192,18992,1,0,0:0:0:0:
384,192,19089,128,2,19381:0:0:0:0:
128,192,19089,128,0,19381:0:0:0:0:
469,192,19284,1,0,0:0:0:0:
42,192,19381,128,0,19674:0:0:0:0:
298,192,19576,1,0,0:0:0:0:
469,192,19674,128,0,19966:0:0:0:0:
128,192,19868,1,2,0:0:0:0:
213,192,19966,128,0,20258:0:0:0:0:
298,192,20161,1,0,0:0:0:0:
42,192,20258,128,2,20453:0:0:0:0:
469,192,20258,128,0,20453:0:0:0:0:
128,192,20453,1,0,0:0:0:0:
298,192,20550,1,0,0:0:0:0:
469,192,20648,1,2,0:0:0:0:
42,192,20648,1,0,0:0:0:0:
128,192,20745,1,0,0:0:0:0:
384,192,20842,1,8,0:0:0:0:
213,192,20842,1,0,0:0:0:0:
469,192,21037,1,2,0:0:0:0:
42,192,21037,1,0,0:0:0:0:
384,192,21232,1,0,0:0:0:0:
298,192,21297,1,0,0:0:0:0:
213,192,21362,1,0,0:0:0:0:
128,192,21427,1,8,0:0:0:0:
42,192,21427,1,0,0:0:0:0:
469,192,21524,1,2,0:0:0:0:
384,192,21524,1,0,0:0:0:0:
213,192,21719,1,2,0:0:0:0:
42,192,21719,1,0,0:0:0:0:
298,192,21914,1,4,0:0:0:0:
128,192,21914,1,2,0:0:0:0:
469,192,22206,1,4,0:0:0:0:
384,192,22206,1,2,0:0:0:0:
42,192,22401,1,8,0:0:0:0:
298,192,22401,1,0,0:0:0:0:
213,192,22498,1,2,0:0:0:0:
128,192,22498,1,4,0:0:0:0:
384,192,22693,1,8,0:0:0:0:
298,192,22742,1,8,0:0:0:0:
213,192,22790,1,4,0:0:0:0:
469,192,22888,1,0,0:0:0:0:
298,192,22985,1,0,0:0:0:0:
213,192,23034,1,0,0:0:0:0:
128,192,23083,1,0,0:0:0:0:
469,192,23180,1,0,0:0:0:0:
213,192,23278,1,0,0:0:0:0:
128,192,23326,1,0,0:0:0:0:
42,192,23375,1,0,0:0:0:0:
469,192,23472,1,0,0:0:0:0:
128,192,23570,1,0,0:0:0:0:
213,192,23618,1,0,0:0:0:0:
298,192,23667,1,0,0:0:0:0:
469,192,23765,1,4,0:0:0:0:
42,192,23765,1,0,0:0:0:0:
128,192,23862,1,8,0:0:0:0:
384,192,23862,1,0,0:0:0:0:
213,192,23959,1,2,0:0:0:0:
298,192,23959,128,0,24252:0:0:0:0:
42,192,24252,1,0,0:0:0:0:
128,192,24349,1,0,0:0:0:0:
213,192,24446,1,0,0:0:0:0:
298,192,24544,1,2,0:0:0:0:
469,192,24544,128,0,24933:0:0:0:0:
42,192,24641,1,0,0:0:0:0:
128,192,24739,1,0,0:0:0:0:
213,192,24836,1,0,0:0:0:0:
298,192,24933,1,2,0:0:0:0:
384,192,24933,128,0,25323:0:0:0:0:
42,192,25031,1,0,0:0:0:0:
128,192,25128,1,0,0:0:0:0:
213,192,25226,1,0,0:0:0:0:
469,192,25323,1,2,0:0:0:0:
298,192,25323,128,0,25713:0:0:0:0:
42,192,25518,1,0,0:0:0:0:
128,192,25615,1,0,0:0:0:0:
213,192,25713,1,2,0:0:0:0:
469,192,25713,1,0,0:0:0:0:
128,192,25810,1,0,0:0:0:0:
42,192,25907,1,0,0:0:0:0:
469,192,26037,1,0,0:0:0:0:
384,192,26135,1,0,0:0:0:0:
213,192,26232,1,0,0:0:0:0:
128,192,26329,1,0,0:0:0:0:
42,192,26427,1,0,0:0:0:0:
298,192,26524,1,0,0:0:0:0:
213,192,26622,1,0,0:0:0:0:
298,192,26719,1,0,0:0:0:0:
384,192,26816,1,0,0:0:0:0:
213,192,26914,1,0,0:0:0:0:
298,192,27011,1,0,0:0:0:0:
42,192,27109,1,0,0:0:0:0:
128,192,27206,1,0,0:0:0:0:
469,192,27303,128,0,28050:0:0:0:0:
213,192,27303,1,0,0:0:0:0:
128,192,27661,128,0,28050:0:0:0:0:
42,192,28050,128,0,28829:0:0:0:0:
384,192,28050,128,0,28440:0:0:0:0:
213,192,28440,128,0,28829:0:0:0:0:
469,192,28829,128,0,29609:0:0:0:0:
298,192,28829,128,0,29609:0:0:0:0:
213,192,29414,1,0,0:0:0:0:
128,192,29511,1,0,0:0:0:0:
42,192,29609,128,0,30388:0:0:0:0:
384,192,29609,128,0,29998:0:0:0:0:
469,192,29998,1,0,0:0:0:0:
298,192,30193,1,0,0:0:0:0:
469,192,30388,128,0,31167:0:0:0:0:
128,192,30388,128,0,30778:0:0:0:0:
298,192,30778,1,0,0:0:0:0:
213,192,30972,1,0,0:0:0:0:
42,192,31167,128,0,31946:0:0:0:0:
384,192,31167,128,0,31557:0:0:0:0:
213,192,31557,128,0,31849:0:0:0:0:
298,192,31849,1,0,0:0:0:0:
384,192,31898,1,0,0:0:0:0:
469,192,31946,128,0,32726:0:0:0:0:
128,192,31946,1,0,0:0:0:0:
42,192,32726,128,0,33505:0:0:0:0:
298,192,32726,1,0,0:0:0:0:
128,192,32920,1,0,0:0:0:0:
384,192,33115,1,0,0:0:0:0:
213,192,33310,1,0,0:0:0:0:
469,192,33505,128,0,35063:0:0:0:0:
298,192,33505,128,0,34089:0:0:0:0:
128,192,33797,128,0,34089:0:0:0:0:
213,192,34089,128,0,34868:0:0:0:0:
298,192,34868,1,0,0:0:0:0:
128,192,34966,1,0,0:0:0:0:
42,192,35063,128,0,36622:0:0:0:0:
384,192,35063,128,0,35648:0:0:0:0:
213,192,35355,128,0,35648:0:0:0:0:
298,192,35648,128,0,36232:0:0:0:0:
128,192,36232,1,0,0:0:0:0:
469,192,36622,128,0,38180:0:0:0:0:
213,192,36622,1,0,0:0:0:0:
298,192,37206,1,0,0:0:0:0:
213,192,37303,1,0,0:0:0:0:
128,192,37401,1,0,0:0:0:0:
298,192,37596,1,0,0:0:0:0:
213,192,37790,1,0,0:0:0:0:
384,192,37985,1,0,0:0:0:0:
42,192,38180,128,0,39739:0:0:0:0:
128,192,38180,1,0,0:0:0:0:
213,192,38375,1,0,0:0:0:0:
298,192,38570,1,0,0:0:0:0:
469,192,38959,1,0,0:0:0:0:
384,192,39057,1,0,0:0:0:0:
298,192,39154,1,0,0:0:0:0:
213,192,39252,1,0,0:0:0:0:
384,192,39349,1,0,0:0:0:0:
298,192,39446,1,0,0:0:0:0:
213,192,39544,1,0,0:0:0:0:
128,192,39641,1,0,0:0:0:0:
298,192,39739,1,2,0:0:0:0:
384,192,39739,1,0,0:0:0:0:
469,192,39739,1,0,0:0:0:0:
298,192,40323,1,2,0:0:0:0:
384,192,40323,1,0,0:0:0:0:
469,192,40518,1,8,0:0:0:0:
213,192,40518,1,0,0:0:0:0:
42,192,40518,1,0,0:0:0:0:
298,192,41102,1,2,0:0:0:0:
128,192,41102,1,0,0:0:0:0:
128,192,41297,1,2,0:0:0:0:
298,192,41297,1,0,0:0:0:0:
469,192,41589,1,2,0:0:0:0:
213,192,41589,1,0,0:0:0:0:
298,192,41881,1,2,0:0:0:0:
384,192,41881,1,0,0:0:0:0:
128,192,42076,1,8,0:0:0:0:
469,192,42076,128,0,42271:0:0:0:0:
42,192,42076,128,0,42271:0:0:0:0:
384,192,42271,128,0,42466:0:0:0:0:
298,192,42466,128,0,42661:0:0:0:0:
213,192,42661,1,2,0:0:0:0:
128,192,42661,128,0,42855:0:0:0:0:
298,192,42855,1,2,0:0:0:0:
469,192,42855,128,0,43440:0:0:0:0:
384,192,43440,1,2,0:0:0:0:
213,192,43440,128,0,43635:0:0:0:0:
42,192,43635,1,8,0:0:0:0:
469,192,43635,1,0,0:0:0:0:
298,192,43635,128,0,43829:0:0:0:0:
128,192,43829,128,0,44024:0:0:0:0:
384,192,44024,128,0,44219:0:0:0:0:
213,192,44219,1,2,0:0:0:0:
42,192,44219,128,0,44414:0:0:0:0:
298,192,44414,1,2,0:0:0:0:
469,192,44414,128,0,45193:0:0:0:0:
128,192,44609,1,2,0:0:0:0:
213,192,44609,1,0,0:0:0:0:
384,192,44706,1,2,0:0:0:0:
298,192,44706,1,0,0:0:0:0:
213,192,44901,1,2,0:0:0:0:
128,192,44901,1,0,0:0:0:0:
298,192,44998,1,2,0:0:0:0:
384,192,44998,1,0,0:0:0:0:
42,192,45193,1,8,0:0:0:0:
128,192,45193,1,0,0:0:0:0:
384,192,45193,1,0,0:0:0:0:
298,192,45388,1,2,0:0:0:0:
213,192,45388,1,0,0:0:0:0:
384,192,45680,1,2,0:0:0:0:
298,192,45680,1,0,0:0:0:0:
213,192,45778,1,2,0:0:0:0:
128,192,45778,1,0,0:0:0:0:
42,192,45972,1,2,0:0:0:0:
469,192,45972,128,4,46265:0:0:0:0:
298,192,46265,128,0,46557:0:0:0:0:
128,192,46557,1,2,0:0:0:0:
384,192,46557,128,0,47336:0:0:0:0:
469,192,46752,1,8,0:0:0:0:
42,192,46752,1,0,0:0:0:0:
213,192,46752,1,0,0:0:0:0:
213,192,47336,1,2,0:0:0:0:
298,192,47336,1,0,0:0:0:0:
128,192,47433,1,0,0:0:0:0:
42,192,47531,1,6,0:0:0:0:
469,192,47531,1,0,0:0:0:0:
128,192,47823,1,2,0:0:0:0:
298,192,47823,1,0,0:0:0:0:
298,192,48115,1,2,0:0:0:0:
128,192,48115,1,0,0:0:0:0:
42,192,48310,1,8,0:0:0:0:
384,192,48310,1,0,0:0:0:0:
469,192,48310,1,0,0:0:0:0:
298,192,48505,1,2,0:0:0:0:
213,192,48505,1,0,0:0:0:0:
128,192,48797,1,2,0:0:0:0:
213,192,48797,1,0,0:0:0:0:
298,192,48894,1,2,0:0:0:0:
384,192,48894,1,0,0:0:0:0:
42,192,49089,1,6,0:0:0:0:
469,192,49089,128,0,49674:0:0:0:0:
128,192,49674,1,2,0:0:0:0:
213,192,49674,128,0,49868:0:0:0:0:
42,192,49868,1,8,0:0:0:0:
469,192,49868,1,0,0:0:0:0:
298,192,49868,128,0,50063:0:0:0:0:
128,192,50063,128,0,50258:0:0:0:0:
384,192,50258,128,0,50453:0:0:0:0:
298,192,50453,1,2,0:0:0:0:
42,192,50453,128,0,50648:0:0:0:0:
298,192,50648,1,6,0:0:0:0:
469,192,50648,128,0,51037:0:0:0:0:
213,192,50940,1,2,0:0:0:0:
128,192,50940,1,0,0:0:0:0:
298,192,51037,128,4,51427:0:0:0:0:
213,192,51232,1,2,0:0:0:0:
128,192,51232,1,0,0:0:0:0:
213,192,51427,1,12,0:0:0:0:
42,192,51427,1,0,0:0:0:0:
469,192,51427,1,0,0:0:0:0:
384,192,51622,1,2,0:0:0:0:
298,192,51719,1,0,0:0:0:0:
213,192,51816,1,8,0:0:0:0:
298,192,51914,1,8,0:0:0:0:
42,192,52011,1,2,0:0:0:0:
384,192,52011,1,0,0:0:0:0:
128,192,52109,1,0,0:0:0:0:
469,192,52206,1,6,0:0:0:0:
213,192,52206,1,0,0:0:0:0:
298,192,52401,128,0,52693:0:0:0:0:
213,192,52596,1,2,0:0:0:0:
384,192,52693,128,0,52985:0:0:0:0:
42,192,52888,1,0,0:0:0:0:
213,192,52985,1,2,0:0:0:0:
128,192,52985,128,0,53278:0:0:0:0:
298,192,53278,1,0,0:0:0:0:
213,192,53375,1,2,0:0:0:0:
42,192,53570,1,0,0:0:0:0:
469,192,53570,128,0,53765:0:0:0:0:
213,192,53765,1,2,0:0:0:0:
298,192,53959,128,0,54252:0:0:0:0:
213,192,54154,1,2,0:0:0:0:
128,192,54252,128,0,54544:0:0:0:0:
384,192,54446,1,0,0:0:0:0:
213,192,54544,1,2,0:0:0:0:
469,192,54544,128,0,54836:0:0:0:0:
128,192,54836,1,0,0:0:0:0:
213,192,54933,1,2,0:0:0:0:
469,192,55128,1,0,0:0:0:0:
42,192,55128,128,0,55323:0:0:0:0:
213,192,55323,1,2,0:0:0:0:
298,192,55518,128,0,55810:0:0:0:0:
213,192,55713,1,2,0:0:0:0:
384,192,55810,128,0,56102:0:0:0:0:
42,192,56005,1,0,0:0:0:0:
213,192,56102,1,2,0:0:0:0:
128,192,56102,128,0,56394:0:0:0:0:
298,192,56394,1,0,0:0:0:0:
213,192,56492,1,2,0:0:0:0:
42,192,56687,1,0,0:0:0:0:
469,192,56687,128,0,56881:0:0:0:0:
128,192,56881,1,2,0:0:0:0:
298,192,56881,128,0,57174:0:0:0:0:
384,192,57174,1,0,0:0:0:0:
128,192,57271,1,2,0:0:0:0:
213,192,57466,128,0,57661:0:0:0:0:
128,192,57661,1,10,0:0:0:0:
469,192,57661,128,0,57855:0:0:0:0:
42,192,57661,1,0,0:0:0:0:
298,192,57855,1,8,0:0:0:0:
213,192,57855,1,0,0:0:0:0:
384,192,58050,1,0,0:0:0:0:
469,192,58050,1,10,0:0:0:0:
128,192,58148,1,0,0:0:0:0:
298,192,58245,1,0,0:0:0:0:
213,192,58342,1,0,0:0:0:0:
42,192,58440,1,2,0:0:0:0:
469,192,58440,128,0,59219:0:0:0:0:
384,192,58440,1,0,0:0:0:0:
128,192,58635,1,8,0:0:0:0:
213,192,58732,1,8,0:0:0:0:
298,192,58829,1,8,0:0:0:0:
42,192,58927,1,0,0:0:0:0:
298,192,59024,1,0,0:0:0:0:
213,192,59122,1,0,0:0:0:0:
128,192,59219,1,8,0:0:0:0:
384,192,59219,1,0,0:0:0:0:
298,192,59414,128,2,59609:0:0:0:0:
42,192,59414,1,0,0:0:0:0:
213,192,59609,1,0,0:0:0:0:
42,192,59803,1,2,0:0:0:0:
469,192,59803,128,4,60583:0:0:0:0:
128,192,59803,1,0,0:0:0:0:
128,192,60096,1,8,0:0:0:0:
384,192,60096,1,0,0:0:0:0:
298,192,60193,1,2,0:0:0:0:
213,192,60290,1,0,0:0:0:0:
128,192,60388,1,8,0:0:0:0:
384,192,60485,1,8,0:0:0:0:
42,192,60583,1,0,0:0:0:0:
128,192,60648,1,0,0:0:0:0:
213,192,60713,1,0,0:0:0:0:
469,192,60778,128,2,61167:0:0:0:0:
298,192,60778,1,0,0:0:0:0:
128,192,61070,1,0,0:0:0:0:
298,192,61167,1,8,0:0:0:0:
42,192,61167,1,0,0:0:0:0:
213,192,61265,1,0,0:0:0:0:
128,192,61362,1,2,0:0:0:0:
469,192,61362,128,0,63115:0:0:0:0:
384,192,61362,1,0,0:0:0:0:
42,192,61459,1,0,0:0:0:0:
298,192,61654,1,0,0:0:0:0:
213,192,61752,1,0,0:0:0:0:
298,192,61849,1,0,0:0:0:0:
384,192,61946,1,8,0:0:0:0:
42,192,61946,1,0,0:0:0:0:
128,192,62044,1,0,0:0:0:0:
213,192,62141,1,0,0:0:0:0:
298,192,62239,1,0,0:0:0:0:
384,192,62336,1,2,0:0:0:0:
42,192,62336,1,0,0:0:0:0:
298,192,62433,1,0,0:0:0:0:
213,192,62531,1,0,0:0:0:0:
128,192,62628,1,8,0:0:0:0:
42,192,62726,1,2,0:0:0:0:
384,192,62726,1,0,0:0:0:0:
213,192,62823,1,8,0:0:0:0:
298,192,62920,1,8,0:0:0:0:
128,192,63018,1,8,0:0:0:0:
42,192,63018,1,0,0:0:0:0:
213,192,63115,1,0,0:0:0:0:
469,192,63505,1,0,0:0:0:0:
213,192,63505,1,0,0:0:0:0:
298,192,63894,1,0,0:0:0:0:
42,192,63894,1,0,0:0:0:0:
213,192,64284,128,0,64674:0:0:0:0:
469,192,64284,1,0,0:0:0:0:
128,192,64674,1,6,0:0:0:0:
384,192,64674,1,0,0:0:0:0:
469,192,64674,128,0,64868:0:0:0:0:
298,192,64868,1,8,0:0:0:0:
42,192,64868,1,0,0:0:0:0:
128,192,64966,128,2,65161:0:0:0:0:
298,192,65258,1,8,0:0:0:0:
128,192,65258,128,0,65648:0:0:0:0:
384,192,65550,1,2,0:0:0:0:
213,192,65648,1,8,0:0:0:0:
469,192,65648,1,0,0:0:0:0:
298,192,65745,1,0,0:0:0:0:
384,192,65842,1,2,0:0:0:0:
469,192,65940,1,2,0:0:0:0:
213,192,66037,1,8,0:0:0:0:
128,192,66135,1,0,0:0:0:0:
42,192,66232,1,2,0:0:0:0:
298,192,66232,1,0,0:0:0:0:
469,192,66232,128,0,66427:0:0:0:0:
128,192,66427,1,8,0:0:0:0:
384,192,66427,1,0,0:0:0:0:
213,192,66524,128,2,66622:0:0:0:0:
42,192,66816,1,8,0:0:0:0:
469,192,66816,128,0,67206:0:0:0:0:
298,192,67206,1,8,0:0:0:0:
128,192,67206,128,0,67303:0:0:0:0:
384,192,67401,128,2,67498:0:0:0:0:
298,192,67596,1,8,0:0:0:0:
213,192,67596,128,0,67693:0:0:0:0:
128,192,67790,1,4,0:0:0:0:
469,192,67790,128,2,68180:0:0:0:0:
42,192,67985,1,8,0:0:0:0:
298,192,67985,1,0,0:0:0:0:
213,192,68180,128,0,68278:0:0:0:0:
128,192,68375,128,8,68472:0:0:0:0:
384,192,68375,1,0,0:0:0:0:
298,192,68570,128,2,68667:0:0:0:0:
42,192,68765,128,8,68862:0:0:0:0:
384,192,68765,1,0,0:0:0:0:
213,192,68959,128,0,69057:0:0:0:0:
469,192,69154,1,8,0:0:0:0:
384,192,69154,128,0,69252:0:0:0:0:
42,192,69349,128,2,69641:0:0:0:0:
128,192,69349,1,0,0:0:0:0:
469,192,69544,1,8,0:0:0:0:
213,192,69544,1,0,0:0:0:0:
298,192,69641,128,0,69933:0:0:0:0:
42,192,69933,1,8,0:0:0:0:
469,192,69933,1,0,0:0:0:0:
128,192,69998,1,0,0:0:0:0:
213,192,70063,1,0,0:0:0:0:
469,192,70128,1,2,0:0:0:0:
384,192,70193,1,0,0:0:0:0:
298,192,70258,1,0,0:0:0:0:
213,192,70323,1,8,0:0:0:0:
42,192,70388,1,0,0:0:0:0:
128,192,70453,1,0,0:0:0:0:
213,192,70518,1,0,0:0:0:0:
298,192,70583,1,0,0:0:0:0:
128,192,70648,1,0,0:0:0:0:
213,192,70713,1,8,0:0:0:0:
298,192,70778,1,0,0:0:0:0:
384,192,70842,1,0,0:0:0:0:
42,192,70907,1,2,0:0:0:0:
469,192,70907,1,0,0:0:0:0:
128,192,71102,1,8,0:0:0:0:
384,192,71102,1,0,0:0:0:0:
298,192,71297,1,0,0:0:0:0:
213,192,71394,1,2,0:0:0:0:
298,192,71492,1,8,0:0:0:0:
469,192,71492,1,0,0:0:0:0:
42,192,71687,1,2,0:0:0:0:
128,192,71784,1,2,0:0:0:0:
213,192,71881,1,8,0:0:0:0:
384,192,71881,1,0,0:0:0:0:
469,192,72076,1,2,0:0:0:0:
384,192,72174,1,2,0:0:0:0:
42,192,72271,1,8,0:0:0:0:
298,192,72271,128,0,72661:0:0:0:0:
213,192,72661,128,8,72855:0:0:0:0:
128,192,72661,1,0,0:0:0:0:
469,192,72855,1,2,0:0:0:0:
384,192,72985,1,2,0:0:0:0:
298,192,73050,1,8,0:0:0:0:
42,192,73050,1,0,0:0:0:0:
128,192,73115,1,0,0:0:0:0:
213,192,73180,1,0,0:0:0:0:
298,192,73245,1,2,0:0:0:0:
384,192,73342,1,8,0:0:0:0:
128,192,73440,1,8,0:0:0:0:
469,192,73440,1,0,0:0:0:0:
384,192,73537,1,8,0:0:0:0:
298,192,73635,1,0,0:0:0:0:
213,192,73732,1,0,0:0:0:0:
42,192,73829,1,2,0:0:0:0:
128,192,73829,1,4,0:0:0:0:
469,192,73829,128,0,74219:0:0:0:0:
298,192,74219,1,2,0:0:0:0:
213,192,74316,1,2,0:0:0:0:
128,192,74414,128,12,74609:0:0:0:0:
384,192,74414,1,0,0:0:0:0:
213,192,74609,1,2,0:0:0:0:
298,192,74706,1,2,0:0:0:0:
384,192,74803,128,12,74998:0:0:0:0:
42,192,74803,1,0,0:0:0:0:
213,192,74998,1,2,0:0:0:0:
128,192,75096,1,2,0:0:0:0:
42,192,75193,128,12,75388:0:0:0:0:
469,192,75193,1,0,0:0:0:0:
298,192,75388,1,2,0:0:0:0:
384,192,75485,1,2,0:0:0:0:
128,192,75583,1,12,0:0:0:0:
469,192,75583,128,0,75972:0:0:0:0:
42,192,75972,128,0,76362:0:0:0:0:
213,192,76362,1,8,0:0:0:0:
469,192,76362,128,0,76752:0:0:0:0:
298,192,76459,1,8,0:0:0:0:
42,192,76557,1,8,0:0:0:0:
128,192,76654,1,8,0:0:0:0:
384,192,76752,128,8,77141:0:0:0:0:
298,192,76752,1,0,0:0:0:0:
213,192,76849,1,8,0:0:0:0:
128,192,76946,1,8,0:0:0:0:
298,192,77044,1,8,0:0:0:0:
42,192,77141,1,6,0:0:0:0:
213,192,77141,1,0,0:0:0:0:
469,192,77141,128,0,77336:0:0:0:0:
128,192,77336,1,8,0:0:0:0:
298,192,77336,1,0,0:0:0:0:
213,192,77433,128,2,77628:0:0:0:0:
469,192,77726,1,8,0:0:0:0:
213,192,77726,128,0,78115:0:0:0:0:
42,192,78115,1,8,0:0:0:0:
469,192,78115,1,0,0:0:0:0:
384,192,78213,1,0,0:0:0:0:
128,192,78310,1,2,0:0:0:0:
213,192,78407,1,2,0:0:0:0:
298,192,78505,1,8,0:0:0:0:
469,192,78505,1,0,0:0:0:0:
42,192,78602,1,0,0:0:0:0:
384,192,78700,128,2,78894:0:0:0:0:
128,192,78700,1,0,0:0:0:0:
298,192,78894,1,8,0:0:0:0:
42,192,78894,1,0,0:0:0:0:
213,192,78992,128,2,79089:0:0:0:0:
213,192,79284,1,8,0:0:0:0:
469,192,79284,128,0,79674:0:0:0:0:
128,192,79674,1,8,0:0:0:0:
42,192,79674,128,0,79771:0:0:0:0:
298,192,79868,128,2,79966:0:0:0:0:
128,192,80063,1,8,0:0:0:0:
213,192,80063,128,0,80161:0:0:0:0:
42,192,80258,1,2,0:0:0:0:
469,192,80258,128,0,80453:0:0:0:0:
128,192,80453,1,8,0:0:0:0:
298,192,80453,1,0,0:0:0:0:
384,192,80648,128,0,80745:0:0:0:0:
298,192,80842,1,8,0:0:0:0:
213,192,80842,128,0,80940:0:0:0:0:
42,192,81037,1,2,0:0:0:0:
469,192,81037,128,0,81427:0:0:0:0:
128,192,81167,128,2,81427:0:0:0:0:
213,192,81297,128,2,81427:0:0:0:0:
384,192,81427,128,2,81816:0:0:0:0:
298,192,81557,128,0,81816:0:0:0:0:
213,192,81687,128,2,81816:0:0:0:0:
469,192,81816,1,6,0:0:0:0:
42,192,81816,1,0,0:0:0:0:
128,192,81914,1,0,0:0:0:0:
298,192,82011,1,0,0:0:0:0:
213,192,82109,1,0,0:0:0:0:
128,192,82206,1,8,0:0:0:0:
469,192,82206,1,0,0:0:0:0:
384,192,82303,1,0,0:0:0:0:
213,192,82401,1,0,0:0:0:0:
298,192,82498,1,0,0:0:0:0:
384,192,82596,1,2,0:0:0:0:
42,192,82596,1,0,0:0:0:0:
128,192,82693,1,0,0:0:0:0:
298,192,82790,1,0,0:0:0:0:
213,192,82888,1,8,0:0:0:0:
128,192,82985,1,2,0:0:0:0:
469,192,82985,1,0,0:0:0:0:
384,192,83083,1,0,0:0:0:0:
213,192,83180,1,8,0:0:0:0:
298,192,83180,1,0,0:0:0:0:
384,192,83278,1,8,0:0:0:0:
128,192,83278,1,0,0:0:0:0:
42,192,83375,1,2,0:0:0:0:
469,192,83375,128,0,83959:0:0:0:0:
298,192,83667,1,0,0:0:0:0:
213,192,83667,1,0,0:0:0:0:
42,192,83959,1,0,0:0:0:0:
128,192,83959,1,0,0:0:0:0:
213,192,84057,1,0,0:0:0:0:
469,192,84154,1,2,0:0:0:0:
298,192,84154,1,0,0:0:0:0:
384,192,84154,1,0,0:0:0:0:
128,192,84252,1,0,0:0:0:0:
298,192,84349,1,0,0:0:0:0:
469,192,84446,1,8,0:0:0:0:
42,192,84544,1,8,0:0:0:0:
213,192,84641,1,0,0:0:0:0:
384,192,84739,1,8,0:0:0:0:
128,192,84836,1,8,0:0:0:0:
469,192,84933,128,2,85128:0:0:0:0:
298,192,84933,1,0,0:0:0:0:
213,192,84933,1,0,0:0:0:0:
42,192,85128,1,0,0:0:0:0:
213,192,85323,1,8,0:0:0:0:
298,192,85323,128,0,85615:0:0:0:0:
384,192,85323,1,0,0:0:0:0:
128,192,85615,1,0,0:0:0:0:
384,192,85713,1,2,0:0:0:0:
469,192,85713,128,0,86005:0:0:0:0:
213,192,85713,1,0,0:0:0:0:
384,192,86102,128,2,86297:0:0:0:0:
42,192,86102,1,0,0:0:0:0:
128,192,86200,1,8,0:0:0:0:
298,192,86297,1,0,0:0:0:0:
213,192,86394,1,8,0:0:0:0:
128,192,86492,1,2,0:0:0:0:
42,192,86492,1,0,0:0:0:0:
469,192,86492,128,0,86784:0:0:0:0:
213,192,86784,1,8,0:0:0:0:
298,192,86784,1,0,0:0:0:0:
128,192,87076,1,2,0:0:0:0:
42,192,87076,1,0,0:0:0:0:
384,192,87076,128,0,87855:0:0:0:0:
213,192,87466,1,2,0:0:0:0:
298,192,87661,1,8,0:0:0:0:
42,192,87661,1,0,0:0:0:0:
128,192,87855,1,0,0:0:0:0:
213,192,88050,1,2,0:0:0:0:
298,192,88050,1,0,0:0:0:0:
469,192,88050,128,0,88342:0:0:0:0:
42,192,88342,1,8,0:0:0:0:
213,192,88342,1,0,0:0:0:0:
128,192,88635,1,2,0:0:0:0:
298,192,88635,1,0,0:0:0:0:
384,192,88635,128,0,89024:0:0:0:0:
213,192,89024,1,2,0:0:0:0:
469,192,89219,128,8,89609:0:0:0:0:
42,192,89219,1,0,0:0:0:0:
128,192,89219,1,0,0:0:0:0:
213,192,89414,1,8,0:0:0:0:
384,192,89609,1,2,0:0:0:0:
42,192,89609,128,0,91167:0:0:0:0:
213,192,89803,1,0,0:0:0:0:
298,192,89868,1,0,0:0:0:0:
384,192,89933,1,0,0:0:0:0:
469,192,89998,1,0,0:0:0:0:
128,192,90063,1,0,0:0:0:0:
213,192,90128,1,0,0:0:0:0:
384,192,90193,1,0,0:0:0:0:
298,192,90258,1,0,0:0:0:0:
213,192,90323,1,0,0:0:0:0:
469,192,90388,1,0,0:0:0:0:
384,192,90453,1,0,0:0:0:0:
298,192,90518,1,0,0:0:0:0:
128,192,90583,1,0,0:0:0:0:
213,192,90648,1,0,0:0:0:0:
298,192,90713,1,0,0:0:0:0:
384,192,90778,1,0,0:0:0:0:
213,192,90842,1,0,0:0:0:0:
298,192,90907,1,0,0:0:0:0:
384,192,90972,1,0,0:0:0:0:
469,192,91037,1,0,0:0:0:0:
213,192,91102,1,0,0:0:0:0:
128,192,91167,1,0,0:0:0:0:
384,192,91167,128,0,91557:0:0:0:0:
42,192,91557,128,0,91946:0:0:0:0:
469,192,91557,128,0,91946:0:0:0:0:
128,192,91946,128,8,92336:0:0:0:0:
298,192,91946,1,0,0:0:0:0:
213,192,92044,1,8,0:0:0:0:
384,192,92141,1,8,0:0:0:0:
298,192,92239,1,8,0:0:0:0:
469,192,92336,128,8,92726:0:0:0:0:
42,192,92336,1,0,0:0:0:0:
213,192,92433,1,8,0:0:0:0:
128,192,92531,1,8,0:0:0:0:
298,192,92628,1,8,0:0:0:0:
42,192,92726,1,2,0:0:0:0:
384,192,92726,128,4,93018:0:0:0:0:
128,192,92920,1,8,0:0:0:0:
298,192,92920,1,0,0:0:0:0:
42,192,93018,128,2,93310:0:0:0:0:
213,192,93018,1,0,0:0:0:0:
298,192,93213,1,2,0:0:0:0:
128,192,93310,1,8,0:0:0:0:
384,192,93310,128,0,94284:0:0:0:0:
213,192,93602,1,2,0:0:0:0:
128,192,93700,1,8,0:0:0:0:
298,192,93700,1,0,0:0:0:0:
42,192,93894,1,2,0:0:0:0:
128,192,93992,1,2,0:0:0:0:
298,192,94089,1,8,0:0:0:0:
213,192,94089,1,0,0:0:0:0:
128,192,94187,1,0,0:0:0:0:
42,192,94284,1,2,0:0:0:0:
469,192,94284,128,0,94576:0:0:0:0:
128,192,94479,1,8,0:0:0:0:
384,192,94479,1,0,0:0:0:0:
213,192,94576,128,2,94868:0:0:0:0:
298,192,94576,1,0,0:0:0:0:
42,192,94771,1,2,0:0:0:0:
384,192,94868,128,8,95161:0:0:0:0:
128,192,94868,1,0,0:0:0:0:
213,192,95161,1,2,0:0:0:0:
42,192,95161,128,0,95453:0:0:0:0:
298,192,95258,1,8,0:0:0:0:
469,192,95258,1,0,0:0:0:0:
384,192,95453,1,2,0:0:0:0:
469,192,95453,128,0,95842:0:0:0:0:
298,192,95550,1,2,0:0:0:0:
42,192,95648,1,8,0:0:0:0:
213,192,95648,1,0,0:0:0:0:
128,192,95842,1,2,0:0:0:0:
384,192,95842,128,0,96135:0:0:0:0:
298,192,96037,1,8,0:0:0:0:
42,192,96037,1,0,0:0:0:0:
128,192,96135,128,2,96427:0:0:0:0:
213,192,96135,1,0,0:0:0:0:
469,192,96329,1,2,0:0:0:0:
42,192,96427,1,8,0:0:0:0:
298,192,96427,128,0,97401:0:0:0:0:
213,192,96719,1,2,0:0:0:0:
469,192,96816,1,8,0:0:0:0:
384,192,96816,1,0,0:0:0:0:
128,192,97011,1,2,0:0:0:0:
213,192,97109,1,2,0:0:0:0:
469,192,97206,1,8,0:0:0:0:
384,192,97206,1,0,0:0:0:0:
42,192,97303,1,0,0:0:0:0:
128,192,97401,128,2,97985:0:0:0:0:
384,192,97401,128,0,97985:0:0:0:0:
42,192,97596,1,8,0:0:0:0:
469,192,97596,1,0,0:0:0:0:
213,192,97693,1,2,0:0:0:0:
298,192,97790,1,0,0:0:0:0:
213,192,97888,1,2,0:0:0:0:
469,192,97985,128,8,98570:0:0:0:0:
42,192,97985,128,0,98570:0:0:0:0:
298,192,98180,1,2,0:0:0:0:
213,192,98278,1,2,0:0:0:0:
128,192,98375,1,8,0:0:0:0:
384,192,98375,1,0,0:0:0:0:
298,192,98570,128,2,98959:0:0:0:0:
213,192,98570,1,0,0:0:0:0:
128,192,98667,1,2,0:0:0:0:
42,192,98765,1,8,0:0:0:0:
469,192,98765,1,0,0:0:0:0:
128,192,98959,1,2,0:0:0:0:
384,192,98959,128,0,99252:0:0:0:0:
298,192,99154,1,8,0:0:0:0:
42,192,99154,1,0,0:0:0:0:
128,192,99252,128,2,99544:0:0:0:0:
213,192,99252,1,0,0:0:0:0:
298,192,99446,1,2,0:0:0:0:
42,192,99544,1,8,0:0:0:0:
469,192,99544,128,0,100518:0:0:0:0:
213,192,99836,1,2,0:0:0:0:
298,192,99933,1,8,0:0:0:0:
384,192,99933,1,0,0:0:0:0:
128,192,100128,1,2,0:0:0:0:
213,192,100226,1,2,0:0:0:0:
298,192,100323,1,8,0:0:0:0:
384,192,100323,1,0,0:0:0:0:
42,192,100518,1,2,0:0:0:0:
213,192,100518,128,0,100810:0:0:0:0:
384,192,100713,1,8,0:0:0:0:
469,192,100713,1,0,0:0:0:0:
42,192,100810,1,2,0:0:0:0:
128,192,100810,128,0,101102:0:0:0:0:
298,192,101005,1,2,0:0:0:0:
384,192,101102,1,8,0:0:0:0:
469,192,101102,128,0,101492:0:0:0:0:
213,192,101394,1,2,0:0:0:0:
298,192,101492,128,8,101687:0:0:0:0:
128,192,101492,1,0,0:0:0:0:
42,192,101687,128,2,101881:0:0:0:0:
469,192,101687,1,0,0:0:0:0:
384,192,101784,1,2,0:0:0:0:
128,192,101881,128,8,102076:0:0:0:0:
298,192,101881,1,0,0:0:0:0:
469,192,102076,128,2,102368:0:0:0:0:
213,192,102076,1,0,0:0:0:0:
42,192,102271,1,8,0:0:0:0:
384,192,102271,1,0,0:0:0:0:
298,192,102368,1,2,0:0:0:0:
128,192,102368,1,0,0:0:0:0:
128,192,102563,1,2,0:0:0:0:
469,192,102661,128,8,102855:0:0:0:0:
213,192,102661,1,0,0:0:0:0:
384,192,102855,128,0,103148:0:0:0:0:
42,192,102953,1,2,0:0:0:0:
298,192,103050,1,8,0:0:0:0:
128,192,103050,1,0,0:0:0:0:
469,192,103148,128,0,103440:0:0:0:0:
213,192,103245,1,2,0:0:0:0:
298,192,103342,1,2,0:0:0:0:
42,192,103440,1,8,0:0:0:0:
384,192,103440,1,0,0:0:0:0:
213,192,103635,1,0,0:0:0:0:
128,192,103635,1,2,0:0:0:0:
384,192,103829,1,8,0:0:0:0:
213,192,103927,1,8,0:0:0:0:
298,192,104024,1,8,0:0:0:0:
42,192,104122,1,8,0:0:0:0:
128,192,104219,1,2,0:0:0:0:
213,192,104316,1,0,0:0:0:0:
298,192,104414,1,8,0:0:0:0:
384,192,104511,1,8,0:0:0:0:
469,192,104609,1,8,0:0:0:0:
128,192,104706,1,0,0:0:0:0:
298,192,104803,1,2,0:0:0:0:
213,192,104901,1,0,0:0:0:0:
384,192,104998,1,8,0:0:0:0:
298,192,105096,1,8,0:0:0:0:
42,192,105193,1,2,0:0:0:0:
469,192,105193,1,0,0:0:0:0:
298,192,105485,1,2,0:0:0:0:
213,192,105485,1,0,0:0:0:0:
42,192,105778,1,6,0:0:0:0:
128,192,105778,1,0,0:0:0:0:
469,192,105778,1,0,0:0:0:0:
298,192,106070,1,2,0:0:0:0:
213,192,106167,1,8,0:0:0:0:
384,192,106167,1,0,0:0:0:0:
42,192,106362,1,2,0:0:0:0:
128,192,106459,1,2,0:0:0:0:
213,192,106557,1,8,0:0:0:0:
298,192,106557,1,0,0:0:0:0:
42,192,106752,1,2,0:0:0:0:
469,192,106752,1,0,0:0:0:0:
128,192,106849,1,0,0:0:0:0:
384,192,106946,1,8,0:0:0:0:
298,192,107044,1,2,0:0:0:0:
213,192,107141,1,0,0:0:0:0:
469,192,107239,1,2,0:0:0:0:
469,192,107433,1,0,0:0:0:0:
42,192,107628,1,2,0:0:0:0:
384,192,107823,128,0,108018:0:0:0:0:
213,192,108018,1,2,0:0:0:0:
298,192,108115,1,8,0:0:0:0:
42,192,108213,1,0,0:0:0:0:
128,192,108310,1,2,0:0:0:0:
213,192,108407,1,0,0:0:0:0:
469,192,108505,1,8,0:0:0:0:
298,192,108602,1,0,0:0:0:0:
128,192,108700,1,0,0:0:0:0:
42,192,108797,1,2,0:0:0:0:
298,192,108894,1,8,0:0:0:0:
213,192,108992,1,0,0:0:0:0:
384,192,109089,1,0,0:0:0:0:
298,192,109187,1,2,0:0:0:0:
469,192,109284,1,8,0:0:0:0:
384,192,109381,1,0,0:0:0:0:
42,192,109479,1,2,0:0:0:0:
128,192,109576,1,2,0:0:0:0:
213,192,109674,1,8,0:0:0:0:
298,192,109771,1,0,0:0:0:0:
42,192,109868,1,8,0:0:0:0:
128,192,109966,1,0,0:0:0:0:
384,192,110063,1,8,0:0:0:0:
298,192,110161,1,2,0:0:0:0:
213,192,110258,1,0,0:0:0:0:
469,192,110355,1,2,0:0:0:0:
298,192,110550,1,0,0:0:0:0:
298,192,110745,1,0,0:0:0:0:
384,192,110940,1,0,0:0:0:0:
213,192,111135,1,2,0:0:0:0:
128,192,111232,1,8,0:0:0:0:
42,192,111329,1,0,0:0:0:0:
298,192,111427,1,2,0:0:0:0:
384,192,111427,1,0,0:0:0:0:
213,192,111719,1,2,0:0:0:0:
128,192,111719,1,0,0:0:0:0:
42,192,112011,1,8,0:0:0:0:
469,192,112011,1,0,0:0:0:0:
298,192,112206,1,0,0:0:0:0:
213,192,112303,1,2,0:0:0:0:
384,192,112498,1,0,0:0:0:0:
128,192,112596,1,2,0:0:0:0:
298,192,112790,1,8,0:0:0:0:
213,192,112888,1,0,0:0:0:0:
469,192,113083,1,0,0:0:0:0:
42,192,113180,1,8,0:0:0:0:
384,192,113375,1,0,0:0:0:0:
128,192,113472,1,2,0:0:0:0:
213,192,113570,1,8,0:0:0:0:
298,192,113667,1,0,0:0:0:0:
384,192,113765,1,0,0:0:0:0:
128,192,113862,1,2,0:0:0:0:
213,192,113959,1,0,0:0:0:0:
298,192,114057,1,0,0:0:0:0:
469,192,114154,1,2,0:0:0:0:
213,192,114154,1,0,0:0:0:0:
128,192,114252,1,2,0:0:0:0:
42,192,114349,1,8,0:0:0:0:
298,192,114446,1,0,0:0:0:0:
128,192,114544,1,2,0:0:0:0:
469,192,114544,1,0,0:0:0:0:
213,192,114641,1,0,0:0:0:0:
298,192,114739,1,8,0:0:0:0:
213,192,114836,1,2,0:0:0:0:
298,192,114933,1,0,0:0:0:0:
384,192,115031,1,2,0:0:0:0:
298,192,115128,1,8,0:0:0:0:
213,192,115226,1,0,0:0:0:0:
128,192,115323,1,0,0:0:0:0:
42,192,115420,1,2,0:0:0:0:
213,192,115518,1,8,0:0:0:0:
298,192,115518,1,0,0:0:0:0:
128,192,115615,1,8,0:0:0:0:
298,192,115713,1,8,0:0:0:0:
384,192,115713,1,0,0:0:0:0:
213,192,115810,1,8,0:0:0:0:
384,192,115907,1,8,0:0:0:0:
469,192,115907,1,0,0:0:0:0:
298,192,116005,1,8,0:0:0:0:
213,192,116102,1,2,0:0:0:0:
42,192,116102,128,0,116687:0:0:0:0:
384,192,116297,1,0,0:0:0:0:
298,192,116394,1,0,0:0:0:0:
213,192,116492,1,0,0:0:0:0:
298,192,116589,1,0,0:0:0:0:
384,192,116687,1,10,0:0:0:0:
469,192,116687,128,0,117271:0:0:0:0:
128,192,116881,1,0,0:0:0:0:
213,192,116979,1,0,0:0:0:0:
298,192,117076,1,0,0:0:0:0:
213,192,117174,1,0,0:0:0:0:
42,192,117271,1,10,0:0:0:0:
128,192,117271,1,0,0:0:0:0:
213,192,117466,128,4,123894:0:0:0:0:
384,192,117466,1,2,0:0:0:0:
469,192,117466,1,0,0:0:0:0:
298,192,118440,1,0,0:0:0:0:
469,192,118927,1,0,0:0:0:0:
42,192,119349,1,0,0:0:0:0:
384,192,119739,1,0,0:0:0:0:
298,192,120128,1,0,0:0:0:0:
469,192,120583,1,0,0:0:0:0:
42,192,121094,1,0,0:0:0:0:
298,192,121703,1,0,0:0:0:0:
384,192,121784,1,0,0:0:0:0:
469,192,121873,1,0,0:0:0:0:
