osu file format v14

[General]
AudioFilename: [SDVX III ] Everlasting Message [NOFX].mp3
AudioLeadIn: 0
PreviewTime: 43620
Countdown: 0
SampleSet: Normal
StackLeniency: 0.7
Mode: 0
LetterboxInBreaks: 0
WidescreenStoryboard: 0

[Editor]
DistanceSpacing: 1
BeatDivisor: 4
GridSize: 4
TimelineZoom: 1

[Metadata]
Title:Everlasting Message
TitleUnicode:Everlasting Message
Artist:penoreri
ArtistUnicode:penoreri
Creator:BAldoTridentE
Version:EX
Source:SDVX III
Tags:
BeatmapID:854350
BeatmapSetID:392348

[Difficulty]
HPDrainRate:6.5
CircleSize:4
OverallDifficulty:8.5
ApproachRate:9.8
SliderMultiplier:1.6
SliderTickRate:1

[Events]
//Background and Video events
0,0,"maxresdefault (1).jpg",0,0
//Break Periods
//Storyboard Layer 0 (Background)
//Storyboard Layer 1 (Fail)
//Storyboard Layer 2 (Pass)
//Storyboard Layer 3 (Foreground)
//Storyboard Sound Samples

[TimingPoints]
316,260.869565217391,4,1,0,50,1,0
25620,-100,4,2,0,50,0,0
33511,-100,4,1,0,50,0,0
44402,-80,4,1,0,50,0,1
61098,-100,4,1,0,50,0,0
88229,-100,4,1,0,50,0,1
109098,-100,4,1,0,50,0,0

[HitObjects]
256,192,576,12,0,1229,0:0:0:0:
256,192,1359,5,0,0:0:0:0:
128,96,1620,1,0,0:0:0:0:
164,252,1881,2,0,P|236:296|260:296,1,80
256,192,2142,1,0,0:0:0:0:
408,244,2402,6,0,L|472:176,1,80
472,64,2663,1,0,0:0:0:0:
376,140,2794,1,0,0:0:0:0:
284,272,2924,5,0,0:0:0:0:
200,136,3055,1,0,0:0:0:0:
188,296,3185,1,0,0:0:0:0:
292,176,3315,1,0,0:0:0:0:
136,212,3446,1,0,0:0:0:0:
284,272,3576,5,0,0:0:0:0:
440,232,3707,1,0,0:0:0:0:
292,176,3837,1,0,0:0:0:0:
136,212,3968,1,0,0:0:0:0:
100,56,4098,1,0,0:0:0:0:
252,4,4229,1,0,0:0:0:0:
304,156,4359,1,0,0:0:0:0:
148,196,4489,1,0,0:0:0:0:
280,288,4620,1,0,0:0:0:0:
442,113,4750,6,0,L|392:180,1,80
364,208,4946,1,0,0:0:0:0:
336,236,5011,1,0,0:0:0:0:
303,259,5076,1,0,0:0:0:0:
266,274,5141,1,0,0:0:0:0:
227,282,5206,1,0,0:0:0:0:
187,282,5272,1,0,0:0:0:0:
148,274,5337,1,0,0:0:0:0:
111,259,5402,1,0,0:0:0:0:
78,236,5467,1,0,0:0:0:0:
50,207,5532,5,0,0:0:0:0:
72,88,5663,1,0,0:0:0:0:
72,208,5794,1,0,0:0:0:0:
136,64,5924,1,0,0:0:0:0:
100,208,6055,1,0,0:0:0:0:
200,40,6185,1,0,0:0:0:0:
216,200,6315,2,0,P|280:168|300:144,1,80
216,200,6576,1,0,0:0:0:0:
340,100,6837,5,0,0:0:0:0:
380,256,6968,1,0,0:0:0:0:
268,140,7098,1,0,0:0:0:0:
312,296,7229,1,0,0:0:0:0:
156,264,7359,6,0,P|132:212|144:168,1,80
240,68,7620,1,0,0:0:0:0:
134,190,7750,1,0,0:0:0:0:
72,40,7881,1,0,0:0:0:0:
40,196,8011,6,0,L|40:288,1,80
184,348,8272,1,0,0:0:0:0:
328,280,8402,2,0,L|328:184,1,80
480,152,8663,5,0,0:0:0:0:
312,32,8794,1,0,0:0:0:0:
120,232,8924,5,0,0:0:0:0:
144,252,9185,1,0,0:0:0:0:
176,264,9446,1,0,0:0:0:0:
208,268,9707,1,0,0:0:0:0:
240,260,9968,1,0,0:0:0:0:
264,240,10229,1,0,0:0:0:0:
280,212,10489,1,0,0:0:0:0:
288,180,10750,1,0,0:0:0:0:
408,164,10881,1,0,0:0:0:0:
292,144,11011,1,0,0:0:0:0:
56,104,11272,6,0,P|112:160|136:156,1,80
160,52,11533,1,0,0:0:0:0:
164,212,11663,2,0,L|136:256,2,40
252,76,11924,6,0,P|296:48|344:52,1,80
324,208,12185,2,0,P|380:228|412:272,1,80
276,348,12446,2,0,P|220:328|200:280,1,80
228,152,12707,1,0,0:0:0:0:
116,264,12837,1,0,0:0:0:0:
76,108,12968,2,0,L|4:40,1,80
44,36,13359,5,0,0:0:0:0:
76,28,13620,1,0,0:0:0:0:
108,28,13881,1,0,0:0:0:0:
140,36,14142,1,0,0:0:0:0:
164,56,14402,1,0,0:0:0:0:
180,84,14663,1,0,0:0:0:0:
184,116,14924,1,0,0:0:0:0:
184,148,15185,1,0,0:0:0:0:
384,288,15446,5,0,0:0:0:0:
384,288,15576,1,0,0:0:0:0:
84,180,15837,1,0,0:0:0:0:
84,180,15968,1,0,0:0:0:0:
416,44,16229,1,0,0:0:0:0:
416,44,16359,1,0,0:0:0:0:
172,252,16620,2,0,P|196:196|180:148,1,80
100,48,16881,1,0,0:0:0:0:
244,116,17011,2,0,P|268:156|268:208,1,80
336,336,17272,6,0,P|396:292|412:268,1,80
398,127,17533,1,0,0:0:0:0:
285,14,17663,1,0,0:0:0:0:
171,127,17794,1,0,0:0:0:0:
283,239,17924,1,0,0:0:0:0:
40,264,18315,5,0,0:0:0:0:
96,112,18446,1,0,0:0:0:0:
140,264,18576,1,0,0:0:0:0:
200,116,18707,1,0,0:0:0:0:
340,192,18837,2,0,P|308:152|312:116,1,80
240,264,19098,1,0,0:0:0:0:
240,264,19229,1,0,0:0:0:0:
240,264,19359,1,0,0:0:0:0:
412,96,19620,5,0,0:0:0:0:
376,252,19750,1,0,0:0:0:0:
316,104,19881,1,0,0:0:0:0:
448,192,20011,1,0,0:0:0:0:
288,196,20142,1,0,0:0:0:0:
168,92,20272,5,0,0:0:0:0:
164,252,20402,1,0,0:0:0:0:
44,148,20533,1,0,0:0:0:0:
52,308,20663,2,0,P|92:356|144:360,1,80
460,36,21185,5,0,0:0:0:0:
208,236,21446,2,0,L|288:208,1,80
283,209,21707,1,0,0:0:0:0:
136,144,21837,2,0,L|232:164,1,80
214,160,22098,1,0,0:0:0:0:
140,20,22229,2,0,L|200:96,1,80
348,64,22489,5,0,0:0:0:0:
408,212,22620,1,0,0:0:0:0:
308,336,22750,1,0,0:0:0:0:
324,104,22881,1,0,0:0:0:0:
356,260,23011,1,0,0:0:0:0:
224,356,23142,1,0,0:0:0:0:
124,232,23272,1,0,0:0:0:0:
244,220,23402,6,0,P|212:152|184:132,1,80
184,120,23598,1,0,0:0:0:0:
148,100,23663,1,0,0:0:0:0:
108,100,23729,1,0,0:0:0:0:
72,112,23794,2,0,P|36:148|28:180,1,80
124,200,24055,5,0,0:0:0:0:
132,236,24120,1,0,0:0:0:0:
155,267,24185,1,0,0:0:0:0:
190,287,24250,1,0,0:0:0:0:
229,291,24315,1,0,0:0:0:0:
267,279,24380,1,0,0:0:0:0:
297,253,24446,1,0,0:0:0:0:
314,217,24511,1,0,0:0:0:0:
324,180,24576,2,0,P|316:128|304:104,1,80
232,68,24837,1,0,0:0:0:0:
324,16,24968,1,0,0:0:0:0:
436,52,25098,1,0,0:0:0:0:
456,108,25163,1,0,0:0:0:0:
456,168,25229,1,0,0:0:0:0:
444,228,25294,1,0,0:0:0:0:
416,280,25359,1,0,0:0:0:0:
372,320,25424,1,0,0:0:0:0:
316,340,25489,1,0,0:0:0:0:
256,340,25555,1,0,0:0:0:0:
72,200,26142,5,0,0:0:0:0:
160,116,26402,1,0,0:0:0:0:
188,232,26663,1,0,0:0:0:0:
376,196,27185,1,0,0:0:0:0:
340,224,27707,5,0,0:0:0:0:
300,252,28229,1,0,0:0:0:0:
308,92,28489,1,0,0:0:0:0:
448,168,28750,1,0,0:0:0:0:
152,288,29272,1,0,0:0:0:0:
400,88,29794,5,0,0:0:0:0:
92,180,30315,2,0,P|176:160|232:204,1,160
292,352,30837,1,0,0:0:0:0:
160,60,31359,1,0,0:0:0:0:
336,220,31881,5,0,0:0:0:0:
316,120,32402,2,0,P|388:128|440:204,1,160
116,204,32924,1,0,0:0:0:0:
164,40,33315,1,0,0:0:0:0:
172,72,33446,5,0,0:0:0:0:
176,92,33511,1,0,0:0:0:0:
182,114,33576,1,0,0:0:0:0:
187,133,33641,1,0,0:0:0:0:
193,153,33706,1,0,0:0:0:0:
198,172,33772,1,0,0:0:0:0:
203,191,33837,1,0,0:0:0:0:
232,308,33968,6,0,L|244:364,7,40
344,280,34489,2,0,L|384:324,3,40
352,204,34750,2,0,L|408:224,3,40
328,132,35011,2,0,L|388:124,7,40
336,52,35533,5,0,0:0:0:0:
300,36,35598,1,0,0:0:0:0:
260,36,35663,1,0,0:0:0:0:
220,48,35729,1,0,0:0:0:0:
188,72,35794,1,0,0:0:0:0:
168,108,35859,1,0,0:0:0:0:
164,148,35924,1,0,0:0:0:0:
180,184,35989,1,0,0:0:0:0:
204,216,36055,6,0,L|240:264,7,40
104,296,36576,2,0,L|80:352,3,40
84,224,36837,2,0,L|36:244,3,40
104,156,37098,2,0,L|44:152,3,40
144,156,37424,5,0,0:0:0:0:
184,156,37489,1,0,0:0:0:0:
224,152,37555,1,0,0:0:0:0:
260,136,37620,1,0,0:0:0:0:
292,112,37685,1,0,0:0:0:0:
312,76,37750,1,0,0:0:0:0:
320,36,37815,1,0,0:0:0:0:
344,68,37881,1,0,0:0:0:0:
372,96,37946,1,0,0:0:0:0:
400,124,38011,1,0,0:0:0:0:
420,160,38076,1,0,0:0:0:0:
428,200,38142,6,0,P|388:292|288:288,1,200
328,208,38533,2,0,P|244:204|212:324,1,200
132,368,38924,2,0,B|108:308|116:268|116:268|72:244|28:248,1,160
96,156,39446,5,0,0:0:0:0:
236,232,39707,1,0,0:0:0:0:
96,156,39968,1,0,0:0:0:0:
316,64,40229,5,0,0:0:0:0:
316,64,40359,1,0,0:0:0:0:
452,264,40620,1,0,0:0:0:0:
452,264,40750,1,0,0:0:0:0:
220,324,41011,1,0,0:0:0:0:
220,324,41142,1,0,0:0:0:0:
108,112,41402,1,0,0:0:0:0:
108,112,41533,1,0,0:0:0:0:
348,328,41794,5,0,0:0:0:0:
428,20,42055,1,0,0:0:0:0:
176,216,42315,5,0,0:0:0:0:
132,60,42446,1,0,0:0:0:0:
288,244,42707,1,0,0:0:0:0:
316,128,42837,1,0,0:0:0:0:
348,284,43098,1,0,0:0:0:0:
408,228,43229,1,0,0:0:0:0:
368,340,43489,5,0,0:0:0:0:
328,348,43555,1,0,0:0:0:0:
288,348,43620,1,0,0:0:0:0:
248,344,43685,1,0,0:0:0:0:
208,332,43750,1,0,0:0:0:0:
176,308,43815,5,0,0:0:0:0:
140,260,43881,1,0,0:0:0:0:
124,204,43946,1,0,0:0:0:0:
128,144,44011,1,0,0:0:0:0:
148,88,44076,1,0,0:0:0:0:
188,40,44142,1,0,0:0:0:0:
244,20,44207,1,0,0:0:0:0:
304,16,44272,1,0,0:0:0:0:
364,28,44337,1,0,0:0:0:0:
412,68,44402,2,0,P|468:140|480:204,1,150
252,208,44794,5,0,0:0:0:0:
264,60,44924,1,0,0:0:0:0:
120,108,45055,1,0,0:0:0:0:
24,224,45185,6,0,P|80:256|152:244,2,100
176,236,45576,1,0,0:0:0:0:
308,304,45707,6,0,P|364:256|376:192,1,100
300,44,45968,2,0,P|296:120|284:152,1,100
88,132,46229,2,0,P|160:84|172:60,1,100
100,264,46489,5,0,0:0:0:0:
272,364,46620,1,0,0:0:0:0:
268,164,46750,1,0,0:0:0:0:
116,296,46881,1,0,0:0:0:0:
308,356,47011,1,0,0:0:0:0:
268,164,47142,1,0,0:0:0:0:
148,324,47272,1,0,0:0:0:0:
348,328,47402,1,0,0:0:0:0:
268,164,47533,1,0,0:0:0:0:
68,164,47663,5,0,0:0:0:0:
188,72,47794,2,0,P|272:40|316:64,1,100
388,140,48055,1,0,0:0:0:0:
312,268,48185,2,0,P|364:236|376:196,2,100
112,276,48576,5,0,0:0:0:0:
312,268,48707,1,0,0:0:0:0:
156,212,48837,1,0,0:0:0:0:
312,268,48968,1,0,0:0:0:0:
224,172,49098,2,0,P|160:136|96:152,1,100
328,76,49359,2,0,P|376:56|432:64,1,100
436,260,49620,5,0,0:0:0:0:
392,116,49750,1,0,0:0:0:0:
352,260,49881,1,0,0:0:0:0:
308,116,50011,1,0,0:0:0:0:
268,260,50142,1,0,0:0:0:0:
224,116,50272,6,0,P|148:76|144:28,1,100
0,116,50533,2,0,P|76:76|80:28,1,100
116,216,50794,5,0,0:0:0:0:
204,336,50924,1,0,0:0:0:0:
272,200,51055,1,0,0:0:0:0:
184,148,51185,1,0,0:0:0:0:
116,312,51315,1,0,0:0:0:0:
288,292,51446,1,0,0:0:0:0:
400,192,51576,6,0,P|372:132|392:92,1,100
388,256,51837,2,0,P|328:216|312:160,1,100
392,324,52098,1,0,0:0:0:0:
316,192,52229,5,0,0:0:0:0:
304,144,52294,1,0,0:0:0:0:
272,104,52359,1,0,0:0:0:0:
232,92,52424,1,0,0:0:0:0:
184,108,52489,1,0,0:0:0:0:
144,140,52555,1,0,0:0:0:0:
96,132,52620,1,0,0:0:0:0:
220,196,52750,6,0,P|168:256|112:264,1,100
0,262,53011,1,0,0:0:0:0:
136,328,53142,1,0,0:0:0:0:
288,292,53272,2,0,P|364:276|408:260,1,100
396,120,53533,6,0,P|356:180|332:208,2,100
496,232,53924,1,0,0:0:0:0:
472,84,54055,2,0,P|400:44|336:48,1,100
348,188,54315,2,0,P|268:200|224:224,1,100
164,332,54576,2,0,P|100:244|104:216,1,100
272,152,54837,5,0,0:0:0:0:
100,48,54968,1,0,0:0:0:0:
164,236,55098,1,0,0:0:0:0:
216,40,55229,1,0,0:0:0:0:
56,156,55359,1,0,0:0:0:0:
88,352,55489,6,0,P|52:260|52:228,1,100
252,232,55750,1,0,0:0:0:0:
252,232,55881,2,0,P|324:216|344:168,1,100
152,120,56142,1,0,0:0:0:0:
180,316,56272,6,0,P|236:336|288:336,2,100
152,120,56663,2,0,P|228:104|268:84,2,100
128,216,57055,5,0,0:0:0:0:
128,16,57185,1,0,0:0:0:0:
300,116,57315,1,0,0:0:0:0:
492,168,57446,1,0,0:0:0:0:
444,360,57576,1,0,0:0:0:0:
252,308,57707,1,0,0:0:0:0:
300,116,57837,1,0,0:0:0:0:
128,216,57968,6,0,P|72:184|64:120,1,100
248,224,58229,1,0,0:0:0:0:
408,104,58359,2,0,L|376:208,1,100
296,16,58620,2,0,L|300:132,1,100
196,102,58881,2,0,L|232:196,1,100
160,328,59142,5,0,0:0:0:0:
72,148,59272,1,0,0:0:0:0:
76,196,59337,1,0,0:0:0:0:
72,244,59402,1,0,0:0:0:0:
60,292,59468,1,0,0:0:0:0:
36,336,59533,1,0,0:0:0:0:
184,200,59663,5,0,0:0:0:0:
260,264,59794,1,0,0:0:0:0:
284,220,59859,1,0,0:0:0:0:
284,172,59924,1,0,0:0:0:0:
260,128,59989,1,0,0:0:0:0:
216,100,60055,1,0,0:0:0:0:
408,40,60185,5,0,0:0:0:0:
372,236,60315,1,0,0:0:0:0:
180,296,60446,1,0,0:0:0:0:
132,104,60576,2,0,L|108:0,1,100
36,192,60837,2,0,L|64:308,1,100
256,192,61098,12,0,62924,0:0:0:0:
80,248,63185,5,0,0:0:0:0:
112,92,63315,1,0,0:0:0:0:
224,368,63576,1,0,0:0:0:0:
128,96,63707,1,0,0:0:0:0:
424,364,63968,1,0,0:0:0:0:
144,100,64098,1,0,0:0:0:0:
440,224,64359,6,0,P|372:232|348:264,2,80
316,120,64750,2,0,L|240:76,1,80
232,240,65011,2,0,L|128:236,1,80
232,240,65272,1,0,0:0:0:0:
80,176,66055,5,0,0:0:0:0:
112,104,66185,1,0,0:0:0:0:
156,168,66315,1,0,0:0:0:0:
200,100,66446,1,0,0:0:0:0:
232,172,66576,1,0,0:0:0:0:
156,168,66707,1,0,0:0:0:0:
188,240,66837,2,0,P|240:256|276:232,1,80
300,92,67098,5,0,0:0:0:0:
304,132,67163,1,0,0:0:0:0:
312,172,67229,2,0,P|356:200|404:176,1,80
408,320,68402,5,0,0:0:0:0:
44,48,68924,1,0,0:0:0:0:
52,60,68989,1,0,0:0:0:0:
60,72,69055,1,0,0:0:0:0:
68,84,69120,1,0,0:0:0:0:
76,96,69185,1,0,0:0:0:0:
84,108,69250,1,0,0:0:0:0:
92,120,69315,1,0,0:0:0:0:
100,132,69381,1,0,0:0:0:0:
108,144,69446,6,0,L|148:200,2,40
64,212,69707,2,0,L|48:260,2,40
144,304,69968,2,0,P|228:284|232:196,1,160
120,16,70489,1,0,0:0:0:0:
242,220,70750,1,0,0:0:0:0:
284,64,71011,5,0,0:0:0:0:
304,100,71076,1,0,0:0:0:0:
336,124,71142,1,0,0:0:0:0:
376,136,71207,1,0,0:0:0:0:
416,148,71272,1,0,0:0:0:0:
452,168,71337,1,0,0:0:0:0:
472,204,71402,1,0,0:0:0:0:
484,244,71468,1,0,0:0:0:0:
480,284,71533,1,0,0:0:0:0:
464,320,71598,5,0,0:0:0:0:
464,272,71663,1,0,0:0:0:0:
452,224,71729,1,0,0:0:0:0:
432,180,71794,1,0,0:0:0:0:
396,148,71859,1,0,0:0:0:0:
352,132,71924,1,0,0:0:0:0:
304,128,71989,1,0,0:0:0:0:
260,144,72055,1,0,0:0:0:0:
224,176,72120,1,0,0:0:0:0:
204,220,72185,1,0,0:0:0:0:
200,268,72250,1,0,0:0:0:0:
212,316,72315,2,0,P|296:324|336:292,1,120
36,28,72837,5,0,0:0:0:0:
84,344,73098,1,0,0:0:0:0:
72,284,73163,1,0,0:0:0:0:
68,224,73229,1,0,0:0:0:0:
80,164,73294,1,0,0:0:0:0:
108,112,73359,1,0,0:0:0:0:
156,76,73424,1,0,0:0:0:0:
216,60,73489,2,0,P|304:64|328:72,1,80
384,144,73750,5,0,0:0:0:0:
264,160,73881,1,0,0:0:0:0:
344,248,74011,2,0,L|356:304,2,40
344,248,74272,1,0,0:0:0:0:
200,312,74402,1,0,0:0:0:0:
136,164,74533,1,0,0:0:0:0:
36,296,74663,1,0,0:0:0:0:
200,312,74794,1,0,0:0:0:0:
356,336,74924,6,0,P|416:300|428:264,1,80
296,192,75185,1,0,0:0:0:0:
456,188,75315,2,0,L|456:88,2,80
324,92,75707,2,0,L|292:48,2,40
204,68,75968,5,0,0:0:0:0:
218,104,76033,1,0,0:0:0:0:
207,142,76098,1,0,0:0:0:0:
175,165,76163,1,0,0:0:0:0:
136,164,76228,1,0,0:0:0:0:
105,139,76294,1,0,0:0:0:0:
96,101,76359,1,0,0:0:0:0:
112,65,76424,1,0,0:0:0:0:
147,47,76489,1,0,0:0:0:0:
196,44,76555,5,0,0:0:0:0:
235,45,76620,1,0,0:0:0:0:
275,44,76685,1,0,0:0:0:0:
315,41,76750,1,0,0:0:0:0:
355,36,76815,1,0,0:0:0:0:
395,31,76881,1,0,0:0:0:0:
433,33,76946,1,0,0:0:0:0:
465,57,77011,1,0,0:0:0:0:
483,92,77076,1,0,0:0:0:0:
482,132,77141,1,0,0:0:0:0:
463,167,77207,1,0,0:0:0:0:
430,189,77272,1,0,0:0:0:0:
391,194,77337,1,0,0:0:0:0:
352,185,77402,1,0,0:0:0:0:
312,180,77468,1,0,0:0:0:0:
272,188,77533,1,0,0:0:0:0:
244,216,77598,1,0,0:0:0:0:
240,256,77663,1,0,0:0:0:0:
256,292,77729,1,0,0:0:0:0:
292,308,77794,2,0,P|372:300|400:164,1,240
204,44,78576,5,0,0:0:0:0:
176,284,78837,1,0,0:0:0:0:
36,88,79098,1,0,0:0:0:0:
48,328,79359,1,0,0:0:0:0:
156,208,79620,1,0,0:0:0:0:
308,264,79881,5,0,0:0:0:0:
308,264,79946,1,0,0:0:0:0:
308,264,80011,1,0,0:0:0:0:
416,208,80142,1,0,0:0:0:0:
268,20,80402,1,0,0:0:0:0:
36,84,80663,1,0,0:0:0:0:
216,244,80924,1,0,0:0:0:0:
352,44,81185,6,0,P|312:96|252:104,1,120
12,272,81707,1,0,0:0:0:0:
240,344,81968,6,0,P|124:324|124:200,1,240
264,32,82750,1,0,0:0:0:0:
216,144,82946,1,0,0:0:0:0:
264,32,83272,1,0,0:0:0:0:
276,192,83533,1,0,0:0:0:0:
264,32,83794,1,0,0:0:0:0:
344,224,84055,5,0,0:0:0:0:
344,224,84185,1,0,0:0:0:0:
52,356,84446,1,0,0:0:0:0:
52,356,84576,1,0,0:0:0:0:
76,36,84837,1,0,0:0:0:0:
76,36,84968,1,0,0:0:0:0:
452,132,85229,1,0,0:0:0:0:
452,132,85359,1,0,0:0:0:0:
188,316,85620,5,0,0:0:0:0:
268,96,85881,1,0,0:0:0:0:
4,276,86142,6,0,P|36:228|44:188,1,80
80,52,86402,1,0,0:0:0:0:
208,148,86533,1,0,0:0:0:0:
124,284,86663,1,0,0:0:0:0:
264,364,86794,1,0,0:0:0:0:
348,228,86924,1,0,0:0:0:0:
208,148,87055,1,0,0:0:0:0:
312,32,87185,5,0,0:0:0:0:
348,48,87250,1,0,0:0:0:0:
380,72,87315,1,0,0:0:0:0:
404,103,87380,1,0,0:0:0:0:
421,140,87445,1,0,0:0:0:0:
429,179,87511,1,0,0:0:0:0:
427,219,87576,1,0,0:0:0:0:
416,257,87641,1,0,0:0:0:0:
396,291,87706,1,0,0:0:0:0:
368,320,87771,1,0,0:0:0:0:
335,342,87837,1,0,0:0:0:0:
297,355,87902,1,0,0:0:0:0:
257,358,87967,1,0,0:0:0:0:
218,352,88032,1,0,0:0:0:0:
181,337,88098,1,0,0:0:0:0:
148,314,88163,1,0,0:0:0:0:
123,283,88228,1,0,0:0:0:0:
123,110,88620,5,0,0:0:0:0:
320,248,89011,1,0,0:0:0:0:
320,248,89142,6,0,L|320:134,1,80
288,52,89402,1,0,0:0:0:0:
240,164,89533,1,0,0:0:0:0:
268,48,89663,1,0,0:0:0:0:
156,164,89794,1,0,0:0:0:0:
56,288,89924,6,0,P|120:324|160:316,1,80
284,336,90185,1,0,0:0:0:0:
420,252,90315,1,0,0:0:0:0:
324,124,90446,1,0,0:0:0:0:
188,208,90576,1,0,0:0:0:0:
48,124,90707,6,0,P|24:176|24:212,1,80
120,68,90968,1,0,0:0:0:0:
252,160,91098,1,0,0:0:0:0:
276,0,91229,1,0,0:0:0:0:
408,92,91359,1,0,0:0:0:0:
372,248,91489,6,0,P|352:304|332:320,1,80
176,332,91750,1,0,0:0:0:0:
300,228,91881,2,0,P|260:272|224:276,1,80
84,252,92142,1,0,0:0:0:0:
24,104,92272,1,0,0:0:0:0:
180,132,92402,6,0,L|264:88,2,80
192,252,92794,1,0,0:0:0:0:
180,132,92924,1,0,0:0:0:0:
108,36,93055,2,0,P|96:108|96:120,1,80
192,252,93315,1,0,0:0:0:0:
336,180,93446,2,0,L|252:184,1,80
340,48,93707,5,0,0:0:0:0:
440,172,93837,1,0,0:0:0:0:
356,308,93968,1,0,0:0:0:0:
256,183,94098,1,0,0:0:0:0:
100,140,94229,6,0,P|112:88|152:52,1,80
100,224,94489,2,0,P|92:268|72:304,1,80
236,296,94750,2,0,P|296:260|312:240,1,80
302,253,95011,1,0,0:0:0:0:
164,172,95142,2,0,P|232:184|264:176,1,80
241,182,95402,1,0,0:0:0:0:
144,56,95533,2,0,P|196:96|228:112,1,80
208,102,95794,1,0,0:0:0:0:
348,180,95924,5,0,0:0:0:0:
280,36,96055,1,0,0:0:0:0:
319,37,96120,1,0,0:0:0:0:
358,48,96185,1,0,0:0:0:0:
393,67,96250,1,0,0:0:0:0:
423,93,96315,1,0,0:0:0:0:
446,125,96381,1,0,0:0:0:0:
462,162,96446,1,0,0:0:0:0:
380,300,96576,6,0,P|308:300|284:272,2,80
228,244,96968,1,0,0:0:0:0:
96,332,97098,1,0,0:0:0:0:
12,196,97229,1,0,0:0:0:0:
144,108,97359,1,0,0:0:0:0:
300,84,97489,6,0,P|252:136|240:144,1,80
244,140,97750,1,0,0:0:0:0:
108,228,97881,2,0,L|36:280,1,80
56,116,98142,2,0,L|112:192,1,80
204,304,98402,2,0,L|148:236,1,80
308,284,98663,5,0,0:0:0:0:
428,180,98794,1,0,0:0:0:0:
412,20,98924,1,0,0:0:0:0:
336,200,99055,5,0,0:0:0:0:
188,12,99315,1,0,0:0:0:0:
12,176,99576,1,0,0:0:0:0:
120,228,99707,1,0,0:0:0:0:
332,120,99968,2,0,P|384:136|408:164,1,80
292,252,100229,5,0,0:0:0:0:
260,256,100294,1,0,0:0:0:0:
276,220,100359,1,0,0:0:0:0:
236,220,100424,1,0,0:0:0:0:
260,188,100489,1,0,0:0:0:0:
220,184,100555,1,0,0:0:0:0:
240,148,100620,1,0,0:0:0:0:
200,148,100685,1,0,0:0:0:0:
224,116,100750,6,0,L|180:28,1,80
60,140,101011,2,0,L|108:228,1,80
8,344,101272,2,0,L|100:296,1,80
236,332,101533,5,0,0:0:0:0:
396,344,101663,1,0,0:0:0:0:
412,184,101794,1,0,0:0:0:0:
252,164,101924,1,0,0:0:0:0:
108,236,102055,6,0,P|148:172|152:140,1,80
152,8,102315,1,0,0:0:0:0:
148,168,102446,1,0,0:0:0:0:
232,32,102576,1,0,0:0:0:0:
336,156,102707,6,0,L|272:76,1,80
376,228,102968,2,0,L|384:120,1,80
352,304,103229,2,0,L|432:240,1,80
268,320,103489,2,0,L|372:352,1,80
184,352,103750,2,0,L|112:272,1,80
24,172,104011,5,0,0:0:0:0:
144,64,104142,1,0,0:0:0:0:
188,216,104272,1,0,0:0:0:0:
312,316,104402,1,0,0:0:0:0:
420,200,104533,1,0,0:0:0:0:
296,100,104663,1,0,0:0:0:0:
456,100,104794,1,0,0:0:0:0:
328,4,104924,1,0,0:0:0:0:
220,120,105055,6,0,L|184:156,3,40
164,176,105315,1,0,0:0:0:0:
141,208,105380,1,0,0:0:0:0:
136,247,105445,1,0,0:0:0:0:
152,283,105510,1,0,0:0:0:0:
183,308,105575,1,0,0:0:0:0:
224,312,105642,2,0,P|268:296|288:280,1,40
420,324,105837,5,0,0:0:0:0:
372,172,105968,1,0,0:0:0:0:
220,120,106098,1,0,0:0:0:0:
76,192,106229,2,0,L|64:232,3,40
88,152,106489,5,0,0:0:0:0:
100,112,106555,1,0,0:0:0:0:
124,80,106620,1,0,0:0:0:0:
152,52,106685,1,0,0:0:0:0:
188,32,106750,1,0,0:0:0:0:
228,20,106815,1,0,0:0:0:0:
268,16,106881,1,0,0:0:0:0:
308,20,106946,1,0,0:0:0:0:
344,32,107011,1,0,0:0:0:0:
448,156,107142,5,0,0:0:0:0:
296,108,107272,1,0,0:0:0:0:
196,232,107402,1,0,0:0:0:0:
236,244,107468,1,0,0:0:0:0:
276,244,107533,1,0,0:0:0:0:
312,232,107598,1,0,0:0:0:0:
340,204,107663,1,0,0:0:0:0:
360,168,107729,1,0,0:0:0:0:
280,352,108055,5,0,0:0:0:0:
76,108,108576,1,0,0:0:0:0:
392,48,109098,5,0,0:0:0:0:
392,48,109229,1,0,0:0:0:0:
340,204,109489,1,0,0:0:0:0:
340,204,109620,1,0,0:0:0:0:
196,272,109881,1,0,0:0:0:0:
196,272,110011,1,0,0:0:0:0:
40,232,110272,1,0,0:0:0:0:
40,232,110402,1,0,0:0:0:0:
164,128,110663,6,0,L|192:44,1,80
264,28,110924,1,0,0:0:0:0:
264,28,111055,1,0,0:0:0:0:
244,104,111185,2,0,L|212:196,1,80
420,308,111576,5,0,0:0:0:0:
420,308,111707,1,0,0:0:0:0:
336,84,111968,1,0,0:0:0:0:
336,84,112098,1,0,0:0:0:0:
136,332,112359,1,0,0:0:0:0:
136,332,112489,1,0,0:0:0:0:
52,24,112750,5,0,0:0:0:0:
80,184,112881,1,0,0:0:0:0:
200,76,113011,1,0,0:0:0:0:
52,24,113272,5,0,0:0:0:0:
52,24,113402,1,0,0:0:0:0:
416,336,113663,1,0,0:0:0:0:
416,336,113794,1,0,0:0:0:0:
348,108,114055,1,0,0:0:0:0:
348,108,114185,1,0,0:0:0:0:
188,288,114446,1,0,0:0:0:0:
188,288,114576,1,0,0:0:0:0:
232,132,114837,5,0,0:0:0:0:
232,132,114968,1,0,0:0:0:0:
152,128,115098,1,0,0:0:0:0:
152,128,115229,1,0,0:0:0:0:
84,272,115359,5,0,0:0:0:0:
36,120,115489,1,0,0:0:0:0:
96,272,115750,1,0,0:0:0:0:
108,76,115881,1,0,0:0:0:0:
108,272,116142,1,0,0:0:0:0:
188,56,116272,1,0,0:0:0:0:
428,56,116533,5,0,0:0:0:0:
336,132,116663,1,0,0:0:0:0:
448,180,116794,1,0,0:0:0:0:
372,320,116924,5,0,0:0:0:0:
256,208,117055,1,0,0:0:0:0:
120,348,117185,1,0,0:0:0:0:
44,32,117315,1,0,0:0:0:0:
