osu file format v14

[General]
AudioFilename: audio.mp3
AudioLeadIn: 0
PreviewTime: 45144
Countdown: 0
SampleSet: Soft
StackLeniency: 0.7
Mode: 3
LetterboxInBreaks: 0
SpecialStyle: 0
WidescreenStoryboard: 0

[Editor]
DistanceSpacing: 1
BeatDivisor: 3
GridSize: 4
TimelineZoom: 2.100001

[Metadata]
Title:Everlasting Message
TitleUnicode:Everlasting Message
Artist:penoreri
ArtistUnicode:ぺのれり
Creator:ATing
Version:GRAVITY
Source:SOUND VOLTEX III GRAVITY WARS
Tags:SDVX 3 The 4th KACオリジナル楽曲コンテスト Original Song Contest KONAMI Arcade Championship RASIS Voltenizer Maxima 蒼弐 forever Queen Video Game Instrumental Touru0711 beatmania IIDX 27 HEROIC VERSE MÚSECA 1+1/2 REFLEC BEAT 悠久のリフレシア Grace Electronic EPIC ORCHESTRA
BeatmapID:3017336
BeatmapSetID:1469677

[Difficulty]
HPDrainRate:8.5
CircleSize:4
OverallDifficulty:7.7
ApproachRate:5
SliderMultiplier:1.4
SliderTickRate:1

[Events]
//Background and Video events
0,0,"edut.jpg",0,0
//Break Periods
//Storyboard Layer 0 (Background)
//Storyboard Layer 1 (Fail)
//Storyboard Layer 2 (Pass)
//Storyboard Layer 3 (Foreground)
//Storyboard Layer 4 (Overlay)
//Storyboard Sound Samples
Sample,108013,0,"Tom1.wav",70
Sample,108535,0,"FloorTom.wav",70

[TimingPoints]
1318,260.869565217391,4,2,1,55,1,0
45144,-100,4,2,1,55,0,1
61839,-100,4,2,1,55,0,0
89883,-100,4,2,1,55,0,1
109839,-100,4,2,1,55,0,0

[HitObjects]
64,192,2100,5,4,0:0:0:0:
320,192,2100,1,0,0:0:0:0:
448,192,2100,1,0,0:0:0:0:
64,192,2361,128,0,2491:0:0:0:0:
192,192,2361,128,0,2491:0:0:0:0:
64,192,2622,128,0,2752:0:0:0:0:
320,192,2622,128,0,2752:0:0:0:0:
448,192,2752,128,0,3013:0:0:0:0:
64,192,2883,128,0,3013:0:0:0:0:
192,192,2883,128,0,3013:0:0:0:0:
64,192,3144,128,0,3274:0:0:0:0:
448,192,3144,128,0,3404:0:0:0:0:
192,192,3274,128,0,3404:0:0:0:0:
64,192,3404,128,0,3665:0:0:0:0:
320,192,3404,128,0,3535:0:0:0:0:
448,192,3535,128,0,3665:0:0:0:0:
192,192,3665,128,0,3796:0:0:0:0:
320,192,3665,128,0,3796:0:0:0:0:
64,192,3796,128,0,3926:0:0:0:0:
192,192,3926,128,0,4057:0:0:0:0:
320,192,4057,128,0,4187:0:0:0:0:
448,192,4057,128,0,4187:0:0:0:0:
192,192,4187,128,0,4317:0:0:0:0:
320,192,4317,128,0,4448:0:0:0:0:
64,192,4448,128,0,4578:0:0:0:0:
448,192,4448,128,0,4578:0:0:0:0:
320,192,4578,128,0,4709:0:0:0:0:
64,192,4709,128,0,4839:0:0:0:0:
448,192,4709,128,0,4839:0:0:0:0:
192,192,4839,128,0,4970:0:0:0:0:
320,192,4970,128,0,5100:0:0:0:0:
448,192,4970,128,0,5100:0:0:0:0:
64,192,5100,128,0,5231:0:0:0:0:
192,192,5231,128,0,5361:0:0:0:0:
448,192,5231,128,0,5361:0:0:0:0:
320,192,5361,128,0,5491:0:0:0:0:
64,192,5491,1,4,0:0:0:0:
192,192,5491,1,2,0:0:0:0:
448,192,5491,1,0,0:0:0:0:
64,192,5622,1,4,0:0:0:0:
192,192,5622,1,2,0:0:0:0:
448,192,5622,1,0,0:0:0:0:
320,192,5752,128,0,5817:0:0:0:0:
192,192,5817,128,0,5883:0:0:0:0:
448,192,5883,128,0,5948:0:0:0:0:
320,192,5948,128,0,6013:0:0:0:0:
192,192,6013,128,0,6078:0:0:0:0:
64,192,6078,128,0,6144:0:0:0:0:
320,192,6144,128,0,6209:0:0:0:0:
448,192,6209,128,0,6274:0:0:0:0:
64,192,6274,1,4,0:0:0:0:
192,192,6274,1,2,0:0:0:0:
320,192,6404,1,0,0:0:0:0:
448,192,6404,128,0,6535:0:0:0:0:
64,192,6535,128,0,6665:0:0:0:0:
192,192,6535,1,0,0:0:0:0:
320,192,6665,1,0,0:0:0:0:
448,192,6665,128,0,6796:0:0:0:0:
64,192,6796,128,0,6926:0:0:0:0:
192,192,6796,1,0,0:0:0:0:
192,192,6926,128,0,7057:0:0:0:0:
320,192,6926,1,0,0:0:0:0:
320,192,7057,128,0,7187:0:0:0:0:
448,192,7057,1,0,0:0:0:0:
64,192,7317,1,0,0:0:0:0:
192,192,7317,128,0,7448:0:0:0:0:
64,192,7578,128,0,7709:0:0:0:0:
320,192,7578,128,0,7709:0:0:0:0:
448,192,7578,128,0,7839:0:0:0:0:
192,192,7709,128,0,7839:0:0:0:0:
64,192,7839,128,0,7970:0:0:0:0:
192,192,7970,128,0,8100:0:0:0:0:
320,192,7970,128,0,8231:0:0:0:0:
448,192,7970,128,0,8100:0:0:0:0:
64,192,8100,128,0,8231:0:0:0:0:
448,192,8231,128,0,8361:0:0:0:0:
64,192,8361,128,0,8491:0:0:0:0:
192,192,8361,128,0,8622:0:0:0:0:
320,192,8361,128,0,8491:0:0:0:0:
448,192,8491,128,0,8622:0:0:0:0:
320,192,8622,128,0,8752:0:0:0:0:
64,192,8752,128,0,9013:0:0:0:0:
192,192,8752,128,0,8883:0:0:0:0:
448,192,8752,128,0,8883:0:0:0:0:
320,192,8883,128,0,9013:0:0:0:0:
192,192,9013,128,0,9144:0:0:0:0:
64,192,9144,128,0,9274:0:0:0:0:
320,192,9144,128,0,9274:0:0:0:0:
448,192,9144,128,0,9274:0:0:0:0:
192,192,9274,128,0,9404:0:0:0:0:
64,192,9404,128,0,9535:0:0:0:0:
448,192,9404,128,0,9535:0:0:0:0:
320,192,9535,128,0,9665:0:0:0:0:
64,192,9665,1,2,0:0:0:0:
192,192,9665,1,4,0:0:0:0:
448,192,9665,128,0,9926:0:0:0:0:
64,192,9926,1,2,0:0:0:0:
192,192,9926,1,0,0:0:0:0:
64,192,10187,1,2,0:0:0:0:
192,192,10187,1,0,0:0:0:0:
320,192,10187,128,0,10448:0:0:0:0:
64,192,10448,1,2,0:0:0:0:
192,192,10448,1,0,0:0:0:0:
192,192,10709,128,2,10970:0:0:0:0:
320,192,10709,1,0,0:0:0:0:
448,192,10709,1,0,0:0:0:0:
320,192,10970,1,2,0:0:0:0:
448,192,10970,1,0,0:0:0:0:
64,192,11231,128,2,11491:0:0:0:0:
320,192,11231,1,0,0:0:0:0:
448,192,11231,1,0,0:0:0:0:
320,192,11491,1,2,0:0:0:0:
448,192,11491,1,0,0:0:0:0:
64,192,11622,1,8,0:0:0:0:
192,192,11622,1,0,0:0:0:0:
320,192,11622,1,0,0:0:0:0:
64,192,11752,1,2,0:0:0:0:
192,192,11752,1,0,0:0:0:0:
448,192,11752,128,0,12731:0:0:0:0:
320,192,11883,128,0,12013:0:0:0:0:
64,192,12013,128,2,12144:0:0:0:0:
192,192,12013,128,0,12144:0:0:0:0:
320,192,12144,128,0,12274:0:0:0:0:
64,192,12274,128,2,12404:0:0:0:0:
320,192,12339,128,0,12470:0:0:0:0:
192,192,12404,128,0,12535:0:0:0:0:
64,192,12470,128,0,12600:0:0:0:0:
320,192,12535,128,2,12665:0:0:0:0:
192,192,12600,128,0,12731:0:0:0:0:
64,192,12665,128,0,12796:0:0:0:0:
320,192,12796,128,2,12861:0:0:0:0:
448,192,12796,128,0,12861:0:0:0:0:
192,192,12926,128,2,12991:0:0:0:70:Tom1.wav
320,192,12926,128,0,12991:0:0:0:0:
64,192,13057,128,2,13122:0:0:0:0:
192,192,13057,128,0,13122:0:0:0:0:
64,192,13187,128,2,13252:0:0:0:70:Tom2.wav
448,192,13187,128,0,13252:0:0:0:0:
320,192,13317,128,2,13383:0:0:0:0:
448,192,13317,128,0,13383:0:0:0:0:
64,192,13448,1,0,0:0:0:0:
192,192,13578,1,2,0:0:0:0:
448,192,13578,1,0,0:0:0:0:
64,192,13709,1,8,0:0:0:0:
192,192,13709,1,0,0:0:0:0:
320,192,13709,1,0,0:0:0:0:
64,192,13839,128,4,14622:0:0:0:0:
320,192,13839,1,2,0:0:0:0:
448,192,13839,1,0,0:0:0:0:
320,192,14100,1,2,0:0:0:0:
448,192,14100,1,0,0:0:0:0:
320,192,14361,1,2,0:0:0:0:
448,192,14361,1,0,0:0:0:0:
320,192,14622,1,2,0:0:0:0:
448,192,14622,1,0,0:0:0:0:
64,192,14883,1,2,0:0:0:0:
192,192,14883,1,0,0:0:0:0:
320,192,14883,128,0,15144:0:0:0:0:
64,192,15144,1,2,0:0:0:0:
192,192,15144,1,0,0:0:0:0:
64,192,15404,1,2,0:0:0:0:
192,192,15404,1,0,0:0:0:0:
448,192,15404,128,0,15665:0:0:0:0:
64,192,15665,1,2,0:0:0:0:
192,192,15665,1,0,0:0:0:0:
320,192,15796,1,8,0:0:0:0:
448,192,15796,1,0,0:0:0:0:
192,192,15861,1,8,0:0:0:0:
64,192,15926,128,2,16057:0:0:0:0:
320,192,15926,128,4,16187:0:0:0:0:
448,192,15926,128,0,16057:0:0:0:0:
64,192,16187,1,8,0:0:0:0:
192,192,16187,1,0,0:0:0:0:
448,192,16187,1,0,0:0:0:0:
64,192,16317,128,2,16448:0:0:0:0:
192,192,16317,128,0,16578:0:0:0:0:
448,192,16317,128,0,16448:0:0:0:0:
64,192,16578,1,8,0:0:0:0:
320,192,16578,1,0,0:0:0:0:
448,192,16578,1,0,0:0:0:0:
64,192,16709,128,2,16839:0:0:0:0:
320,192,16709,128,4,16970:0:0:0:0:
448,192,16709,128,0,16839:0:0:0:0:
64,192,16970,1,8,0:0:0:0:
192,192,16970,1,0,0:0:0:0:
448,192,16970,1,0,0:0:0:0:
64,192,17100,128,2,17231:0:0:0:0:
192,192,17100,128,0,17361:0:0:0:0:
448,192,17100,128,0,17231:0:0:0:0:
64,192,17361,1,8,0:0:0:0:
320,192,17361,1,0,0:0:0:0:
448,192,17361,1,0,0:0:0:0:
64,192,17491,1,2,0:0:0:0:
192,192,17491,1,4,0:0:0:0:
448,192,17491,1,0,0:0:0:0:
320,192,17622,1,8,0:0:0:0:
64,192,17687,1,8,0:0:0:0:
192,192,17752,1,2,0:0:0:0:
448,192,17752,1,0,0:0:0:0:
320,192,17817,1,2,0:0:0:70:Tom1.wav
64,192,17883,1,2,0:0:0:70:Tom2.wav
192,192,17948,1,2,0:0:0:70:FloorTom.wav
64,192,18013,128,4,19317:0:0:0:0:
320,192,18013,1,2,0:0:0:0:
448,192,18013,1,0,0:0:0:0:
320,192,18274,1,2,0:0:0:0:
448,192,18274,1,0,0:0:0:0:
192,192,18535,1,2,0:0:0:0:
320,192,18535,1,0,0:0:0:0:
320,192,18665,1,0,0:0:0:0:
448,192,18665,1,0,0:0:0:0:
192,192,18796,1,2,0:0:0:0:
448,192,18796,1,0,0:0:0:0:
192,192,19057,1,2,0:0:0:0:
320,192,19057,1,0,0:0:0:0:
192,192,19187,1,0,0:0:0:0:
448,192,19187,1,0,0:0:0:0:
320,192,19317,1,2,0:0:0:0:
448,192,19317,1,0,0:0:0:0:
64,192,19448,1,0,0:0:0:0:
192,192,19448,1,0,0:0:0:0:
64,192,19578,1,2,0:0:0:0:
448,192,19578,128,0,19839:0:0:0:0:
192,192,19709,1,0,0:0:0:0:
320,192,19709,1,0,0:0:0:0:
64,192,19839,1,2,0:0:0:0:
192,192,19839,1,0,0:0:0:0:
320,192,19970,1,0,0:0:0:0:
448,192,19970,1,0,0:0:0:0:
64,192,20100,1,2,0:0:0:0:
192,192,20100,1,4,0:0:0:0:
320,192,20100,128,0,20361:0:0:0:0:
64,192,20361,1,2,0:0:0:0:
448,192,20361,1,0,0:0:0:0:
192,192,20491,1,0,0:0:0:0:
64,192,20622,1,2,0:0:0:0:
320,192,20622,1,0,0:0:0:0:
448,192,20622,128,0,20883:0:0:0:0:
192,192,20752,1,0,0:0:0:0:
64,192,20883,1,2,0:0:0:0:
320,192,20883,1,0,0:0:0:0:
192,192,21013,1,0,0:0:0:0:
64,192,21144,128,2,21404:0:0:0:0:
320,192,21144,1,4,0:0:0:0:
448,192,21144,1,0,0:0:0:0:
192,192,21274,1,0,0:0:0:0:
320,192,21404,1,2,0:0:0:0:
448,192,21404,1,0,0:0:0:0:
192,192,21535,1,0,0:0:0:0:
64,192,21665,1,2,0:0:0:0:
320,192,21665,1,0,0:0:0:0:
448,192,21665,128,0,21926:0:0:0:0:
320,192,21796,1,0,0:0:0:0:
64,192,21926,1,8,0:0:0:0:
192,192,21926,1,0,0:0:0:0:
320,192,21991,1,8,0:0:0:0:
448,192,21991,1,0,0:0:0:0:
64,192,22057,1,8,0:0:0:0:
192,192,22057,1,0,0:0:0:0:
320,192,22122,1,8,0:0:0:0:
64,192,22187,128,4,22317:0:0:0:0:
192,192,22187,128,2,22317:0:0:0:0:
448,192,22187,128,0,22448:0:0:0:0:
64,192,22448,1,8,0:0:0:0:
192,192,22448,1,0,0:0:0:0:
320,192,22448,1,0,0:0:0:0:
64,192,22578,128,2,22709:0:0:0:0:
320,192,22578,128,0,22839:0:0:0:0:
448,192,22578,128,0,22709:0:0:0:0:
64,192,22839,1,8,0:0:0:0:
192,192,22839,1,0,0:0:0:0:
448,192,22839,1,0,0:0:0:0:
64,192,22970,128,2,23100:0:0:0:0:
192,192,22970,128,4,23231:0:0:0:0:
448,192,22970,128,0,23100:0:0:0:0:
64,192,23231,1,8,0:0:0:0:
320,192,23231,1,0,0:0:0:0:
448,192,23231,1,0,0:0:0:0:
64,192,23361,128,2,23622:0:0:0:0:
320,192,23361,128,0,23491:0:0:0:0:
448,192,23361,128,0,23491:0:0:0:0:
192,192,23622,1,8,0:0:0:0:
320,192,23622,1,0,0:0:0:0:
448,192,23622,1,0,0:0:0:0:
64,192,23752,1,2,0:0:0:0:
192,192,23752,1,4,0:0:0:0:
448,192,23752,1,0,0:0:0:0:
320,192,23839,1,8,0:0:0:0:
192,192,23926,1,8,0:0:0:0:
320,192,24013,1,2,0:0:0:70:Tom1.wav
448,192,24013,1,0,0:0:0:0:
192,192,24100,1,2,0:0:0:70:Tom1.wav
64,192,24187,1,2,0:0:0:70:Tom2.wav
192,192,24274,1,4,0:0:0:0:
320,192,24274,1,2,0:0:0:0:
448,192,24274,1,0,0:0:0:0:
320,192,24361,128,0,24448:0:0:0:0:
192,192,24448,128,0,24535:0:0:0:0:
64,192,24535,128,0,24622:0:0:0:0:
192,192,24622,128,0,24709:0:0:0:0:
320,192,24709,128,0,24796:0:0:0:0:
64,192,24796,1,8,0:0:0:0:
192,192,24796,1,0,0:0:0:0:
448,192,24796,1,0,0:0:0:0:
448,192,24883,128,0,24970:0:0:0:0:
320,192,24970,128,0,25057:0:0:0:0:
192,192,25057,128,2,25144:0:0:0:0:
320,192,25144,128,0,25231:0:0:0:0:
448,192,25231,128,0,25317:0:0:0:0:
64,192,25317,1,8,0:0:0:0:
192,192,25317,1,4,0:0:0:0:
320,192,25317,1,0,0:0:0:0:
192,192,25404,128,0,25491:0:0:0:0:
320,192,25491,128,0,25578:0:0:0:0:
448,192,25578,128,0,25665:0:0:0:0:
320,192,25665,128,0,25752:0:0:0:0:
192,192,25752,128,0,25839:0:0:0:0:
64,192,25839,1,8,0:0:0:0:
320,192,25839,1,0,0:0:0:0:
448,192,25839,1,0,0:0:0:0:
64,192,25926,128,0,26013:0:0:0:0:
448,192,26013,128,0,26100:0:0:0:0:
320,192,26100,128,2,26187:0:0:0:0:
192,192,26187,128,0,26274:0:0:0:0:
64,192,26274,128,0,26361:0:0:0:0:
320,192,26361,128,0,26426:0:0:0:0:
448,192,26361,128,0,26426:0:0:0:0:
64,192,26883,128,0,26948:0:0:0:0:
192,192,26883,128,0,26948:0:0:0:0:
192,192,27144,128,0,27209:0:0:0:0:
320,192,27144,128,0,27209:0:0:0:0:
64,192,27404,128,0,27470:0:0:0:0:
320,192,27404,128,0,27470:0:0:0:0:
448,192,27404,128,0,27470:0:0:0:0:
192,192,27926,128,0,27991:0:0:0:0:
320,192,27926,128,0,27991:0:0:0:0:
64,192,28448,128,0,28513:0:0:0:0:
192,192,28448,128,0,28513:0:0:0:0:
320,192,28448,128,0,28513:0:0:0:0:
192,192,28970,128,0,29035:0:0:0:0:
320,192,28970,128,0,29035:0:0:0:0:
320,192,29231,128,0,29296:0:0:0:0:
448,192,29231,128,0,29296:0:0:0:0:
64,192,29491,128,0,29557:0:0:0:0:
320,192,29491,128,0,29557:0:0:0:0:
448,192,29491,128,0,29557:0:0:0:0:
64,192,30013,128,0,30078:0:0:0:0:
192,192,30013,128,0,30078:0:0:0:0:
64,192,30535,128,0,30600:0:0:0:0:
192,192,30535,128,0,30600:0:0:0:0:
448,192,30535,128,0,30600:0:0:0:0:
64,192,31057,128,0,31122:0:0:0:0:
320,192,31057,128,0,31122:0:0:0:0:
192,192,31317,128,0,31383:0:0:0:0:
448,192,31317,128,0,31383:0:0:0:0:
64,192,31578,128,0,31644:0:0:0:0:
192,192,31578,128,0,31644:0:0:0:0:
448,192,31578,128,0,31644:0:0:0:0:
192,192,32100,128,0,32165:0:0:0:0:
320,192,32100,128,0,32165:0:0:0:0:
320,192,32491,128,0,32557:0:0:0:0:
64,192,32622,128,0,32687:0:0:0:0:
192,192,32622,128,0,32687:0:0:0:0:
448,192,32622,128,0,32687:0:0:0:0:
448,192,33144,128,0,33209:0:0:0:0:
64,192,33404,128,0,33470:0:0:0:0:
192,192,33404,128,0,33470:0:0:0:0:
64,192,33665,128,0,33926:0:0:0:0:
320,192,33665,128,0,33926:0:0:0:0:
448,192,33665,128,0,33926:0:0:0:0:
64,192,34057,1,0,0:0:0:0:
192,192,34057,1,0,0:0:0:0:
448,192,34057,1,0,0:0:0:0:
64,192,34187,1,8,0:0:0:0:
192,192,34187,1,0,0:0:0:0:
448,192,34187,1,0,0:0:0:0:
320,192,34274,1,8,0:0:0:0:
192,192,34361,1,2,0:0:0:70:Tom1.wav
320,192,34448,1,2,0:0:0:70:Tom1.wav
64,192,34535,1,2,0:0:0:70:Tom2.wav
192,192,34622,1,2,0:0:0:70:Tom2.wav
64,192,34709,128,2,34796:0:0:0:0:
320,192,34709,128,4,34796:0:0:0:0:
448,192,34709,128,0,34883:0:0:0:0:
192,192,34796,128,8,34883:0:0:0:0:
320,192,34883,128,8,34970:0:0:0:0:
64,192,34970,128,8,35057:0:0:0:0:
192,192,35057,128,8,35144:0:0:0:0:
320,192,35144,128,8,35231:0:0:0:0:
64,192,35231,128,2,35404:0:0:0:0:
192,192,35231,128,8,35317:0:0:0:0:
448,192,35231,128,0,35317:0:0:0:0:
320,192,35317,128,8,35404:0:0:0:0:
192,192,35404,128,8,35491:0:0:0:0:
64,192,35491,128,2,35578:0:0:0:0:
320,192,35491,128,8,35578:0:0:0:0:
448,192,35491,128,0,35665:0:0:0:0:
192,192,35578,128,8,35665:0:0:0:0:
320,192,35665,128,8,35752:0:0:0:0:
64,192,35752,128,2,35926:0:0:0:0:
192,192,35752,128,8,35839:0:0:0:0:
448,192,35752,128,0,35839:0:0:0:0:
320,192,35839,128,8,35926:0:0:0:0:
192,192,35926,128,8,36013:0:0:0:0:
64,192,36013,128,8,36100:0:0:0:0:
320,192,36100,128,8,36187:0:0:0:0:
192,192,36187,128,8,36274:0:0:0:0:
64,192,36274,128,2,36448:0:0:0:0:
320,192,36274,128,8,36361:0:0:0:0:
448,192,36274,128,0,36361:0:0:0:0:
192,192,36361,128,8,36448:0:0:0:0:
448,192,36448,128,8,36535:0:0:0:0:
320,192,36535,128,8,36622:0:0:0:0:
64,192,36622,128,8,36709:0:0:0:0:
192,192,36709,128,8,36796:0:0:0:0:
64,192,36796,128,2,36970:0:0:0:0:
320,192,36796,128,4,36883:0:0:0:0:
448,192,36796,128,8,36883:0:0:0:0:
192,192,36883,128,8,36970:0:0:0:0:
448,192,36970,128,8,37057:0:0:0:0:
320,192,37057,128,8,37144:0:0:0:0:
64,192,37144,128,8,37231:0:0:0:0:
192,192,37231,128,8,37317:0:0:0:0:
64,192,37317,128,2,37491:0:0:0:0:
320,192,37317,128,8,37404:0:0:0:0:
448,192,37317,128,0,37404:0:0:0:0:
192,192,37404,128,8,37491:0:0:0:0:
320,192,37491,128,8,37578:0:0:0:0:
64,192,37578,128,2,37665:0:0:0:0:
192,192,37578,128,8,37665:0:0:0:0:
448,192,37578,128,0,37752:0:0:0:0:
320,192,37665,128,8,37752:0:0:0:0:
192,192,37752,128,8,37839:0:0:0:0:
64,192,37839,128,2,38013:0:0:0:0:
320,192,37839,128,8,37926:0:0:0:0:
448,192,37839,128,0,37926:0:0:0:0:
192,192,37926,128,8,38013:0:0:0:0:
448,192,38013,128,8,38100:0:0:0:0:
64,192,38100,128,8,38187:0:0:0:0:
320,192,38187,128,8,38274:0:0:0:0:
192,192,38274,128,8,38361:0:0:0:0:
64,192,38361,128,2,38448:0:0:0:0:
320,192,38361,128,4,38448:0:0:0:0:
448,192,38361,128,8,38535:0:0:0:0:
192,192,38448,128,8,38535:0:0:0:0:
64,192,38535,128,8,38622:0:0:0:0:
320,192,38622,128,8,38709:0:0:0:0:
192,192,38709,128,8,38796:0:0:0:0:
320,192,38796,128,8,38883:0:0:0:0:
64,192,38883,128,2,39078:0:0:0:0:
192,192,38883,128,0,39078:0:0:0:0:
448,192,38883,128,0,39078:0:0:0:0:
192,192,39144,1,8,0:0:0:0:
320,192,39144,1,0,0:0:0:0:
448,192,39144,1,0,0:0:0:0:
64,192,39274,128,2,39470:0:0:0:0:
320,192,39274,128,0,39470:0:0:0:0:
448,192,39274,128,0,39470:0:0:0:0:
64,192,39535,1,8,0:0:0:0:
192,192,39535,1,0,0:0:0:0:
320,192,39535,1,0,0:0:0:0:
64,192,39665,128,2,39861:0:0:0:0:
192,192,39665,128,0,39861:0:0:0:0:
448,192,39665,128,0,39861:0:0:0:0:
64,192,39926,128,2,40122:0:0:0:0:
320,192,39926,128,4,40122:0:0:0:0:
448,192,39926,128,0,40122:0:0:0:0:
192,192,40187,128,0,40383:0:0:0:70:Tom1.wav
320,192,40187,128,0,40383:0:0:0:0:
448,192,40187,128,0,40383:0:0:0:0:
64,192,40448,128,2,40644:0:0:0:70:Tom1.wav
192,192,40448,128,0,40644:0:0:0:0:
320,192,40448,128,0,40644:0:0:0:0:
64,192,40709,128,2,40904:0:0:0:0:
320,192,40709,128,4,40904:0:0:0:0:
448,192,40709,128,0,40904:0:0:0:0:
64,192,40970,128,4,41035:0:0:0:0:
192,192,40970,128,2,41035:0:0:0:0:
448,192,40970,128,0,41035:0:0:0:0:
64,192,41100,128,8,41165:0:0:0:0:
192,192,41100,128,0,41165:0:0:0:0:
448,192,41100,128,0,41165:0:0:0:0:
64,192,41361,128,2,41426:0:0:0:0:
320,192,41361,128,0,41426:0:0:0:0:
448,192,41361,128,0,41426:0:0:0:0:
64,192,41491,128,8,41557:0:0:0:0:
320,192,41491,128,0,41557:0:0:0:0:
448,192,41491,128,0,41557:0:0:0:0:
64,192,41752,128,2,41817:0:0:0:0:
192,192,41752,128,4,41817:0:0:0:0:
320,192,41752,128,0,41817:0:0:0:0:
64,192,41883,128,8,41948:0:0:0:0:
192,192,41883,128,0,41948:0:0:0:0:
320,192,41883,128,0,41948:0:0:0:0:
192,192,42144,128,2,42209:0:0:0:0:
320,192,42144,128,0,42209:0:0:0:0:
448,192,42144,128,0,42209:0:0:0:0:
192,192,42274,128,8,42339:0:0:0:0:
320,192,42274,128,0,42339:0:0:0:0:
448,192,42274,128,0,42339:0:0:0:0:
64,192,42535,128,4,42665:0:0:0:0:
192,192,42535,128,2,42665:0:0:0:0:
448,192,42535,128,0,42665:0:0:0:0:
64,192,42796,128,2,42926:0:0:0:0:
192,192,42796,128,0,42926:0:0:0:0:
320,192,42796,128,0,42926:0:0:0:0:
64,192,43057,128,2,43122:0:0:0:0:
192,192,43057,128,0,43122:0:0:0:0:
448,192,43057,128,0,43122:0:0:0:0:
64,192,43187,128,2,43252:0:0:0:0:
192,192,43187,128,0,43252:0:0:0:0:
448,192,43187,128,0,43252:0:0:0:0:
64,192,43317,1,8,0:0:0:0:
192,192,43317,1,0,0:0:0:0:
64,192,43448,128,2,43513:0:0:0:0:
320,192,43448,128,0,43513:0:0:0:0:
448,192,43448,128,0,43513:0:0:0:0:
64,192,43578,128,2,43644:0:0:0:0:
320,192,43578,128,0,43644:0:0:0:0:
448,192,43578,128,0,43644:0:0:0:0:
320,192,43709,1,8,0:0:0:0:
448,192,43709,1,0,0:0:0:0:
64,192,43839,128,2,43904:0:0:0:0:
192,192,43839,128,4,43904:0:0:0:0:
448,192,43839,128,0,43904:0:0:0:0:
64,192,43970,128,2,44035:0:0:0:0:
192,192,43970,128,0,44035:0:0:0:0:
448,192,43970,128,0,44035:0:0:0:0:
64,192,44100,1,8,0:0:0:0:
192,192,44100,1,0,0:0:0:0:
192,192,44231,128,2,44296:0:0:0:0:
320,192,44231,128,0,44296:0:0:0:0:
448,192,44231,128,0,44296:0:0:0:0:
64,192,44361,128,2,44426:0:0:0:0:
320,192,44361,128,0,44426:0:0:0:0:
448,192,44361,128,0,44426:0:0:0:0:
64,192,44491,128,2,44557:0:0:0:0:
192,192,44491,128,0,44557:0:0:0:0:
448,192,44491,128,0,44557:0:0:0:0:
64,192,44622,128,2,44687:0:0:0:0:
192,192,44622,128,0,44687:0:0:0:0:
320,192,44622,128,0,44687:0:0:0:0:
192,192,44752,128,2,44817:0:0:0:0:
320,192,44752,128,0,44817:0:0:0:0:
448,192,44752,128,0,44817:0:0:0:0:
64,192,44883,128,2,44948:0:0:0:0:
320,192,44883,128,0,44948:0:0:0:0:
448,192,44883,128,0,44948:0:0:0:0:
64,192,45013,128,2,45078:0:0:0:0:
192,192,45013,128,0,45078:0:0:0:0:
448,192,45013,128,0,45078:0:0:0:0:
64,192,45144,128,2,45404:0:0:0:0:
192,192,45144,128,4,45404:0:0:0:0:
320,192,45144,128,0,45274:0:0:0:0:
448,192,45274,1,8,0:0:0:0:
320,192,45404,1,2,0:0:0:0:
64,192,45535,128,8,45796:0:0:0:0:
192,192,45535,128,0,45665:0:0:0:0:
448,192,45535,128,0,45796:0:0:0:0:
320,192,45665,1,2,0:0:0:0:
192,192,45796,1,8,0:0:0:0:
64,192,45926,128,2,46317:0:0:0:0:
320,192,45926,128,0,46057:0:0:0:0:
448,192,45926,128,0,46317:0:0:0:0:
192,192,46057,1,8,0:0:0:0:
320,192,46187,1,2,0:0:0:0:
192,192,46317,1,8,0:0:0:0:
64,192,46448,128,2,46578:0:0:0:0:
320,192,46448,128,0,46709:0:0:0:0:
448,192,46448,128,0,46578:0:0:0:0:
192,192,46578,1,8,0:0:0:0:
64,192,46709,128,2,46839:0:0:0:0:
192,192,46709,128,0,46970:0:0:0:0:
448,192,46709,128,0,46839:0:0:0:0:
320,192,46839,1,8,0:0:0:0:
64,192,46970,128,2,47231:0:0:0:0:
320,192,46970,128,0,47100:0:0:0:0:
448,192,46970,128,0,47100:0:0:0:0:
192,192,47100,1,8,0:0:0:0:
192,192,47231,128,2,47491:0:0:0:0:
320,192,47231,128,4,47361:0:0:0:0:
448,192,47231,128,0,47491:0:0:0:0:
64,192,47361,1,8,0:0:0:0:
320,192,47491,1,2,0:0:0:0:
64,192,47622,128,8,47883:0:0:0:0:
192,192,47622,128,0,47752:0:0:0:0:
448,192,47622,128,0,47883:0:0:0:0:
320,192,47752,1,2,0:0:0:0:
192,192,47883,1,8,0:0:0:0:
64,192,48013,128,2,48144:0:0:0:0:
320,192,48013,128,0,48274:0:0:0:0:
448,192,48013,128,0,48144:0:0:0:0:
192,192,48144,1,8,0:0:0:0:
64,192,48274,128,2,48535:0:0:0:0:
192,192,48274,128,4,48404:0:0:0:0:
448,192,48274,128,0,48535:0:0:0:0:
320,192,48404,1,8,0:0:0:0:
192,192,48535,1,2,0:0:0:0:
64,192,48665,1,8,0:0:0:0:
320,192,48665,1,0,0:0:0:0:
448,192,48665,1,0,0:0:0:0:
64,192,48796,128,2,49187:0:0:0:0:
320,192,48796,128,4,48926:0:0:0:0:
448,192,48796,128,0,49187:0:0:0:0:
192,192,48926,1,8,0:0:0:0:
320,192,49057,1,2,0:0:0:0:
192,192,49187,1,8,0:0:0:0:
64,192,49317,128,2,49578:0:0:0:0:
320,192,49317,128,4,49448:0:0:0:0:
448,192,49317,128,0,49578:0:0:0:0:
192,192,49448,1,8,0:0:0:0:
320,192,49578,1,2,0:0:0:0:
64,192,49709,1,8,0:0:0:0:
192,192,49709,1,0,0:0:0:0:
448,192,49709,1,0,0:0:0:0:
64,192,49839,128,2,50231:0:0:0:0:
192,192,49839,128,0,49970:0:0:0:0:
448,192,49839,128,0,50231:0:0:0:0:
320,192,49970,1,8,0:0:0:0:
192,192,50100,1,2,0:0:0:0:
320,192,50231,1,8,0:0:0:0:
64,192,50361,128,2,50622:0:0:0:0:
192,192,50361,128,4,50491:0:0:0:0:
448,192,50361,128,0,50622:0:0:0:0:
320,192,50491,1,8,0:0:0:0:
192,192,50622,1,2,0:0:0:0:
64,192,50752,1,8,0:0:0:0:
320,192,50752,1,0,0:0:0:0:
448,192,50752,1,0,0:0:0:0:
64,192,50883,128,2,51013:0:0:0:0:
320,192,50883,128,0,51013:0:0:0:0:
448,192,50883,128,0,51144:0:0:0:0:
192,192,51013,1,8,0:0:0:0:
64,192,51144,128,2,51404:0:0:0:0:
192,192,51144,128,0,51274:0:0:0:0:
320,192,51144,128,0,51274:0:0:0:0:
448,192,51274,1,8,0:0:0:0:
192,192,51404,128,2,51535:0:0:0:0:
320,192,51404,128,4,51665:0:0:0:0:
448,192,51404,128,0,51665:0:0:0:0:
64,192,51535,1,8,0:0:0:0:
192,192,51665,1,2,0:0:0:0:
64,192,51796,1,8,0:0:0:0:
320,192,51796,1,0,0:0:0:0:
448,192,51796,1,0,0:0:0:0:
64,192,51926,128,2,52187:0:0:0:0:
320,192,51926,128,4,52057:0:0:0:0:
448,192,51926,128,0,52187:0:0:0:0:
192,192,52057,1,8,0:0:0:0:
320,192,52187,1,2,0:0:0:0:
64,192,52317,1,8,0:0:0:0:
192,192,52317,1,0,0:0:0:0:
448,192,52317,1,0,0:0:0:0:
64,192,52448,128,2,52709:0:0:0:0:
192,192,52448,128,4,52578:0:0:0:0:
448,192,52448,128,0,52709:0:0:0:0:
320,192,52578,1,8,0:0:0:0:
192,192,52709,1,2,0:0:0:0:
64,192,52839,1,2,0:0:0:70:Tom1.wav
320,192,52839,1,0,0:0:0:0:
448,192,52839,1,0,0:0:0:0:
64,192,52970,1,2,0:0:0:70:Tom2.wav
320,192,52970,128,0,53035:0:0:0:0:
448,192,52970,1,0,0:0:0:0:
192,192,53035,128,2,53100:0:0:0:70:Tom2.wav
64,192,53100,128,2,53165:0:0:0:70:FloorTom.wav
320,192,53165,128,2,53231:0:0:0:70:FloorTom.wav
192,192,53231,128,2,53296:0:0:0:0:
448,192,53231,128,4,53296:0:0:0:0:
64,192,53296,128,0,53361:0:0:0:0:
320,192,53361,1,0,0:0:0:0:
192,192,53426,1,0,0:0:0:0:
64,192,53491,128,2,53752:0:0:0:0:
320,192,53491,128,4,53622:0:0:0:0:
448,192,53491,128,0,53752:0:0:0:0:
192,192,53622,1,8,0:0:0:0:
320,192,53752,1,2,0:0:0:0:
64,192,53883,128,8,54144:0:0:0:0:
192,192,53883,128,0,54013:0:0:0:0:
448,192,53883,128,0,54144:0:0:0:0:
320,192,54013,1,2,0:0:0:0:
192,192,54144,1,8,0:0:0:0:
64,192,54274,128,2,54665:0:0:0:0:
320,192,54274,128,0,54404:0:0:0:0:
448,192,54274,128,0,54665:0:0:0:0:
192,192,54404,1,8,0:0:0:0:
320,192,54535,1,2,0:0:0:0:
192,192,54665,1,8,0:0:0:0:
64,192,54796,128,2,54926:0:0:0:0:
320,192,54796,128,0,55057:0:0:0:0:
448,192,54796,128,0,54926:0:0:0:0:
192,192,54926,1,8,0:0:0:0:
64,192,55057,128,2,55187:0:0:0:0:
192,192,55057,128,0,55317:0:0:0:0:
448,192,55057,128,0,55187:0:0:0:0:
320,192,55187,1,8,0:0:0:0:
64,192,55317,128,2,55578:0:0:0:0:
320,192,55317,128,0,55448:0:0:0:0:
448,192,55317,128,0,55448:0:0:0:0:
192,192,55448,1,8,0:0:0:0:
192,192,55578,128,2,55709:0:0:0:0:
320,192,55578,128,4,55709:0:0:0:0:
448,192,55578,128,0,55709:0:0:0:0:
64,192,55709,1,8,0:0:0:0:
64,192,55839,128,2,55970:0:0:0:0:
192,192,55839,128,0,55970:0:0:0:0:
448,192,55839,128,0,55970:0:0:0:0:
320,192,55970,1,8,0:0:0:0:
64,192,56100,128,2,56231:0:0:0:0:
320,192,56100,128,4,56231:0:0:0:0:
448,192,56100,128,0,56231:0:0:0:0:
64,192,56296,128,0,56426:0:0:0:0:
192,192,56296,128,0,56426:0:0:0:0:
448,192,56296,128,0,56426:0:0:0:0:
64,192,56491,1,8,0:0:0:0:
320,192,56491,1,0,0:0:0:0:
448,192,56491,1,0,0:0:0:0:
64,192,56622,128,2,56752:0:0:0:0:
320,192,56622,128,4,56752:0:0:0:0:
448,192,56622,128,0,56752:0:0:0:0:
192,192,56752,1,8,0:0:0:0:
64,192,56883,1,2,0:0:0:0:
320,192,56883,1,0,0:0:0:0:
448,192,56883,1,0,0:0:0:0:
64,192,57013,128,8,57274:0:0:0:0:
192,192,57013,128,0,57274:0:0:0:0:
448,192,57013,128,0,57144:0:0:0:0:
320,192,57144,1,2,0:0:0:0:
448,192,57274,1,8,0:0:0:0:
64,192,57404,128,2,57535:0:0:0:0:
192,192,57404,128,0,57665:0:0:0:0:
320,192,57404,128,0,57535:0:0:0:0:
448,192,57535,1,8,0:0:0:0:
64,192,57665,128,2,57926:0:0:0:0:
320,192,57665,128,4,57796:0:0:0:0:
448,192,57665,128,0,57926:0:0:0:0:
192,192,57796,1,8,0:0:0:0:
320,192,57926,1,2,0:0:0:0:
64,192,58057,128,8,58187:0:0:0:0:
192,192,58057,128,0,58317:0:0:0:0:
448,192,58057,128,0,58317:0:0:0:0:
320,192,58187,1,2,0:0:0:0:
64,192,58317,1,8,0:0:0:0:
192,192,58448,128,2,58578:0:0:0:0:
320,192,58448,128,0,58578:0:0:0:0:
448,192,58448,128,0,58709:0:0:0:0:
64,192,58578,1,8,0:0:0:0:
64,192,58709,128,2,58970:0:0:0:0:
192,192,58709,128,4,58839:0:0:0:0:
320,192,58709,128,0,58839:0:0:0:0:
448,192,58839,1,8,0:0:0:0:
192,192,58970,128,2,59231:0:0:0:0:
320,192,58970,128,0,59100:0:0:0:0:
448,192,58970,128,0,59100:0:0:0:0:
64,192,59100,1,8,0:0:0:0:
64,192,59231,128,2,59361:0:0:0:0:
320,192,59231,128,0,59491:0:0:0:0:
448,192,59231,128,0,59361:0:0:0:0:
192,192,59361,1,8,0:0:0:0:
64,192,59491,128,2,59622:0:0:0:0:
192,192,59491,128,0,59622:0:0:0:0:
448,192,59491,128,0,59752:0:0:0:0:
320,192,59622,1,8,0:0:0:0:
64,192,59752,128,2,60013:0:0:0:0:
192,192,59752,128,4,60013:0:0:0:0:
320,192,59752,128,0,59883:0:0:0:0:
448,192,60013,128,8,60078:0:0:0:0:
320,192,60078,128,8,60144:0:0:0:0:
192,192,60144,128,8,60209:0:0:0:0:
64,192,60209,128,8,60274:0:0:0:0:
192,192,60274,128,2,60404:0:0:0:0:
320,192,60274,128,4,60535:0:0:0:0:
448,192,60274,128,0,60535:0:0:0:0:
64,192,60535,128,8,60600:0:0:0:0:
192,192,60600,128,8,60665:0:0:0:0:
320,192,60665,128,8,60731:0:0:0:0:
448,192,60731,128,8,60796:0:0:0:0:
64,192,60796,128,2,61057:0:0:0:0:
192,192,60796,128,4,60926:0:0:0:0:
320,192,60796,128,0,60861:0:0:0:0:
448,192,60926,128,8,60991:0:0:0:0:
320,192,60991,128,8,61057:0:0:0:0:
192,192,61057,128,8,61122:0:0:0:0:
448,192,61122,128,8,61187:0:0:0:0:
320,192,61187,128,2,61252:0:0:0:70:Tom1.wav
192,192,61252,128,0,61317:0:0:0:0:
64,192,61317,128,2,61383:0:0:0:70:Tom1.wav
448,192,61317,128,0,61578:0:0:0:0:
320,192,61383,128,2,61448:0:0:0:70:Tom1.wav
192,192,61448,128,2,61513:0:0:0:70:Tom2.wav
64,192,61513,128,2,61578:0:0:0:70:FloorTom.wav
320,192,61578,128,8,61644:0:0:0:0:
192,192,61644,128,2,61709:0:0:0:70:Tom1.wav
64,192,61709,128,2,61774:0:0:0:70:Tom2.wav
320,192,61774,128,2,61839:0:0:0:70:FloorTom.wav
64,192,61839,1,2,0:0:0:0:
192,192,61839,1,4,0:0:0:0:
448,192,61839,128,0,63796:0:0:0:0:
64,192,62100,1,0,0:0:0:0:
320,192,62231,1,0,0:0:0:0:
192,192,62361,1,0,0:0:0:0:
64,192,62491,1,0,0:0:0:0:
320,192,62622,1,0,0:0:0:0:
192,192,62752,1,0,0:0:0:0:
64,192,62883,1,0,0:0:0:0:
320,192,63013,1,0,0:0:0:0:
192,192,63144,1,0,0:0:0:0:
64,192,63274,1,0,0:0:0:0:
320,192,63404,1,0,0:0:0:0:
192,192,63535,1,0,0:0:0:0:
64,192,63665,1,0,0:0:0:0:
320,192,63796,1,0,0:0:0:0:
64,192,63926,128,2,63991:0:0:0:0:
192,192,63926,128,0,63991:0:0:0:0:
448,192,63926,128,0,63991:0:0:0:0:
64,192,64057,128,8,64122:0:0:0:0:
320,192,64057,128,0,64122:0:0:0:0:
448,192,64057,128,0,64122:0:0:0:0:
64,192,64317,128,2,64383:0:0:0:0:
320,192,64317,128,0,64383:0:0:0:0:
448,192,64317,128,0,64383:0:0:0:0:
192,192,64448,128,8,64513:0:0:0:0:
320,192,64448,128,0,64513:0:0:0:0:
448,192,64448,128,0,64513:0:0:0:0:
192,192,64709,128,2,64774:0:0:0:0:
320,192,64709,128,0,64774:0:0:0:0:
448,192,64709,128,0,64774:0:0:0:0:
64,192,64839,128,8,64904:0:0:0:0:
192,192,64839,128,0,64904:0:0:0:0:
320,192,64839,128,0,64904:0:0:0:0:
64,192,65100,128,2,65165:0:0:0:0:
192,192,65100,128,0,65165:0:0:0:0:
320,192,65100,128,0,65165:0:0:0:0:
64,192,65231,128,8,65296:0:0:0:0:
192,192,65231,128,0,65296:0:0:0:0:
448,192,65231,128,0,65296:0:0:0:0:
64,192,65491,1,2,0:0:0:0:
192,192,65491,1,0,0:0:0:0:
448,192,65491,1,0,0:0:0:0:
320,192,65578,1,8,0:0:0:0:
192,192,65665,1,8,0:0:0:0:
320,192,65752,1,2,0:0:0:0:
448,192,65752,1,0,0:0:0:0:
64,192,65839,1,2,0:0:0:70:Tom1.wav
192,192,65926,1,2,0:0:0:70:Tom2.wav
64,192,66013,128,2,67709:0:0:0:0:
320,192,66013,1,4,0:0:0:0:
448,192,66013,1,0,0:0:0:0:
192,192,66535,1,0,0:0:0:0:
320,192,66665,1,0,0:0:0:0:
448,192,66796,1,0,0:0:0:0:
320,192,66926,1,0,0:0:0:0:
448,192,67057,1,0,0:0:0:0:
192,192,67187,1,0,0:0:0:0:
320,192,67317,1,0,0:0:0:0:
448,192,67448,1,0,0:0:0:0:
320,192,67578,1,0,0:0:0:0:
448,192,67709,1,0,0:0:0:0:
64,192,67839,1,0,0:0:0:0:
192,192,67904,1,0,0:0:0:0:
320,192,67970,1,0,0:0:0:0:
448,192,68035,1,0,0:0:0:0:
64,192,68100,1,0,0:0:0:0:
320,192,68100,1,0,0:0:0:0:
192,192,69144,1,0,0:0:0:0:
448,192,69144,1,0,0:0:0:0:
64,192,69665,1,8,0:0:0:0:
320,192,69665,1,0,0:0:0:0:
192,192,69752,1,8,0:0:0:0:
448,192,69839,1,2,0:0:0:70:Tom1.wav
320,192,69926,1,2,0:0:0:70:Tom1.wav
192,192,70013,1,2,0:0:0:70:Tom2.wav
320,192,70100,1,2,0:0:0:70:FloorTom.wav
64,192,70187,128,4,71317:0:0:0:0:
448,192,70187,128,2,70274:0:0:0:0:
320,192,70274,128,0,70361:0:0:0:0:
192,192,70361,128,0,70448:0:0:0:0:
448,192,70448,128,0,70535:0:0:0:0:
320,192,70535,128,0,70622:0:0:0:0:
448,192,70622,128,0,70709:0:0:0:0:
192,192,70709,128,8,70796:0:0:0:0:
320,192,70796,128,0,70883:0:0:0:0:
448,192,70883,128,0,70970:0:0:0:0:
192,192,70970,128,2,71057:0:0:0:0:
320,192,71057,128,0,71144:0:0:0:0:
192,192,71144,128,0,71231:0:0:0:0:
448,192,71231,128,0,71317:0:0:0:0:
320,192,71317,128,0,71404:0:0:0:0:
192,192,71404,128,0,71491:0:0:0:0:
64,192,71491,128,2,71752:0:0:0:0:
448,192,71491,128,0,71578:0:0:0:0:
320,192,71578,128,0,71665:0:0:0:0:
192,192,71665,128,0,71752:0:0:0:0:
320,192,71752,128,8,71839:0:0:0:0:
448,192,71752,128,0,72013:0:0:0:0:
192,192,71839,128,0,71926:0:0:0:0:
64,192,71926,128,0,72013:0:0:0:0:
192,192,72013,128,2,72100:0:0:0:0:
320,192,72013,128,0,72274:0:0:0:0:
64,192,72100,128,0,72187:0:0:0:0:
448,192,72187,128,0,72274:0:0:0:0:
64,192,72274,128,4,73144:0:0:0:0:
192,192,72274,128,2,72361:0:0:0:0:
320,192,72361,128,0,72448:0:0:0:0:
192,192,72448,128,0,72535:0:0:0:0:
448,192,72535,128,0,72622:0:0:0:0:
320,192,72622,128,0,72709:0:0:0:0:
192,192,72709,128,0,72796:0:0:0:0:
448,192,72796,128,8,72883:0:0:0:0:
320,192,72883,128,0,72970:0:0:0:0:
448,192,72970,128,0,73057:0:0:0:0:
192,192,73057,128,2,73144:0:0:0:0:
320,192,73144,128,0,73231:0:0:0:0:
64,192,73231,128,0,73317:0:0:0:0:
192,192,73317,128,0,73404:0:0:0:0:
448,192,73317,128,0,73578:0:0:0:0:
64,192,73404,128,0,73491:0:0:0:0:
320,192,73491,128,0,73578:0:0:0:0:
64,192,73578,128,2,73839:0:0:0:0:
192,192,73578,128,0,73665:0:0:0:0:
320,192,73665,128,0,73752:0:0:0:0:
448,192,73752,128,0,73839:0:0:0:0:
192,192,73839,128,8,74100:0:0:0:0:
320,192,73839,128,0,73926:0:0:0:0:
448,192,73926,128,0,74013:0:0:0:0:
64,192,74013,128,0,74100:0:0:0:0:
320,192,74100,128,2,74361:0:0:0:0:
448,192,74100,128,0,74187:0:0:0:0:
64,192,74187,128,0,74274:0:0:0:0:
192,192,74274,128,0,74361:0:0:0:0:
64,192,74361,128,2,74491:0:0:0:0:
448,192,74361,128,4,75535:0:0:0:0:
192,192,74491,128,2,74752:0:0:0:0:
320,192,74752,128,2,74817:0:0:0:0:
64,192,74817,128,0,74883:0:0:0:0:
320,192,74883,128,8,75013:0:0:0:0:
192,192,75013,128,0,75144:0:0:0:0:
64,192,75144,128,2,75274:0:0:0:0:
320,192,75274,128,2,75404:0:0:0:0:
192,192,75404,128,0,75535:0:0:0:0:
64,192,75535,128,2,75665:0:0:0:0:
320,192,75665,128,2,75796:0:0:0:0:
448,192,75665,128,0,75926:0:0:0:0:
64,192,75796,128,0,75926:0:0:0:0:
192,192,75926,128,8,76013:0:0:0:0:
320,192,75926,128,0,76187:0:0:0:0:
64,192,76013,128,0,76100:0:0:0:0:
448,192,76100,128,0,76187:0:0:0:0:
64,192,76187,128,2,76274:0:0:0:0:
192,192,76187,128,0,76448:0:0:0:0:
448,192,76274,128,0,76361:0:0:0:0:
320,192,76361,128,0,76448:0:0:0:0:
64,192,76448,128,2,76535:0:0:0:0:
448,192,76448,128,4,77491:0:0:0:0:
192,192,76535,128,0,76622:0:0:0:0:
64,192,76622,128,0,76709:0:0:0:0:
192,192,76709,128,0,76796:0:0:0:0:
320,192,76796,128,0,76883:0:0:0:0:
192,192,76883,128,0,76970:0:0:0:0:
320,192,76970,128,8,77057:0:0:0:0:
64,192,77057,128,0,77144:0:0:0:0:
320,192,77144,128,0,77231:0:0:0:0:
64,192,77231,128,2,77317:0:0:0:0:
192,192,77317,128,0,77404:0:0:0:0:
64,192,77404,128,0,77491:0:0:0:0:
192,192,77491,128,8,77578:0:0:0:0:
320,192,77491,128,0,77926:0:0:0:0:
448,192,77578,128,0,77665:0:0:0:0:
192,192,77665,128,0,77752:0:0:0:0:
448,192,77752,128,0,77839:0:0:0:0:
64,192,77839,128,0,77926:0:0:0:0:
448,192,77926,128,0,78013:0:0:0:0:
64,192,78013,128,8,78448:0:0:0:0:
192,192,78013,128,0,78100:0:0:0:0:
320,192,78100,128,0,78187:0:0:0:0:
192,192,78187,128,0,78274:0:0:0:0:
448,192,78274,128,2,78361:0:0:0:0:
320,192,78361,128,0,78448:0:0:0:0:
192,192,78448,128,0,78535:0:0:0:0:
64,192,78535,128,2,78665:0:0:0:0:
320,192,78535,128,0,78665:0:0:0:0:
448,192,78535,128,0,78665:0:0:0:0:
64,192,78796,1,8,0:0:0:0:
192,192,78796,1,0,0:0:0:0:
448,192,78796,1,0,0:0:0:0:
64,192,78926,128,2,79187:0:0:0:0:
320,192,78926,128,0,79187:0:0:0:0:
448,192,78926,128,0,79187:0:0:0:0:
64,192,79317,128,8,79448:0:0:0:0:
192,192,79317,128,0,79448:0:0:0:0:
320,192,79317,128,0,79448:0:0:0:0:
64,192,79578,128,2,79709:0:0:0:0:
320,192,79578,128,0,79709:0:0:0:0:
448,192,79578,128,0,79709:0:0:0:0:
64,192,79839,128,8,79970:0:0:0:0:
192,192,79839,128,0,79970:0:0:0:0:
448,192,79839,128,0,79970:0:0:0:0:
64,192,80100,128,0,80231:0:0:0:0:
320,192,80100,128,0,80231:0:0:0:0:
448,192,80100,128,0,80231:0:0:0:0:
192,192,80361,128,8,80491:0:0:0:0:
320,192,80361,128,0,80491:0:0:0:0:
448,192,80361,128,0,80491:0:0:0:0:
320,192,80622,128,2,80796:0:0:0:0:
448,192,80622,128,4,80709:0:0:0:0:
192,192,80709,128,0,80796:0:0:0:0:
448,192,80796,128,0,80883:0:0:0:0:
192,192,80883,128,0,81057:0:0:0:0:
320,192,80883,128,0,80970:0:0:0:0:
64,192,80970,128,0,81057:0:0:0:0:
320,192,81057,128,0,81144:0:0:0:0:
64,192,81144,128,8,81317:0:0:0:0:
192,192,81144,128,0,81231:0:0:0:0:
448,192,81231,128,0,81317:0:0:0:0:
192,192,81317,128,0,81404:0:0:0:0:
64,192,81404,128,2,81491:0:0:0:0:
448,192,81404,128,0,81578:0:0:0:0:
320,192,81491,128,0,81578:0:0:0:0:
64,192,81578,128,0,81665:0:0:0:0:
320,192,81665,128,0,81839:0:0:0:0:
448,192,81665,128,0,81752:0:0:0:0:
192,192,81752,128,0,81839:0:0:0:0:
448,192,81839,128,0,81926:0:0:0:0:
192,192,81926,128,0,82100:0:0:0:0:
320,192,81926,128,0,82013:0:0:0:0:
64,192,82013,128,0,82100:0:0:0:0:
320,192,82100,128,0,82187:0:0:0:0:
64,192,82187,128,8,82361:0:0:0:0:
192,192,82187,128,0,82274:0:0:0:0:
448,192,82274,128,0,82361:0:0:0:0:
192,192,82361,128,0,82448:0:0:0:0:
64,192,82448,128,2,82535:0:0:0:0:
448,192,82448,128,0,82622:0:0:0:0:
320,192,82535,128,0,82622:0:0:0:0:
64,192,82622,128,0,82709:0:0:0:0:
192,192,82709,128,2,82839:0:0:0:0:
320,192,82709,128,0,82839:0:0:0:0:
448,192,82709,128,0,82839:0:0:0:0:
64,192,82970,1,8,0:0:0:0:
320,192,82970,1,0,0:0:0:0:
448,192,82970,1,0,0:0:0:0:
192,192,83100,128,2,83361:0:0:0:0:
320,192,83100,128,4,83361:0:0:0:0:
448,192,83100,128,0,83361:0:0:0:0:
64,192,83491,128,8,83622:0:0:0:0:
192,192,83491,128,0,83622:0:0:0:0:
320,192,83491,128,0,83622:0:0:0:0:
192,192,83752,128,2,83883:0:0:0:0:
320,192,83752,128,0,83883:0:0:0:0:
448,192,83752,128,0,83883:0:0:0:0:
64,192,84013,128,8,84144:0:0:0:0:
192,192,84013,128,0,84144:0:0:0:0:
448,192,84013,128,0,84144:0:0:0:0:
64,192,84274,128,0,84404:0:0:0:0:
320,192,84274,128,0,84404:0:0:0:0:
448,192,84274,128,0,84404:0:0:0:0:
64,192,84535,1,8,0:0:0:0:
192,192,84535,1,0,0:0:0:0:
448,192,84535,1,0,0:0:0:0:
64,192,84665,1,2,0:0:0:70:Tom1.wav
320,192,84665,1,0,0:0:0:0:
192,192,84796,128,2,84861:0:0:0:0:
320,192,84796,128,0,84861:0:0:0:0:
448,192,84796,128,0,84861:0:0:0:0:
192,192,84926,128,2,84991:0:0:0:0:
320,192,84926,128,0,84991:0:0:0:0:
448,192,84926,128,0,84991:0:0:0:0:
320,192,85057,1,8,0:0:0:0:
448,192,85057,1,0,0:0:0:0:
64,192,85187,128,2,85252:0:0:0:0:
192,192,85187,128,0,85252:0:0:0:0:
320,192,85187,128,0,85252:0:0:0:0:
64,192,85317,128,2,85383:0:0:0:0:
192,192,85317,128,0,85383:0:0:0:0:
320,192,85317,128,0,85383:0:0:0:0:
64,192,85448,1,8,0:0:0:0:
192,192,85448,1,0,0:0:0:0:
192,192,85578,128,2,85644:0:0:0:0:
320,192,85578,128,0,85644:0:0:0:0:
448,192,85578,128,0,85644:0:0:0:0:
192,192,85709,128,2,85774:0:0:0:0:
320,192,85709,128,0,85774:0:0:0:0:
448,192,85709,128,0,85774:0:0:0:0:
320,192,85839,1,8,0:0:0:0:
448,192,85839,1,0,0:0:0:0:
64,192,85970,128,2,86035:0:0:0:0:
192,192,85970,128,0,86035:0:0:0:0:
320,192,85970,128,0,86035:0:0:0:0:
64,192,86100,128,2,86165:0:0:0:0:
192,192,86100,128,0,86165:0:0:0:0:
320,192,86100,128,0,86165:0:0:0:0:
64,192,86231,1,8,0:0:0:0:
192,192,86231,1,0,0:0:0:0:
64,192,86361,128,2,86491:0:0:0:0:
192,192,86361,128,0,86491:0:0:0:0:
448,192,86361,128,0,86491:0:0:0:0:
64,192,86622,128,8,86752:0:0:0:0:
320,192,86622,128,0,86752:0:0:0:0:
448,192,86622,128,0,86752:0:0:0:0:
64,192,86883,1,2,0:0:0:0:
192,192,86883,1,0,0:0:0:0:
64,192,87013,128,8,87078:0:0:0:0:
320,192,87013,128,0,87078:0:0:0:0:
448,192,87013,128,0,87078:0:0:0:0:
192,192,87144,128,8,87209:0:0:0:0:
320,192,87144,128,0,87209:0:0:0:0:
448,192,87144,128,0,87209:0:0:0:0:
64,192,87274,128,2,87339:0:0:0:70:Tom1.wav
192,192,87274,128,0,87339:0:0:0:0:
320,192,87274,128,0,87339:0:0:0:0:
64,192,87404,128,2,87470:0:0:0:0:
192,192,87404,128,0,87470:0:0:0:70:Tom1.wav
448,192,87404,128,0,87470:0:0:0:0:
64,192,87535,128,2,87600:0:0:0:70:Tom2.wav
320,192,87535,128,0,87600:0:0:0:0:
448,192,87535,128,0,87600:0:0:0:0:
192,192,87665,128,2,87731:0:0:0:70:FloorTom.wav
320,192,87665,128,0,87731:0:0:0:0:
448,192,87665,128,0,87731:0:0:0:0:
64,192,87796,128,2,87861:0:0:0:70:FloorTom.wav
192,192,87796,128,0,87861:0:0:0:0:
320,192,87796,128,0,87861:0:0:0:0:
64,192,87926,1,8,0:0:0:0:
192,192,87926,128,0,88057:0:0:0:0:
448,192,87926,1,0,0:0:0:0:
320,192,87991,128,0,88122:0:0:0:0:
64,192,88057,128,0,88187:0:0:0:0:
192,192,88122,128,0,88252:0:0:0:0:
320,192,88187,128,0,88317:0:0:0:0:
64,192,88252,128,0,88383:0:0:0:0:
192,192,88317,128,0,88448:0:0:0:0:
320,192,88383,128,0,88513:0:0:0:0:
448,192,88448,128,0,88578:0:0:0:0:
192,192,88513,128,0,88644:0:0:0:0:
320,192,88578,128,0,88709:0:0:0:0:
64,192,88644,128,0,88774:0:0:0:0:
192,192,88709,128,0,88839:0:0:0:0:
320,192,88774,128,0,88904:0:0:0:0:
64,192,88839,128,0,88904:0:0:0:0:
192,192,88904,128,0,88970:0:0:0:0:
64,192,88970,128,4,89231:0:0:0:0:
320,192,88970,128,0,89231:0:0:0:0:
448,192,88970,128,0,89231:0:0:0:0:
64,192,89361,128,0,89622:0:0:0:0:
192,192,89361,128,0,89622:0:0:0:0:
448,192,89361,128,0,89622:0:0:0:0:
64,192,89752,128,8,90144:0:0:0:0:
320,192,89752,128,0,89883:0:0:0:0:
448,192,89752,128,0,90144:0:0:0:0:
192,192,89883,1,12,0:0:0:0:
320,192,90013,1,2,0:0:0:0:
192,192,90144,1,8,0:0:0:0:
64,192,90274,128,2,90535:0:0:0:0:
320,192,90274,128,0,90404:0:0:0:0:
448,192,90274,128,0,90404:0:0:0:0:
192,192,90404,1,8,0:0:0:0:
192,192,90535,128,2,90665:0:0:0:0:
320,192,90535,128,0,90665:0:0:0:0:
448,192,90535,128,0,90796:0:0:0:0:
64,192,90665,1,8,0:0:0:0:
64,192,90796,128,2,90926:0:0:0:0:
192,192,90796,128,0,90926:0:0:0:0:
320,192,90796,128,0,91057:0:0:0:0:
448,192,90926,1,8,0:0:0:0:
64,192,91057,128,2,91317:0:0:0:0:
192,192,91057,128,4,91187:0:0:0:0:
448,192,91057,128,0,91317:0:0:0:0:
320,192,91187,1,8,0:0:0:0:
192,192,91317,1,2,0:0:0:0:
64,192,91448,128,8,91578:0:0:0:0:
320,192,91448,128,0,91709:0:0:0:0:
448,192,91448,128,0,91709:0:0:0:0:
192,192,91578,1,2,0:0:0:0:
64,192,91709,1,8,0:0:0:0:
192,192,91839,128,2,91970:0:0:0:0:
320,192,91839,128,0,91970:0:0:0:0:
448,192,91839,128,0,92100:0:0:0:0:
64,192,91970,1,8,0:0:0:0:
64,192,92100,128,2,92231:0:0:0:0:
192,192,92100,128,4,92361:0:0:0:0:
320,192,92100,128,0,92361:0:0:0:0:
448,192,92231,1,8,0:0:0:0:
64,192,92361,1,2,0:0:0:0:
192,192,92491,1,8,0:0:0:0:
320,192,92491,1,0,0:0:0:0:
448,192,92491,1,0,0:0:0:0:
192,192,92622,128,2,92883:0:0:0:0:
320,192,92622,128,4,92752:0:0:0:0:
448,192,92622,128,0,93013:0:0:0:0:
64,192,92752,1,8,0:0:0:0:
320,192,92883,1,2,0:0:0:0:
192,192,93013,1,8,0:0:0:0:
64,192,93144,128,2,93404:0:0:0:0:
320,192,93144,128,0,93274:0:0:0:0:
448,192,93144,128,0,93404:0:0:0:0:
320,192,93404,1,8,0:0:0:0:
64,192,93535,1,4,0:0:0:0:
192,192,93535,1,2,0:0:0:0:
448,192,93535,1,0,0:0:0:0:
64,192,93665,128,0,94057:0:0:0:0:
192,192,93665,128,0,93796:0:0:0:0:
448,192,93665,128,0,94057:0:0:0:0:
320,192,93796,1,8,0:0:0:0:
192,192,93926,1,2,0:0:0:0:
64,192,94187,128,2,94448:0:0:0:0:
192,192,94187,128,0,94317:0:0:0:0:
448,192,94187,128,0,94448:0:0:0:0:
192,192,94448,1,8,0:0:0:0:
64,192,94578,1,4,0:0:0:0:
320,192,94578,1,2,0:0:0:0:
448,192,94578,1,0,0:0:0:0:
64,192,94709,128,0,94839:0:0:0:0:
320,192,94709,128,0,94839:0:0:0:0:
448,192,94709,128,0,94970:0:0:0:0:
192,192,94839,1,8,0:0:0:0:
64,192,94970,128,2,95100:0:0:0:0:
192,192,94970,128,0,95100:0:0:0:0:
320,192,94970,128,0,95231:0:0:0:0:
64,192,95231,128,2,95491:0:0:0:0:
192,192,95231,128,4,95361:0:0:0:0:
448,192,95231,128,0,95491:0:0:0:0:
192,192,95491,1,8,0:0:0:0:
64,192,95622,1,2,0:0:0:0:
320,192,95622,1,0,0:0:0:0:
448,192,95622,1,0,0:0:0:0:
64,192,95752,128,4,96013:0:0:0:0:
320,192,95752,128,2,95883:0:0:0:0:
448,192,95752,128,0,96013:0:0:0:0:
320,192,96013,1,8,0:0:0:0:
64,192,96144,1,2,0:0:0:0:
192,192,96144,1,0,0:0:0:0:
448,192,96144,1,0,0:0:0:0:
64,192,96274,128,2,96535:0:0:0:0:
192,192,96274,128,4,96404:0:0:0:0:
448,192,96274,128,0,96535:0:0:0:0:
320,192,96404,1,8,0:0:0:0:
192,192,96535,1,8,0:0:0:0:
64,192,96665,1,2,0:0:0:70:Tom1.wav
320,192,96665,1,0,0:0:0:0:
448,192,96665,1,0,0:0:0:0:
64,192,96796,1,2,0:0:0:0:
320,192,96796,128,0,96861:0:0:0:70:Tom1.wav
448,192,96796,1,0,0:0:0:0:
192,192,96861,128,2,96926:0:0:0:70:Tom1.wav
64,192,96926,128,2,96991:0:0:0:70:Tom2.wav
320,192,96991,128,2,97057:0:0:0:70:Tom2.wav
192,192,97057,128,2,97122:0:0:0:0:
448,192,97057,128,4,97122:0:0:0:0:
64,192,97122,128,0,97187:0:0:0:0:
320,192,97187,1,0,0:0:0:0:
192,192,97252,1,0,0:0:0:0:
64,192,97317,128,2,97578:0:0:0:0:
320,192,97317,128,4,97578:0:0:0:0:
448,192,97317,128,0,97578:0:0:0:0:
64,192,97709,128,2,97970:0:0:0:0:
192,192,97709,128,0,97970:0:0:0:0:
448,192,97709,128,0,97970:0:0:0:0:
320,192,97839,1,8,0:0:0:0:
64,192,98100,128,2,98491:0:0:0:0:
192,192,98100,128,0,98491:0:0:0:0:
448,192,98100,128,0,98491:0:0:0:0:
64,192,98622,128,0,98752:0:0:0:0:
192,192,98622,128,0,98752:0:0:0:0:
320,192,98622,128,0,98883:0:0:0:0:
64,192,98883,128,8,99144:0:0:0:0:
192,192,98883,128,0,99013:0:0:0:0:
448,192,98883,128,0,99013:0:0:0:0:
192,192,99144,128,2,99404:0:0:0:0:
320,192,99144,128,0,99274:0:0:0:0:
448,192,99144,128,0,99274:0:0:0:0:
64,192,99404,128,2,99535:0:0:0:0:
320,192,99404,128,0,99535:0:0:0:0:
448,192,99404,128,0,99796:0:0:0:0:
64,192,99665,128,2,99796:0:0:0:0:
192,192,99665,128,0,99796:0:0:0:0:
320,192,99665,128,0,99796:0:0:0:0:
64,192,99926,128,2,100057:0:0:0:0:
192,192,99926,128,4,100057:0:0:0:0:
448,192,99926,128,0,100057:0:0:0:0:
64,192,100122,128,2,100252:0:0:0:0:
320,192,100122,128,4,100252:0:0:0:0:
448,192,100122,128,0,100252:0:0:0:0:
192,192,100317,1,4,0:0:0:0:
320,192,100317,1,2,0:0:0:0:
448,192,100317,1,0,0:0:0:0:
192,192,100448,128,2,100578:0:0:0:0:
320,192,100448,128,4,100578:0:0:0:0:
448,192,100448,128,0,100709:0:0:0:0:
64,192,100709,1,8,0:0:0:0:
192,192,100709,1,0,0:0:0:0:
320,192,100709,1,0,0:0:0:0:
64,192,100839,128,2,101100:0:0:0:0:
192,192,100839,128,4,100970:0:0:0:0:
320,192,100839,128,0,100970:0:0:0:0:
320,192,101100,128,8,101165:0:0:0:0:
448,192,101100,128,0,101231:0:0:0:0:
192,192,101165,128,8,101231:0:0:0:0:
64,192,101231,128,2,101296:0:0:0:0:
320,192,101296,128,2,101361:0:0:0:70:Tom1.wav
192,192,101361,128,2,101426:0:0:0:70:Tom2.wav
64,192,101426,128,2,101491:0:0:0:70:FloorTom.wav
192,192,101491,128,2,101622:0:0:0:0:
320,192,101491,128,4,101752:0:0:0:0:
448,192,101491,128,0,101752:0:0:0:0:
64,192,101622,1,8,0:0:0:0:
192,192,101752,1,2,0:0:0:0:
64,192,101883,128,8,102144:0:0:0:0:
320,192,101883,128,0,102013:0:0:0:0:
448,192,101883,128,0,102144:0:0:0:0:
192,192,102013,1,2,0:0:0:0:
320,192,102144,1,8,0:0:0:0:
64,192,102274,128,2,102404:0:0:0:0:
192,192,102274,128,0,102404:0:0:0:0:
448,192,102274,128,0,102404:0:0:0:0:
320,192,102404,1,8,0:0:0:0:
192,192,102535,128,2,102665:0:0:0:0:
320,192,102535,128,4,102665:0:0:0:0:
448,192,102535,128,0,102796:0:0:0:0:
64,192,102665,1,8,0:0:0:0:
64,192,102796,128,2,103057:0:0:0:0:
192,192,102796,128,0,102926:0:0:0:0:
320,192,102796,128,0,102926:0:0:0:0:
448,192,102926,1,8,0:0:0:0:
192,192,103057,128,2,103317:0:0:0:0:
320,192,103057,128,0,103187:0:0:0:0:
448,192,103057,128,0,103187:0:0:0:0:
64,192,103187,1,8,0:0:0:0:
64,192,103317,128,2,103448:0:0:0:0:
320,192,103317,128,0,103448:0:0:0:0:
448,192,103317,128,0,103448:0:0:0:0:
192,192,103448,1,8,0:0:0:0:
64,192,103578,128,2,103839:0:0:0:0:
192,192,103578,128,4,103709:0:0:0:0:
320,192,103578,128,0,103709:0:0:0:0:
448,192,103709,1,8,0:0:0:0:
192,192,103839,128,2,103970:0:0:0:0:
320,192,103839,128,0,104100:0:0:0:0:
448,192,103839,128,0,103970:0:0:0:0:
64,192,103970,1,8,0:0:0:0:
64,192,104100,128,2,104231:0:0:0:0:
192,192,104100,128,0,104361:0:0:0:0:
448,192,104100,128,0,104231:0:0:0:0:
320,192,104231,1,8,0:0:0:0:
64,192,104361,128,2,104491:0:0:0:0:
320,192,104361,128,0,104491:0:0:0:0:
448,192,104361,128,0,104491:0:0:0:0:
192,192,104491,1,8,0:0:0:0:
64,192,104622,1,2,0:0:0:0:
192,192,104622,1,4,0:0:0:0:
320,192,104622,1,0,0:0:0:0:
448,192,104622,1,0,0:0:0:0:
320,192,104752,128,2,104817:0:0:0:0:
448,192,104752,128,0,104817:0:0:0:0:
192,192,104883,128,2,104948:0:0:0:0:
320,192,104883,128,0,104948:0:0:0:0:
64,192,105013,128,8,105078:0:0:0:0:
192,192,105013,128,0,105078:0:0:0:0:
448,192,105013,128,0,105078:0:0:0:0:
320,192,105144,128,2,105209:0:0:0:0:
448,192,105144,128,0,105209:0:0:0:0:
192,192,105274,128,2,105339:0:0:0:0:
320,192,105274,128,0,105339:0:0:0:0:
64,192,105404,128,2,105470:0:0:0:70:Tom1.wav
192,192,105404,128,0,105470:0:0:0:0:
448,192,105404,128,0,105470:0:0:0:0:
64,192,105535,128,2,105600:0:0:0:70:Tom2.wav
320,192,105535,128,0,105600:0:0:0:0:
64,192,105665,128,2,105796:0:0:0:0:
448,192,105665,128,4,105991:0:0:0:0:
320,192,105731,128,0,105861:0:0:0:0:
192,192,105796,128,0,105926:0:0:0:0:
64,192,105861,128,0,105991:0:0:0:0:
320,192,105926,128,2,105991:0:0:0:0:
192,192,105991,128,2,106057:0:0:0:0:
64,192,106057,128,2,106383:0:0:0:0:
448,192,106057,128,0,106187:0:0:0:0:
192,192,106122,128,2,106252:0:0:0:0:
320,192,106187,128,2,106317:0:0:0:0:
448,192,106252,128,0,106383:0:0:0:0:
192,192,106317,128,0,106383:0:0:0:0:
320,192,106383,128,0,106448:0:0:0:0:
64,192,106448,128,2,106578:0:0:0:0:
448,192,106448,128,0,106578:0:0:0:0:
320,192,106513,128,0,106644:0:0:0:0:
192,192,106578,128,0,106709:0:0:0:0:
64,192,106644,128,0,106709:0:0:0:0:
320,192,106709,128,2,106796:0:0:0:0:
448,192,106709,128,0,106883:0:0:0:0:
192,192,106796,128,2,106970:0:0:0:0:
320,192,106883,128,2,106970:0:0:0:0:
64,192,106970,128,2,107144:0:0:0:0:
448,192,106970,128,0,107057:0:0:0:0:
320,192,107057,128,0,107231:0:0:0:0:
448,192,107144,128,0,107231:0:0:0:0:
64,192,107231,128,2,107317:0:0:0:0:
192,192,107231,128,0,107404:0:0:0:0:
448,192,107317,128,2,107491:0:0:0:0:
64,192,107404,128,2,107491:0:0:0:0:
192,192,107491,128,8,107578:0:0:0:0:
320,192,107491,128,0,107665:0:0:0:0:
64,192,107578,128,8,107752:0:0:0:0:
192,192,107665,128,8,107752:0:0:0:0:
320,192,107752,128,2,107839:0:0:0:0:
448,192,107752,128,0,108187:0:0:0:0:
192,192,107839,128,0,107926:0:0:0:0:
320,192,107926,128,0,108013:0:0:0:0:
64,192,108013,128,2,108100:0:0:0:0:
192,192,108100,128,0,108187:0:0:0:0:
320,192,108187,128,0,108274:0:0:0:0:
64,192,108274,128,2,108709:0:0:0:0:
448,192,108274,128,0,108361:0:0:0:70:Tom2.wav
192,192,108361,128,0,108448:0:0:0:0:
320,192,108448,128,0,108535:0:0:0:0:
192,192,108535,128,2,108622:0:0:0:0:
448,192,108622,128,0,108709:0:0:0:0:
320,192,108709,128,0,108796:0:0:0:0:
64,192,108796,1,2,0:0:0:0:
192,192,108796,1,8,0:0:0:0:
448,192,108796,128,0,109774:0:0:0:0:
192,192,109317,1,0,0:0:0:0:
320,192,109317,128,0,109774:0:0:0:0:
64,192,109839,128,2,109904:0:0:0:0:
192,192,109839,128,4,109904:0:0:0:0:
448,192,109839,128,0,109904:0:0:0:0:
64,192,109970,128,8,110035:0:0:0:0:
192,192,109970,128,0,110035:0:0:0:0:
448,192,109970,128,0,110035:0:0:0:0:
64,192,110231,128,2,110296:0:0:0:0:
320,192,110231,128,0,110296:0:0:0:0:
448,192,110231,128,0,110296:0:0:0:0:
64,192,110361,128,8,110426:0:0:0:0:
320,192,110361,128,0,110426:0:0:0:0:
448,192,110361,128,0,110426:0:0:0:0:
64,192,110622,128,2,110687:0:0:0:0:
192,192,110622,128,4,110687:0:0:0:0:
448,192,110622,128,0,110687:0:0:0:0:
64,192,110752,128,8,110817:0:0:0:0:
192,192,110752,128,0,110817:0:0:0:0:
448,192,110752,128,0,110817:0:0:0:0:
64,192,111013,128,2,111078:0:0:0:0:
320,192,111013,128,0,111078:0:0:0:0:
448,192,111013,128,0,111078:0:0:0:0:
64,192,111144,128,8,111209:0:0:0:0:
320,192,111144,128,0,111209:0:0:0:0:
448,192,111144,128,0,111209:0:0:0:0:
64,192,111404,128,2,111470:0:0:0:0:
192,192,111404,128,4,111470:0:0:0:0:
448,192,111404,128,0,111470:0:0:0:0:
64,192,111535,128,8,111600:0:0:0:0:
192,192,111535,128,0,111600:0:0:0:0:
448,192,111535,128,0,111600:0:0:0:0:
64,192,111665,128,2,111731:0:0:0:0:
320,192,111665,128,4,111731:0:0:0:0:
448,192,111665,128,0,111731:0:0:0:0:
64,192,111796,128,8,111861:0:0:0:0:
320,192,111796,128,0,111861:0:0:0:0:
448,192,111796,128,0,111861:0:0:0:0:
64,192,111926,128,2,111991:0:0:0:0:
192,192,111926,128,4,111991:0:0:0:0:
320,192,111926,128,0,111991:0:0:0:0:
64,192,112057,128,8,112122:0:0:0:0:
192,192,112057,128,0,112122:0:0:0:0:
320,192,112057,128,0,112122:0:0:0:0:
192,192,112317,128,2,112383:0:0:0:0:
320,192,112317,128,0,112383:0:0:0:0:
448,192,112317,128,0,112383:0:0:0:0:
192,192,112448,128,8,112513:0:0:0:0:
320,192,112448,128,0,112513:0:0:0:0:
448,192,112448,128,0,112513:0:0:0:0:
64,192,112709,128,2,112774:0:0:0:0:
192,192,112709,128,4,112774:0:0:0:0:
320,192,112709,128,0,112774:0:0:0:0:
64,192,112839,128,8,112904:0:0:0:0:
192,192,112839,128,0,112904:0:0:0:0:
320,192,112839,128,0,112904:0:0:0:0:
192,192,113100,128,2,113165:0:0:0:0:
320,192,113100,128,0,113165:0:0:0:0:
448,192,113100,128,0,113165:0:0:0:0:
192,192,113231,128,8,113296:0:0:0:0:
320,192,113231,128,0,113296:0:0:0:0:
448,192,113231,128,0,113296:0:0:0:0:
64,192,113491,128,8,113622:0:0:0:0:
192,192,113491,128,4,113622:0:0:0:0:
448,192,113491,128,2,113622:0:0:0:0:
64,192,113752,128,8,113883:0:0:0:0:
192,192,113752,128,4,113883:0:0:0:0:
448,192,113752,128,2,113883:0:0:0:0:
64,192,114013,128,2,114078:0:0:0:0:
320,192,114013,128,4,114078:0:0:0:0:
448,192,114013,128,0,114078:0:0:0:0:
64,192,114144,128,8,114209:0:0:0:0:
320,192,114144,128,0,114209:0:0:0:0:
448,192,114144,128,0,114209:0:0:0:0:
320,192,114274,1,2,0:0:0:70:Tom2.wav
448,192,114274,1,0,0:0:0:0:
64,192,114404,128,2,114470:0:0:0:0:
192,192,114404,128,0,114470:0:0:0:0:
448,192,114404,128,0,114470:0:0:0:0:
64,192,114535,128,8,114600:0:0:0:0:
192,192,114535,128,0,114600:0:0:0:0:
448,192,114535,128,0,114600:0:0:0:0:
64,192,114665,1,2,0:0:0:70:Tom2.wav
192,192,114665,1,0,0:0:0:0:
64,192,114796,128,2,114861:0:0:0:0:
320,192,114796,128,4,114861:0:0:0:0:
448,192,114796,128,0,114861:0:0:0:0:
64,192,114926,128,8,114991:0:0:0:0:
320,192,114926,128,0,114991:0:0:0:0:
448,192,114926,128,0,114991:0:0:0:0:
320,192,115057,1,2,0:0:0:70:Tom2.wav
448,192,115057,1,0,0:0:0:0:
64,192,115187,128,2,115252:0:0:0:0:
192,192,115187,128,0,115252:0:0:0:0:
448,192,115187,128,0,115252:0:0:0:0:
64,192,115317,128,8,115383:0:0:0:0:
192,192,115317,128,0,115383:0:0:0:0:
448,192,115317,128,0,115383:0:0:0:0:
64,192,115448,1,2,0:0:0:70:Tom2.wav
192,192,115448,1,0,0:0:0:0:
64,192,115578,128,2,115644:0:0:0:0:
320,192,115578,128,4,115644:0:0:0:0:
448,192,115578,128,0,115644:0:0:0:0:
64,192,115709,128,8,115774:0:0:0:0:
320,192,115709,128,0,115774:0:0:0:0:
448,192,115709,128,0,115774:0:0:0:0:
64,192,115839,128,2,115904:0:0:0:0:
192,192,115839,128,4,115904:0:0:0:0:
448,192,115839,128,0,115904:0:0:0:0:
64,192,115970,128,8,116035:0:0:0:0:
192,192,115970,128,0,116035:0:0:0:0:
448,192,115970,128,0,116035:0:0:0:0:
192,192,116100,128,2,116165:0:0:0:0:
320,192,116100,128,4,116165:0:0:0:0:
448,192,116100,128,0,116165:0:0:0:0:
320,192,116231,128,8,116296:0:0:0:0:
448,192,116231,128,0,116296:0:0:0:0:
448,192,116361,128,8,116426:0:0:0:0:
64,192,116491,128,2,116557:0:0:0:0:
192,192,116491,128,0,116557:0:0:0:0:
320,192,116491,128,0,116557:0:0:0:0:
64,192,116622,128,8,116687:0:0:0:0:
192,192,116622,128,0,116687:0:0:0:0:
64,192,116752,128,8,116817:0:0:0:0:
192,192,116883,128,2,116948:0:0:0:0:
320,192,116883,128,0,116948:0:0:0:0:
448,192,116883,128,0,116948:0:0:0:0:
320,192,117013,128,8,117078:0:0:0:0:
448,192,117013,128,0,117078:0:0:0:0:
448,192,117144,128,8,117209:0:0:0:0:
64,192,117274,128,2,117339:0:0:0:0:
192,192,117274,128,0,117339:0:0:0:70:FloorTom.wav
320,192,117274,128,0,117339:0:0:0:0:
64,192,117404,128,2,117470:0:0:0:0:
192,192,117404,128,0,117470:0:0:0:70:FloorTom.wav
448,192,117404,128,0,117470:0:0:0:0:
64,192,117535,128,2,117600:0:0:0:0:
320,192,117535,128,0,117600:0:0:0:70:FloorTom.wav
448,192,117535,128,0,117600:0:0:0:0:
64,192,117665,1,2,0:0:0:0:
192,192,117665,128,0,117731:0:0:0:70:FloorTom.wav
320,192,117665,128,0,117731:0:0:0:0:
448,192,117665,128,0,117731:0:0:0:0:
64,192,117796,128,2,117861:0:0:0:0:
192,192,117796,1,0,0:0:0:70:FloorTom.wav
320,192,117796,128,0,117861:0:0:0:0:
448,192,117796,128,0,117861:0:0:0:0:
64,192,117926,128,2,117991:0:0:0:0:
192,192,117926,128,0,117991:0:0:0:70:FloorTom.wav
320,192,117926,1,0,0:0:0:0:
448,192,117926,128,0,117991:0:0:0:0:
64,192,118057,128,2,118122:0:0:0:0:
192,192,118057,128,4,118122:0:0:0:0:
320,192,118057,128,0,118122:0:0:0:70:FloorTom.wav
448,192,118057,128,0,118122:0:0:0:0:
