osu file format v14

[General]
AudioFilename: audio.mp3
AudioLeadIn: 0
PreviewTime: 45144
Countdown: 0
SampleSet: Soft
StackLeniency: 0.7
Mode: 3
LetterboxInBreaks: 0
SpecialStyle: 0
WidescreenStoryboard: 1

[Editor]
DistanceSpacing: 1
BeatDivisor: 4
GridSize: 4
TimelineZoom: 2.3

[Metadata]
Title:Everlasting Message
TitleUnicode:Everlasting Message
Artist:penoreri
ArtistUnicode:ぺのれり
Creator:ATing
Version:ADVANCED
Source:SOUND VOLTEX III GRAVITY WARS
Tags:SDVX 3 The 4th KACオリジナル楽曲コンテスト Original Song Contest KONAMI Arcade Championship RASIS Voltenizer Maxima 蒼弐 forever Queen Video Game Instrumental Touru0711 beatmania IIDX 27 HEROIC VERSE MÚSECA 1+1/2 REFLEC BEAT 悠久のリフレシア Grace Electronic EPIC ORCHESTRA
BeatmapID:3020140
BeatmapSetID:1469677

[Difficulty]
HPDrainRate:7.5
CircleSize:4
OverallDifficulty:7.5
ApproachRate:5
SliderMultiplier:1.4
SliderTickRate:1

[Events]
//Background and Video events
0,0,"edut.jpg",0,0
//Break Periods
//Storyboard Layer 0 (Background)
//Storyboard Layer 1 (Fail)
//Storyboard Layer 2 (Pass)
//Storyboard Layer 3 (Foreground)
//Storyboard Layer 4 (Overlay)
//Storyboard Sound Samples
Sample,87404,0,"Tom1.wav",70
Sample,96796,0,"Tom1.wav",70
Sample,108013,0,"Tom1.wav",70
Sample,108274,0,"Tom2.wav",70
Sample,108535,0,"FloorTom.wav",70

[TimingPoints]
1318,260.869565217391,4,2,1,55,1,0
45144,-100,4,2,1,55,0,1
61839,-100,4,2,1,55,0,0
89883,-100,4,2,1,55,0,1
109839,-100,4,2,1,55,0,0

[HitObjects]
64,192,2100,5,4,0:0:0:0:
320,192,2100,1,0,0:0:0:0:
448,192,2100,1,0,0:0:0:0:
192,192,2361,1,0,0:0:0:0:
192,192,2622,1,0,0:0:0:0:
320,192,2752,1,0,0:0:0:0:
64,192,2883,1,0,0:0:0:0:
192,192,3144,1,0,0:0:0:0:
320,192,3274,1,0,0:0:0:0:
192,192,3404,1,0,0:0:0:0:
448,192,3535,1,0,0:0:0:0:
64,192,3665,1,0,0:0:0:0:
320,192,3796,1,0,0:0:0:0:
192,192,3926,1,0,0:0:0:0:
64,192,4057,1,0,0:0:0:0:
320,192,4187,1,0,0:0:0:0:
448,192,4317,1,0,0:0:0:0:
64,192,4448,1,0,0:0:0:0:
448,192,4578,1,0,0:0:0:0:
64,192,4709,1,0,0:0:0:0:
320,192,4839,1,0,0:0:0:0:
64,192,4970,1,0,0:0:0:0:
192,192,5100,1,0,0:0:0:0:
448,192,5231,1,0,0:0:0:0:
320,192,5361,1,0,0:0:0:0:
64,192,5491,1,4,0:0:0:0:
192,192,5491,1,2,0:0:0:0:
64,192,5622,1,4,0:0:0:0:
192,192,5622,1,2,0:0:0:0:
448,192,5752,1,0,0:0:0:0:
320,192,5817,1,0,0:0:0:0:
192,192,5883,1,0,0:0:0:0:
64,192,5948,1,0,0:0:0:0:
448,192,6013,1,0,0:0:0:0:
320,192,6078,1,0,0:0:0:0:
192,192,6144,1,0,0:0:0:0:
64,192,6209,1,0,0:0:0:0:
320,192,6274,1,4,0:0:0:0:
448,192,6274,1,2,0:0:0:0:
192,192,6404,1,0,0:0:0:0:
448,192,6535,1,0,0:0:0:0:
192,192,6665,1,0,0:0:0:0:
448,192,6796,1,0,0:0:0:0:
320,192,6926,1,0,0:0:0:0:
64,192,7057,1,0,0:0:0:0:
192,192,7317,1,0,0:0:0:0:
64,192,7578,1,0,0:0:0:0:
448,192,7578,1,0,0:0:0:0:
320,192,7709,1,0,0:0:0:0:
192,192,7839,1,0,0:0:0:0:
320,192,7970,1,0,0:0:0:0:
448,192,7970,1,0,0:0:0:0:
64,192,8100,1,0,0:0:0:0:
192,192,8231,1,0,0:0:0:0:
320,192,8361,1,0,0:0:0:0:
448,192,8361,1,0,0:0:0:0:
192,192,8491,1,0,0:0:0:0:
448,192,8622,1,0,0:0:0:0:
64,192,8752,1,0,0:0:0:0:
320,192,8752,1,0,0:0:0:0:
192,192,8883,1,0,0:0:0:0:
320,192,9013,1,0,0:0:0:0:
64,192,9144,1,0,0:0:0:0:
448,192,9144,1,0,0:0:0:0:
192,192,9274,1,0,0:0:0:0:
320,192,9404,1,0,0:0:0:0:
448,192,9535,1,0,0:0:0:0:
64,192,9665,1,2,0:0:0:0:
192,192,9665,1,4,0:0:0:0:
64,192,9926,1,2,0:0:0:0:
192,192,10187,1,2,0:0:0:0:
320,192,10187,1,0,0:0:0:0:
192,192,10448,1,2,0:0:0:0:
320,192,10709,1,2,0:0:0:0:
448,192,10709,1,0,0:0:0:0:
320,192,10970,1,2,0:0:0:0:
64,192,11231,1,2,0:0:0:0:
448,192,11231,1,0,0:0:0:0:
448,192,11491,1,2,0:0:0:0:
64,192,11622,1,8,0:0:0:0:
192,192,11622,1,0,0:0:0:0:
320,192,11752,1,2,0:0:0:0:
448,192,11752,1,0,0:0:0:0:
192,192,11883,1,0,0:0:0:0:
64,192,12013,1,2,0:0:0:0:
448,192,12013,1,0,0:0:0:0:
320,192,12144,1,0,0:0:0:0:
64,192,12274,1,2,0:0:0:0:
192,192,12274,1,0,0:0:0:0:
448,192,12404,1,0,0:0:0:0:
192,192,12535,1,2,0:0:0:0:
320,192,12535,1,0,0:0:0:0:
64,192,12665,1,0,0:0:0:0:
320,192,12796,1,2,0:0:0:0:
448,192,12796,1,0,0:0:0:0:
64,192,12926,1,2,0:0:0:70:Tom1.wav
192,192,12926,1,0,0:0:0:0:
320,192,13057,1,2,0:0:0:0:
448,192,13057,1,0,0:0:0:0:
64,192,13187,1,2,0:0:0:70:Tom2.wav
192,192,13187,1,0,0:0:0:0:
320,192,13317,1,2,0:0:0:0:
448,192,13317,1,0,0:0:0:0:
192,192,13448,1,0,0:0:0:0:
64,192,13578,1,2,0:0:0:0:
448,192,13578,1,0,0:0:0:0:
192,192,13709,1,8,0:0:0:0:
320,192,13709,1,0,0:0:0:0:
64,192,13839,1,4,0:0:0:0:
448,192,13839,1,2,0:0:0:0:
448,192,14100,1,2,0:0:0:0:
192,192,14361,1,2,0:0:0:0:
320,192,14361,1,0,0:0:0:0:
320,192,14622,1,2,0:0:0:0:
64,192,14883,1,2,0:0:0:0:
192,192,14883,1,0,0:0:0:0:
192,192,15144,1,2,0:0:0:0:
64,192,15404,1,2,0:0:0:0:
448,192,15404,1,0,0:0:0:0:
64,192,15665,1,2,0:0:0:0:
320,192,15796,1,8,0:0:0:0:
192,192,15861,1,8,0:0:0:0:
64,192,15926,1,2,0:0:0:0:
448,192,15926,1,4,0:0:0:0:
320,192,16187,1,8,0:0:0:0:
448,192,16187,1,0,0:0:0:0:
64,192,16317,1,2,0:0:0:0:
192,192,16317,1,0,0:0:0:0:
64,192,16578,1,8,0:0:0:0:
192,192,16578,1,0,0:0:0:0:
320,192,16709,1,2,0:0:0:0:
448,192,16709,1,4,0:0:0:0:
320,192,16970,1,8,0:0:0:0:
448,192,16970,1,0,0:0:0:0:
64,192,17100,1,2,0:0:0:0:
192,192,17100,1,0,0:0:0:0:
64,192,17361,1,8,0:0:0:0:
192,192,17361,1,0,0:0:0:0:
320,192,17491,1,2,0:0:0:0:
448,192,17491,1,4,0:0:0:0:
192,192,17622,1,8,0:0:0:0:
320,192,17687,1,8,0:0:0:0:
448,192,17752,1,2,0:0:0:0:
64,192,17817,1,2,0:0:0:70:Tom1.wav
192,192,17883,1,2,0:0:0:70:Tom2.wav
320,192,17948,1,2,0:0:0:70:FloorTom.wav
64,192,18013,1,4,0:0:0:0:
448,192,18013,1,2,0:0:0:0:
192,192,18274,1,2,0:0:0:0:
320,192,18274,1,0,0:0:0:0:
64,192,18535,1,2,0:0:0:0:
448,192,18535,1,0,0:0:0:0:
320,192,18665,1,0,0:0:0:0:
192,192,18796,1,2,0:0:0:0:
320,192,19057,1,2,0:0:0:0:
448,192,19057,1,0,0:0:0:0:
192,192,19187,1,0,0:0:0:0:
320,192,19317,1,2,0:0:0:0:
448,192,19448,1,0,0:0:0:0:
64,192,19578,1,2,0:0:0:0:
320,192,19709,1,0,0:0:0:0:
192,192,19839,1,2,0:0:0:0:
64,192,19970,1,0,0:0:0:0:
320,192,20100,1,2,0:0:0:0:
448,192,20100,1,4,0:0:0:0:
192,192,20231,1,0,0:0:0:0:
64,192,20361,1,2,0:0:0:0:
320,192,20491,1,0,0:0:0:0:
192,192,20622,1,2,0:0:0:0:
448,192,20752,1,0,0:0:0:0:
320,192,20883,1,2,0:0:0:0:
192,192,21013,1,0,0:0:0:0:
64,192,21144,1,2,0:0:0:0:
448,192,21144,1,4,0:0:0:0:
320,192,21274,1,0,0:0:0:0:
192,192,21404,1,2,0:0:0:0:
320,192,21535,1,0,0:0:0:0:
64,192,21665,1,2,0:0:0:0:
192,192,21796,1,0,0:0:0:0:
320,192,21926,1,8,0:0:0:0:
448,192,22057,1,8,0:0:0:0:
64,192,22187,1,4,0:0:0:0:
192,192,22187,1,2,0:0:0:0:
192,192,22448,1,8,0:0:0:0:
448,192,22448,1,0,0:0:0:0:
64,192,22578,1,2,0:0:0:0:
320,192,22578,1,0,0:0:0:0:
64,192,22839,1,8,0:0:0:0:
192,192,22839,1,0,0:0:0:0:
320,192,22970,1,2,0:0:0:0:
448,192,22970,1,4,0:0:0:0:
64,192,23231,1,8,0:0:0:0:
320,192,23231,1,0,0:0:0:0:
192,192,23361,1,2,0:0:0:0:
448,192,23361,1,0,0:0:0:0:
320,192,23622,1,8,0:0:0:0:
448,192,23622,1,0,0:0:0:0:
64,192,23752,1,2,0:0:0:0:
192,192,23752,1,4,0:0:0:0:
448,192,23839,1,8,0:0:0:0:
320,192,23926,1,8,0:0:0:0:
64,192,24013,1,2,0:0:0:70:Tom1.wav
192,192,24100,1,2,0:0:0:70:Tom1.wav
320,192,24187,1,2,0:0:0:70:Tom2.wav
64,192,24274,1,4,0:0:0:0:
448,192,24274,1,2,0:0:0:0:
192,192,24361,1,0,0:0:0:0:
320,192,24448,1,0,0:0:0:0:
448,192,24535,1,0,0:0:0:0:
192,192,24622,1,0,0:0:0:0:
64,192,24709,1,0,0:0:0:0:
448,192,24796,1,8,0:0:0:0:
320,192,24883,1,0,0:0:0:0:
192,192,24970,1,0,0:0:0:0:
64,192,25057,1,2,0:0:0:0:
320,192,25144,1,0,0:0:0:0:
448,192,25231,1,0,0:0:0:0:
64,192,25317,1,12,0:0:0:0:
320,192,25404,1,0,0:0:0:0:
192,192,25491,1,0,0:0:0:0:
64,192,25578,1,0,0:0:0:0:
320,192,25665,1,0,0:0:0:0:
448,192,25752,1,0,0:0:0:0:
192,192,25839,1,8,0:0:0:0:
64,192,25926,1,0,0:0:0:0:
448,192,26013,1,0,0:0:0:0:
320,192,26100,1,2,0:0:0:0:
192,192,26187,1,0,0:0:0:0:
64,192,26274,1,0,0:0:0:0:
320,192,26361,1,0,0:0:0:0:
448,192,26361,1,0,0:0:0:0:
192,192,26883,1,0,0:0:0:0:
320,192,27144,1,0,0:0:0:0:
64,192,27404,1,0,0:0:0:0:
448,192,27404,1,0,0:0:0:0:
320,192,27926,1,0,0:0:0:0:
64,192,28448,1,0,0:0:0:0:
320,192,28448,1,0,0:0:0:0:
192,192,28970,1,0,0:0:0:0:
448,192,29231,1,0,0:0:0:0:
64,192,29491,1,0,0:0:0:0:
448,192,29491,1,0,0:0:0:0:
192,192,30013,1,0,0:0:0:0:
192,192,30535,1,0,0:0:0:0:
448,192,30535,1,0,0:0:0:0:
64,192,31057,1,0,0:0:0:0:
448,192,31317,1,0,0:0:0:0:
64,192,31578,1,0,0:0:0:0:
448,192,31578,1,0,0:0:0:0:
192,192,32100,1,0,0:0:0:0:
192,192,32491,1,0,0:0:0:0:
64,192,32622,1,0,0:0:0:0:
320,192,32622,1,0,0:0:0:0:
448,192,33144,1,0,0:0:0:0:
64,192,33404,1,0,0:0:0:0:
320,192,33665,1,0,0:0:0:0:
448,192,33665,1,0,0:0:0:0:
64,192,34057,1,0,0:0:0:0:
192,192,34057,1,0,0:0:0:0:
320,192,34187,1,8,0:0:0:0:
448,192,34187,1,0,0:0:0:0:
192,192,34274,1,8,0:0:0:0:
64,192,34361,1,2,0:0:0:70:Tom1.wav
448,192,34448,1,2,0:0:0:70:Tom1.wav
320,192,34535,1,2,0:0:0:70:Tom2.wav
192,192,34622,1,2,0:0:0:70:Tom2.wav
64,192,34709,1,2,0:0:0:0:
448,192,34709,1,4,0:0:0:0:
320,192,34796,1,8,0:0:0:0:
192,192,34883,1,8,0:0:0:0:
448,192,34970,1,8,0:0:0:0:
320,192,35057,1,8,0:0:0:0:
192,192,35144,1,8,0:0:0:0:
448,192,35231,1,10,0:0:0:0:
64,192,35317,1,8,0:0:0:0:
192,192,35404,1,8,0:0:0:0:
320,192,35491,1,10,0:0:0:0:
64,192,35578,1,8,0:0:0:0:
192,192,35665,1,8,0:0:0:0:
448,192,35752,1,10,0:0:0:0:
320,192,35839,1,8,0:0:0:0:
192,192,35926,1,8,0:0:0:0:
448,192,36013,1,8,0:0:0:0:
320,192,36100,1,8,0:0:0:0:
192,192,36187,1,8,0:0:0:0:
64,192,36274,1,10,0:0:0:0:
320,192,36361,1,8,0:0:0:0:
448,192,36448,1,8,0:0:0:0:
192,192,36535,1,8,0:0:0:0:
320,192,36622,1,8,0:0:0:0:
448,192,36709,1,8,0:0:0:0:
64,192,36796,1,14,0:0:0:0:
192,192,36883,1,8,0:0:0:0:
320,192,36970,1,8,0:0:0:0:
64,192,37057,1,8,0:0:0:0:
192,192,37144,1,8,0:0:0:0:
320,192,37231,1,8,0:0:0:0:
64,192,37317,1,10,0:0:0:0:
448,192,37404,1,8,0:0:0:0:
320,192,37491,1,8,0:0:0:0:
192,192,37578,1,10,0:0:0:0:
448,192,37665,1,8,0:0:0:0:
320,192,37752,1,8,0:0:0:0:
64,192,37839,1,10,0:0:0:0:
192,192,37926,1,8,0:0:0:0:
320,192,38013,1,8,0:0:0:0:
64,192,38100,1,8,0:0:0:0:
192,192,38187,1,8,0:0:0:0:
320,192,38274,1,8,0:0:0:0:
448,192,38361,1,14,0:0:0:0:
192,192,38448,1,8,0:0:0:0:
64,192,38535,1,8,0:0:0:0:
320,192,38622,1,8,0:0:0:0:
192,192,38709,1,8,0:0:0:0:
64,192,38796,1,8,0:0:0:0:
320,192,38883,1,2,0:0:0:0:
448,192,38883,1,0,0:0:0:0:
64,192,39144,1,8,0:0:0:0:
448,192,39144,1,0,0:0:0:0:
192,192,39274,1,2,0:0:0:0:
320,192,39274,1,0,0:0:0:0:
192,192,39535,1,8,0:0:0:0:
448,192,39535,1,0,0:0:0:0:
64,192,39665,1,2,0:0:0:0:
320,192,39665,1,0,0:0:0:0:
192,192,39926,1,2,0:0:0:0:
448,192,39926,1,4,0:0:0:0:
192,192,40187,1,0,0:0:0:70:Tom1.wav
320,192,40187,1,0,0:0:0:0:
64,192,40448,1,2,0:0:0:70:Tom1.wav
320,192,40448,1,0,0:0:0:0:
64,192,40709,1,2,0:0:0:0:
448,192,40709,1,4,0:0:0:0:
192,192,40970,1,4,0:0:0:0:
448,192,40970,1,2,0:0:0:0:
192,192,41100,1,8,0:0:0:0:
448,192,41100,1,0,0:0:0:0:
64,192,41361,1,2,0:0:0:0:
320,192,41361,1,0,0:0:0:0:
64,192,41491,1,8,0:0:0:0:
320,192,41491,1,0,0:0:0:0:
192,192,41752,1,2,0:0:0:0:
448,192,41752,1,4,0:0:0:0:
192,192,41883,1,8,0:0:0:0:
448,192,41883,1,0,0:0:0:0:
64,192,42144,1,2,0:0:0:0:
320,192,42144,1,0,0:0:0:0:
64,192,42274,1,8,0:0:0:0:
320,192,42274,1,0,0:0:0:0:
192,192,42535,1,4,0:0:0:0:
448,192,42535,1,2,0:0:0:0:
64,192,42796,1,2,0:0:0:0:
320,192,42796,1,0,0:0:0:0:
64,192,43057,1,2,0:0:0:0:
448,192,43057,1,0,0:0:0:0:
64,192,43187,1,2,0:0:0:0:
448,192,43187,1,0,0:0:0:0:
64,192,43448,1,2,0:0:0:0:
448,192,43448,1,0,0:0:0:0:
64,192,43578,1,2,0:0:0:0:
448,192,43578,1,0,0:0:0:0:
64,192,43839,1,2,0:0:0:0:
448,192,43839,1,4,0:0:0:0:
64,192,43970,1,2,0:0:0:0:
448,192,43970,1,0,0:0:0:0:
64,192,44231,1,2,0:0:0:0:
192,192,44231,1,0,0:0:0:0:
320,192,44361,1,2,0:0:0:0:
448,192,44361,1,0,0:0:0:0:
64,192,44491,1,2,0:0:0:0:
192,192,44491,1,0,0:0:0:0:
320,192,44622,1,2,0:0:0:0:
448,192,44622,1,0,0:0:0:0:
64,192,44752,1,2,0:0:0:0:
192,192,44752,1,0,0:0:0:0:
320,192,44883,1,2,0:0:0:0:
448,192,44883,1,0,0:0:0:0:
64,192,45013,1,2,0:0:0:0:
192,192,45013,1,0,0:0:0:0:
320,192,45144,1,2,0:0:0:0:
448,192,45144,1,4,0:0:0:0:
64,192,45274,1,8,0:0:0:0:
448,192,45404,1,2,0:0:0:0:
64,192,45535,1,8,0:0:0:0:
192,192,45535,1,0,0:0:0:0:
448,192,45665,1,2,0:0:0:0:
320,192,45796,1,8,0:0:0:0:
64,192,45926,1,2,0:0:0:0:
192,192,45926,1,0,0:0:0:0:
448,192,46057,1,8,0:0:0:0:
320,192,46187,1,2,0:0:0:0:
192,192,46317,1,8,0:0:0:0:
320,192,46448,1,2,0:0:0:0:
448,192,46448,1,0,0:0:0:0:
64,192,46578,1,8,0:0:0:0:
192,192,46709,1,2,0:0:0:0:
320,192,46709,1,0,0:0:0:0:
448,192,46839,1,8,0:0:0:0:
64,192,46970,1,2,0:0:0:0:
192,192,46970,1,0,0:0:0:0:
320,192,47100,1,8,0:0:0:0:
64,192,47231,1,2,0:0:0:0:
448,192,47231,1,4,0:0:0:0:
192,192,47361,1,8,0:0:0:0:
320,192,47491,1,2,0:0:0:0:
64,192,47622,1,8,0:0:0:0:
448,192,47622,1,0,0:0:0:0:
192,192,47752,1,2,0:0:0:0:
448,192,47883,1,8,0:0:0:0:
64,192,48013,1,2,0:0:0:0:
320,192,48013,1,0,0:0:0:0:
192,192,48144,1,8,0:0:0:0:
64,192,48274,1,2,0:0:0:0:
448,192,48274,1,4,0:0:0:0:
320,192,48404,1,8,0:0:0:0:
192,192,48535,1,2,0:0:0:0:
320,192,48665,1,8,0:0:0:0:
448,192,48665,1,0,0:0:0:0:
448,192,48796,1,6,0:0:0:0:
64,192,48926,1,8,0:0:0:0:
448,192,49057,1,2,0:0:0:0:
320,192,49187,1,8,0:0:0:0:
64,192,49317,1,2,0:0:0:0:
192,192,49317,1,4,0:0:0:0:
448,192,49448,1,8,0:0:0:0:
64,192,49578,1,2,0:0:0:0:
320,192,49709,1,8,0:0:0:0:
448,192,49709,1,0,0:0:0:0:
320,192,49839,1,2,0:0:0:0:
64,192,49970,1,8,0:0:0:0:
192,192,50100,1,2,0:0:0:0:
320,192,50231,1,8,0:0:0:0:
64,192,50361,1,2,0:0:0:0:
192,192,50361,1,4,0:0:0:0:
448,192,50491,1,8,0:0:0:0:
64,192,50622,1,2,0:0:0:0:
320,192,50752,1,8,0:0:0:0:
448,192,50752,1,0,0:0:0:0:
320,192,50883,1,2,0:0:0:0:
64,192,51013,1,8,0:0:0:0:
192,192,51144,1,2,0:0:0:0:
448,192,51144,1,0,0:0:0:0:
320,192,51274,1,8,0:0:0:0:
64,192,51404,1,2,0:0:0:0:
448,192,51404,1,4,0:0:0:0:
192,192,51535,1,8,0:0:0:0:
320,192,51665,1,2,0:0:0:0:
64,192,51796,1,8,0:0:0:0:
192,192,51796,1,0,0:0:0:0:
64,192,51926,1,6,0:0:0:0:
448,192,52057,1,8,0:0:0:0:
192,192,52187,1,2,0:0:0:0:
320,192,52317,1,8,0:0:0:0:
448,192,52317,1,0,0:0:0:0:
320,192,52448,1,6,0:0:0:0:
64,192,52578,1,8,0:0:0:0:
448,192,52709,1,2,0:0:0:0:
64,192,52839,1,2,0:0:0:70:Tom1.wav
192,192,52839,1,0,0:0:0:0:
64,192,52970,1,2,0:0:0:70:Tom2.wav
448,192,53035,1,2,0:0:0:70:Tom2.wav
320,192,53100,1,2,0:0:0:70:FloorTom.wav
192,192,53165,1,2,0:0:0:70:FloorTom.wav
64,192,53231,1,6,0:0:0:0:
448,192,53296,1,0,0:0:0:0:
320,192,53361,1,0,0:0:0:0:
192,192,53426,1,0,0:0:0:0:
64,192,53491,1,2,0:0:0:0:
448,192,53491,1,4,0:0:0:0:
320,192,53622,1,8,0:0:0:0:
192,192,53752,1,2,0:0:0:0:
320,192,53883,1,8,0:0:0:0:
448,192,53883,1,0,0:0:0:0:
64,192,54013,1,2,0:0:0:0:
192,192,54144,1,8,0:0:0:0:
320,192,54274,1,2,0:0:0:0:
448,192,54274,1,0,0:0:0:0:
64,192,54404,1,8,0:0:0:0:
320,192,54535,1,2,0:0:0:0:
192,192,54665,1,8,0:0:0:0:
64,192,54796,1,2,0:0:0:0:
448,192,54796,1,0,0:0:0:0:
320,192,54926,1,8,0:0:0:0:
64,192,55057,1,2,0:0:0:0:
192,192,55057,1,0,0:0:0:0:
448,192,55187,1,8,0:0:0:0:
192,192,55317,1,2,0:0:0:0:
320,192,55317,1,0,0:0:0:0:
64,192,55448,1,8,0:0:0:0:
320,192,55578,1,2,0:0:0:0:
448,192,55578,1,4,0:0:0:0:
192,192,55709,1,8,0:0:0:0:
64,192,55839,1,2,0:0:0:0:
448,192,55839,1,0,0:0:0:0:
320,192,55970,1,8,0:0:0:0:
64,192,56100,1,2,0:0:0:0:
192,192,56100,1,4,0:0:0:0:
320,192,56296,1,0,0:0:0:0:
448,192,56296,1,0,0:0:0:0:
64,192,56491,1,8,0:0:0:0:
192,192,56491,1,0,0:0:0:0:
320,192,56622,1,2,0:0:0:0:
448,192,56622,1,4,0:0:0:0:
64,192,56752,1,8,0:0:0:0:
192,192,56883,1,2,0:0:0:0:
448,192,56883,1,0,0:0:0:0:
64,192,57013,1,8,0:0:0:0:
320,192,57013,1,0,0:0:0:0:
192,192,57144,1,2,0:0:0:0:
448,192,57274,1,8,0:0:0:0:
192,192,57404,1,2,0:0:0:0:
320,192,57404,1,0,0:0:0:0:
64,192,57535,1,8,0:0:0:0:
320,192,57665,1,2,0:0:0:0:
448,192,57665,1,4,0:0:0:0:
192,192,57796,1,8,0:0:0:0:
448,192,57926,1,2,0:0:0:0:
64,192,58057,1,8,0:0:0:0:
192,192,58057,1,0,0:0:0:0:
320,192,58187,1,2,0:0:0:0:
64,192,58317,1,8,0:0:0:0:
320,192,58448,1,2,0:0:0:0:
448,192,58448,1,0,0:0:0:0:
192,192,58578,1,8,0:0:0:0:
64,192,58709,1,2,0:0:0:0:
448,192,58709,1,4,0:0:0:0:
320,192,58839,1,8,0:0:0:0:
64,192,58970,1,2,0:0:0:0:
192,192,58970,1,0,0:0:0:0:
448,192,59100,1,8,0:0:0:0:
192,192,59231,1,2,0:0:0:0:
320,192,59231,1,0,0:0:0:0:
64,192,59361,1,8,0:0:0:0:
320,192,59491,1,2,0:0:0:0:
448,192,59491,1,0,0:0:0:0:
192,192,59622,1,8,0:0:0:0:
64,192,59752,128,2,60013:0:0:0:0:
448,192,59752,1,4,0:0:0:0:
448,192,60013,1,8,0:0:0:0:
320,192,60078,1,8,0:0:0:0:
192,192,60144,1,8,0:0:0:0:
64,192,60209,1,8,0:0:0:0:
448,192,60274,128,6,60535:0:0:0:0:
64,192,60535,1,8,0:0:0:0:
192,192,60600,1,8,0:0:0:0:
320,192,60665,1,8,0:0:0:0:
448,192,60731,1,8,0:0:0:0:
64,192,60796,128,6,61057:0:0:0:0:
448,192,61057,1,8,0:0:0:0:
320,192,61122,1,8,0:0:0:0:
192,192,61187,1,2,0:0:0:70:Tom1.wav
64,192,61252,1,0,0:0:0:0:
448,192,61317,128,2,61578:0:0:0:70:Tom1.wav
64,192,61578,1,8,0:0:0:0:
192,192,61644,1,2,0:0:0:70:Tom1.wav
320,192,61709,1,2,0:0:0:70:Tom2.wav
448,192,61774,1,2,0:0:0:70:FloorTom.wav
64,192,61839,128,2,63665:0:0:0:0:
192,192,61839,1,4,0:0:0:0:
320,192,62100,1,0,0:0:0:0:
448,192,62231,1,0,0:0:0:0:
192,192,62361,1,0,0:0:0:0:
320,192,62491,1,0,0:0:0:0:
448,192,62622,1,0,0:0:0:0:
320,192,62752,1,0,0:0:0:0:
192,192,62883,1,0,0:0:0:0:
448,192,63013,1,0,0:0:0:0:
320,192,63144,1,0,0:0:0:0:
192,192,63274,1,0,0:0:0:0:
448,192,63404,1,0,0:0:0:0:
320,192,63535,1,0,0:0:0:0:
192,192,63665,1,0,0:0:0:0:
448,192,63796,1,0,0:0:0:0:
64,192,63926,1,2,0:0:0:0:
192,192,63926,1,0,0:0:0:0:
320,192,64057,1,8,0:0:0:0:
448,192,64057,1,0,0:0:0:0:
320,192,64317,1,2,0:0:0:0:
448,192,64317,1,0,0:0:0:0:
64,192,64448,1,8,0:0:0:0:
192,192,64448,1,0,0:0:0:0:
64,192,64709,1,2,0:0:0:0:
192,192,64709,1,0,0:0:0:0:
320,192,64839,1,8,0:0:0:0:
448,192,64839,1,0,0:0:0:0:
320,192,65100,1,2,0:0:0:0:
448,192,65100,1,0,0:0:0:0:
64,192,65231,1,8,0:0:0:0:
192,192,65231,1,0,0:0:0:0:
320,192,65491,1,2,0:0:0:0:
448,192,65491,1,0,0:0:0:0:
192,192,65578,1,8,0:0:0:0:
64,192,65665,1,8,0:0:0:0:
448,192,65752,1,2,0:0:0:0:
320,192,65839,1,2,0:0:0:70:Tom1.wav
192,192,65926,1,2,0:0:0:70:Tom2.wav
64,192,66013,128,2,67709:0:0:0:0:
448,192,66013,1,4,0:0:0:0:
448,192,66535,1,0,0:0:0:0:
320,192,66665,1,0,0:0:0:0:
192,192,66796,1,0,0:0:0:0:
448,192,66926,1,0,0:0:0:0:
320,192,67057,1,0,0:0:0:0:
192,192,67187,1,0,0:0:0:0:
448,192,67317,1,0,0:0:0:0:
320,192,67448,1,0,0:0:0:0:
192,192,67578,1,0,0:0:0:0:
448,192,67709,1,0,0:0:0:0:
320,192,67839,1,0,0:0:0:0:
192,192,67970,1,0,0:0:0:0:
64,192,68100,1,0,0:0:0:0:
448,192,68100,1,0,0:0:0:0:
320,192,69144,1,0,0:0:0:0:
448,192,69144,1,0,0:0:0:0:
64,192,69665,1,8,0:0:0:0:
192,192,69665,1,0,0:0:0:0:
448,192,69752,1,8,0:0:0:0:
320,192,69839,1,2,0:0:0:70:Tom1.wav
64,192,69926,1,2,0:0:0:70:Tom1.wav
192,192,70013,1,2,0:0:0:70:Tom2.wav
320,192,70100,1,2,0:0:0:70:FloorTom.wav
64,192,70187,1,4,0:0:0:0:
192,192,70187,1,2,0:0:0:0:
448,192,70274,1,0,0:0:0:0:
320,192,70361,1,0,0:0:0:0:
192,192,70448,1,0,0:0:0:0:
64,192,70535,1,0,0:0:0:0:
320,192,70622,1,0,0:0:0:0:
192,192,70709,1,8,0:0:0:0:
448,192,70796,1,0,0:0:0:0:
320,192,70883,1,0,0:0:0:0:
64,192,70970,1,2,0:0:0:0:
192,192,71057,1,0,0:0:0:0:
320,192,71144,1,0,0:0:0:0:
448,192,71231,1,0,0:0:0:0:
192,192,71317,1,0,0:0:0:0:
320,192,71404,1,0,0:0:0:0:
64,192,71491,1,2,0:0:0:0:
192,192,71578,1,0,0:0:0:0:
320,192,71665,1,0,0:0:0:0:
64,192,71752,1,8,0:0:0:0:
192,192,71839,1,0,0:0:0:0:
448,192,71926,1,0,0:0:0:0:
320,192,72013,1,2,0:0:0:0:
192,192,72100,1,0,0:0:0:0:
64,192,72187,1,0,0:0:0:0:
320,192,72274,1,4,0:0:0:0:
448,192,72274,1,2,0:0:0:0:
192,192,72361,1,0,0:0:0:0:
320,192,72448,1,0,0:0:0:0:
448,192,72535,1,0,0:0:0:0:
192,192,72622,1,0,0:0:0:0:
64,192,72709,1,0,0:0:0:0:
320,192,72796,1,8,0:0:0:0:
192,192,72883,1,0,0:0:0:0:
448,192,72970,1,0,0:0:0:0:
320,192,73057,1,2,0:0:0:0:
192,192,73144,1,0,0:0:0:0:
64,192,73231,1,0,0:0:0:0:
448,192,73317,1,0,0:0:0:0:
320,192,73404,1,0,0:0:0:0:
192,192,73491,1,0,0:0:0:0:
448,192,73578,1,2,0:0:0:0:
64,192,73665,1,0,0:0:0:0:
192,192,73752,1,0,0:0:0:0:
320,192,73839,1,8,0:0:0:0:
64,192,73926,1,0,0:0:0:0:
448,192,74013,1,0,0:0:0:0:
320,192,74100,1,2,0:0:0:0:
192,192,74187,1,0,0:0:0:0:
64,192,74274,1,0,0:0:0:0:
320,192,74361,1,2,0:0:0:0:
448,192,74361,1,4,0:0:0:0:
192,192,74491,1,2,0:0:0:0:
320,192,74752,1,2,0:0:0:0:
192,192,74817,1,0,0:0:0:0:
64,192,74883,1,8,0:0:0:0:
448,192,75013,1,0,0:0:0:0:
320,192,75144,1,2,0:0:0:0:
192,192,75274,1,2,0:0:0:0:
448,192,75404,1,0,0:0:0:0:
64,192,75535,1,2,0:0:0:0:
192,192,75665,1,2,0:0:0:0:
320,192,75796,1,0,0:0:0:0:
64,192,75926,1,8,0:0:0:0:
448,192,76013,1,0,0:0:0:0:
320,192,76100,1,0,0:0:0:0:
64,192,76187,1,2,0:0:0:0:
192,192,76274,1,0,0:0:0:0:
320,192,76361,1,0,0:0:0:0:
64,192,76448,1,2,0:0:0:0:
448,192,76448,1,4,0:0:0:0:
192,192,76535,1,0,0:0:0:0:
320,192,76622,1,0,0:0:0:0:
64,192,76709,1,0,0:0:0:0:
192,192,76796,1,0,0:0:0:0:
320,192,76883,1,0,0:0:0:0:
192,192,76970,1,8,0:0:0:0:
320,192,77057,1,0,0:0:0:0:
448,192,77144,1,0,0:0:0:0:
192,192,77231,1,2,0:0:0:0:
320,192,77317,1,0,0:0:0:0:
448,192,77404,1,0,0:0:0:0:
64,192,77491,1,8,0:0:0:0:
320,192,77578,1,0,0:0:0:0:
192,192,77665,1,0,0:0:0:0:
64,192,77752,1,0,0:0:0:0:
320,192,77839,1,0,0:0:0:0:
192,192,77926,1,0,0:0:0:0:
64,192,78013,1,8,0:0:0:0:
320,192,78100,1,0,0:0:0:0:
448,192,78187,1,0,0:0:0:0:
192,192,78274,1,2,0:0:0:0:
320,192,78361,1,0,0:0:0:0:
448,192,78448,1,0,0:0:0:0:
64,192,78535,128,2,78796:0:0:0:0:
192,192,78535,128,0,78796:0:0:0:0:
320,192,78796,1,8,0:0:0:0:
448,192,78796,1,0,0:0:0:0:
64,192,78926,128,2,79317:0:0:0:0:
192,192,78926,128,0,79317:0:0:0:0:
320,192,79317,128,8,79578:0:0:0:0:
448,192,79317,128,0,79578:0:0:0:0:
64,192,79578,128,2,79839:0:0:0:0:
192,192,79578,1,0,0:0:0:0:
192,192,79839,128,8,80100:0:0:0:0:
320,192,79839,1,0,0:0:0:0:
320,192,80100,128,0,80361:0:0:0:0:
448,192,80100,1,0,0:0:0:0:
64,192,80361,1,8,0:0:0:0:
192,192,80361,1,0,0:0:0:0:
64,192,80622,1,2,0:0:0:0:
448,192,80622,1,4,0:0:0:0:
320,192,80709,1,0,0:0:0:0:
192,192,80796,1,0,0:0:0:0:
448,192,80883,1,0,0:0:0:0:
64,192,80970,1,0,0:0:0:0:
192,192,81057,1,0,0:0:0:0:
320,192,81144,1,8,0:0:0:0:
192,192,81231,1,0,0:0:0:0:
64,192,81317,1,0,0:0:0:0:
320,192,81404,1,2,0:0:0:0:
192,192,81491,1,0,0:0:0:0:
448,192,81578,1,0,0:0:0:0:
64,192,81665,1,0,0:0:0:0:
192,192,81752,1,0,0:0:0:0:
320,192,81839,1,0,0:0:0:0:
64,192,81926,1,0,0:0:0:0:
448,192,82013,1,0,0:0:0:0:
320,192,82100,1,0,0:0:0:0:
192,192,82187,1,8,0:0:0:0:
320,192,82274,1,0,0:0:0:0:
448,192,82361,1,0,0:0:0:0:
192,192,82448,1,2,0:0:0:0:
320,192,82535,1,0,0:0:0:0:
64,192,82622,1,0,0:0:0:0:
320,192,82709,128,2,82970:0:0:0:0:
448,192,82709,128,0,82970:0:0:0:0:
64,192,82970,1,8,0:0:0:0:
192,192,82970,1,0,0:0:0:0:
320,192,83100,128,2,83491:0:0:0:0:
448,192,83100,128,4,83491:0:0:0:0:
64,192,83491,128,8,83752:0:0:0:0:
192,192,83491,128,0,83752:0:0:0:0:
320,192,83752,1,2,0:0:0:0:
448,192,83752,128,0,84013:0:0:0:0:
192,192,84013,1,8,0:0:0:0:
320,192,84013,128,0,84274:0:0:0:0:
64,192,84274,1,0,0:0:0:0:
192,192,84274,128,0,84535:0:0:0:0:
320,192,84535,1,8,0:0:0:0:
448,192,84535,1,0,0:0:0:0:
192,192,84796,1,2,0:0:0:0:
448,192,84796,1,0,0:0:0:0:
192,192,84926,1,2,0:0:0:0:
448,192,84926,1,0,0:0:0:0:
64,192,85187,1,2,0:0:0:0:
320,192,85187,1,0,0:0:0:0:
64,192,85317,1,2,0:0:0:0:
320,192,85317,1,0,0:0:0:0:
320,192,85578,1,2,0:0:0:0:
448,192,85578,1,0,0:0:0:0:
320,192,85709,1,2,0:0:0:0:
448,192,85709,1,0,0:0:0:0:
64,192,85970,1,2,0:0:0:0:
192,192,85970,1,0,0:0:0:0:
64,192,86100,1,2,0:0:0:0:
192,192,86100,1,0,0:0:0:0:
192,192,86361,1,2,0:0:0:0:
448,192,86361,1,0,0:0:0:0:
64,192,86622,1,8,0:0:0:0:
320,192,86622,1,0,0:0:0:0:
64,192,86883,1,2,0:0:0:0:
192,192,86883,1,0,0:0:0:0:
320,192,87013,128,8,87144:0:0:0:0:
448,192,87013,128,0,87144:0:0:0:0:
192,192,87144,128,8,87274:0:0:0:0:
64,192,87274,128,2,87404:0:0:0:70:Tom1.wav
448,192,87274,128,0,87404:0:0:0:0:
320,192,87404,128,2,87535:0:0:0:0:
64,192,87535,128,2,87665:0:0:0:70:Tom2.wav
192,192,87535,128,0,87665:0:0:0:0:
448,192,87665,128,2,87796:0:0:0:70:FloorTom.wav
64,192,87796,1,2,0:0:0:70:FloorTom.wav
192,192,87796,1,0,0:0:0:0:
320,192,87926,1,8,0:0:0:0:
448,192,87926,1,0,0:0:0:0:
64,192,87991,1,0,0:0:0:0:
192,192,88057,1,0,0:0:0:0:
320,192,88122,1,0,0:0:0:0:
448,192,88187,1,0,0:0:0:0:
64,192,88252,1,0,0:0:0:0:
192,192,88317,1,0,0:0:0:0:
320,192,88383,1,0,0:0:0:0:
448,192,88448,1,0,0:0:0:0:
64,192,88513,1,0,0:0:0:0:
192,192,88578,1,0,0:0:0:0:
320,192,88644,1,0,0:0:0:0:
448,192,88709,1,0,0:0:0:0:
64,192,88774,1,0,0:0:0:0:
192,192,88839,1,0,0:0:0:0:
320,192,88904,1,0,0:0:0:0:
64,192,88970,1,4,0:0:0:0:
448,192,88970,1,0,0:0:0:0:
320,192,89361,1,0,0:0:0:0:
448,192,89361,1,0,0:0:0:0:
320,192,89752,1,8,0:0:0:0:
448,192,89752,1,0,0:0:0:0:
64,192,89883,1,12,0:0:0:0:
192,192,90013,1,2,0:0:0:0:
320,192,90144,1,8,0:0:0:0:
64,192,90274,1,2,0:0:0:0:
448,192,90274,1,0,0:0:0:0:
192,192,90404,1,8,0:0:0:0:
320,192,90535,1,2,0:0:0:0:
448,192,90535,1,0,0:0:0:0:
64,192,90665,1,8,0:0:0:0:
192,192,90796,1,2,0:0:0:0:
320,192,90796,1,0,0:0:0:0:
448,192,90926,1,8,0:0:0:0:
64,192,91057,1,2,0:0:0:0:
192,192,91057,1,4,0:0:0:0:
320,192,91187,1,8,0:0:0:0:
64,192,91317,1,2,0:0:0:0:
320,192,91448,1,8,0:0:0:0:
448,192,91448,1,0,0:0:0:0:
192,192,91578,1,2,0:0:0:0:
448,192,91709,1,8,0:0:0:0:
64,192,91839,1,2,0:0:0:0:
192,192,91839,1,0,0:0:0:0:
320,192,91970,1,8,0:0:0:0:
64,192,92100,1,2,0:0:0:0:
448,192,92100,1,4,0:0:0:0:
192,192,92231,1,8,0:0:0:0:
320,192,92361,1,2,0:0:0:0:
64,192,92491,1,8,0:0:0:0:
192,192,92491,1,0,0:0:0:0:
64,192,92622,1,6,0:0:0:0:
448,192,92752,1,8,0:0:0:0:
320,192,92883,1,2,0:0:0:0:
192,192,93013,1,8,0:0:0:0:
320,192,93144,1,2,0:0:0:0:
448,192,93144,1,0,0:0:0:0:
448,192,93404,1,8,0:0:0:0:
64,192,93535,1,4,0:0:0:0:
192,192,93535,1,2,0:0:0:0:
64,192,93665,1,0,0:0:0:0:
320,192,93796,1,8,0:0:0:0:
192,192,93926,1,2,0:0:0:0:
320,192,94187,1,2,0:0:0:0:
448,192,94187,1,0,0:0:0:0:
448,192,94448,1,8,0:0:0:0:
64,192,94578,1,4,0:0:0:0:
192,192,94578,1,2,0:0:0:0:
64,192,94709,1,0,0:0:0:0:
320,192,94839,1,8,0:0:0:0:
192,192,94970,1,2,0:0:0:0:
448,192,94970,1,0,0:0:0:0:
64,192,95231,1,2,0:0:0:0:
320,192,95231,1,4,0:0:0:0:
448,192,95491,1,8,0:0:0:0:
64,192,95622,1,2,0:0:0:0:
192,192,95622,1,0,0:0:0:0:
192,192,95752,1,6,0:0:0:0:
64,192,96013,1,8,0:0:0:0:
320,192,96144,1,2,0:0:0:0:
448,192,96144,1,0,0:0:0:0:
448,192,96274,1,6,0:0:0:0:
64,192,96404,1,8,0:0:0:0:
192,192,96470,1,8,0:0:0:0:
320,192,96535,1,8,0:0:0:0:
448,192,96600,1,8,0:0:0:0:
64,192,96665,1,2,0:0:0:70:Tom1.wav
192,192,96665,1,0,0:0:0:0:
448,192,96796,1,2,0:0:0:0:
320,192,96861,1,2,0:0:0:70:Tom1.wav
192,192,96926,1,2,0:0:0:70:Tom2.wav
64,192,96991,1,2,0:0:0:70:Tom2.wav
448,192,97057,1,6,0:0:0:0:
320,192,97122,1,0,0:0:0:0:
192,192,97187,1,0,0:0:0:0:
64,192,97252,1,0,0:0:0:0:
320,192,97317,128,2,97709:0:0:0:0:
448,192,97317,128,4,97709:0:0:0:0:
64,192,97709,128,2,97970:0:0:0:0:
192,192,97709,128,0,97970:0:0:0:0:
64,192,98100,128,2,98622:0:0:0:0:
192,192,98100,128,0,98622:0:0:0:0:
320,192,98622,1,0,0:0:0:0:
448,192,98622,128,0,98883:0:0:0:0:
64,192,98883,128,8,99144:0:0:0:0:
192,192,98883,1,0,0:0:0:0:
192,192,99144,128,2,99404:0:0:0:0:
320,192,99144,1,0,0:0:0:0:
64,192,99404,1,2,0:0:0:0:
448,192,99404,128,0,99665:0:0:0:0:
64,192,99665,1,2,0:0:0:0:
192,192,99665,1,0,0:0:0:0:
192,192,99926,1,2,0:0:0:0:
320,192,99926,1,4,0:0:0:0:
320,192,100122,1,2,0:0:0:0:
448,192,100122,1,4,0:0:0:0:
64,192,100317,1,4,0:0:0:0:
192,192,100317,1,2,0:0:0:0:
64,192,100448,1,2,0:0:0:0:
192,192,100448,1,4,0:0:0:0:
320,192,100709,1,8,0:0:0:0:
448,192,100709,1,0,0:0:0:0:
320,192,100839,1,2,0:0:0:0:
448,192,100839,1,4,0:0:0:0:
320,192,101100,1,8,0:0:0:0:
192,192,101165,1,8,0:0:0:0:
64,192,101231,1,2,0:0:0:0:
448,192,101296,1,2,0:0:0:70:Tom1.wav
320,192,101361,1,2,0:0:0:70:Tom2.wav
192,192,101426,1,2,0:0:0:70:FloorTom.wav
64,192,101491,1,2,0:0:0:0:
448,192,101491,1,4,0:0:0:0:
320,192,101622,1,8,0:0:0:0:
192,192,101752,1,2,0:0:0:0:
320,192,101883,1,8,0:0:0:0:
448,192,101883,1,0,0:0:0:0:
64,192,102013,1,2,0:0:0:0:
448,192,102144,1,8,0:0:0:0:
64,192,102274,1,2,0:0:0:0:
192,192,102274,1,0,0:0:0:0:
320,192,102404,1,8,0:0:0:0:
64,192,102535,1,2,0:0:0:0:
448,192,102535,1,4,0:0:0:0:
192,192,102665,1,8,0:0:0:0:
320,192,102796,1,2,0:0:0:0:
448,192,102796,1,0,0:0:0:0:
64,192,102926,1,8,0:0:0:0:
192,192,103057,1,2,0:0:0:0:
320,192,103057,1,0,0:0:0:0:
448,192,103187,1,8,0:0:0:0:
64,192,103317,1,2,0:0:0:0:
192,192,103317,1,0,0:0:0:0:
320,192,103448,1,8,0:0:0:0:
64,192,103578,1,2,0:0:0:0:
448,192,103578,1,4,0:0:0:0:
320,192,103709,1,8,0:0:0:0:
64,192,103839,1,2,0:0:0:0:
192,192,103839,1,0,0:0:0:0:
448,192,103970,1,8,0:0:0:0:
192,192,104100,1,2,0:0:0:0:
320,192,104100,1,0,0:0:0:0:
64,192,104231,1,8,0:0:0:0:
320,192,104361,1,2,0:0:0:0:
448,192,104361,1,0,0:0:0:0:
192,192,104491,1,8,0:0:0:0:
64,192,104622,1,2,0:0:0:0:
448,192,104622,1,4,0:0:0:0:
192,192,104752,128,2,104883:0:0:0:0:
320,192,104752,128,0,104883:0:0:0:0:
64,192,104883,128,2,105013:0:0:0:0:
320,192,105013,128,8,105144:0:0:0:0:
448,192,105013,128,0,105144:0:0:0:0:
192,192,105144,128,2,105274:0:0:0:0:
64,192,105274,128,2,105404:0:0:0:0:
448,192,105274,128,0,105404:0:0:0:0:
320,192,105404,128,2,105535:0:0:0:70:Tom1.wav
64,192,105535,1,2,0:0:0:70:Tom2.wav
192,192,105535,1,0,0:0:0:0:
448,192,105665,1,6,0:0:0:0:
320,192,105731,1,0,0:0:0:0:
192,192,105796,1,0,0:0:0:0:
64,192,105861,1,0,0:0:0:0:
448,192,105926,1,2,0:0:0:0:
64,192,106057,1,2,0:0:0:0:
192,192,106122,1,2,0:0:0:0:
320,192,106187,1,2,0:0:0:0:
448,192,106252,1,0,0:0:0:0:
64,192,106317,1,0,0:0:0:0:
448,192,106448,1,2,0:0:0:0:
320,192,106513,1,0,0:0:0:0:
192,192,106578,1,0,0:0:0:0:
64,192,106644,1,0,0:0:0:0:
448,192,106709,1,2,0:0:0:0:
320,192,106796,1,2,0:0:0:0:
192,192,106883,1,2,0:0:0:0:
448,192,106970,1,2,0:0:0:0:
64,192,107057,1,0,0:0:0:0:
192,192,107144,1,0,0:0:0:0:
320,192,107231,1,2,0:0:0:0:
64,192,107317,1,2,0:0:0:0:
448,192,107404,1,2,0:0:0:0:
320,192,107491,1,8,0:0:0:0:
192,192,107578,1,8,0:0:0:0:
64,192,107665,1,8,0:0:0:0:
448,192,107752,1,2,0:0:0:0:
320,192,107839,1,0,0:0:0:0:
64,192,107926,1,0,0:0:0:0:
192,192,108013,1,2,0:0:0:0:
320,192,108100,1,0,0:0:0:0:
448,192,108187,1,0,0:0:0:0:
192,192,108274,1,2,0:0:0:0:
64,192,108361,1,0,0:0:0:0:
320,192,108448,1,0,0:0:0:0:
192,192,108535,1,2,0:0:0:0:
448,192,108622,1,0,0:0:0:0:
320,192,108709,1,0,0:0:0:0:
64,192,108796,128,2,109709:0:0:0:0:
192,192,108796,1,8,0:0:0:0:
320,192,109317,1,0,0:0:0:0:
448,192,109317,128,0,109709:0:0:0:0:
192,192,109839,1,2,0:0:0:0:
448,192,109839,1,4,0:0:0:0:
192,192,109970,1,8,0:0:0:0:
448,192,109970,1,0,0:0:0:0:
64,192,110231,1,2,0:0:0:0:
320,192,110231,1,0,0:0:0:0:
64,192,110361,1,8,0:0:0:0:
320,192,110361,1,0,0:0:0:0:
192,192,110622,1,2,0:0:0:0:
448,192,110622,1,4,0:0:0:0:
192,192,110752,1,8,0:0:0:0:
448,192,110752,1,0,0:0:0:0:
64,192,111013,1,2,0:0:0:0:
320,192,111013,1,0,0:0:0:0:
64,192,111144,1,8,0:0:0:0:
320,192,111144,1,0,0:0:0:0:
320,192,111404,1,2,0:0:0:0:
448,192,111404,1,4,0:0:0:0:
64,192,111535,1,8,0:0:0:0:
192,192,111535,1,0,0:0:0:0:
320,192,111665,1,2,0:0:0:0:
448,192,111665,1,4,0:0:0:0:
64,192,111796,1,8,0:0:0:0:
192,192,111796,1,0,0:0:0:0:
320,192,111926,1,2,0:0:0:0:
448,192,111926,1,4,0:0:0:0:
320,192,112057,1,8,0:0:0:0:
448,192,112057,1,0,0:0:0:0:
64,192,112317,1,2,0:0:0:0:
192,192,112317,1,0,0:0:0:0:
64,192,112448,1,8,0:0:0:0:
192,192,112448,1,0,0:0:0:0:
320,192,112709,1,2,0:0:0:0:
448,192,112709,1,4,0:0:0:0:
320,192,112839,1,8,0:0:0:0:
448,192,112839,1,0,0:0:0:0:
64,192,113100,1,2,0:0:0:0:
192,192,113100,1,0,0:0:0:0:
64,192,113231,1,8,0:0:0:0:
192,192,113231,1,0,0:0:0:0:
64,192,113491,1,12,0:0:0:0:
448,192,113491,1,2,0:0:0:0:
64,192,113752,1,12,0:0:0:0:
448,192,113752,1,2,0:0:0:0:
320,192,114013,1,2,0:0:0:0:
448,192,114013,1,4,0:0:0:0:
192,192,114144,1,8,0:0:0:0:
448,192,114144,1,0,0:0:0:0:
64,192,114404,1,2,0:0:0:0:
192,192,114404,1,0,0:0:0:0:
64,192,114535,1,8,0:0:0:0:
320,192,114535,1,0,0:0:0:0:
320,192,114796,1,2,0:0:0:0:
448,192,114796,1,4,0:0:0:0:
192,192,114926,1,8,0:0:0:0:
448,192,114926,1,0,0:0:0:0:
64,192,115187,1,2,0:0:0:0:
192,192,115187,1,0,0:0:0:0:
64,192,115317,1,8,0:0:0:0:
320,192,115317,1,0,0:0:0:0:
320,192,115578,1,2,0:0:0:0:
448,192,115578,1,4,0:0:0:0:
64,192,115709,1,8,0:0:0:0:
192,192,115709,1,0,0:0:0:0:
320,192,115839,1,2,0:0:0:0:
448,192,115839,1,4,0:0:0:0:
64,192,115970,1,8,0:0:0:0:
192,192,115970,1,0,0:0:0:0:
320,192,116100,1,2,0:0:0:0:
448,192,116100,1,4,0:0:0:0:
64,192,116231,1,8,0:0:0:0:
448,192,116231,1,0,0:0:0:0:
64,192,116491,1,2,0:0:0:0:
192,192,116491,1,0,0:0:0:0:
64,192,116622,1,8,0:0:0:0:
448,192,116622,1,0,0:0:0:0:
320,192,116883,1,2,0:0:0:0:
448,192,116883,1,0,0:0:0:0:
64,192,117013,1,8,0:0:0:0:
448,192,117013,1,0,0:0:0:0:
64,192,117274,1,2,0:0:0:0:
192,192,117274,1,0,0:0:0:70:FloorTom.wav
64,192,117404,1,2,0:0:0:0:
192,192,117404,1,0,0:0:0:70:FloorTom.wav
320,192,117535,1,2,0:0:0:0:
448,192,117535,1,0,0:0:0:70:FloorTom.wav
320,192,117665,1,2,0:0:0:0:
448,192,117665,1,0,0:0:0:70:FloorTom.wav
64,192,117796,1,2,0:0:0:0:
192,192,117796,1,0,0:0:0:70:FloorTom.wav
64,192,117926,1,2,0:0:0:0:
192,192,117926,1,0,0:0:0:70:FloorTom.wav
320,192,118057,1,6,0:0:0:0:
448,192,118057,1,0,0:0:0:70:FloorTom.wav
