osu file format v14

[General]
AudioFilename: audio.ogg
AudioLeadIn: 0
PreviewTime: 91459
Countdown: 0
SampleSet: Soft
StackLeniency: 0.7
Mode: 3
LetterboxInBreaks: 0
SpecialStyle: 0
WidescreenStoryboard: 1

[Editor]
DistanceSpacing: 0.8
BeatDivisor: 6
GridSize: 32
TimelineZoom: 1.699999

[Metadata]
Title:Desperado Waltz
TitleUnicode:Desperado Waltz
Artist:penoreri
ArtistUnicode:ぺのれり
Creator:[Crz]hinako1804
Version:BASIC
Source:オンゲキ SUMMER
Tags:ONGEKI maimai SEGA オンゲキ セガ otoge arcade video game electronic instrumental o.n.g.e.k.i. Collection03 Splash Dance!! 音撃 [GB]AelSan gzdongsheng FAMoss
BeatmapID:3660561
BeatmapSetID:1641449

[Difficulty]
HPDrainRate:6
CircleSize:4
OverallDifficulty:6
ApproachRate:5
SliderMultiplier:2.5
SliderTickRate:1

[Events]
//Background and Video events
0,0,"DW.jpg",0,0
//Break Periods
//Storyboard Layer 0 (Background)
//Storyboard Layer 1 (Fail)
//Storyboard Layer 2 (Pass)
//Storyboard Layer 3 (Foreground)
//Storyboard Layer 4 (Overlay)
//Storyboard Sound Samples
Sample,37390,0,"tom03.wav",70

[TimingPoints]
415,348.837209302326,4,2,1,40,1,0
3205,348.837209302326,6,2,1,40,1,0
17856,348.837209302326,4,2,1,40,1,0
20646,-100,4,2,1,40,0,1
26228,-100,4,2,1,40,0,0
31809,-100,4,2,1,40,0,1
37390,348.837209302326,6,2,1,40,1,0
39483,348.837209302326,4,2,1,40,1,0
59017,348.837209302326,7,2,1,40,1,0
61458,348.837209302326,4,2,1,40,1,0
64248,348.128807658834,4,2,1,40,1,0
64248,-100.300902708124,4,2,1,40,0,0
68436,348.837209302326,4,2,1,40,1,8
69831,-100,4,2,1,40,0,1
80296,-100,4,2,1,40,0,0
81168,-100,4,2,1,40,0,1
85877,-100,4,2,1,40,0,0
86575,348.837209302326,7,2,1,40,1,0
89016,348.837209302326,4,2,1,40,1,0
91806,-100,4,2,1,40,0,1
102620,-100,4,2,1,40,0,0
102969,-100,4,2,1,40,0,1
114132,348.837209302326,6,2,1,40,1,0

[HitObjects]
64,192,415,5,0,0:0:0:0:
320,192,676,1,0,0:0:0:0:
64,192,938,1,0,0:0:0:0:
320,192,1199,1,0,0:0:0:0:
64,192,1461,1,0,0:0:0:0:
320,192,1635,1,0,0:0:0:0:
64,192,1810,1,8,0:0:0:0:
192,192,2071,1,8,0:0:0:0:
320,192,2333,1,8,0:0:0:0:
192,192,2508,1,8,0:0:0:0:
320,192,2769,1,8,0:0:0:0:
448,192,3031,1,0,0:0:0:0:
64,192,3205,1,2,0:0:0:0:
192,192,3205,1,4,0:0:0:0:
448,192,3466,1,6,0:0:0:0:
448,192,3728,1,6,0:0:0:0:
64,192,4251,1,2,0:0:0:0:
192,192,4251,1,4,0:0:0:0:
448,192,4513,1,6,0:0:0:0:
448,192,4774,1,6,0:0:0:0:
320,192,5298,1,4,0:0:0:0:
448,192,5298,1,2,0:0:0:0:
192,192,5559,1,6,0:0:0:0:
192,192,5821,1,6,0:0:0:0:
320,192,6344,1,2,0:0:0:0:
448,192,6344,1,4,0:0:0:0:
64,192,6606,1,6,0:0:0:0:
64,192,6867,1,6,0:0:0:0:
64,192,7391,1,2,0:0:0:0:
192,192,7391,1,4,0:0:0:0:
448,192,7652,1,6,0:0:0:0:
448,192,7914,1,6,0:0:0:0:
64,192,8437,1,2,0:0:0:0:
192,192,8437,1,4,0:0:0:0:
448,192,8699,1,6,0:0:0:0:
448,192,8960,1,6,0:0:0:0:
320,192,9484,1,4,0:0:0:0:
448,192,9484,1,2,0:0:0:0:
192,192,9745,1,6,0:0:0:0:
192,192,10007,1,6,0:0:0:0:
320,192,10530,1,2,0:0:0:0:
448,192,10530,1,4,0:0:0:0:
64,192,10792,1,6,0:0:0:0:
64,192,11053,1,6,0:0:0:0:
64,192,11577,1,2,0:0:0:0:
448,192,11577,128,4,12100:0:0:0:0:
192,192,12100,128,2,12623:0:0:0:0:
64,192,12623,1,4,0:0:0:0:
448,192,12623,128,2,13146:0:0:0:0:
64,192,13146,128,2,13670:0:0:0:0:
320,192,13670,128,2,14193:0:0:0:0:
448,192,13670,1,4,0:0:0:0:
192,192,14193,128,6,14716:0:0:0:0:
64,192,14716,128,4,15239:0:0:0:0:
320,192,14716,1,2,0:0:0:0:
320,192,15239,128,4,15763:0:0:0:0:
448,192,15239,1,2,0:0:0:0:
64,192,15763,1,2,0:0:0:0:
192,192,15763,1,4,0:0:0:0:
448,192,15937,128,8,17158:0:0:0:0:
320,192,17158,128,10,17507:0:0:0:0:
192,192,17507,128,2,17856:0:0:0:0:
64,192,17856,1,8,0:0:0:0:
448,192,17856,1,0,0:0:0:70:tom01.wav
320,192,18088,1,0,0:0:0:0:
64,192,18321,1,0,0:0:0:0:
448,192,18553,1,0,0:0:0:0:
192,192,18786,1,0,0:0:0:0:
64,192,19018,1,0,0:0:0:0:
192,192,19251,1,2,0:0:0:0:
320,192,19251,128,4,19600:0:0:0:0:
448,192,19600,128,6,19949:0:0:0:0:
64,192,19949,128,6,20297:0:0:0:0:
192,192,20297,128,14,20646:0:0:0:0:
320,192,20646,1,2,0:0:0:0:
448,192,20646,1,4,0:0:0:0:
64,192,20908,1,0,0:0:0:0:
448,192,21169,128,8,22042:0:0:0:0:
64,192,22042,1,2,0:0:0:0:
192,192,22303,1,0,0:0:0:0:
320,192,22565,1,8,0:0:0:0:
448,192,22739,1,2,0:0:0:0:
64,192,23001,1,2,0:0:0:0:
192,192,23262,1,8,0:0:0:0:
320,192,23437,1,2,0:0:0:0:
64,192,23699,1,0,0:0:0:0:
448,192,23960,128,8,24832:0:0:0:0:
320,192,24832,1,2,0:0:0:0:
64,192,25094,1,0,0:0:0:0:
192,192,25356,1,8,0:0:0:0:
320,192,25530,1,6,0:0:0:0:
64,192,25792,1,6,0:0:0:0:
192,192,26053,1,12,0:0:0:0:
448,192,26228,128,0,27274:0:0:0:0:
64,192,27274,128,2,27623:0:0:0:0:
448,192,27623,128,2,27972:0:0:0:0:
320,192,27972,128,2,28321:0:0:0:0:
192,192,28321,128,2,28669:0:0:0:0:
64,192,28669,128,2,29018:0:0:0:0:
448,192,29280,1,0,0:0:0:0:
320,192,29542,1,8,0:0:0:0:
64,192,29716,1,6,0:0:0:0:
448,192,29978,1,0,0:0:0:0:
192,192,30239,1,8,0:0:0:0:
64,192,30414,128,6,30762:0:0:0:0:
320,192,30762,128,2,31111:0:0:0:0:
192,192,31111,128,6,31460:0:0:0:0:
448,192,31460,128,10,31809:0:0:0:0:
64,192,31809,1,2,0:0:0:0:
192,192,31809,1,4,0:0:0:0:
448,192,32071,1,0,0:0:0:0:
64,192,32332,128,8,33204:0:0:0:0:
448,192,33204,1,2,0:0:0:0:
320,192,33466,1,0,0:0:0:0:
192,192,33728,1,8,0:0:0:0:
64,192,33902,1,2,0:0:0:0:
448,192,34164,1,2,0:0:0:0:
320,192,34425,1,8,0:0:0:0:
192,192,34600,1,2,0:0:0:0:
448,192,34861,1,0,0:0:0:0:
64,192,35123,128,8,35995:0:0:0:0:
192,192,35995,1,6,0:0:0:0:
448,192,36257,1,0,0:0:0:0:
320,192,36518,1,8,0:0:0:0:
192,192,36693,1,2,0:0:0:0:
448,192,36954,1,2,0:0:0:0:
320,192,37216,1,0,0:0:0:0:
64,192,37390,1,4,0:0:0:0:
448,192,37651,1,0,0:0:0:0:
64,192,37913,1,6,0:0:0:0:
192,192,38174,1,0,0:0:0:0:
448,192,38436,1,6,0:0:0:0:
320,192,38698,1,6,0:0:0:0:
192,192,38959,1,6,0:0:0:0:
64,192,39221,1,0,0:0:0:0:
320,192,39483,1,6,0:0:0:0:
192,192,39744,1,6,0:0:0:0:
320,192,40006,1,8,0:0:0:0:
448,192,40180,1,6,0:0:0:0:
320,192,40529,1,12,0:0:0:0:
192,192,40878,1,6,0:0:0:0:
192,192,41139,1,6,0:0:0:0:
64,192,41401,128,6,41750:0:0:0:0:
448,192,41750,128,8,42273:0:0:0:0:
64,192,42273,1,4,0:0:0:0:
192,192,42273,128,2,44366:0:0:0:0:
448,192,44366,128,0,45064:0:0:0:0:
64,192,44889,1,8,0:0:0:0:
192,192,45064,1,8,0:0:0:0:
320,192,45064,128,0,47157:0:0:0:0:
192,192,47157,128,0,47855:0:0:0:0:
448,192,47680,1,8,0:0:0:0:
64,192,47855,128,8,49948:0:0:0:0:
320,192,47855,1,0,0:0:0:0:
320,192,49948,128,0,50296:0:0:0:0:
192,192,50296,128,0,50645:0:0:0:0:
448,192,50471,1,8,0:0:0:0:
64,192,50645,1,8,0:0:0:0:
320,192,50645,128,0,52041:0:0:0:0:
448,192,52041,128,0,52738:0:0:0:0:
64,192,52738,1,0,0:0:0:0:
192,192,53000,1,0,0:0:0:70:tom01.wav
320,192,53262,1,0,0:0:0:70:tom02.wav
64,192,53436,1,2,0:0:0:0:
448,192,53436,1,4,0:0:0:0:
64,192,53785,1,2,0:0:0:0:
320,192,54134,1,2,0:0:0:0:
320,192,54483,1,2,0:0:0:0:
192,192,54831,1,2,0:0:0:0:
192,192,55180,1,2,0:0:0:0:
448,192,55529,1,2,0:0:0:0:
448,192,55878,1,2,0:0:0:0:
64,192,56227,1,2,0:0:0:0:
64,192,56576,1,2,0:0:0:0:
320,192,56924,1,2,0:0:0:0:
320,192,57273,1,2,0:0:0:0:
192,192,57622,1,2,0:0:0:0:
192,192,57971,1,2,0:0:0:0:
448,192,58320,1,6,0:0:0:0:
320,192,58581,1,6,0:0:0:0:
192,192,58843,1,14,0:0:0:0:
64,192,59017,1,2,0:0:0:0:
448,192,59017,1,4,0:0:0:0:
320,192,59278,1,6,0:0:0:0:
320,192,59540,1,6,0:0:0:0:
64,192,60063,1,4,0:0:0:0:
448,192,60063,1,2,0:0:0:0:
192,192,60325,1,6,0:0:0:0:
192,192,60586,1,6,0:0:0:0:
320,192,60935,1,2,0:0:0:0:
64,192,61110,1,8,0:0:0:0:
448,192,61110,1,0,0:0:0:0:
64,192,61458,1,6,0:0:0:0:
192,192,61719,1,8,0:0:0:0:
448,192,61981,1,8,0:0:0:0:
64,192,62242,1,8,0:0:0:0:
192,192,62504,1,0,0:0:0:70:tom02.wav
320,192,62678,1,0,0:0:0:70:tom03.wav
448,192,62853,1,6,0:0:0:0:
192,192,63114,1,0,0:0:0:0:
64,192,63376,1,0,0:0:0:0:
448,192,63551,1,0,0:0:0:0:
320,192,63812,1,0,0:0:0:0:
192,192,64074,1,0,0:0:0:0:
64,192,64248,128,2,64944:0:0:0:0:
448,192,64248,1,4,0:0:0:0:
192,192,64944,128,0,65640:0:0:0:0:
448,192,65640,128,0,66336:0:0:0:0:
64,192,66336,128,0,67033:0:0:0:0:
320,192,67033,128,0,67729:0:0:0:0:
448,192,67729,128,0,68425:0:0:0:0:
64,192,68425,1,0,0:0:0:0:
192,192,69308,1,2,0:0:0:0:
64,192,69482,1,8,0:0:0:0:
448,192,69482,1,0,0:0:0:0:
320,192,69831,1,4,0:0:0:0:
448,192,69831,1,2,0:0:0:0:
64,192,70180,1,10,0:0:0:0:
320,192,70529,1,2,0:0:0:0:
64,192,70790,1,0,0:0:0:0:
320,192,71052,1,0,0:0:0:0:
448,192,71401,1,0,0:0:0:0:
192,192,71575,1,10,0:0:0:0:
448,192,71924,1,6,0:0:0:0:
192,192,72186,1,0,0:0:0:0:
192,192,72447,1,0,0:0:0:0:
320,192,72622,1,4,0:0:0:0:
448,192,72622,1,2,0:0:0:0:
64,192,72970,1,10,0:0:0:0:
320,192,73319,1,2,0:0:0:0:
64,192,73581,1,0,0:0:0:0:
320,192,73842,1,0,0:0:0:0:
448,192,74191,1,0,0:0:0:0:
192,192,74366,1,10,0:0:0:0:
448,192,74715,1,2,0:0:0:0:
192,192,74976,1,0,0:0:0:0:
320,192,75238,1,0,0:0:0:0:
64,192,75412,1,2,0:0:0:0:
192,192,75412,1,4,0:0:0:0:
448,192,75761,1,10,0:0:0:0:
192,192,76110,1,2,0:0:0:0:
448,192,76372,1,0,0:0:0:0:
192,192,76633,1,0,0:0:0:0:
64,192,76982,1,0,0:0:0:0:
320,192,77156,1,10,0:0:0:0:
320,192,77505,1,6,0:0:0:0:
192,192,77767,1,0,0:0:0:0:
64,192,78029,1,0,0:0:0:0:
320,192,78203,1,4,0:0:0:0:
448,192,78203,1,2,0:0:0:0:
64,192,78465,1,0,0:0:0:0:
192,192,78726,1,0,0:0:0:0:
448,192,78901,1,2,0:0:0:0:
64,192,79133,1,0,0:0:0:0:
320,192,79424,1,0,0:0:0:0:
448,192,79598,1,2,0:0:0:0:
192,192,79860,1,0,0:0:0:0:
320,192,80122,1,8,0:0:0:0:
64,192,80296,1,4,0:0:0:0:
448,192,80296,1,2,0:0:0:0:
192,192,80558,1,6,0:0:0:0:
192,192,80819,1,6,0:0:0:0:
448,192,80994,128,0,81342:0:0:0:0:
64,192,81342,1,2,0:0:0:0:
448,192,81691,1,2,0:0:0:0:
64,192,81953,1,0,0:0:0:0:
448,192,82215,1,8,0:0:0:0:
448,192,82563,1,8,0:0:0:0:
64,192,82738,1,2,0:0:0:0:
320,192,83087,1,2,0:0:0:0:
192,192,83348,1,0,0:0:0:0:
320,192,83610,1,8,0:0:0:0:
64,192,83784,1,4,0:0:0:0:
448,192,83784,1,2,0:0:0:0:
320,192,84046,1,0,0:0:0:0:
64,192,84308,1,8,0:0:0:0:
448,192,84482,1,2,0:0:0:0:
320,192,84744,1,0,0:0:0:0:
192,192,85005,1,8,0:0:0:0:
64,192,85180,1,2,0:0:0:0:
448,192,85180,1,4,0:0:0:0:
320,192,85441,1,0,0:0:0:0:
448,192,85703,1,8,0:0:0:0:
64,192,85877,1,2,0:0:0:0:
192,192,85877,1,4,0:0:0:0:
320,192,86139,1,6,0:0:0:0:
320,192,86401,1,14,0:0:0:0:
64,192,86575,1,2,0:0:0:0:
448,192,86575,1,4,0:0:0:0:
192,192,86836,1,6,0:0:0:0:
192,192,87098,1,6,0:0:0:0:
320,192,87447,1,8,0:0:0:0:
64,192,87621,1,2,0:0:0:0:
448,192,87621,1,4,0:0:0:0:
320,192,87883,1,6,0:0:0:0:
192,192,88144,1,6,0:0:0:0:
64,192,88319,1,0,0:0:0:0:
192,192,88580,1,0,0:0:0:70:tom02.wav
320,192,88842,1,0,0:0:0:0:
64,192,89016,128,2,89364:0:0:0:0:
448,192,89016,1,4,0:0:0:0:
192,192,89364,128,10,89713:0:0:0:0:
320,192,89713,128,10,90062:0:0:0:0:
448,192,90062,128,0,90411:0:0:0:70:tom02.wav
64,192,90411,1,6,0:0:0:0:
320,192,90934,1,0,0:0:0:0:
192,192,91109,128,0,91806:0:0:0:0:
320,192,91806,1,4,0:0:0:0:
448,192,91806,128,2,92329:0:0:0:0:
64,192,92329,1,0,0:0:0:0:
320,192,92504,1,2,0:0:0:0:
192,192,92678,128,0,93027:0:0:0:0:
320,192,93027,128,4,93376:0:0:0:0:
64,192,93376,128,0,93899:0:0:0:0:
448,192,93899,128,2,94597:0:0:0:0:
64,192,94597,1,2,0:0:0:0:
192,192,94597,1,4,0:0:0:0:
320,192,94771,128,0,95120:0:0:0:0:
64,192,95120,1,0,0:0:0:0:
192,192,95295,128,2,95731:0:0:0:0:
64,192,95731,1,0,0:0:0:0:
448,192,95905,128,0,96341:0:0:0:0:
320,192,96341,128,10,96690:0:0:0:0:
192,192,96690,128,6,97039:0:0:0:0:
64,192,97039,128,10,97388:0:0:0:0:
320,192,97388,1,2,0:0:0:0:
448,192,97388,1,4,0:0:0:0:
192,192,97562,1,0,0:0:0:0:
448,192,97736,128,10,98085:0:0:0:0:
64,192,98085,128,2,98434:0:0:0:0:
448,192,98434,1,10,0:0:0:0:
320,192,98609,128,4,98957:0:0:0:0:
64,192,98957,1,0,0:0:0:0:
192,192,99132,128,10,99481:0:0:0:0:
320,192,99481,128,2,99829:0:0:0:0:
448,192,99829,128,10,100178:0:0:0:0:
64,192,100178,1,2,0:0:0:0:
320,192,100178,1,4,0:0:0:0:
192,192,100353,1,0,0:0:0:0:
320,192,100527,128,10,101050:0:0:0:0:
192,192,101050,1,0,0:0:0:0:
320,192,101225,1,10,0:0:0:0:
64,192,101399,128,4,101748:0:0:0:0:
448,192,101399,1,2,0:0:0:0:
448,192,101748,128,0,102184:0:0:0:0:
320,192,102184,128,0,102620:0:0:0:0:
64,192,102620,1,0,0:0:0:70:tom02.wav
320,192,102969,1,2,0:0:0:0:
448,192,102969,1,4,0:0:0:0:
192,192,103143,1,8,0:0:0:0:
64,192,103318,1,2,0:0:0:0:
448,192,103492,1,8,0:0:0:0:
320,192,103667,1,2,0:0:0:0:
64,192,103928,1,6,0:0:0:0:
192,192,104190,1,8,0:0:0:0:
320,192,104190,1,4,0:0:0:0:
448,192,104539,1,8,0:0:0:0:
192,192,104800,1,2,0:0:0:0:
64,192,105062,1,2,0:0:0:0:
192,192,105324,1,2,0:0:0:0:
320,192,105585,1,8,0:0:0:0:
64,192,105760,1,2,0:0:0:0:
448,192,105760,1,4,0:0:0:0:
320,192,106021,1,0,0:0:0:0:
192,192,106283,1,8,0:0:0:0:
448,192,106457,1,2,0:0:0:0:
320,192,106719,1,6,0:0:0:0:
192,192,106981,1,12,0:0:0:0:
64,192,107155,1,2,0:0:0:0:
192,192,107417,1,0,0:0:0:0:
320,192,107678,1,8,0:0:0:0:
448,192,107853,1,2,0:0:0:0:
320,192,108114,1,2,0:0:0:0:
320,192,108376,1,8,0:0:0:0:
64,192,108550,128,0,108899:0:0:0:70:tom01.wav
320,192,108899,1,8,0:0:0:0:
448,192,108899,1,4,0:0:0:0:
192,192,109248,1,6,0:0:0:0:
64,192,109510,1,6,0:0:0:0:
320,192,109771,1,6,0:0:0:0:
448,192,109946,128,0,110295:0:0:0:0:
320,192,110295,128,2,110643:0:0:0:0:
192,192,110643,128,2,110992:0:0:0:0:
64,192,110992,128,6,111341:0:0:0:0:
320,192,111341,1,4,0:0:0:0:
448,192,111341,1,2,0:0:0:0:
64,192,111603,1,0,0:0:0:0:
192,192,111864,1,0,0:0:0:0:
320,192,112039,1,6,0:0:0:0:
64,192,112300,1,0,0:0:0:0:
192,192,112562,1,0,0:0:0:0:
448,192,112736,1,6,0:0:0:0:
64,192,112998,1,0,0:0:0:0:
320,192,113260,1,0,0:0:0:0:
448,192,113434,1,10,0:0:0:0:
192,192,113696,1,0,0:0:0:0:
320,192,113957,1,0,0:0:0:0:
64,192,114132,1,2,0:0:0:0:
192,192,114132,1,4,0:0:0:0:
448,192,114393,1,6,0:0:0:0:
448,192,114655,1,6,0:0:0:0:
320,192,115178,1,2,0:0:0:0:
448,192,115178,1,4,0:0:0:0:
64,192,115440,1,6,0:0:0:0:
64,192,115701,1,6,0:0:0:0:
320,192,116225,1,4,0:0:0:0:
448,192,116225,1,2,0:0:0:0:
192,192,116486,1,6,0:0:0:0:
192,192,116748,1,6,0:0:0:0:
320,192,117271,1,2,0:0:0:0:
448,192,117271,1,4,0:0:0:0:
192,192,117533,1,6,0:0:0:0:
192,192,117794,1,6,0:0:0:0:
64,192,118318,1,2,0:0:0:0:
192,192,118318,1,4,0:0:0:0:
320,192,118579,1,6,0:0:0:0:
320,192,118841,1,6,0:0:0:0:
64,192,119364,1,2,0:0:0:0:
192,192,119364,1,4,0:0:0:0:
320,192,119626,1,6,0:0:0:0:
320,192,119887,1,6,0:0:0:0:
64,192,120411,1,4,0:0:0:0:
192,192,120411,1,2,0:0:0:0:
448,192,120672,1,6,0:0:0:0:
448,192,120934,1,6,0:0:0:0:
64,192,121457,1,2,0:0:0:0:
192,192,121457,1,4,0:0:0:0:
448,192,121719,1,6,0:0:0:0:
448,192,121980,1,6,0:0:0:0:
64,192,122155,1,8,0:0:0:0:
192,192,122504,1,2,0:0:0:0:
320,192,122504,1,4,0:0:0:0:
448,192,122765,1,2,0:0:0:0:
320,192,123027,1,2,0:0:0:0:
192,192,123288,1,0,0:0:0:0:
64,192,123550,1,4,0:0:0:0:
448,192,123550,1,2,0:0:0:0:
320,192,123812,1,2,0:0:0:0:
192,192,124073,1,2,0:0:0:0:
64,192,124335,1,0,0:0:0:0:
320,192,124597,1,2,0:0:0:0:
448,192,124597,1,4,0:0:0:0:
192,192,124858,1,2,0:0:0:0:
64,192,125120,1,2,0:0:0:0:
448,192,125382,1,0,0:0:0:0:
64,192,125643,1,4,0:0:0:0:
192,192,125643,1,2,0:0:0:0:
448,192,125905,1,2,0:0:0:0:
320,192,126166,1,2,0:0:0:0:
192,192,126428,1,8,0:0:0:0:
64,192,126690,128,2,127038:0:0:0:0:
448,192,126690,1,4,0:0:0:0:
192,192,127213,128,10,127562:0:0:0:0:
448,192,127213,1,4,0:0:0:0:
64,192,127736,1,10,0:0:0:0:
320,192,127736,128,4,128085:0:0:0:0:
64,192,128259,1,12,0:0:0:0:
448,192,128259,128,2,128608:0:0:0:0:
64,192,128783,128,12,129132:0:0:0:0:
320,192,128783,1,2,0:0:0:0:
192,192,129132,128,10,129480:0:0:0:0:
448,192,129132,1,4,0:0:0:0:
320,192,129480,128,0,129829:0:0:0:70:tom01.wav
448,192,129829,128,0,130178:0:0:0:70:tom02.wav
64,192,130178,128,6,131573:0:0:0:0:
448,192,130876,128,0,131573:0:0:0:0:
320,192,131573,128,14,131922:0:0:0:0:
192,192,131922,128,10,132271:0:0:0:0:
64,192,132271,128,10,132620:0:0:0:0:
448,192,132620,1,10,0:0:0:0:
320,192,132969,1,0,0:0:0:0:
64,192,133318,1,0,0:0:0:0:
320,192,133666,1,0,0:0:0:0:
64,192,133928,1,0,0:0:0:0:
192,192,134190,1,4,0:0:0:0:
320,192,134190,1,2,0:0:0:0:
320,192,134538,1,8,0:0:0:0:
64,192,134713,128,2,135062:0:0:0:0:
448,192,134713,128,4,135062:0:0:0:0:
