osu file format v14

[General]
AudioFilename: Gintama Piano.mp3
AudioLeadIn: 0
PreviewTime: 79
Countdown: 0
SampleSet: Soft
StackLeniency: 0.7
Mode: 0
LetterboxInBreaks: 0
WidescreenStoryboard: 1

[Editor]
DistanceSpacing: 0.8
BeatDivisor: 4
GridSize: 8
TimelineZoom: 1

[Metadata]
Title:rlly sad song
TitleUnicode:rlly sad song
Artist:penis
ArtistUnicode:penis
Creator:Makoa
Version:penile cavity
Source:my penis that is
Tags:
BeatmapID:842666
BeatmapSetID:385854

[Difficulty]
HPDrainRate:6
CircleSize:2
OverallDifficulty:6
ApproachRate:9
SliderMultiplier:3.59999990463257
SliderTickRate:1

[Events]
//Background and Video events
0,0,"96ef2f9a5e7f7b76a9a07c0ded365df6.png",0,0
//Break Periods
//Storyboard Layer 0 (Background)
//Storyboard Layer 1 (Fail)
//Storyboard Layer 2 (Pass)
//Storyboard Layer 3 (Foreground)
//Storyboard Sound Samples

[TimingPoints]
79,461.438461538462,4,2,0,52,1,0
79,-66.6666666666667,4,2,0,52,0,0
425,-66.6666666666667,4,2,0,5,0,0
540,-200,4,2,0,52,0,0
886,-200,4,2,0,5,0,0
1001,-200,4,2,0,52,0,0
1347,-200,4,2,0,5,0,0
1463,-100,4,2,0,52,0,0
3193,-100,4,2,0,5,0,0
3309,-100,4,2,0,52,0,0
3655,-100,4,2,0,5,0,0
3770,-100,4,2,0,52,0,0
4116,-100,4,2,0,5,0,0
4231,-100,4,2,0,52,0,0
5616,-66.6666666666667,4,2,0,52,0,0
5846,-66.6666666666667,4,2,0,5,0,0
6077,-100,4,2,0,52,0,0
6308,-100,4,2,0,5,0,0
6539,-100,4,2,0,52,0,0
6769,-100,4,2,0,5,0,0
7000,-100,4,2,0,52,0,0
7231,-100,4,2,0,5,0,0
7462,-100,4,2,0,52,0,0
7692,-100,4,2,0,5,0,0
7923,-100,4,2,0,52,0,0
8154,-100,4,2,0,5,0,0
8384,-100,4,2,0,52,0,0
8615,-100,4,2,0,5,0,0
8846,-100,4,2,0,52,0,0
9077,-100,4,2,0,5,0,0
9307,-100,4,2,0,52,0,0
9653,-100,4,2,0,5,0,0
9769,-100,4,2,0,52,0,0
10115,-100,4,2,0,5,0,0
10230,-100,4,2,0,52,0,0
10576,-100,4,2,0,5,0,0
10692,-100,4,2,0,52,0,0
11038,-100,4,2,0,5,0,0
11153,-100,4,2,0,52,0,0
11499,-100,4,2,0,5,0,0
11614,-100,4,2,0,52,0,0
11961,-100,4,2,0,5,0,0
12076,-100,4,2,0,52,0,0
12422,-100,4,2,0,5,0,0
12537,-100,4,2,0,52,0,0
12883,-100,4,2,0,5,0,0
12999,-100,4,2,0,52,0,0
13345,-100,4,2,0,5,0,0
13460,-80,4,2,0,52,0,0
13806,-80,4,2,0,5,0,0
13922,-66.6666666666667,4,2,0,52,0,0
14268,-66.6666666666667,4,2,0,5,0,0
14383,-57.1428571428571,4,2,0,52,0,0
14729,-57.1428571428571,4,2,0,5,0,0
14845,-50,4,2,0,52,0,0
15191,-50,4,2,0,5,0,0
15306,-50,4,2,0,52,0,0
15652,-50,4,2,0,5,0,0
15767,-50,4,2,0,52,0,0
16113,-50,4,2,0,5,0,0
16229,-50,4,2,0,52,0,0
16575,-50,4,2,0,5,0,0
16690,-200,4,2,0,52,0,0
17152,-50,4,2,0,52,0,0
17498,-50,4,2,0,5,0,0
17613,-50,4,2,0,52,0,0
17959,-50,4,2,0,5,0,0
18075,-50,4,2,0,52,0,0
18421,-50,4,2,0,5,0,0
18536,-50,4,2,0,52,0,0
18882,-50,4,2,0,5,0,0
18997,-50,4,2,0,52,0,0
19344,-50,4,2,0,5,0,0
19459,-50,4,2,0,52,0,0
19805,-50,4,2,0,5,0,0
19920,-50,4,2,0,52,0,0
20266,-50,4,2,0,5,0,0
20382,-50,4,2,0,52,0,0
20728,-50,4,2,0,5,0,0
20843,-50,4,2,0,52,0,0
21189,-50,4,2,0,5,0,0
21305,-50,4,2,0,52,0,0
21651,-50,4,2,0,5,0,0
21766,-50,4,2,0,52,0,0
22112,-50,4,2,0,5,0,0
22228,-600,4,2,0,52,0,0
22574,-600,4,2,0,5,0,0
22689,-600,4,2,0,54,0,0
23035,-600,4,2,0,5,0,0
23150,-600,4,2,0,51,0,0
23497,-600,4,2,0,5,0,0
23612,-600,4,2,0,51,0,0
23958,-600,4,2,0,5,0,0
24073,1090.90909090909,4,2,0,52,1,0
24073,-588.235294117647,4,2,0,52,0,0
24880,-588.235294117647,4,2,0,5,0,0
24996,461.438461538462,4,2,0,52,1,0
24996,-588.235294117647,4,2,0,52,0,0
24996,-588.235294117647,4,2,0,52,0,0
25342,-588.235294117647,4,2,0,5,0,0
25457,-588.235294117647,4,2,0,52,0,0
25803,-588.235294117647,4,2,0,5,0,0
25918,1846.15384615385,4,2,0,52,1,0
25919,-3000,4,2,0,52,0,0

[HitObjects]
125,159,79,6,0,B|280:165|306:52|306:52|395:127|326:204,1,405.000004720688
195,302,540,6,0,B|174:326|174:326|241:318|241:318|266:291,1,134.999996423721
328,201,1001,2,0,B|377:189|413:211|413:211|405:244|405:244|385:219,1,134.999996423721
346,105,1463,6,0,B|236:47|100:94|100:94|276:151,2,359.999990463257
276,182,2616,1,0,0:0:0:0:
191,243,2847,2,0,P|175:162|340:104,1,269.999992847443
208,278,3309,6,0,B|146:324|146:324|40:324|40:324|162:285,1,269.999992847443
307,270,3770,2,0,B|369:224|369:224|475:224|475:224|353:263,1,269.999992847443
224,184,4231,2,0,P|184:80|240:184,2,359.999990463257
387,296,5616,6,0,B|418:322|442:330|442:330|218:330|218:330|258:314|319:250,1,405.000004720688
401,196,6077,2,0,B|533:37|404:40|404:40|388:157,1,269.999992847443
314,159,6539,2,0,B|250:188|189:155|189:155|146:105|177:73|222:97|175:153|175:153|119:125,1,269.999992847443
69,118,7000,2,0,B|46:94|46:94|86:188|62:287|62:287|91:253|107:244,1,269.999992847443
168,189,7462,6,0,P|257:130|434:105,1,269.999992847443
403,202,7923,2,0,B|315:193|247:254|247:254|351:279|332:247,1,269.999992847443
252,72,8384,2,0,B|228:28|228:29|227:28|227:28|164:144|142:283,1,269.999992847443
413,172,8846,2,0,B|457:148|456:148|457:147|457:147|341:84|202:62,1,269.999992847443
87,81,9307,6,0,B|65:112|2:154|2:154|65:168|99:210|99:210|99:167,1,269.999992847443
22,261,9769,2,0,P|63:299|186:174,1,269.999992847443
105,218,10230,2,0,P|185:278|273:163,1,269.999992847443
191,188,10692,2,0,P|232:248|362:160,1,269.999992847443
331,67,11153,6,0,B|319:31|319:31|251:90|131:47|131:47|154:96,1,269.999992847443
191,188,11614,2,0,B|179:294|41:162|41:162|157:214,1,269.999992847443
280,244,12076,2,0,B|382:279|382:279|352:152|352:152|329:182,1,269.999992847443
216,317,12537,2,0,P|113:290|59:107,1,269.999992847443
180,115,12999,6,0,P|261:159|159:146,1,269.999992847443
180,115,13460,6,0,P|281:157|159:146,1,337.499991059303
180,115,13922,6,0,P|300:160|159:146,1,405.000004720688
180,115,14383,6,0,P|321:168|159:146,1,472.499991989136
353,36,14845,6,0,P|421:181|87:271,1,539.999985694885
247,172,15306,2,0,B|299:108|299:108|385:194|284:392|30:141,1,539.999985694885
99,70,15767,2,0,B|164:108|164:108|236:39|236:39|326:-41|471:89|408:261,1,539.999985694885
271,187,16229,2,0,B|175:200|101:256|101:256|184:290|343:287|414:249|414:249|422:192,1,539.999985694885
416,105,16690,6,0,B|416:103|416:103|414:103|414:103|415:106|415:106|416:106|416:106|414:104|414:104|415:105|415:105|415:107|415:107|414:106|414:106|412:103|412:103|413:103|413:103|412:102|412:102|413:102|413:102|412:100|412:100|410:101|410:101|411:101|411:101|411:100|411:100|410:100|410:100|410:99|410:99|407:100|407:100|409:99|409:99|408:98|408:98|406:98|406:98|406:99|404:99|404:99|404:98|404:98|404:97|404:97|402:98|402:98|402:97|402:97|401:98|401:98|401:97|401:97|400:97|400:97|399:98|399:98|399:97|399:97|399:96|399:96|399:95|399:95|398:98|398:98|397:97|397:97|398:95|398:95|397:95|397:95|397:96|396:96|396:96|396:97|396:97|395:96|395:96|395:95|395:95|394:95|394:95|394:96|394:96|393:96|393:96|392:96|392:95|392:95|391:97|391:97|391:96|391:96|389:97|389:97|389:96|389:96|388:95|388:95|387:97|387:97|386:95|386:95|387:96|387:96|388:96|388:96|386:96|386:96|386:98|386:98|385:95|385:95|384:96|384:96|383:96|383:95|383:97|383:97|382:96|382:96|381:96|381:96|380:97|380:97|379:97|379:97|379:96|379:96|378:95|378:95|378:96|378:96|377:94|377:94|375:95|375:95|376:93|376:93|375:93|375:93|373:94|373:94|374:93|374:93|372:93|372:93|370:92|370:92|370:91|370:91|369:90|369:90|368:90|368:91|368:91|368:89|367:88|367:88|366:88|366:88|366:90|366:90|366:87|366:87|356:78,1,134.999996423721
252,84,17152,6,0,B|74:48|74:48|229:165|229:165|319:175|319:175|223:206,1,539.999985694885
142,227,17613,2,0,B|72:247|72:247|54:197|54:197|102:184|102:184|129:273|131:323|105:353|105:353|148:287|213:269|296:306,1,539.999985694885
372,330,18075,2,0,B|435:352|435:352|434:18|434:18|351:188,1,539.999985694885
312,232,18536,6,0,B|249:232|189:117|314:57|314:57|163:57|163:57|71:117|71:117|150:117,1,539.999985694885
313,58,18997,2,0,P|409:104|186:270,1,539.999985694885
110,270,19459,2,0,P|33:209|214:237,1,539.999985694885
132,165,19920,2,0,B|236:101|464:99|464:99|389:140|269:152,1,539.999985694885
173,92,20382,6,0,B|130:64|107:18|107:18|-53:194|71:357|283:297,1,539.999985694885
336,265,20843,2,0,P|393:122|150:202,1,539.999985694885
166,267,21305,2,0,B|189:314|189:314|57:243|57:243|-4:93|-4:93|226:32|226:32|260:93,1,539.999985694885
321,49,21766,2,0,P|453:173|247:122,1,539.999985694885
351,148,22228,2,0,L|330:207,1,44.9999988079071
255,262,22689,2,0,L|194:277,1,44.9999988079071
112,228,23150,2,0,L|61:178,1,44.9999988079071
168,134,23612,2,0,L|236:132,1,44.9999988079071
318,156,24073,6,0,L|376:191,1,44.9999988079071
297,270,24996,6,0,L|223:269,1,44.9999988079071
173,195,25458,2,0,L|204:132,1,44.9999988079071
321,97,25919,6,0,L|302:133,1,35.9999990463257,0|4,0:0|0:0,0:0:0:0:
