osu file format v14

[General]
AudioFilename: lol im lazy haha.mp3
AudioLeadIn: 0
PreviewTime: -1
Countdown: 1
SampleSet: None
StackLeniency: 0.7
Mode: 3
LetterboxInBreaks: 1
SpecialStyle: 0
WidescreenStoryboard: 0

[Editor]
DistanceSpacing: 1.2
BeatDivisor: 4
GridSize: 4
TimelineZoom: 1.3

[Metadata]
Title:she is not junk(but, i am junk) Short ver.
TitleUnicode:she is not junk(but, i am junk) Short ver.
Artist:pencil
ArtistUnicode:pencil
Creator:Lenfried-
Version:your waifu is trash haha
Source:
Tags:lolicore REBUILD MY ROOTS breakcore
BeatmapID:2019132
BeatmapSetID:964463

[Difficulty]
HPDrainRate:9
CircleSize:4
OverallDifficulty:9
ApproachRate:5
SliderMultiplier:1.4
SliderTickRate:1

[Events]
//Background and Video events
0,0,"jacket.jpg",0,0
//Break Periods
//Storyboard Layer 0 (Background)
//Storyboard Layer 1 (Fail)
//Storyboard Layer 2 (Pass)
//Storyboard Layer 3 (Foreground)
//Storyboard Sound Samples

[TimingPoints]
0,300,4,2,0,30,1,0

[HitObjects]
448,192,0,128,0,2400:0:0:0:0:
64,192,0,1,0,0:0:0:0:
192,192,300,1,0,0:0:0:0:
320,192,600,1,0,0:0:0:0:
192,192,900,1,0,0:0:0:0:
64,192,1200,1,0,0:0:0:0:
320,192,1500,1,0,0:0:0:0:
192,192,1800,1,0,0:0:0:0:
64,192,2100,1,0,0:0:0:0:
320,192,2400,128,0,4800:0:0:0:0:
64,192,2400,1,0,0:0:0:0:
448,192,2700,1,0,0:0:0:0:
64,192,3000,1,0,0:0:0:0:
192,192,3300,1,0,0:0:0:0:
64,192,3600,1,0,0:0:0:0:
192,192,3900,1,0,0:0:0:0:
448,192,4200,1,0,0:0:0:0:
64,192,4500,1,0,0:0:0:0:
192,192,4800,128,0,7200:0:0:0:0:
448,192,4800,1,0,0:0:0:0:
64,192,5100,1,0,0:0:0:0:
320,192,5400,1,0,0:0:0:0:
448,192,5700,1,0,0:0:0:0:
320,192,6000,1,0,0:0:0:0:
64,192,6300,1,0,0:0:0:0:
320,192,6600,1,0,0:0:0:0:
448,192,6900,1,0,0:0:0:0:
448,192,7200,1,0,0:0:0:0:
64,192,7200,128,0,9600:0:0:0:0:
192,192,7500,1,0,0:0:0:0:
320,192,7800,1,0,0:0:0:0:
192,192,8100,1,0,0:0:0:0:
448,192,8400,1,0,0:0:0:0:
320,192,8700,1,0,0:0:0:0:
192,192,9000,1,0,0:0:0:0:
320,192,9300,1,0,0:0:0:0:
320,192,9600,1,0,0:0:0:0:
448,192,9600,1,0,0:0:0:0:
192,192,9900,1,0,0:0:0:0:
320,192,10050,1,0,0:0:0:0:
448,192,10050,1,0,0:0:0:0:
64,192,10200,1,0,0:0:0:0:
320,192,10500,1,0,0:0:0:0:
320,192,10800,1,0,0:0:0:0:
448,192,10800,1,0,0:0:0:0:
64,192,11100,1,0,0:0:0:0:
320,192,11400,1,0,0:0:0:0:
448,192,11400,1,0,0:0:0:0:
320,192,11700,1,0,0:0:0:0:
448,192,11700,1,0,0:0:0:0:
192,192,12000,1,0,0:0:0:0:
64,192,12000,1,0,0:0:0:0:
448,192,12300,1,0,0:0:0:0:
192,192,12450,1,0,0:0:0:0:
64,192,12450,1,0,0:0:0:0:
320,192,12600,1,0,0:0:0:0:
192,192,12900,1,0,0:0:0:0:
192,192,13200,1,0,0:0:0:0:
64,192,13200,1,0,0:0:0:0:
320,192,13500,1,0,0:0:0:0:
192,192,13800,1,0,0:0:0:0:
64,192,13800,1,0,0:0:0:0:
64,192,14100,1,0,0:0:0:0:
192,192,14100,1,0,0:0:0:0:
192,192,14250,1,0,0:0:0:0:
64,192,14250,1,0,0:0:0:0:
192,192,14400,1,0,0:0:0:0:
64,192,14400,1,0,0:0:0:0:
448,192,14700,1,0,0:0:0:0:
448,192,14850,1,0,0:0:0:0:
320,192,14850,1,0,0:0:0:0:
64,192,15000,1,0,0:0:0:0:
192,192,15300,1,0,0:0:0:0:
192,192,15600,1,0,0:0:0:0:
64,192,15600,1,0,0:0:0:0:
320,192,15900,1,0,0:0:0:0:
320,192,16200,1,0,0:0:0:0:
448,192,16200,1,0,0:0:0:0:
192,192,16500,1,0,0:0:0:0:
64,192,16500,1,0,0:0:0:0:
320,192,16800,1,0,0:0:0:0:
448,192,16800,1,0,0:0:0:0:
64,192,17100,1,0,0:0:0:0:
320,192,17250,1,0,0:0:0:0:
448,192,17250,1,0,0:0:0:0:
192,192,17400,1,0,0:0:0:0:
64,192,17400,1,0,0:0:0:0:
192,192,17550,1,0,0:0:0:0:
320,192,17587,1,0,0:0:0:0:
448,192,17625,1,0,0:0:0:0:
64,192,17662,1,0,0:0:0:0:
320,192,17700,1,0,0:0:0:0:
448,192,17775,1,0,0:0:0:0:
192,192,17850,1,0,0:0:0:0:
320,192,17887,1,0,0:0:0:0:
448,192,17925,1,0,0:0:0:0:
192,192,17962,1,0,0:0:0:0:
64,192,18000,1,0,0:0:0:0:
448,192,18075,1,0,0:0:0:0:
192,192,18112,1,0,0:0:0:0:
320,192,18150,1,0,0:0:0:0:
64,192,18225,1,0,0:0:0:0:
320,192,18300,1,0,0:0:0:0:
64,192,18337,1,0,0:0:0:0:
448,192,18375,1,0,0:0:0:0:
192,192,18450,1,0,0:0:0:0:
320,192,18525,1,0,0:0:0:0:
64,192,18562,1,0,0:0:0:0:
192,192,18600,1,0,0:0:0:0:
448,192,18600,1,0,0:0:0:0:
320,192,18600,1,0,0:0:0:0:
448,192,18900,1,0,0:0:0:0:
320,192,18900,1,0,0:0:0:0:
192,192,18900,1,0,0:0:0:0:
448,192,19200,1,0,0:0:0:0:
320,192,19200,1,0,0:0:0:0:
192,192,19200,1,0,0:0:0:0:
64,192,19200,1,0,0:0:0:0:
320,192,19500,1,0,0:0:0:0:
192,192,19800,1,0,0:0:0:0:
64,192,19800,1,0,0:0:0:0:
448,192,19800,1,0,0:0:0:0:
320,192,20100,1,0,0:0:0:0:
192,192,20100,1,0,0:0:0:0:
448,192,20250,1,0,0:0:0:0:
320,192,20250,1,0,0:0:0:0:
64,192,20250,1,0,0:0:0:0:
64,192,20400,1,0,0:0:0:0:
192,192,20400,1,0,0:0:0:0:
320,192,20550,1,0,0:0:0:0:
448,192,20550,1,0,0:0:0:0:
192,192,20625,1,0,0:0:0:0:
64,192,20700,1,0,0:0:0:0:
448,192,20700,1,0,0:0:0:0:
192,192,20775,1,0,0:0:0:0:
64,192,20850,1,0,0:0:0:0:
320,192,20850,1,0,0:0:0:0:
448,192,20925,1,0,0:0:0:0:
320,192,21000,1,0,0:0:0:0:
192,192,21000,1,0,0:0:0:0:
64,192,21000,1,0,0:0:0:0:
192,192,21300,1,0,0:0:0:0:
448,192,21600,1,0,0:0:0:0:
192,192,21600,1,0,0:0:0:0:
320,192,21900,1,0,0:0:0:0:
320,192,22200,1,0,0:0:0:0:
192,192,22200,1,0,0:0:0:0:
64,192,22200,1,0,0:0:0:0:
192,192,22500,1,0,0:0:0:0:
320,192,22500,1,0,0:0:0:0:
448,192,22650,1,0,0:0:0:0:
192,192,22650,1,0,0:0:0:0:
64,192,22725,1,0,0:0:0:0:
320,192,22800,1,0,0:0:0:0:
448,192,22800,1,0,0:0:0:0:
192,192,22875,1,0,0:0:0:0:
64,192,22950,1,0,0:0:0:0:
320,192,22950,1,0,0:0:0:0:
448,192,23025,1,0,0:0:0:0:
192,192,23100,1,0,0:0:0:0:
64,192,23100,1,0,0:0:0:0:
320,192,23175,1,0,0:0:0:0:
448,192,23250,1,0,0:0:0:0:
192,192,23250,1,0,0:0:0:0:
64,192,23325,1,0,0:0:0:0:
320,192,23400,1,0,0:0:0:0:
448,192,23400,1,0,0:0:0:0:
192,192,23700,1,0,0:0:0:0:
64,192,23700,1,0,0:0:0:0:
320,192,23850,1,0,0:0:0:0:
448,192,23850,1,0,0:0:0:0:
192,192,24000,1,0,0:0:0:0:
64,192,24000,1,0,0:0:0:0:
320,192,24037,1,0,0:0:0:0:
448,192,24075,1,0,0:0:0:0:
192,192,24112,1,0,0:0:0:0:
320,192,24150,1,0,0:0:0:0:
448,192,24187,1,0,0:0:0:0:
64,192,24225,1,0,0:0:0:0:
192,192,24262,1,0,0:0:0:0:
320,192,24300,1,0,0:0:0:0:
192,192,24450,1,0,0:0:0:0:
64,192,24600,1,0,0:0:0:0:
320,192,24600,1,0,0:0:0:0:
448,192,24600,1,0,0:0:0:0:
192,192,24900,1,0,0:0:0:0:
320,192,24900,1,0,0:0:0:0:
320,192,25050,1,0,0:0:0:0:
448,192,25050,1,0,0:0:0:0:
64,192,25200,1,0,0:0:0:0:
320,192,25350,1,0,0:0:0:0:
448,192,25350,1,0,0:0:0:0:
192,192,25500,1,0,0:0:0:0:
64,192,25650,1,0,0:0:0:0:
192,192,25650,1,0,0:0:0:0:
320,192,25800,1,0,0:0:0:0:
448,192,25800,1,0,0:0:0:0:
192,192,25875,1,0,0:0:0:0:
64,192,25950,1,0,0:0:0:0:
320,192,25950,1,0,0:0:0:0:
192,192,26025,1,0,0:0:0:0:
448,192,26100,1,0,0:0:0:0:
320,192,26100,1,0,0:0:0:0:
64,192,26175,1,0,0:0:0:0:
448,192,26250,1,0,0:0:0:0:
192,192,26250,1,0,0:0:0:0:
320,192,26325,1,0,0:0:0:0:
64,192,26400,1,0,0:0:0:0:
448,192,26400,1,0,0:0:0:0:
192,192,26400,1,0,0:0:0:0:
320,192,26700,1,0,0:0:0:0:
320,192,27000,1,0,0:0:0:0:
448,192,27000,1,0,0:0:0:0:
192,192,27000,1,0,0:0:0:0:
320,192,27300,1,0,0:0:0:0:
192,192,27300,1,0,0:0:0:0:
64,192,27300,1,0,0:0:0:0:
448,192,27600,1,0,0:0:0:0:
448,192,27900,1,0,0:0:0:0:
320,192,27900,1,0,0:0:0:0:
192,192,28200,1,0,0:0:0:0:
320,192,28200,1,0,0:0:0:0:
448,192,28200,1,0,0:0:0:0:
320,192,28500,1,0,0:0:0:0:
192,192,28500,1,0,0:0:0:0:
64,192,28500,1,0,0:0:0:0:
320,192,28800,128,0,32400:0:0:0:0:
448,192,28800,128,0,29100:0:0:0:0:
64,192,29100,128,0,29250:0:0:0:0:
448,192,29250,128,0,29550:0:0:0:0:
192,192,29550,128,0,29700:0:0:0:0:
448,192,29700,128,0,30000:0:0:0:0:
64,192,30000,128,0,30150:0:0:0:0:
448,192,30150,128,0,30450:0:0:0:0:
192,192,30450,128,0,30600:0:0:0:0:
64,192,30600,128,0,30900:0:0:0:0:
192,192,30900,128,0,31050:0:0:0:0:
448,192,31050,128,0,31350:0:0:0:0:
64,192,31350,128,0,31500:0:0:0:0:
192,192,31500,128,0,31800:0:0:0:0:
64,192,31800,128,0,31950:0:0:0:0:
448,192,31950,1,0,0:0:0:0:
192,192,32250,1,0,0:0:0:0:
64,192,32400,1,0,0:0:0:0:
64,192,32700,1,0,0:0:0:0:
320,192,36000,1,0,0:0:0:0:
448,192,36000,1,0,0:0:0:0:
192,192,36075,1,0,0:0:0:0:
64,192,36150,1,0,0:0:0:0:
320,192,36150,1,0,0:0:0:0:
192,192,36225,1,0,0:0:0:0:
448,192,36300,1,0,0:0:0:0:
320,192,36300,1,0,0:0:0:0:
64,192,36375,1,0,0:0:0:0:
192,192,36450,1,0,0:0:0:0:
448,192,36450,1,0,0:0:0:0:
320,192,36525,1,0,0:0:0:0:
64,192,36600,1,0,0:0:0:0:
192,192,36600,1,0,0:0:0:0:
448,192,36675,1,0,0:0:0:0:
320,192,36750,1,0,0:0:0:0:
64,192,36750,1,0,0:0:0:0:
192,192,36825,1,0,0:0:0:0:
320,192,36900,1,0,0:0:0:0:
448,192,36900,1,0,0:0:0:0:
448,192,36975,1,0,0:0:0:0:
320,192,36975,1,0,0:0:0:0:
192,192,37050,1,0,0:0:0:0:
64,192,37050,1,0,0:0:0:0:
320,192,37125,1,0,0:0:0:0:
448,192,37125,1,0,0:0:0:0:
192,192,37200,1,0,0:0:0:0:
64,192,37200,1,0,0:0:0:0:
64,192,37275,1,0,0:0:0:0:
192,192,37275,1,0,0:0:0:0:
320,192,37350,1,0,0:0:0:0:
448,192,37350,1,0,0:0:0:0:
192,192,37425,1,0,0:0:0:0:
64,192,37425,1,0,0:0:0:0:
320,192,37500,1,0,0:0:0:0:
448,192,37500,1,0,0:0:0:0:
192,192,37575,1,0,0:0:0:0:
64,192,37575,1,0,0:0:0:0:
448,192,37650,1,0,0:0:0:0:
192,192,37800,1,0,0:0:0:0:
64,192,37800,1,0,0:0:0:0:
320,192,37800,1,0,0:0:0:0:
64,192,38100,1,0,0:0:0:0:
320,192,38100,1,0,0:0:0:0:
448,192,38100,1,0,0:0:0:0:
448,192,38400,1,0,0:0:0:0:
320,192,38400,1,0,0:0:0:0:
192,192,38400,1,0,0:0:0:0:
64,192,38475,1,0,0:0:0:0:
320,192,38550,1,0,0:0:0:0:
192,192,38625,1,0,0:0:0:0:
64,192,38700,1,0,0:0:0:0:
448,192,38700,1,0,0:0:0:0:
320,192,38775,1,0,0:0:0:0:
192,192,38850,1,0,0:0:0:0:
64,192,38850,1,0,0:0:0:0:
448,192,38850,1,0,0:0:0:0:
192,192,38925,1,0,0:0:0:0:
320,192,39000,1,0,0:0:0:0:
64,192,39075,1,0,0:0:0:0:
448,192,39150,1,0,0:0:0:0:
320,192,39150,1,0,0:0:0:0:
64,192,39225,1,0,0:0:0:0:
192,192,39225,1,0,0:0:0:0:
192,192,39300,1,0,0:0:0:0:
64,192,39300,1,0,0:0:0:0:
448,192,39300,1,0,0:0:0:0:
320,192,39375,1,0,0:0:0:0:
192,192,39450,1,0,0:0:0:0:
64,192,39450,1,0,0:0:0:0:
320,192,39525,1,0,0:0:0:0:
448,192,39600,1,0,0:0:0:0:
64,192,39600,1,0,0:0:0:0:
192,192,39675,1,0,0:0:0:0:
448,192,39750,1,0,0:0:0:0:
64,192,39750,1,0,0:0:0:0:
320,192,39825,1,0,0:0:0:0:
192,192,39900,1,0,0:0:0:0:
64,192,39900,1,0,0:0:0:0:
448,192,39975,1,0,0:0:0:0:
192,192,40050,1,0,0:0:0:0:
320,192,40050,1,0,0:0:0:0:
64,192,40200,1,0,0:0:0:0:
320,192,40200,1,0,0:0:0:0:
448,192,40200,1,0,0:0:0:0:
64,192,40500,1,0,0:0:0:0:
192,192,40500,1,0,0:0:0:0:
448,192,40500,1,0,0:0:0:0:
320,192,40650,1,0,0:0:0:0:
192,192,40725,1,0,0:0:0:0:
64,192,40800,1,0,0:0:0:0:
320,192,40800,1,0,0:0:0:0:
448,192,40800,1,0,0:0:0:0:
192,192,40950,1,0,0:0:0:0:
64,192,40950,1,0,0:0:0:0:
64,192,41025,1,0,0:0:0:0:
192,192,41025,1,0,0:0:0:0:
320,192,41100,1,0,0:0:0:0:
448,192,41100,1,0,0:0:0:0:
192,192,41250,1,0,0:0:0:0:
64,192,41250,1,0,0:0:0:0:
320,192,41325,1,0,0:0:0:0:
192,192,41400,1,0,0:0:0:0:
448,192,41400,1,0,0:0:0:0:
192,192,41475,1,0,0:0:0:0:
64,192,41550,1,0,0:0:0:0:
448,192,41550,1,0,0:0:0:0:
448,192,41700,1,0,0:0:0:0:
320,192,41700,1,0,0:0:0:0:
192,192,41700,1,0,0:0:0:0:
64,192,41850,1,0,0:0:0:0:
64,192,42000,1,0,0:0:0:0:
448,192,42000,1,0,0:0:0:0:
192,192,42000,1,0,0:0:0:0:
320,192,42150,1,0,0:0:0:0:
192,192,42150,1,0,0:0:0:0:
320,192,42225,1,0,0:0:0:0:
448,192,42225,1,0,0:0:0:0:
64,192,42225,1,0,0:0:0:0:
192,192,42375,1,0,0:0:0:0:
64,192,42375,1,0,0:0:0:0:
64,192,42450,1,0,0:0:0:0:
320,192,42450,1,0,0:0:0:0:
448,192,42450,1,0,0:0:0:0:
192,192,42525,1,0,0:0:0:0:
320,192,42600,1,0,0:0:0:0:
448,192,42600,1,0,0:0:0:0:
64,192,42675,1,0,0:0:0:0:
320,192,42750,1,0,0:0:0:0:
192,192,42750,1,0,0:0:0:0:
448,192,42825,1,0,0:0:0:0:
64,192,42825,1,0,0:0:0:0:
192,192,42900,1,0,0:0:0:0:
320,192,42975,1,0,0:0:0:0:
320,192,43050,1,0,0:0:0:0:
448,192,43050,1,0,0:0:0:0:
64,192,43050,1,0,0:0:0:0:
192,192,43200,1,0,0:0:0:0:
64,192,43200,1,0,0:0:0:0:
192,192,43275,1,0,0:0:0:0:
64,192,43275,1,0,0:0:0:0:
320,192,43350,1,0,0:0:0:0:
448,192,43350,1,0,0:0:0:0:
448,192,43425,1,0,0:0:0:0:
320,192,43425,1,0,0:0:0:0:
192,192,43500,1,0,0:0:0:0:
64,192,43500,1,0,0:0:0:0:
448,192,43500,1,0,0:0:0:0:
192,192,43650,1,0,0:0:0:0:
64,192,43650,1,0,0:0:0:0:
448,192,43725,1,0,0:0:0:0:
320,192,43800,1,0,0:0:0:0:
64,192,43800,1,0,0:0:0:0:
192,192,43875,1,0,0:0:0:0:
320,192,43950,1,0,0:0:0:0:
448,192,43950,1,0,0:0:0:0:
64,192,44025,1,0,0:0:0:0:
192,192,44100,1,0,0:0:0:0:
320,192,44100,1,0,0:0:0:0:
192,192,44250,1,0,0:0:0:0:
64,192,44250,1,0,0:0:0:0:
64,192,44400,1,0,0:0:0:0:
320,192,44400,1,0,0:0:0:0:
448,192,44400,1,0,0:0:0:0:
64,192,44625,1,0,0:0:0:0:
448,192,44625,1,0,0:0:0:0:
320,192,44625,1,0,0:0:0:0:
192,192,44850,1,0,0:0:0:0:
64,192,44850,1,0,0:0:0:0:
448,192,45000,1,0,0:0:0:0:
320,192,45075,1,0,0:0:0:0:
192,192,45150,1,0,0:0:0:0:
64,192,45150,1,0,0:0:0:0:
320,192,45300,1,0,0:0:0:0:
448,192,45375,1,0,0:0:0:0:
192,192,45375,1,0,0:0:0:0:
192,192,45525,1,0,0:0:0:0:
64,192,45600,1,0,0:0:0:0:
320,192,45600,1,0,0:0:0:0:
448,192,45600,1,0,0:0:0:0:
448,192,45675,1,0,0:0:0:0:
192,192,45750,1,0,0:0:0:0:
64,192,45750,1,0,0:0:0:0:
320,192,45750,1,0,0:0:0:0:
448,192,45900,1,0,0:0:0:0:
192,192,45900,1,0,0:0:0:0:
320,192,46050,1,0,0:0:0:0:
64,192,46050,1,0,0:0:0:0:
320,192,46125,1,0,0:0:0:0:
192,192,46200,1,0,0:0:0:0:
448,192,46200,1,0,0:0:0:0:
64,192,46350,1,0,0:0:0:0:
320,192,46350,1,0,0:0:0:0:
192,192,46500,1,0,0:0:0:0:
320,192,46500,1,0,0:0:0:0:
448,192,46500,1,0,0:0:0:0:
192,192,46650,1,0,0:0:0:0:
320,192,46725,1,0,0:0:0:0:
64,192,46800,1,0,0:0:0:0:
192,192,46800,1,0,0:0:0:0:
448,192,46800,1,0,0:0:0:0:
320,192,46950,1,0,0:0:0:0:
448,192,46950,1,0,0:0:0:0:
192,192,47025,1,0,0:0:0:0:
64,192,47025,1,0,0:0:0:0:
320,192,47100,1,0,0:0:0:0:
448,192,47100,1,0,0:0:0:0:
320,192,47250,1,0,0:0:0:0:
192,192,47250,1,0,0:0:0:0:
64,192,47400,1,0,0:0:0:0:
192,192,47400,1,0,0:0:0:0:
448,192,47475,1,0,0:0:0:0:
320,192,47550,1,0,0:0:0:0:
320,192,47700,1,0,0:0:0:0:
192,192,47700,1,0,0:0:0:0:
64,192,47700,1,0,0:0:0:0:
192,192,47850,1,0,0:0:0:0:
320,192,47925,1,0,0:0:0:0:
192,192,48000,1,0,0:0:0:0:
64,192,48000,1,0,0:0:0:0:
448,192,48000,1,0,0:0:0:0:
448,192,48075,1,0,0:0:0:0:
192,192,48150,1,0,0:0:0:0:
192,192,48225,1,0,0:0:0:0:
320,192,48300,1,0,0:0:0:0:
448,192,48300,1,0,0:0:0:0:
64,192,48300,1,0,0:0:0:0:
320,192,48375,1,0,0:0:0:0:
64,192,48450,1,0,0:0:0:0:
64,192,48525,1,0,0:0:0:0:
192,192,48600,1,0,0:0:0:0:
320,192,48600,1,0,0:0:0:0:
448,192,48600,1,0,0:0:0:0:
320,192,48900,1,0,0:0:0:0:
448,192,48900,1,0,0:0:0:0:
448,192,48975,1,0,0:0:0:0:
320,192,48975,1,0,0:0:0:0:
192,192,49050,1,0,0:0:0:0:
64,192,49050,1,0,0:0:0:0:
192,192,49200,1,0,0:0:0:0:
64,192,49200,1,0,0:0:0:0:
448,192,49200,1,0,0:0:0:0:
320,192,49350,1,0,0:0:0:0:
448,192,49350,1,0,0:0:0:0:
192,192,49350,1,0,0:0:0:0:
192,192,49500,1,0,0:0:0:0:
64,192,49500,1,0,0:0:0:0:
64,192,49575,1,0,0:0:0:0:
192,192,49575,1,0,0:0:0:0:
448,192,49650,1,0,0:0:0:0:
320,192,49650,1,0,0:0:0:0:
192,192,49725,1,0,0:0:0:0:
64,192,49800,1,0,0:0:0:0:
320,192,49800,1,0,0:0:0:0:
448,192,49800,1,0,0:0:0:0:
192,192,49950,1,0,0:0:0:0:
64,192,50100,1,0,0:0:0:0:
192,192,50100,1,0,0:0:0:0:
320,192,50100,1,0,0:0:0:0:
320,192,50250,1,0,0:0:0:0:
192,192,50400,1,0,0:0:0:0:
64,192,50400,1,0,0:0:0:0:
448,192,50400,1,0,0:0:0:0:
320,192,50550,1,0,0:0:0:0:
192,192,50550,1,0,0:0:0:0:
192,192,50625,1,0,0:0:0:0:
64,192,50625,1,0,0:0:0:0:
448,192,50625,1,0,0:0:0:0:
320,192,50775,1,0,0:0:0:0:
448,192,50775,1,0,0:0:0:0:
320,192,50850,1,0,0:0:0:0:
192,192,50850,1,0,0:0:0:0:
64,192,50850,1,0,0:0:0:0:
192,192,51000,1,0,0:0:0:0:
64,192,51000,1,0,0:0:0:0:
192,192,51150,1,0,0:0:0:0:
64,192,51225,1,0,0:0:0:0:
320,192,51300,1,0,0:0:0:0:
448,192,51300,1,0,0:0:0:0:
448,192,51375,1,0,0:0:0:0:
320,192,51375,1,0,0:0:0:0:
192,192,51450,1,0,0:0:0:0:
64,192,51450,1,0,0:0:0:0:
320,192,51525,1,0,0:0:0:0:
448,192,51525,1,0,0:0:0:0:
448,192,51600,1,0,0:0:0:0:
320,192,51600,1,0,0:0:0:0:
192,192,51675,1,0,0:0:0:0:
64,192,51750,1,0,0:0:0:0:
448,192,51750,1,0,0:0:0:0:
320,192,51825,1,0,0:0:0:0:
192,192,51900,1,0,0:0:0:0:
64,192,51900,1,0,0:0:0:0:
64,192,52050,1,0,0:0:0:0:
192,192,52050,1,0,0:0:0:0:
448,192,52050,1,0,0:0:0:0:
320,192,52200,1,0,0:0:0:0:
192,192,52200,1,0,0:0:0:0:
448,192,52200,1,0,0:0:0:0:
320,192,52500,1,0,0:0:0:0:
448,192,52500,1,0,0:0:0:0:
192,192,52575,1,0,0:0:0:0:
64,192,52575,1,0,0:0:0:0:
320,192,52650,1,0,0:0:0:0:
448,192,52650,1,0,0:0:0:0:
192,192,52725,1,0,0:0:0:0:
64,192,52725,1,0,0:0:0:0:
64,192,52800,1,0,0:0:0:0:
192,192,52800,1,0,0:0:0:0:
448,192,52800,1,0,0:0:0:0:
320,192,53100,1,0,0:0:0:0:
448,192,53100,1,0,0:0:0:0:
448,192,53250,1,0,0:0:0:0:
192,192,53250,1,0,0:0:0:0:
64,192,53250,1,0,0:0:0:0:
320,192,53550,1,0,0:0:0:0:
448,192,53550,1,0,0:0:0:0:
192,192,53700,1,0,0:0:0:0:
320,192,53700,1,0,0:0:0:0:
64,192,53775,1,0,0:0:0:0:
320,192,53850,1,0,0:0:0:0:
448,192,53850,1,0,0:0:0:0:
192,192,53925,1,0,0:0:0:0:
64,192,54000,1,0,0:0:0:0:
448,192,54000,1,0,0:0:0:0:
320,192,54150,1,0,0:0:0:0:
192,192,54150,1,0,0:0:0:0:
192,192,54225,1,0,0:0:0:0:
64,192,54225,1,0,0:0:0:0:
448,192,54225,1,0,0:0:0:0:
320,192,54375,1,0,0:0:0:0:
64,192,54375,1,0,0:0:0:0:
192,192,54450,1,0,0:0:0:0:
320,192,54450,1,0,0:0:0:0:
448,192,54450,1,0,0:0:0:0:
192,192,54600,1,0,0:0:0:0:
64,192,54600,1,0,0:0:0:0:
320,192,54675,1,0,0:0:0:0:
64,192,54750,1,0,0:0:0:0:
448,192,54750,1,0,0:0:0:0:
192,192,54825,1,0,0:0:0:0:
64,192,54900,1,0,0:0:0:0:
320,192,54900,1,0,0:0:0:0:
320,192,55050,1,0,0:0:0:0:
448,192,55050,1,0,0:0:0:0:
192,192,55200,1,0,0:0:0:0:
64,192,55200,1,0,0:0:0:0:
192,192,55275,1,0,0:0:0:0:
64,192,55275,1,0,0:0:0:0:
320,192,55350,1,0,0:0:0:0:
448,192,55350,1,0,0:0:0:0:
448,192,55425,1,0,0:0:0:0:
320,192,55425,1,0,0:0:0:0:
192,192,55500,1,0,0:0:0:0:
64,192,55500,1,0,0:0:0:0:
192,192,55650,1,0,0:0:0:0:
320,192,55725,1,0,0:0:0:0:
448,192,55800,1,0,0:0:0:0:
64,192,55800,1,0,0:0:0:0:
192,192,55950,1,0,0:0:0:0:
448,192,55950,1,0,0:0:0:0:
64,192,56100,1,0,0:0:0:0:
192,192,56100,1,0,0:0:0:0:
320,192,56100,1,0,0:0:0:0:
320,192,56250,1,0,0:0:0:0:
192,192,56250,1,0,0:0:0:0:
64,192,56250,1,0,0:0:0:0:
320,192,56400,128,0,57600:0:0:0:0:
64,192,56700,128,0,57000:0:0:0:0:
192,192,57000,128,0,57600:0:0:0:0:
64,192,57600,1,0,0:0:0:0:
448,192,57600,1,0,0:0:0:0:
320,192,57750,1,0,0:0:0:0:
320,192,57900,1,0,0:0:0:0:
192,192,57900,1,0,0:0:0:0:
448,192,57900,1,0,0:0:0:0:
192,192,58050,1,0,0:0:0:0:
64,192,58200,1,0,0:0:0:0:
320,192,58200,1,0,0:0:0:0:
448,192,58200,1,0,0:0:0:0:
64,192,58350,1,0,0:0:0:0:
192,192,58500,1,0,0:0:0:0:
320,192,58500,1,0,0:0:0:0:
448,192,58500,1,0,0:0:0:0:
192,192,58650,1,0,0:0:0:0:
64,192,58800,1,0,0:0:0:0:
320,192,58800,1,0,0:0:0:0:
448,192,58800,1,0,0:0:0:0:
448,192,58950,1,0,0:0:0:0:
320,192,59100,1,0,0:0:0:0:
192,192,59100,1,0,0:0:0:0:
64,192,59100,1,0,0:0:0:0:
192,192,59250,1,0,0:0:0:0:
64,192,59400,1,0,0:0:0:0:
320,192,59400,1,0,0:0:0:0:
448,192,59400,1,0,0:0:0:0:
320,192,59550,1,0,0:0:0:0:
192,192,59700,1,0,0:0:0:0:
64,192,59700,1,0,0:0:0:0:
448,192,59700,1,0,0:0:0:0:
64,192,59850,1,0,0:0:0:0:
192,192,60000,1,0,0:0:0:0:
320,192,60000,1,0,0:0:0:0:
448,192,60000,1,0,0:0:0:0:
64,192,60150,1,0,0:0:0:0:
64,192,60300,1,0,0:0:0:0:
192,192,60300,1,0,0:0:0:0:
320,192,60300,1,0,0:0:0:0:
448,192,60450,1,0,0:0:0:0:
64,192,60600,1,0,0:0:0:0:
192,192,60600,1,0,0:0:0:0:
448,192,60600,1,0,0:0:0:0:
320,192,60750,1,0,0:0:0:0:
320,192,60900,1,0,0:0:0:0:
64,192,60900,1,0,0:0:0:0:
448,192,60900,1,0,0:0:0:0:
192,192,61050,1,0,0:0:0:0:
192,192,61200,1,0,0:0:0:0:
64,192,61200,1,0,0:0:0:0:
320,192,61200,1,0,0:0:0:0:
448,192,61350,1,0,0:0:0:0:
448,192,61500,1,0,0:0:0:0:
192,192,61500,1,0,0:0:0:0:
64,192,61500,1,0,0:0:0:0:
320,192,61650,1,0,0:0:0:0:
192,192,61800,1,0,0:0:0:0:
320,192,61800,1,0,0:0:0:0:
448,192,61800,1,0,0:0:0:0:
64,192,61950,1,0,0:0:0:0:
64,192,62100,1,0,0:0:0:0:
320,192,62100,1,0,0:0:0:0:
448,192,62100,1,0,0:0:0:0:
64,192,62250,1,0,0:0:0:0:
320,192,62250,1,0,0:0:0:0:
448,192,62250,1,0,0:0:0:0:
448,192,62400,1,0,0:0:0:0:
320,192,62400,1,0,0:0:0:0:
64,192,62400,1,0,0:0:0:0:
448,192,62550,1,0,0:0:0:0:
64,192,62700,1,0,0:0:0:0:
192,192,62700,1,0,0:0:0:0:
320,192,62700,1,0,0:0:0:0:
192,192,62850,1,0,0:0:0:0:
64,192,63000,1,0,0:0:0:0:
320,192,63000,1,0,0:0:0:0:
448,192,63000,1,0,0:0:0:0:
320,192,63150,1,0,0:0:0:0:
192,192,63300,1,0,0:0:0:0:
64,192,63300,1,0,0:0:0:0:
448,192,63300,1,0,0:0:0:0:
448,192,63450,1,0,0:0:0:0:
320,192,63600,1,0,0:0:0:0:
192,192,63600,1,0,0:0:0:0:
64,192,63600,1,0,0:0:0:0:
64,192,63750,1,0,0:0:0:0:
192,192,63900,1,0,0:0:0:0:
320,192,63900,1,0,0:0:0:0:
448,192,63900,1,0,0:0:0:0:
320,192,64050,1,0,0:0:0:0:
192,192,64200,1,0,0:0:0:0:
64,192,64200,1,0,0:0:0:0:
448,192,64200,1,0,0:0:0:0:
192,192,64350,1,0,0:0:0:0:
320,192,64500,1,0,0:0:0:0:
448,192,64500,1,0,0:0:0:0:
64,192,64500,1,0,0:0:0:0:
448,192,64650,1,0,0:0:0:0:
320,192,64800,1,0,0:0:0:0:
192,192,64800,1,0,0:0:0:0:
64,192,64800,1,0,0:0:0:0:
192,192,64950,1,0,0:0:0:0:
64,192,65100,1,0,0:0:0:0:
320,192,65100,1,0,0:0:0:0:
448,192,65100,1,0,0:0:0:0:
320,192,65250,1,0,0:0:0:0:
192,192,65400,1,0,0:0:0:0:
64,192,65400,1,0,0:0:0:0:
448,192,65400,1,0,0:0:0:0:
448,192,65550,1,0,0:0:0:0:
64,192,65700,1,0,0:0:0:0:
192,192,65700,1,0,0:0:0:0:
320,192,65700,1,0,0:0:0:0:
64,192,65850,1,0,0:0:0:0:
192,192,66000,1,0,0:0:0:0:
320,192,66000,1,0,0:0:0:0:
448,192,66000,1,0,0:0:0:0:
320,192,66150,1,0,0:0:0:0:
64,192,66300,1,0,0:0:0:0:
192,192,66300,1,0,0:0:0:0:
448,192,66300,1,0,0:0:0:0:
192,192,66450,1,0,0:0:0:0:
64,192,66600,1,0,0:0:0:0:
320,192,66600,1,0,0:0:0:0:
448,192,66600,1,0,0:0:0:0:
448,192,66750,1,0,0:0:0:0:
320,192,66900,1,0,0:0:0:0:
64,192,66900,1,0,0:0:0:0:
192,192,66900,1,0,0:0:0:0:
192,192,67050,1,0,0:0:0:0:
64,192,67200,1,0,0:0:0:0:
320,192,67200,1,0,0:0:0:0:
448,192,67200,1,0,0:0:0:0:
192,192,67350,1,0,0:0:0:0:
64,192,67500,1,0,0:0:0:0:
192,192,67500,1,0,0:0:0:0:
448,192,67500,1,0,0:0:0:0:
320,192,67650,1,0,0:0:0:0:
320,192,67800,1,0,0:0:0:0:
192,192,67800,1,0,0:0:0:0:
448,192,67800,1,0,0:0:0:0:
64,192,67950,1,0,0:0:0:0:
64,192,68100,1,0,0:0:0:0:
192,192,68100,1,0,0:0:0:0:
448,192,68100,1,0,0:0:0:0:
320,192,68250,1,0,0:0:0:0:
192,192,68400,1,0,0:0:0:0:
320,192,68400,1,0,0:0:0:0:
64,192,68400,1,0,0:0:0:0:
448,192,68550,1,0,0:0:0:0:
448,192,68700,1,0,0:0:0:0:
192,192,68700,1,0,0:0:0:0:
320,192,68700,1,0,0:0:0:0:
64,192,68850,1,0,0:0:0:0:
64,192,69000,1,0,0:0:0:0:
320,192,69000,1,0,0:0:0:0:
448,192,69000,1,0,0:0:0:0:
192,192,69150,1,0,0:0:0:0:
192,192,69300,1,0,0:0:0:0:
64,192,69300,1,0,0:0:0:0:
448,192,69300,1,0,0:0:0:0:
320,192,69450,1,0,0:0:0:0:
320,192,69600,1,0,0:0:0:0:
192,192,69600,1,0,0:0:0:0:
448,192,69600,1,0,0:0:0:0:
192,192,69750,1,0,0:0:0:0:
64,192,69900,1,0,0:0:0:0:
448,192,69900,1,0,0:0:0:0:
320,192,69900,1,0,0:0:0:0:
320,192,70050,1,0,0:0:0:0:
64,192,70200,1,0,0:0:0:0:
192,192,70200,1,0,0:0:0:0:
448,192,70200,1,0,0:0:0:0:
192,192,70350,1,0,0:0:0:0:
64,192,70500,1,0,0:0:0:0:
320,192,70500,1,0,0:0:0:0:
448,192,70500,1,0,0:0:0:0:
448,192,70650,1,0,0:0:0:0:
320,192,70800,1,0,0:0:0:0:
192,192,70800,1,0,0:0:0:0:
64,192,70800,1,0,0:0:0:0:
64,192,70950,1,0,0:0:0:0:
192,192,71100,1,0,0:0:0:0:
320,192,71100,1,0,0:0:0:0:
448,192,71100,1,0,0:0:0:0:
192,192,71250,1,0,0:0:0:0:
64,192,71400,1,0,0:0:0:0:
320,192,71400,1,0,0:0:0:0:
448,192,71400,1,0,0:0:0:0:
320,192,71550,1,0,0:0:0:0:
64,192,71700,1,0,0:0:0:0:
192,192,71700,1,0,0:0:0:0:
448,192,71700,1,0,0:0:0:0:
448,192,71850,1,0,0:0:0:0:
64,192,72000,1,0,0:0:0:0:
320,192,72000,1,0,0:0:0:0:
192,192,72000,1,0,0:0:0:0:
448,192,72150,1,0,0:0:0:0:
448,192,72300,1,0,0:0:0:0:
192,192,72300,1,0,0:0:0:0:
64,192,72300,1,0,0:0:0:0:
320,192,72450,1,0,0:0:0:0:
320,192,72600,1,0,0:0:0:0:
64,192,72600,1,0,0:0:0:0:
448,192,72600,1,0,0:0:0:0:
192,192,72750,1,0,0:0:0:0:
192,192,72900,1,0,0:0:0:0:
64,192,72900,1,0,0:0:0:0:
448,192,72900,1,0,0:0:0:0:
320,192,73050,1,0,0:0:0:0:
320,192,73200,1,0,0:0:0:0:
192,192,73200,1,0,0:0:0:0:
448,192,73200,1,0,0:0:0:0:
64,192,73350,1,0,0:0:0:0:
64,192,73500,1,0,0:0:0:0:
192,192,73500,1,0,0:0:0:0:
448,192,73500,1,0,0:0:0:0:
320,192,73650,1,0,0:0:0:0:
320,192,73800,1,0,0:0:0:0:
64,192,73800,1,0,0:0:0:0:
448,192,73800,1,0,0:0:0:0:
192,192,73950,1,0,0:0:0:0:
64,192,74100,1,0,0:0:0:0:
192,192,74100,1,0,0:0:0:0:
320,192,74100,1,0,0:0:0:0:
448,192,74250,1,0,0:0:0:0:
448,192,74400,1,0,0:0:0:0:
320,192,74400,1,0,0:0:0:0:
192,192,74400,1,0,0:0:0:0:
192,192,74550,1,0,0:0:0:0:
64,192,74700,1,0,0:0:0:0:
320,192,74700,1,0,0:0:0:0:
448,192,74700,1,0,0:0:0:0:
320,192,74850,1,0,0:0:0:0:
192,192,75000,1,0,0:0:0:0:
64,192,75000,1,0,0:0:0:0:
448,192,75000,1,0,0:0:0:0:
64,192,75150,1,0,0:0:0:0:
192,192,75300,1,0,0:0:0:0:
320,192,75300,1,0,0:0:0:0:
448,192,75300,1,0,0:0:0:0:
448,192,75450,1,0,0:0:0:0:
192,192,75600,1,0,0:0:0:0:
64,192,75600,1,0,0:0:0:0:
320,192,75600,1,0,0:0:0:0:
448,192,75675,1,0,0:0:0:0:
192,192,75750,1,0,0:0:0:0:
320,192,75900,1,0,0:0:0:0:
192,192,75900,1,0,0:0:0:0:
64,192,75900,1,0,0:0:0:0:
448,192,75975,1,0,0:0:0:0:
320,192,76050,1,0,0:0:0:0:
320,192,76200,1,0,0:0:0:0:
192,192,76237,1,0,0:0:0:0:
64,192,76275,1,0,0:0:0:0:
448,192,76312,1,0,0:0:0:0:
320,192,76350,1,0,0:0:0:0:
192,192,76387,1,0,0:0:0:0:
448,192,76425,1,0,0:0:0:0:
64,192,76462,1,0,0:0:0:0:
192,192,76500,1,0,0:0:0:0:
448,192,76500,1,0,0:0:0:0:
320,192,76500,1,0,0:0:0:0:
320,192,76800,1,0,0:0:0:0:
192,192,76800,1,0,0:0:0:0:
64,192,76800,1,0,0:0:0:0:
192,192,77100,1,0,0:0:0:0:
64,192,77100,1,0,0:0:0:0:
64,192,77175,1,0,0:0:0:0:
192,192,77175,1,0,0:0:0:0:
448,192,77250,1,0,0:0:0:0:
64,192,77400,1,0,0:0:0:0:
192,192,77400,1,0,0:0:0:0:
320,192,77400,1,0,0:0:0:0:
320,192,77550,1,0,0:0:0:0:
448,192,77550,1,0,0:0:0:0:
448,192,77625,1,0,0:0:0:0:
320,192,77625,1,0,0:0:0:0:
192,192,77700,1,0,0:0:0:0:
64,192,77700,1,0,0:0:0:0:
448,192,77775,1,0,0:0:0:0:
320,192,77850,1,0,0:0:0:0:
192,192,77850,1,0,0:0:0:0:
64,192,77925,1,0,0:0:0:0:
448,192,78000,1,0,0:0:0:0:
320,192,78000,1,0,0:0:0:0:
64,192,78000,1,0,0:0:0:0:
320,192,78150,1,0,0:0:0:0:
192,192,78150,1,0,0:0:0:0:
320,192,78225,1,0,0:0:0:0:
448,192,78225,1,0,0:0:0:0:
64,192,78225,1,0,0:0:0:0:
320,192,78375,1,0,0:0:0:0:
192,192,78375,1,0,0:0:0:0:
192,192,78450,1,0,0:0:0:0:
64,192,78450,1,0,0:0:0:0:
448,192,78450,1,0,0:0:0:0:
320,192,78525,1,0,0:0:0:0:
192,192,78562,1,0,0:0:0:0:
64,192,78600,1,0,0:0:0:0:
448,192,78637,1,0,0:0:0:0:
320,192,78675,1,0,0:0:0:0:
192,192,78675,1,0,0:0:0:0:
64,192,78675,1,0,0:0:0:0:
320,192,78750,1,0,0:0:0:0:
448,192,78750,1,0,0:0:0:0:
192,192,78825,1,0,0:0:0:0:
64,192,78825,1,0,0:0:0:0:
192,192,78900,1,0,0:0:0:0:
64,192,78900,1,0,0:0:0:0:
448,192,78975,1,0,0:0:0:0:
320,192,78975,1,0,0:0:0:0:
192,192,79050,1,0,0:0:0:0:
64,192,79125,1,0,0:0:0:0:
320,192,79200,1,0,0:0:0:0:
448,192,79200,1,0,0:0:0:0:
64,192,79200,1,0,0:0:0:0:
192,192,79350,1,0,0:0:0:0:
320,192,79350,1,0,0:0:0:0:
192,192,79500,1,0,0:0:0:0:
64,192,79500,1,0,0:0:0:0:
448,192,79500,1,0,0:0:0:0:
320,192,79575,1,0,0:0:0:0:
64,192,79650,1,0,0:0:0:0:
448,192,79650,1,0,0:0:0:0:
64,192,79800,1,0,0:0:0:0:
192,192,79800,1,0,0:0:0:0:
320,192,79800,1,0,0:0:0:0:
192,192,79950,1,0,0:0:0:0:
448,192,79950,1,0,0:0:0:0:
448,192,80100,1,0,0:0:0:0:
320,192,80100,1,0,0:0:0:0:
64,192,80100,1,0,0:0:0:0:
192,192,80250,1,0,0:0:0:0:
64,192,80287,1,0,0:0:0:0:
448,192,80325,1,0,0:0:0:0:
320,192,80362,1,0,0:0:0:0:
192,192,80400,1,0,0:0:0:0:
64,192,80400,1,0,0:0:0:0:
448,192,80400,1,0,0:0:0:0:
192,192,80550,1,0,0:0:0:0:
64,192,80550,1,0,0:0:0:0:
448,192,80550,1,0,0:0:0:0:
64,192,80700,1,0,0:0:0:0:
192,192,80700,1,0,0:0:0:0:
448,192,80700,1,0,0:0:0:0:
320,192,80850,1,0,0:0:0:0:
320,192,80925,1,0,0:0:0:0:
192,192,81000,1,0,0:0:0:0:
64,192,81075,1,0,0:0:0:0:
448,192,81150,1,0,0:0:0:0:
320,192,81150,1,0,0:0:0:0:
64,192,81150,1,0,0:0:0:0:
64,192,81300,1,0,0:0:0:0:
320,192,81300,1,0,0:0:0:0:
448,192,81300,1,0,0:0:0:0:
448,192,81450,1,0,0:0:0:0:
320,192,81450,1,0,0:0:0:0:
64,192,81450,1,0,0:0:0:0:
192,192,81600,1,0,0:0:0:0:
320,192,81637,1,0,0:0:0:0:
448,192,81675,1,0,0:0:0:0:
64,192,81712,1,0,0:0:0:0:
192,192,81750,1,0,0:0:0:0:
320,192,81900,1,0,0:0:0:0:
448,192,81900,1,0,0:0:0:0:
192,192,81975,1,0,0:0:0:0:
64,192,82050,1,0,0:0:0:0:
320,192,82050,1,0,0:0:0:0:
448,192,82125,1,0,0:0:0:0:
192,192,82200,1,0,0:0:0:0:
64,192,82200,1,0,0:0:0:0:
320,192,82350,1,0,0:0:0:0:
192,192,82350,1,0,0:0:0:0:
320,192,82500,1,0,0:0:0:0:
448,192,82500,1,0,0:0:0:0:
448,192,82575,1,0,0:0:0:0:
320,192,82575,1,0,0:0:0:0:
192,192,82650,1,0,0:0:0:0:
64,192,82650,1,0,0:0:0:0:
64,192,82800,1,0,0:0:0:0:
192,192,82800,1,0,0:0:0:0:
448,192,82800,1,0,0:0:0:0:
192,192,82950,1,0,0:0:0:0:
64,192,82950,1,0,0:0:0:0:
320,192,83025,1,0,0:0:0:0:
64,192,83100,1,0,0:0:0:0:
448,192,83100,1,0,0:0:0:0:
192,192,83175,1,0,0:0:0:0:
64,192,83250,1,0,0:0:0:0:
448,192,83250,1,0,0:0:0:0:
320,192,83325,1,0,0:0:0:0:
64,192,83400,1,0,0:0:0:0:
448,192,83400,1,0,0:0:0:0:
192,192,83400,1,0,0:0:0:0:
64,192,83550,1,0,0:0:0:0:
320,192,83550,1,0,0:0:0:0:
448,192,83550,1,0,0:0:0:0:
320,192,83700,1,0,0:0:0:0:
64,192,83700,1,0,0:0:0:0:
192,192,83700,1,0,0:0:0:0:
192,192,83850,1,0,0:0:0:0:
320,192,83850,1,0,0:0:0:0:
448,192,83850,1,0,0:0:0:0:
448,192,84000,1,0,0:0:0:0:
320,192,84000,1,0,0:0:0:0:
64,192,84000,1,0,0:0:0:0:
320,192,84075,1,0,0:0:0:0:
448,192,84075,1,0,0:0:0:0:
192,192,84150,1,0,0:0:0:0:
64,192,84150,1,0,0:0:0:0:
320,192,84225,1,0,0:0:0:0:
448,192,84300,1,0,0:0:0:0:
192,192,84300,1,0,0:0:0:0:
192,192,84450,1,0,0:0:0:0:
64,192,84450,1,0,0:0:0:0:
64,192,84525,1,0,0:0:0:0:
192,192,84525,1,0,0:0:0:0:
320,192,84600,1,0,0:0:0:0:
448,192,84600,1,0,0:0:0:0:
64,192,84600,1,0,0:0:0:0:
320,192,84750,1,0,0:0:0:0:
448,192,84750,1,0,0:0:0:0:
64,192,84750,1,0,0:0:0:0:
192,192,84900,1,0,0:0:0:0:
320,192,84937,1,0,0:0:0:0:
448,192,84975,1,0,0:0:0:0:
192,192,85012,1,0,0:0:0:0:
320,192,85050,1,0,0:0:0:0:
448,192,85087,1,0,0:0:0:0:
192,192,85125,1,0,0:0:0:0:
64,192,85162,1,0,0:0:0:0:
448,192,85200,1,0,0:0:0:0:
320,192,85237,1,0,0:0:0:0:
192,192,85275,1,0,0:0:0:0:
64,192,85312,1,0,0:0:0:0:
320,192,85350,1,0,0:0:0:0:
448,192,85350,1,0,0:0:0:0:
192,192,85350,1,0,0:0:0:0:
64,192,85500,1,0,0:0:0:0:
192,192,85500,1,0,0:0:0:0:
448,192,85650,1,0,0:0:0:0:
320,192,85650,1,0,0:0:0:0:
192,192,85725,1,0,0:0:0:0:
64,192,85800,1,0,0:0:0:0:
320,192,85800,1,0,0:0:0:0:
448,192,85800,1,0,0:0:0:0:
448,192,86100,1,0,0:0:0:0:
320,192,86100,1,0,0:0:0:0:
64,192,86100,1,0,0:0:0:0:
320,192,86400,1,0,0:0:0:0:
448,192,86400,1,0,0:0:0:0:
64,192,86400,1,0,0:0:0:0:
192,192,86700,1,0,0:0:0:0:
64,192,86700,1,0,0:0:0:0:
64,192,86775,1,0,0:0:0:0:
192,192,86775,1,0,0:0:0:0:
320,192,86850,1,0,0:0:0:0:
448,192,86850,1,0,0:0:0:0:
192,192,86925,1,0,0:0:0:0:
64,192,86925,1,0,0:0:0:0:
64,192,87000,1,0,0:0:0:0:
320,192,87000,1,0,0:0:0:0:
448,192,87000,1,0,0:0:0:0:
192,192,87150,1,0,0:0:0:0:
320,192,87150,1,0,0:0:0:0:
192,192,87300,1,0,0:0:0:0:
64,192,87300,1,0,0:0:0:0:
448,192,87450,1,0,0:0:0:0:
320,192,87450,1,0,0:0:0:0:
64,192,87500,1,0,0:0:0:0:
192,192,87550,1,0,0:0:0:0:
448,192,87600,1,0,0:0:0:0:
64,192,87600,1,0,0:0:0:0:
320,192,87650,1,0,0:0:0:0:
192,192,87700,1,0,0:0:0:0:
448,192,87750,1,0,0:0:0:0:
64,192,87750,1,0,0:0:0:0:
320,192,87825,1,0,0:0:0:0:
192,192,87900,1,0,0:0:0:0:
64,192,87900,1,0,0:0:0:0:
448,192,87975,1,0,0:0:0:0:
320,192,88050,1,0,0:0:0:0:
64,192,88050,1,0,0:0:0:0:
192,192,88125,1,0,0:0:0:0:
320,192,88200,1,0,0:0:0:0:
448,192,88200,1,0,0:0:0:0:
64,192,88200,1,0,0:0:0:0:
192,192,88350,1,0,0:0:0:0:
192,192,88500,1,0,0:0:0:0:
64,192,88500,1,0,0:0:0:0:
448,192,88500,1,0,0:0:0:0:
448,192,88800,1,0,0:0:0:0:
320,192,88800,1,0,0:0:0:0:
64,192,88800,1,0,0:0:0:0:
192,192,88950,1,0,0:0:0:0:
320,192,88950,1,0,0:0:0:0:
192,192,89025,1,0,0:0:0:0:
64,192,89025,1,0,0:0:0:0:
448,192,89025,1,0,0:0:0:0:
320,192,89175,1,0,0:0:0:0:
192,192,89175,1,0,0:0:0:0:
448,192,89250,1,0,0:0:0:0:
64,192,89250,1,0,0:0:0:0:
192,192,89287,1,0,0:0:0:0:
320,192,89325,1,0,0:0:0:0:
448,192,89362,1,0,0:0:0:0:
192,192,89400,1,0,0:0:0:0:
64,192,89400,1,0,0:0:0:0:
320,192,89550,1,0,0:0:0:0:
448,192,89550,1,0,0:0:0:0:
448,192,89625,1,0,0:0:0:0:
192,192,89625,1,0,0:0:0:0:
64,192,89625,1,0,0:0:0:0:
192,192,89775,1,0,0:0:0:0:
64,192,89775,1,0,0:0:0:0:
320,192,89850,128,0,90300:0:0:0:0:
192,192,90150,1,0,0:0:0:0:
64,192,90150,1,0,0:0:0:0:
448,192,90225,1,0,0:0:0:0:
192,192,90300,1,0,0:0:0:0:
64,192,90300,1,0,0:0:0:0:
192,192,90375,1,0,0:0:0:0:
64,192,90375,1,0,0:0:0:0:
448,192,90450,1,0,0:0:0:0:
320,192,90450,1,0,0:0:0:0:
320,192,90525,1,0,0:0:0:0:
448,192,90525,1,0,0:0:0:0:
192,192,90600,1,0,0:0:0:0:
64,192,90600,1,0,0:0:0:0:
448,192,90600,1,0,0:0:0:0:
320,192,90750,1,0,0:0:0:0:
192,192,90750,1,0,0:0:0:0:
64,192,90825,1,0,0:0:0:0:
448,192,90900,1,0,0:0:0:0:
320,192,90900,1,0,0:0:0:0:
192,192,90975,1,0,0:0:0:0:
64,192,90975,1,0,0:0:0:0:
320,192,91050,1,0,0:0:0:0:
448,192,91050,1,0,0:0:0:0:
320,192,91200,1,0,0:0:0:0:
448,192,91200,1,0,0:0:0:0:
64,192,91200,1,0,0:0:0:0:
320,192,91350,1,0,0:0:0:0:
192,192,91350,1,0,0:0:0:0:
192,192,91425,1,0,0:0:0:0:
64,192,91425,1,0,0:0:0:0:
448,192,91425,1,0,0:0:0:0:
192,192,91575,1,0,0:0:0:0:
320,192,91575,1,0,0:0:0:0:
320,192,91650,1,0,0:0:0:0:
64,192,91650,1,0,0:0:0:0:
448,192,91650,1,0,0:0:0:0:
448,192,91800,1,0,0:0:0:0:
192,192,91800,1,0,0:0:0:0:
64,192,91875,1,0,0:0:0:0:
320,192,91875,1,0,0:0:0:0:
192,192,91875,128,0,92100:0:0:0:0:
448,192,92100,1,0,0:0:0:0:
320,192,92175,1,0,0:0:0:0:
64,192,92250,1,0,0:0:0:0:
192,192,92287,1,0,0:0:0:0:
320,192,92325,1,0,0:0:0:0:
448,192,92362,1,0,0:0:0:0:
192,192,92400,1,0,0:0:0:0:
64,192,92400,1,0,0:0:0:0:
320,192,92550,1,0,0:0:0:0:
448,192,92550,1,0,0:0:0:0:
192,192,92625,1,0,0:0:0:0:
64,192,92700,1,0,0:0:0:0:
320,192,92700,1,0,0:0:0:0:
448,192,92700,1,0,0:0:0:0:
192,192,92775,1,0,0:0:0:0:
64,192,92850,1,0,0:0:0:0:
320,192,92925,1,0,0:0:0:0:
192,192,93000,1,0,0:0:0:0:
64,192,93000,1,0,0:0:0:0:
448,192,93000,1,0,0:0:0:0:
320,192,93150,1,0,0:0:0:0:
192,192,93150,1,0,0:0:0:0:
320,192,93300,1,0,0:0:0:0:
448,192,93300,1,0,0:0:0:0:
192,192,93375,1,0,0:0:0:0:
64,192,93375,1,0,0:0:0:0:
64,192,93450,1,0,0:0:0:0:
192,192,93450,1,0,0:0:0:0:
448,192,93600,1,0,0:0:0:0:
64,192,93600,1,0,0:0:0:0:
320,192,93600,1,0,0:0:0:0:
192,192,93750,1,0,0:0:0:0:
64,192,93750,1,0,0:0:0:0:
320,192,93825,1,0,0:0:0:0:
448,192,93825,1,0,0:0:0:0:
448,192,93900,1,0,0:0:0:0:
320,192,93900,1,0,0:0:0:0:
320,192,94050,1,0,0:0:0:0:
448,192,94050,1,0,0:0:0:0:
192,192,94125,1,0,0:0:0:0:
64,192,94125,1,0,0:0:0:0:
64,192,94200,1,0,0:0:0:0:
192,192,94200,1,0,0:0:0:0:
192,192,94350,1,0,0:0:0:0:
64,192,94350,1,0,0:0:0:0:
320,192,94425,1,0,0:0:0:0:
448,192,94425,1,0,0:0:0:0:
448,192,94500,1,0,0:0:0:0:
320,192,94500,1,0,0:0:0:0:
192,192,94650,1,0,0:0:0:0:
64,192,94650,1,0,0:0:0:0:
320,192,94650,1,0,0:0:0:0:
320,192,94800,128,0,95400:0:0:0:0:
64,192,95400,1,0,0:0:0:0:
192,192,95400,1,0,0:0:0:0:
320,192,95475,1,0,0:0:0:0:
448,192,95475,1,0,0:0:0:0:
64,192,95550,1,0,0:0:0:0:
192,192,95550,1,0,0:0:0:0:
320,192,95625,1,0,0:0:0:0:
448,192,95625,1,0,0:0:0:0:
320,192,95700,1,0,0:0:0:0:
448,192,95700,1,0,0:0:0:0:
192,192,95775,1,0,0:0:0:0:
64,192,95775,1,0,0:0:0:0:
192,192,95850,1,0,0:0:0:0:
64,192,95850,1,0,0:0:0:0:
448,192,95925,1,0,0:0:0:0:
320,192,95925,1,0,0:0:0:0:
320,192,96000,1,0,0:0:0:0:
448,192,96000,1,0,0:0:0:0:
192,192,96000,1,0,0:0:0:0:
64,192,96000,1,0,0:0:0:0:
