osu file format v14

[General]
AudioFilename: audio.mp3
AudioLeadIn: 0
PreviewTime: 44697
Countdown: 0
SampleSet: Normal
StackLeniency: 0.7
Mode: 1
LetterboxInBreaks: 0
WidescreenStoryboard: 0

[Editor]
Bookmarks: 47097,109839,177039
DistanceSpacing: 0.8
BeatDivisor: 8
GridSize: 32
TimelineZoom: 1.3

[Metadata]
Title:Now Drop It Hard
TitleUnicode:Now Drop It Hard
Artist:pemcy
ArtistUnicode:pemcy
Creator:salchow
Version:Alchyr's Oni
Source:osu!
Tags:alchyr featured artist mg mpg electronic instrumental rising sun traxx fa mappers' guild renketsu:one
BeatmapID:2199061
BeatmapSetID:1050814

[Difficulty]
HPDrainRate:5
CircleSize:2
OverallDifficulty:5
ApproachRate:10
SliderMultiplier:1.4
SliderTickRate:1

[Events]
//Background and Video events
0,0,"dusk-evening-flowers-nature-7314 (1).jpg",0,0
//Break Periods
2,44211,44932
2,130611,131332
//Storyboard Layer 0 (Background)
//Storyboard Layer 1 (Fail)
//Storyboard Layer 2 (Pass)
//Storyboard Layer 3 (Foreground)
//Storyboard Layer 4 (Overlay)
//Storyboard Sound Samples

[TimingPoints]
1497,342.857142857143,4,1,0,75,1,0
133154,-100,4,1,0,75,0,1
153725,-100,4,1,0,75,0,0
177039,-100,4,1,0,75,0,1
179782,-100,4,1,0,75,0,0
182525,-100,4,1,0,75,0,1
185268,-100,4,1,0,75,0,0
188011,-100,4,1,0,75,0,1
190754,-100,4,1,0,75,0,0
193497,-100,4,1,0,75,0,1
196239,-100,4,1,0,75,0,0
198982,-100,4,1,0,75,0,1
220925,-100,4,1,0,75,0,0

[HitObjects]
320,64,1497,5,8,0:0:0:0:
320,64,1839,1,8,0:0:0:0:
320,64,2182,1,8,0:0:0:0:
320,64,2868,1,8,0:0:0:0:
320,64,3211,1,8,0:0:0:0:
320,64,3554,1,8,0:0:0:0:
320,64,4239,1,8,0:0:0:0:
320,64,4582,1,8,0:0:0:0:
64,64,4925,1,0,0:0:0:0:
320,64,5097,1,8,0:0:0:0:
64,64,5268,1,0,0:0:0:0:
320,64,5439,1,8,0:0:0:0:
64,64,5611,1,0,0:0:0:0:
320,64,5954,1,8,0:0:0:0:
320,64,6297,1,8,0:0:0:0:
320,64,6982,1,8,0:0:0:0:
320,64,7325,1,8,0:0:0:0:
320,64,7668,1,8,0:0:0:0:
320,64,8354,1,8,0:0:0:0:
320,64,8697,1,8,0:0:0:0:
320,64,9039,1,8,0:0:0:0:
320,64,9725,1,8,0:0:0:0:
320,64,10068,1,8,0:0:0:0:
64,64,10411,1,0,0:0:0:0:
320,64,10582,1,8,0:0:0:0:
64,64,10754,1,0,0:0:0:0:
320,64,10925,1,8,0:0:0:0:
64,64,11097,1,0,0:0:0:0:
64,64,11182,1,0,0:0:0:0:
64,64,11268,1,0,0:0:0:0:
320,64,11439,1,8,0:0:0:0:
64,64,11611,1,0,0:0:0:0:
320,64,11697,1,8,0:0:0:0:
64,64,11782,1,0,0:0:0:0:
64,64,11954,1,0,0:0:0:0:
320,64,12125,1,8,0:0:0:0:
320,64,12468,1,8,0:0:0:0:
320,64,12811,1,8,0:0:0:0:
320,64,13154,1,8,0:0:0:0:
320,64,13839,1,8,0:0:0:0:
320,64,14182,1,8,0:0:0:0:
320,64,14525,1,8,0:0:0:0:
320,64,15211,1,8,0:0:0:0:
320,64,15554,1,8,0:0:0:0:
64,64,15897,1,0,0:0:0:0:
320,64,16068,1,8,0:0:0:0:
64,64,16239,1,0,0:0:0:0:
320,64,16411,1,8,0:0:0:0:
64,64,16582,1,0,0:0:0:0:
320,64,16925,1,8,0:0:0:0:
320,64,17268,1,8,0:0:0:0:
320,64,17954,1,8,0:0:0:0:
320,64,18297,1,8,0:0:0:0:
320,64,18639,1,8,0:0:0:0:
320,64,19325,1,8,0:0:0:0:
320,64,19668,1,8,0:0:0:0:
320,64,20011,1,8,0:0:0:0:
320,64,20697,1,8,0:0:0:0:
320,64,21039,1,8,0:0:0:0:
64,64,21382,1,0,0:0:0:0:
320,64,21554,1,8,0:0:0:0:
64,64,21725,1,4,0:0:0:0:
64,64,22068,1,4,0:0:0:0:
320,64,22411,1,8,0:0:0:0:
64,64,22582,1,0,0:0:0:0:
64,64,22668,1,0,0:0:0:0:
320,64,22754,1,8,0:0:0:0:
64,64,22925,1,0,0:0:0:0:
320,64,23097,1,8,0:0:0:0:
64,64,23439,1,0,0:0:0:0:
64,64,23782,1,0,0:0:0:0:
64,64,24125,1,0,0:0:0:0:
64,64,24468,1,0,0:0:0:0:
64,64,24811,1,0,0:0:0:0:
64,64,25154,1,0,0:0:0:0:
64,64,25497,1,0,0:0:0:0:
64,64,25839,1,0,0:0:0:0:
64,64,26182,1,0,0:0:0:0:
64,64,26525,1,0,0:0:0:0:
64,64,26868,1,0,0:0:0:0:
320,64,27039,1,8,0:0:0:0:
64,64,27211,1,0,0:0:0:0:
320,64,27382,1,8,0:0:0:0:
64,64,27554,1,0,0:0:0:0:
64,64,27897,1,0,0:0:0:0:
64,64,28239,1,0,0:0:0:0:
64,64,28582,1,0,0:0:0:0:
64,64,28925,1,0,0:0:0:0:
64,64,29268,1,0,0:0:0:0:
64,64,29611,1,0,0:0:0:0:
64,64,29954,1,0,0:0:0:0:
64,64,30297,1,0,0:0:0:0:
64,64,30639,1,0,0:0:0:0:
64,64,30982,1,0,0:0:0:0:
64,64,31325,1,0,0:0:0:0:
64,64,31668,1,0,0:0:0:0:
64,64,32011,1,0,0:0:0:0:
64,64,32354,1,0,0:0:0:0:
320,64,32525,1,8,0:0:0:0:
64,64,32697,1,0,0:0:0:0:
320,64,32868,1,8,0:0:0:0:
64,64,33039,1,0,0:0:0:0:
320,64,33211,1,8,0:0:0:0:
320,64,33297,1,8,0:0:0:0:
64,64,33382,1,0,0:0:0:0:
320,64,33554,1,8,0:0:0:0:
64,64,33725,1,0,0:0:0:0:
64,64,33811,1,0,0:0:0:0:
320,64,33897,1,8,0:0:0:0:
320,64,33982,1,8,0:0:0:0:
64,64,34068,1,0,0:0:0:0:
320,64,34239,1,8,0:0:0:0:
64,64,34411,1,0,0:0:0:0:
256,192,34754,1,0,0:0:0:0:
64,64,35097,1,0,0:0:0:0:
64,64,35439,1,0,0:0:0:0:
64,64,35782,1,0,0:0:0:0:
64,64,36125,1,0,0:0:0:0:
64,64,36468,1,0,0:0:0:0:
64,64,36811,1,0,0:0:0:0:
64,64,37154,1,0,0:0:0:0:
64,64,37497,1,0,0:0:0:0:
64,64,37839,1,0,0:0:0:0:
320,64,38011,1,8,0:0:0:0:
64,64,38182,1,0,0:0:0:0:
320,64,38354,1,8,0:0:0:0:
64,64,38525,1,0,0:0:0:0:
320,64,38868,1,8,0:0:0:0:
64,64,39211,1,0,0:0:0:0:
320,64,39554,1,8,0:0:0:0:
64,64,39897,1,0,0:0:0:0:
64,64,40068,1,0,0:0:0:0:
320,64,40239,1,8,0:0:0:0:
64,64,40411,1,0,0:0:0:0:
64,64,40582,1,0,0:0:0:0:
64,64,40754,1,0,0:0:0:0:
320,64,40925,1,8,0:0:0:0:
64,64,41097,1,0,0:0:0:0:
64,64,41268,1,0,0:0:0:0:
64,64,41439,1,0,0:0:0:0:
320,64,41611,1,8,0:0:0:0:
64,64,41782,1,0,0:0:0:0:
64,64,41954,1,0,0:0:0:0:
64,64,42125,1,0,0:0:0:0:
320,64,42297,1,8,0:0:0:0:
320,64,42639,1,8,0:0:0:0:
64,64,42725,1,0,0:0:0:0:
64,64,42811,1,0,0:0:0:0:
64,64,42897,1,0,0:0:0:0:
320,64,42982,1,8,0:0:0:0:
64,64,43154,1,0,0:0:0:0:
64,64,43239,1,0,0:0:0:0:
320,64,43325,1,8,0:0:0:0:
64,64,43497,1,0,0:0:0:0:
64,64,43582,1,0,0:0:0:0:
320,64,43668,1,8,0:0:0:0:
320,64,43754,1,8,0:0:0:0:
320,64,43839,1,8,0:0:0:0:
320,64,43925,1,8,0:0:0:0:
64,64,44011,1,0,0:0:0:0:
64,64,45382,5,0,0:0:0:0:
320,64,45725,1,8,0:0:0:0:
320,64,45897,1,8,0:0:0:0:
320,64,45982,1,8,0:0:0:0:
64,64,46068,1,0,0:0:0:0:
256,192,46239,1,0,0:0:0:0:
256,192,46411,1,8,0:0:0:0:
256,192,46582,1,8,0:0:0:0:
256,192,46754,1,0,0:0:0:0:
256,192,46925,1,0,0:0:0:0:
256,192,47011,1,0,0:0:0:0:
256,192,47097,1,8,0:0:0:0:
256,192,47268,1,8,0:0:0:0:
256,192,47439,1,0,0:0:0:0:
256,192,47782,1,8,0:0:0:0:
256,192,47954,1,8,0:0:0:0:
256,192,48125,1,0,0:0:0:0:
256,192,48468,1,8,0:0:0:0:
64,64,48639,1,0,0:0:0:0:
64,64,48725,1,0,0:0:0:0:
256,192,48811,1,0,0:0:0:0:
256,192,48982,1,0,0:0:0:0:
256,192,49154,1,8,0:0:0:0:
256,192,49325,1,8,0:0:0:0:
256,192,49497,1,0,0:0:0:0:
256,192,49668,1,0,0:0:0:0:
256,192,49754,1,0,0:0:0:0:
256,192,49839,1,8,0:0:0:0:
256,192,50011,1,8,0:0:0:0:
64,64,50182,1,0,0:0:0:0:
320,64,50354,1,8,0:0:0:0:
64,64,50439,1,0,0:0:0:0:
320,64,50525,1,8,0:0:0:0:
256,192,50697,1,8,0:0:0:0:
256,192,50868,1,0,0:0:0:0:
256,192,51211,1,8,0:0:0:0:
256,192,51382,1,0,0:0:0:0:
256,192,51468,1,0,0:0:0:0:
256,192,51554,1,0,0:0:0:0:
64,64,51725,1,0,0:0:0:0:
256,192,51897,1,8,0:0:0:0:
256,192,52068,1,8,0:0:0:0:
256,192,52239,1,0,0:0:0:0:
64,64,52411,1,0,0:0:0:0:
256,192,52497,1,0,0:0:0:0:
256,192,52582,1,8,0:0:0:0:
256,192,52754,1,8,0:0:0:0:
256,192,52925,1,0,0:0:0:0:
256,192,53268,1,8,0:0:0:0:
256,192,53439,1,8,0:0:0:0:
256,192,53611,1,0,0:0:0:0:
256,192,53782,1,0,0:0:0:0:
256,192,53868,1,0,0:0:0:0:
256,192,53954,1,8,0:0:0:0:
256,192,54125,1,8,0:0:0:0:
256,192,54297,1,0,0:0:0:0:
256,192,54382,1,0,0:0:0:0:
256,192,54468,1,0,0:0:0:0:
256,192,54639,1,8,0:0:0:0:
256,192,54811,1,8,0:0:0:0:
256,192,54897,1,8,0:0:0:0:
256,192,54982,1,0,0:0:0:0:
256,192,55154,1,0,0:0:0:0:
256,192,55325,1,8,0:0:0:0:
256,192,55497,1,8,0:0:0:0:
256,192,55668,1,0,0:0:0:0:
256,192,55839,1,0,0:0:0:0:
64,64,55925,1,0,0:0:0:0:
256,192,56011,1,8,0:0:0:0:
64,64,56354,1,0,0:0:0:0:
320,64,56697,1,8,0:0:0:0:
320,64,56868,1,8,0:0:0:0:
320,64,56954,1,8,0:0:0:0:
64,64,57039,1,0,0:0:0:0:
256,192,57211,1,0,0:0:0:0:
256,192,57382,1,8,0:0:0:0:
256,192,57554,1,8,0:0:0:0:
256,192,57725,1,0,0:0:0:0:
256,192,57897,1,0,0:0:0:0:
256,192,57982,1,0,0:0:0:0:
256,192,58068,1,8,0:0:0:0:
256,192,58239,1,8,0:0:0:0:
256,192,58411,1,0,0:0:0:0:
256,192,58754,1,8,0:0:0:0:
256,192,58925,1,8,0:0:0:0:
256,192,59097,1,0,0:0:0:0:
256,192,59439,1,8,0:0:0:0:
64,64,59611,1,0,0:0:0:0:
64,64,59697,1,0,0:0:0:0:
320,64,59782,1,8,0:0:0:0:
320,64,59868,1,8,0:0:0:0:
256,192,59954,1,0,0:0:0:0:
256,192,60125,1,8,0:0:0:0:
256,192,60297,1,8,0:0:0:0:
256,192,60468,1,0,0:0:0:0:
256,192,60639,1,0,0:0:0:0:
256,192,60725,1,0,0:0:0:0:
256,192,60811,1,8,0:0:0:0:
256,192,60982,1,8,0:0:0:0:
64,64,61154,1,0,0:0:0:0:
320,64,61325,1,8,0:0:0:0:
64,64,61497,1,0,0:0:0:0:
64,64,61582,1,0,0:0:0:0:
256,192,61668,1,8,0:0:0:0:
256,192,61839,1,0,0:0:0:0:
256,192,62182,1,8,0:0:0:0:
256,192,62354,1,0,0:0:0:0:
256,192,62439,1,0,0:0:0:0:
256,192,62525,1,0,0:0:0:0:
64,64,62697,1,0,0:0:0:0:
256,192,62868,1,8,0:0:0:0:
256,192,63039,1,8,0:0:0:0:
256,192,63211,1,0,0:0:0:0:
64,64,63382,1,0,0:0:0:0:
256,192,63468,1,0,0:0:0:0:
256,192,63554,1,8,0:0:0:0:
256,192,63725,1,8,0:0:0:0:
256,192,63897,1,0,0:0:0:0:
256,192,64239,1,8,0:0:0:0:
256,192,64411,1,8,0:0:0:0:
256,192,64582,1,0,0:0:0:0:
256,192,64754,1,0,0:0:0:0:
256,192,64839,1,0,0:0:0:0:
256,192,64925,1,8,0:0:0:0:
256,192,65097,1,8,0:0:0:0:
256,192,65268,1,0,0:0:0:0:
256,192,65354,1,0,0:0:0:0:
256,192,65439,1,0,0:0:0:0:
256,192,65611,1,8,0:0:0:0:
256,192,65782,1,8,0:0:0:0:
256,192,65954,1,0,0:0:0:0:
256,192,66297,1,8,0:0:0:0:
256,192,66639,1,8,0:0:0:0:
256,192,66982,1,8,0:0:0:0:
256,192,67325,1,0,0:0:0:0:
256,192,67497,1,8,0:0:0:0:
256,192,67668,1,0,0:0:0:0:
256,192,67839,1,0,0:0:0:0:
256,192,67925,1,0,0:0:0:0:
256,192,68011,1,0,0:0:0:0:
320,64,68182,1,8,0:0:0:0:
64,64,68354,1,0,0:0:0:0:
64,64,68525,1,0,0:0:0:0:
64,64,68697,1,0,0:0:0:0:
320,64,68868,1,8,0:0:0:0:
64,64,69039,1,0,0:0:0:0:
320,64,69211,1,8,0:0:0:0:
320,64,69297,1,8,0:0:0:0:
64,64,69382,1,0,0:0:0:0:
256,192,69554,1,8,0:0:0:0:
64,64,69725,1,0,0:0:0:0:
64,64,70068,1,0,0:0:0:0:
256,192,70239,1,8,0:0:0:0:
64,64,70411,1,0,0:0:0:0:
64,64,70582,1,0,0:0:0:0:
64,64,70668,1,0,0:0:0:0:
256,192,70754,1,0,0:0:0:0:
256,192,70925,1,8,0:0:0:0:
64,64,71097,1,0,0:0:0:0:
64,64,71268,1,0,0:0:0:0:
256,192,71439,1,0,0:0:0:0:
256,192,71611,1,8,0:0:0:0:
256,192,71697,1,8,0:0:0:0:
256,192,71782,1,0,0:0:0:0:
256,192,71954,1,0,0:0:0:0:
256,192,72125,1,8,0:0:0:0:
256,192,72211,1,0,0:0:0:0:
256,192,72297,1,8,0:0:0:0:
256,192,72468,1,0,0:0:0:0:
64,64,72811,1,0,0:0:0:0:
320,64,72982,1,8,0:0:0:0:
64,64,73154,1,0,0:0:0:0:
64,64,73325,1,0,0:0:0:0:
64,64,73411,1,0,0:0:0:0:
320,64,73497,1,8,0:0:0:0:
320,64,73668,1,8,0:0:0:0:
64,64,73839,1,0,0:0:0:0:
64,64,74011,1,0,0:0:0:0:
64,64,74182,1,0,0:0:0:0:
320,64,74354,1,8,0:0:0:0:
64,64,74525,1,0,0:0:0:0:
64,64,74611,1,0,0:0:0:0:
64,64,74697,1,0,0:0:0:0:
64,64,74868,1,0,0:0:0:0:
320,64,75039,1,8,0:0:0:0:
64,64,75211,1,0,0:0:0:0:
64,64,75554,1,0,0:0:0:0:
320,64,75725,1,8,0:0:0:0:
64,64,75897,1,0,0:0:0:0:
64,64,76068,1,0,0:0:0:0:
64,64,76154,1,0,0:0:0:0:
320,64,76239,1,8,0:0:0:0:
320,64,76411,1,8,0:0:0:0:
64,64,76582,1,0,0:0:0:0:
64,64,76668,1,0,0:0:0:0:
64,64,76754,1,0,0:0:0:0:
64,64,76925,1,0,0:0:0:0:
320,64,77097,1,8,0:0:0:0:
320,64,77182,1,8,0:0:0:0:
64,64,77268,1,0,0:0:0:0:
64,64,77439,1,0,0:0:0:0:
320,64,77611,1,8,0:0:0:0:
64,64,77697,1,0,0:0:0:0:
320,64,77782,1,8,0:0:0:0:
64,64,77954,1,0,0:0:0:0:
256,192,78297,1,0,0:0:0:0:
256,192,78468,1,8,0:0:0:0:
256,192,78639,1,0,0:0:0:0:
256,192,78811,1,0,0:0:0:0:
256,192,78897,1,0,0:0:0:0:
256,192,78982,1,0,0:0:0:0:
320,64,79154,1,8,0:0:0:0:
64,64,79325,1,0,0:0:0:0:
64,64,79497,1,0,0:0:0:0:
64,64,79668,1,0,0:0:0:0:
320,64,79839,1,8,0:0:0:0:
64,64,80011,1,0,0:0:0:0:
320,64,80182,1,8,0:0:0:0:
320,64,80268,1,8,0:0:0:0:
64,64,80354,1,0,0:0:0:0:
256,192,80525,1,8,0:0:0:0:
64,64,80697,1,0,0:0:0:0:
64,64,81039,1,0,0:0:0:0:
256,192,81211,1,8,0:0:0:0:
64,64,81382,1,0,0:0:0:0:
64,64,81554,1,0,0:0:0:0:
64,64,81725,1,0,0:0:0:0:
64,64,81811,1,0,0:0:0:0:
256,192,81897,1,8,0:0:0:0:
64,64,82068,1,0,0:0:0:0:
64,64,82239,1,0,0:0:0:0:
256,192,82411,1,0,0:0:0:0:
256,192,82582,1,8,0:0:0:0:
256,192,82668,1,8,0:0:0:0:
256,192,82754,1,0,0:0:0:0:
256,192,82925,1,0,0:0:0:0:
256,192,83097,1,8,0:0:0:0:
256,192,83182,1,0,0:0:0:0:
256,192,83268,1,8,0:0:0:0:
64,64,83439,1,0,0:0:0:0:
320,64,83611,1,8,0:0:0:0:
64,64,83782,1,0,0:0:0:0:
320,64,83954,1,8,0:0:0:0:
64,64,84125,1,0,0:0:0:0:
64,64,84297,1,0,0:0:0:0:
64,64,84382,1,0,0:0:0:0:
320,64,84468,1,8,0:0:0:0:
320,64,84639,1,8,0:0:0:0:
64,64,84811,1,0,0:0:0:0:
64,64,84982,1,0,0:0:0:0:
64,64,85154,1,0,0:0:0:0:
320,64,85325,1,8,0:0:0:0:
64,64,85497,1,0,0:0:0:0:
64,64,85668,1,0,0:0:0:0:
64,64,85839,1,0,0:0:0:0:
64,64,85925,1,0,0:0:0:0:
320,64,86011,1,8,0:0:0:0:
64,64,86182,1,0,0:0:0:0:
320,64,86525,1,8,0:0:0:0:
64,64,86697,1,0,0:0:0:0:
320,64,86868,1,8,0:0:0:0:
64,64,87039,1,0,0:0:0:0:
320,64,87211,1,8,0:0:0:0:
320,64,87297,1,8,0:0:0:0:
256,192,87382,1,0,0:0:0:0:
256,192,87554,1,8,0:0:0:0:
64,64,87725,1,0,0:0:0:0:
256,192,87897,1,0,0:0:0:0:
320,64,88068,1,8,0:0:0:0:
320,64,88154,1,8,0:0:0:0:
256,192,88239,1,0,0:0:0:0:
256,192,88411,1,0,0:0:0:0:
256,192,88582,1,8,0:0:0:0:
256,192,88668,1,0,0:0:0:0:
256,192,88754,1,8,0:0:0:0:
256,192,88925,1,0,0:0:0:0:
64,64,89268,1,0,0:0:0:0:
64,64,89439,1,0,0:0:0:0:
320,64,89611,1,8,0:0:0:0:
64,64,89782,1,0,0:0:0:0:
64,64,89954,1,0,0:0:0:0:
64,64,90125,1,0,0:0:0:0:
64,64,90211,1,0,0:0:0:0:
320,64,90297,1,8,0:0:0:0:
64,64,90639,1,0,0:0:0:0:
64,64,90811,1,0,0:0:0:0:
320,64,90982,1,8,0:0:0:0:
256,192,91154,1,0,0:0:0:0:
64,64,91325,1,0,0:0:0:0:
256,192,91497,1,0,0:0:0:0:
256,192,91582,1,0,0:0:0:0:
256,192,91668,1,8,0:0:0:0:
256,192,91839,1,8,0:0:0:0:
256,192,92011,1,0,0:0:0:0:
256,192,92354,1,8,0:0:0:0:
256,192,92525,1,0,0:0:0:0:
256,192,92697,1,0,0:0:0:0:
64,64,92868,1,0,0:0:0:0:
256,192,92954,1,0,0:0:0:0:
256,192,93039,1,8,0:0:0:0:
256,192,93211,1,8,0:0:0:0:
256,192,93382,1,0,0:0:0:0:
256,192,93554,1,8,0:0:0:0:
256,192,93639,1,8,0:0:0:0:
256,192,93725,1,0,0:0:0:0:
256,192,93897,1,0,0:0:0:0:
256,192,94068,1,8,0:0:0:0:
256,192,94239,1,0,0:0:0:0:
64,64,94325,1,0,0:0:0:0:
256,192,94411,1,8,0:0:0:0:
256,192,94582,1,8,0:0:0:0:
256,192,94754,1,0,0:0:0:0:
320,64,95097,1,8,0:0:0:0:
256,192,95268,1,0,0:0:0:0:
256,192,95439,1,0,0:0:0:0:
256,192,95611,1,0,0:0:0:0:
64,64,95697,1,0,0:0:0:0:
320,64,95782,1,8,0:0:0:0:
256,192,96125,1,0,0:0:0:0:
64,64,96297,1,0,0:0:0:0:
320,64,96468,1,8,0:0:0:0:
256,192,96639,1,0,0:0:0:0:
64,64,96811,1,0,0:0:0:0:
256,192,96982,1,0,0:0:0:0:
256,192,97068,1,0,0:0:0:0:
256,192,97154,1,8,0:0:0:0:
256,192,97325,1,8,0:0:0:0:
256,192,97497,1,0,0:0:0:0:
256,192,97839,1,8,0:0:0:0:
256,192,98011,1,0,0:0:0:0:
256,192,98182,1,0,0:0:0:0:
64,64,98354,1,0,0:0:0:0:
256,192,98439,1,0,0:0:0:0:
256,192,98525,1,8,0:0:0:0:
256,192,98868,1,0,0:0:0:0:
256,192,99039,1,8,0:0:0:0:
256,192,99125,1,8,0:0:0:0:
256,192,99211,1,0,0:0:0:0:
256,192,99382,1,0,0:0:0:0:
256,192,99554,1,8,0:0:0:0:
256,192,99639,1,8,0:0:0:0:
256,192,99725,1,0,0:0:0:0:
64,64,99811,1,0,0:0:0:0:
256,192,99897,1,8,0:0:0:0:
64,64,100239,1,0,0:0:0:0:
64,64,100411,1,0,0:0:0:0:
320,64,100582,1,8,0:0:0:0:
64,64,100754,1,0,0:0:0:0:
64,64,100925,1,0,0:0:0:0:
64,64,101097,1,0,0:0:0:0:
64,64,101182,1,0,0:0:0:0:
320,64,101268,1,8,0:0:0:0:
64,64,101611,1,0,0:0:0:0:
64,64,101782,1,0,0:0:0:0:
320,64,101954,1,8,0:0:0:0:
256,192,102125,1,0,0:0:0:0:
64,64,102297,1,0,0:0:0:0:
256,192,102468,1,0,0:0:0:0:
256,192,102554,1,0,0:0:0:0:
256,192,102639,1,8,0:0:0:0:
256,192,102811,1,8,0:0:0:0:
256,192,102982,1,0,0:0:0:0:
256,192,103325,1,8,0:0:0:0:
256,192,103497,1,0,0:0:0:0:
256,192,103668,1,0,0:0:0:0:
64,64,103839,1,0,0:0:0:0:
256,192,103925,1,0,0:0:0:0:
256,192,104011,1,8,0:0:0:0:
256,192,104182,1,8,0:0:0:0:
256,192,104354,1,0,0:0:0:0:
256,192,104525,1,8,0:0:0:0:
256,192,104611,1,8,0:0:0:0:
256,192,104697,1,0,0:0:0:0:
256,192,104868,1,0,0:0:0:0:
256,192,105039,1,8,0:0:0:0:
256,192,105211,1,0,0:0:0:0:
64,64,105297,1,0,0:0:0:0:
256,192,105382,1,8,0:0:0:0:
256,192,105554,1,8,0:0:0:0:
256,192,105725,1,0,0:0:0:0:
320,64,106068,1,8,0:0:0:0:
256,192,106239,1,0,0:0:0:0:
256,192,106411,1,0,0:0:0:0:
256,192,106582,1,0,0:0:0:0:
64,64,106668,1,0,0:0:0:0:
320,64,106754,1,8,0:0:0:0:
320,64,107097,1,8,0:0:0:0:
64,64,107268,1,0,0:0:0:0:
320,64,107439,1,8,0:0:0:0:
320,64,107525,1,8,0:0:0:0:
256,192,107611,1,0,0:0:0:0:
320,64,107782,1,8,0:0:0:0:
256,192,107954,1,0,0:0:0:0:
64,64,108039,1,0,0:0:0:0:
256,192,108125,1,8,0:0:0:0:
256,192,108297,1,8,0:0:0:0:
256,192,108468,1,0,0:0:0:0:
320,64,108639,1,8,0:0:0:0:
320,64,108725,1,8,0:0:0:0:
64,64,108811,1,0,0:0:0:0:
256,192,108982,1,0,0:0:0:0:
320,64,109154,1,8,0:0:0:0:
64,64,109239,1,0,0:0:0:0:
320,64,109325,1,8,0:0:0:0:
64,64,109497,1,0,0:0:0:0:
256,192,109839,1,0,0:0:0:0:
256,192,110011,12,0,110868,0:0:0:0:
256,192,111211,5,0,0:0:0:0:
256,192,111554,1,8,0:0:0:0:
256,192,111725,1,0,0:0:0:0:
256,192,111811,1,0,0:0:0:0:
320,64,111897,1,8,0:0:0:0:
320,64,111982,1,8,0:0:0:0:
64,64,112068,1,0,0:0:0:0:
256,192,112239,1,8,0:0:0:0:
64,64,112582,1,0,0:0:0:0:
256,192,112925,1,8,0:0:0:0:
256,192,113097,1,8,0:0:0:0:
256,192,113182,1,8,0:0:0:0:
256,192,113268,1,0,0:0:0:0:
256,192,113439,1,0,0:0:0:0:
256,192,113611,1,8,0:0:0:0:
320,64,113782,1,8,0:0:0:0:
256,192,113954,1,0,0:0:0:0:
256,192,114297,1,8,0:0:0:0:
256,192,114468,1,0,0:0:0:0:
256,192,114554,1,0,0:0:0:0:
256,192,114639,1,8,0:0:0:0:
256,192,114725,1,8,0:0:0:0:
64,64,114811,1,0,0:0:0:0:
320,64,114982,1,8,0:0:0:0:
256,192,115154,1,0,0:0:0:0:
256,192,115239,1,0,0:0:0:0:
256,192,115325,1,0,0:0:0:0:
256,192,115497,1,0,0:0:0:0:
320,64,115668,1,8,0:0:0:0:
256,192,115839,1,0,0:0:0:0:
256,192,116011,1,8,0:0:0:0:
256,192,116182,1,0,0:0:0:0:
256,192,116268,1,0,0:0:0:0:
256,192,116354,1,8,0:0:0:0:
256,192,116525,1,8,0:0:0:0:
256,192,116697,1,0,0:0:0:0:
256,192,117039,1,8,0:0:0:0:
256,192,117211,1,0,0:0:0:0:
64,64,117297,1,0,0:0:0:0:
256,192,117382,1,8,0:0:0:0:
256,192,117468,1,8,0:0:0:0:
256,192,117554,1,0,0:0:0:0:
256,192,117725,1,8,0:0:0:0:
64,64,118068,1,0,0:0:0:0:
256,192,118411,1,8,0:0:0:0:
256,192,118582,1,8,0:0:0:0:
256,192,118668,1,8,0:0:0:0:
256,192,118754,1,0,0:0:0:0:
64,64,118925,1,0,0:0:0:0:
256,192,119097,1,8,0:0:0:0:
320,64,119268,1,8,0:0:0:0:
256,192,119439,1,0,0:0:0:0:
256,192,119782,1,8,0:0:0:0:
256,192,119954,1,0,0:0:0:0:
256,192,120039,1,0,0:0:0:0:
256,192,120125,1,8,0:0:0:0:
256,192,120211,1,8,0:0:0:0:
64,64,120297,1,0,0:0:0:0:
256,192,120468,1,8,0:0:0:0:
256,192,120811,1,0,0:0:0:0:
64,64,120982,1,0,0:0:0:0:
256,192,121154,1,8,0:0:0:0:
64,64,121325,1,0,0:0:0:0:
320,64,121411,1,8,0:0:0:0:
256,192,121497,1,0,0:0:0:0:
64,64,121668,1,0,0:0:0:0:
256,192,121839,1,8,0:0:0:0:
64,64,122182,1,0,0:0:0:0:
320,64,122525,1,8,0:0:0:0:
64,64,122697,1,0,0:0:0:0:
320,64,122782,1,8,0:0:0:0:
64,64,122868,1,0,0:0:0:0:
256,192,122954,1,8,0:0:0:0:
256,192,123039,1,0,0:0:0:0:
256,192,123211,1,8,0:0:0:0:
256,192,123554,1,0,0:0:0:0:
256,192,123897,1,8,0:0:0:0:
256,192,124068,1,0,0:0:0:0:
256,192,124154,1,0,0:0:0:0:
256,192,124239,1,8,0:0:0:0:
64,64,124411,1,0,0:0:0:0:
320,64,124582,1,8,0:0:0:0:
256,192,124925,1,0,0:0:0:0:
256,192,125268,1,8,0:0:0:0:
256,192,125439,1,0,0:0:0:0:
256,192,125525,1,8,0:0:0:0:
64,64,125611,1,0,0:0:0:0:
256,192,125697,1,8,0:0:0:0:
64,64,125782,1,0,0:0:0:0:
320,64,125954,1,8,0:0:0:0:
64,64,126125,1,0,0:0:0:0:
64,64,126211,1,0,0:0:0:0:
256,192,126297,1,0,0:0:0:0:
64,64,126468,1,0,0:0:0:0:
320,64,126639,1,8,0:0:0:0:
256,192,126811,1,0,0:0:0:0:
64,64,126897,1,0,0:0:0:0:
256,192,126982,1,8,0:0:0:0:
320,64,127154,1,8,0:0:0:0:
64,64,127325,1,0,0:0:0:0:
256,192,127668,1,0,0:0:0:0:
256,192,128011,1,8,0:0:0:0:
256,192,128182,1,0,0:0:0:0:
256,192,128268,1,0,0:0:0:0:
64,64,128354,1,0,0:0:0:0:
64,64,128525,1,0,0:0:0:0:
320,64,128697,1,8,0:0:0:0:
256,192,128868,1,0,0:0:0:0:
64,64,129039,1,0,0:0:0:0:
64,64,129211,1,0,0:0:0:0:
320,64,129382,1,8,0:0:0:0:
256,192,129554,1,0,0:0:0:0:
64,64,129725,1,0,0:0:0:0:
64,64,129811,1,0,0:0:0:0:
320,64,129897,1,8,0:0:0:0:
64,64,130068,1,0,0:0:0:0:
64,64,130154,1,0,0:0:0:0:
64,64,130239,1,0,0:0:0:0:
64,64,130325,1,0,0:0:0:0:
256,192,130411,1,8,0:0:0:0:
64,64,131782,5,0,0:0:0:0:
320,64,132125,1,8,0:0:0:0:
64,64,132382,1,0,0:0:0:0:
64,64,132554,1,0,0:0:0:0:
64,64,132639,1,0,0:0:0:0:
320,64,132811,1,8,0:0:0:0:
320,64,132982,1,8,0:0:0:0:
256,192,133154,1,4,0:0:0:0:
256,192,133497,1,0,0:0:0:0:
256,192,133668,1,8,0:0:0:0:
256,192,133839,1,0,0:0:0:0:
256,192,133925,1,0,0:0:0:0:
64,64,134097,1,0,0:0:0:0:
320,64,134182,1,8,0:0:0:0:
256,192,134525,1,4,0:0:0:0:
256,192,134868,1,0,0:0:0:0:
256,192,135039,1,8,0:0:0:0:
256,192,135211,1,0,0:0:0:0:
256,192,135297,1,0,0:0:0:0:
256,192,135554,1,8,0:0:0:0:
256,192,135725,1,8,0:0:0:0:
256,192,135897,1,4,0:0:0:0:
256,192,136239,1,0,0:0:0:0:
256,192,136411,1,8,0:0:0:0:
256,192,136582,1,0,0:0:0:0:
256,192,136668,1,0,0:0:0:0:
256,192,136839,1,0,0:0:0:0:
256,192,136925,1,8,0:0:0:0:
256,192,137268,1,4,0:0:0:0:
320,64,137611,1,8,0:0:0:0:
320,64,137782,1,8,0:0:0:0:
256,192,137954,1,4,0:0:0:0:
320,64,138125,1,8,0:0:0:0:
320,64,138211,1,8,0:0:0:0:
320,64,138297,1,8,0:0:0:0:
320,64,138468,1,8,0:0:0:0:
256,192,138639,1,4,0:0:0:0:
256,192,138982,1,0,0:0:0:0:
256,192,139154,1,8,0:0:0:0:
256,192,139325,1,4,0:0:0:0:
256,192,139668,1,8,0:0:0:0:
256,192,140011,1,4,0:0:0:0:
256,192,140354,1,0,0:0:0:0:
256,192,140525,1,8,0:0:0:0:
256,192,140697,1,4,0:0:0:0:
256,192,141039,1,8,0:0:0:0:
256,192,141125,1,0,0:0:0:0:
320,64,141211,1,8,0:0:0:0:
256,192,141382,1,4,0:0:0:0:
64,64,141725,1,0,0:0:0:0:
256,192,141897,1,8,0:0:0:0:
256,192,142068,1,4,0:0:0:0:
320,64,142239,1,8,0:0:0:0:
256,192,142411,1,8,0:0:0:0:
256,192,142582,1,8,0:0:0:0:
256,192,142754,1,0,0:0:0:0:
256,192,142925,1,8,0:0:0:0:
256,192,143011,1,8,0:0:0:0:
256,192,143097,1,0,0:0:0:0:
256,192,143268,1,0,0:0:0:0:
256,192,143439,1,8,0:0:0:0:
256,192,143525,1,0,0:0:0:0:
256,192,143611,1,8,0:0:0:0:
256,192,143782,1,0,0:0:0:0:
256,192,144125,1,4,0:0:0:0:
256,192,144468,1,0,0:0:0:0:
256,192,144639,1,8,0:0:0:0:
256,192,144811,1,4,0:0:0:0:
256,192,145068,1,8,0:0:0:0:
256,192,145154,1,0,0:0:0:0:
256,192,145497,1,4,0:0:0:0:
256,192,145839,1,0,0:0:0:0:
256,192,146011,1,8,0:0:0:0:
256,192,146182,1,4,0:0:0:0:
256,198,146439,1,0,0:0:0:0:
256,192,146525,1,8,0:0:0:0:
320,64,146697,1,8,0:0:0:0:
256,192,146868,1,4,0:0:0:0:
256,192,147211,1,0,0:0:0:0:
256,192,147382,1,8,0:0:0:0:
256,192,147554,1,4,0:0:0:0:
256,192,147811,1,8,0:0:0:0:
256,192,147897,1,0,0:0:0:0:
256,192,148239,1,4,0:0:0:0:
256,192,148582,1,0,0:0:0:0:
256,192,148754,1,8,0:0:0:0:
256,192,148925,1,4,0:0:0:0:
256,192,149268,1,8,0:0:0:0:
256,182,149354,1,0,0:0:0:0:
256,192,149439,1,8,0:0:0:0:
256,192,149611,1,4,0:0:0:0:
256,192,149954,1,0,0:0:0:0:
256,192,150125,1,8,0:0:0:0:
256,192,150297,1,4,0:0:0:0:
256,192,150554,1,8,0:0:0:0:
256,192,150639,1,0,0:0:0:0:
256,192,150982,1,4,0:0:0:0:
256,192,151325,1,0,0:0:0:0:
256,192,151497,1,8,0:0:0:0:
256,192,151668,1,4,0:0:0:0:
249,187,151925,1,0,0:0:0:0:
256,192,152011,1,8,0:0:0:0:
256,192,152182,1,8,0:0:0:0:
256,192,152354,1,0,0:0:0:0:
256,192,152525,1,8,0:0:0:0:
256,192,152697,1,8,0:0:0:0:
256,192,152868,1,8,0:0:0:0:
256,192,153039,1,0,0:0:0:0:
256,192,153211,1,8,0:0:0:0:
256,192,153297,1,8,0:0:0:0:
256,192,153382,1,8,0:0:0:0:
256,192,153554,1,8,0:0:0:0:
256,192,153725,1,0,0:0:0:0:
256,192,153897,1,8,0:0:0:0:
256,192,153982,1,8,0:0:0:0:
256,192,154068,1,0,0:0:0:0:
256,192,154239,1,0,0:0:0:0:
256,192,154411,1,8,0:0:0:0:
256,192,154497,1,0,0:0:0:0:
320,64,154582,1,8,0:0:0:0:
256,192,154754,1,0,0:0:0:0:
256,192,155097,1,0,0:0:0:0:
256,192,155439,1,8,0:0:0:0:
256,192,155697,1,0,0:0:0:0:
64,64,155782,1,0,0:0:0:0:
64,64,155954,1,0,0:0:0:0:
320,64,156125,1,8,0:0:0:0:
320,64,156297,1,8,0:0:0:0:
320,64,156382,1,8,0:0:0:0:
64,64,156468,1,0,0:0:0:0:
256,192,156725,1,0,0:0:0:0:
256,192,156811,1,8,0:0:0:0:
64,64,156982,1,0,0:0:0:0:
320,64,157154,1,8,0:0:0:0:
320,64,157239,1,8,0:0:0:0:
256,192,157325,1,0,0:0:0:0:
256,192,157497,1,8,0:0:0:0:
256,192,157839,1,0,0:0:0:0:
256,192,158182,1,8,0:0:0:0:
256,192,158354,1,8,0:0:0:0:
256,192,158525,1,0,0:0:0:0:
256,192,158611,1,0,0:0:0:0:
64,64,158697,1,0,0:0:0:0:
256,192,158868,1,8,0:0:0:0:
256,192,159039,1,0,0:0:0:0:
256,192,159125,1,0,0:0:0:0:
256,192,159211,1,8,0:0:0:0:
256,192,159382,1,0,0:0:0:0:
64,64,159468,1,0,0:0:0:0:
256,192,159554,1,8,0:0:0:0:
256,192,159725,1,0,0:0:0:0:
256,192,159897,1,8,0:0:0:0:
256,192,160239,1,8,0:0:0:0:
256,192,160411,1,8,0:0:0:0:
64,64,160582,1,0,0:0:0:0:
256,192,160925,1,8,0:0:0:0:
256,192,161182,1,0,0:0:0:0:
64,64,161268,1,0,0:0:0:0:
64,64,161439,1,0,0:0:0:0:
320,64,161611,1,8,0:0:0:0:
320,64,161782,1,8,0:0:0:0:
320,64,161868,1,8,0:0:0:0:
64,64,161954,1,0,0:0:0:0:
256,192,162211,1,0,0:0:0:0:
256,192,162297,1,8,0:0:0:0:
64,64,162468,1,0,0:0:0:0:
320,64,162639,1,8,0:0:0:0:
320,64,162725,1,8,0:0:0:0:
256,192,162811,1,0,0:0:0:0:
256,192,162982,1,8,0:0:0:0:
64,64,163154,1,0,0:0:0:0:
256,192,163325,1,0,0:0:0:0:
64,64,163497,1,0,0:0:0:0:
256,192,163668,1,8,0:0:0:0:
320,64,163754,1,8,0:0:0:0:
64,64,163839,1,0,0:0:0:0:
256,192,164011,1,0,0:0:0:0:
64,64,164182,1,0,0:0:0:0:
64,64,164268,1,0,0:0:0:0:
256,192,164354,1,8,0:0:0:0:
256,192,164525,1,8,0:0:0:0:
320,64,164697,1,8,0:0:0:0:
320,64,164782,1,8,0:0:0:0:
256,192,164868,1,0,0:0:0:0:
256,192,165039,1,8,0:0:0:0:
256,192,165211,1,0,0:0:0:0:
256,192,165382,1,8,0:0:0:0:
64,64,165554,1,0,0:0:0:0:
64,64,165639,1,0,0:0:0:0:
256,192,165725,1,8,0:0:0:0:
256,192,166068,1,0,0:0:0:0:
256,192,166239,1,0,0:0:0:0:
256,192,166411,1,8,0:0:0:0:
256,192,166582,1,0,0:0:0:0:
64,64,166668,1,0,0:0:0:0:
256,192,166754,1,8,0:0:0:0:
64,64,166925,1,0,0:0:0:0:
256,192,167097,1,8,0:0:0:0:
320,64,167182,1,8,0:0:0:0:
64,64,167268,1,0,0:0:0:0:
256,192,167439,1,8,0:0:0:0:
64,64,167611,1,0,0:0:0:0:
64,64,167697,1,0,0:0:0:0:
256,192,167782,1,8,0:0:0:0:
256,192,167954,1,0,0:0:0:0:
320,64,168125,1,8,0:0:0:0:
320,64,168211,1,8,0:0:0:0:
256,192,168297,1,0,0:0:0:0:
320,64,168468,1,8,0:0:0:0:
64,64,168639,1,0,0:0:0:0:
64,64,168725,1,0,0:0:0:0:
64,64,168811,1,0,0:0:0:0:
256,192,169154,1,8,0:0:0:0:
64,64,169325,1,0,0:0:0:0:
320,64,169497,1,8,0:0:0:0:
64,64,169668,1,0,0:0:0:0:
64,64,169754,1,0,0:0:0:0:
320,64,169839,1,8,0:0:0:0:
320,64,169925,1,8,0:0:0:0:
256,192,170011,1,0,0:0:0:0:
256,192,170182,1,8,0:0:0:0:
256,192,170525,1,8,0:0:0:0:
256,192,170697,1,0,0:0:0:0:
256,192,170868,1,8,0:0:0:0:
320,64,170954,1,8,0:0:0:0:
256,192,171039,1,0,0:0:0:0:
64,64,171125,1,0,0:0:0:0:
256,192,171211,1,8,0:0:0:0:
256,192,171382,1,8,0:0:0:0:
256,192,171554,1,0,0:0:0:0:
256,192,171897,1,8,0:0:0:0:
320,64,172068,1,8,0:0:0:0:
320,64,172154,1,8,0:0:0:0:
256,192,172239,1,0,0:0:0:0:
256,192,172411,1,0,0:0:0:0:
256,192,172582,1,8,0:0:0:0:
256,192,172668,1,8,0:0:0:0:
64,64,172754,1,0,0:0:0:0:
64,64,172925,1,0,0:0:0:0:
256,192,173097,1,8,0:0:0:0:
320,64,173182,1,8,0:0:0:0:
256,192,173268,1,0,0:0:0:0:
64,64,173439,1,0,0:0:0:0:
256,192,173611,1,8,0:0:0:0:
320,64,173697,1,8,0:0:0:0:
256,192,173782,1,0,0:0:0:0:
256,192,173954,1,0,0:0:0:0:
256,192,174125,1,8,0:0:0:0:
256,192,174211,1,8,0:0:0:0:
256,192,174297,1,0,0:0:0:0:
256,192,174468,1,0,0:0:0:0:
256,192,174639,1,0,0:0:0:0:
256,192,174811,1,0,0:0:0:0:
256,192,174982,1,0,0:0:0:0:
256,192,175154,1,0,0:0:0:0:
256,192,175325,1,0,0:0:0:0:
256,192,175497,1,0,0:0:0:0:
256,192,175668,1,0,0:0:0:0:
64,64,176011,1,0,0:0:0:0:
256,192,176354,1,0,0:0:0:0:
256,192,176697,1,8,0:0:0:0:
256,192,177039,1,4,0:0:0:0:
256,192,177382,1,8,0:0:0:0:
256,192,177554,1,0,0:0:0:0:
256,192,177725,1,8,0:0:0:0:
256,192,177811,1,8,0:0:0:0:
256,192,177897,1,0,0:0:0:0:
256,192,178068,1,8,0:0:0:0:
256,192,178239,1,8,0:0:0:0:
256,192,178411,1,4,0:0:0:0:
256,192,178754,1,8,0:0:0:0:
256,192,178925,1,8,0:0:0:0:
256,192,179097,1,0,0:0:0:0:
256,192,179182,1,8,0:0:0:0:
256,192,179268,1,0,0:0:0:0:
256,192,179439,1,8,0:0:0:0:
256,192,179611,1,0,0:0:0:0:
256,192,179782,1,4,0:0:0:0:
256,192,180125,1,8,0:0:0:0:
256,192,180297,1,0,0:0:0:0:
64,64,180382,1,0,0:0:0:0:
256,192,180468,1,8,0:0:0:0:
256,192,180639,1,8,0:0:0:0:
256,192,180811,1,0,0:0:0:0:
256,192,180897,1,0,0:0:0:0:
256,192,180982,1,8,0:0:0:0:
256,192,181154,1,8,0:0:0:0:
256,192,181325,1,0,0:0:0:0:
256,192,181411,1,0,0:0:0:0:
256,192,181497,1,8,0:0:0:0:
256,192,181668,1,8,0:0:0:0:
256,192,181839,1,0,0:0:0:0:
256,192,181925,1,0,0:0:0:0:
64,64,182011,1,0,0:0:0:0:
256,192,182182,1,8,0:0:0:0:
256,192,182525,1,4,0:0:0:0:
256,192,182868,1,8,0:0:0:0:
320,64,182954,1,8,0:0:0:0:
256,192,183039,1,0,0:0:0:0:
256,192,183211,1,8,0:0:0:0:
256,192,183382,1,0,0:0:0:0:
256,192,183554,1,8,0:0:0:0:
320,64,183639,1,8,0:0:0:0:
256,192,183725,1,8,0:0:0:0:
256,192,183897,1,4,0:0:0:0:
256,192,184239,1,8,0:0:0:0:
320,64,184325,1,8,0:0:0:0:
256,192,184411,1,0,0:0:0:0:
256,192,184582,1,8,0:0:0:0:
64,64,184754,1,0,0:0:0:0:
64,64,184839,1,0,0:0:0:0:
256,192,184925,1,8,0:0:0:0:
320,64,185097,1,8,0:0:0:0:
64,64,185268,1,4,0:0:0:0:
256,192,185611,1,8,0:0:0:0:
256,192,185697,1,8,0:0:0:0:
256,192,185868,1,8,0:0:0:0:
256,192,185954,1,0,0:0:0:0:
64,64,186125,1,0,0:0:0:0:
256,192,186297,1,8,0:0:0:0:
256,192,186468,1,0,0:0:0:0:
256,192,186554,1,0,0:0:0:0:
256,192,186639,1,8,0:0:0:0:
320,64,186811,1,8,0:0:0:0:
64,64,186982,1,0,0:0:0:0:
256,192,187154,1,0,0:0:0:0:
64,64,187239,1,0,0:0:0:0:
256,192,187325,1,8,0:0:0:0:
256,192,187668,1,8,0:0:0:0:
256,192,188011,1,4,0:0:0:0:
256,192,188354,1,8,0:0:0:0:
256,192,188525,1,0,0:0:0:0:
256,192,188697,1,8,0:0:0:0:
256,192,188782,1,8,0:0:0:0:
256,192,188868,1,0,0:0:0:0:
256,192,189039,1,8,0:0:0:0:
256,192,189211,1,8,0:0:0:0:
256,192,189382,1,4,0:0:0:0:
256,192,189725,1,8,0:0:0:0:
256,192,189897,1,8,0:0:0:0:
256,192,190068,1,0,0:0:0:0:
256,192,190154,1,8,0:0:0:0:
256,192,190239,1,0,0:0:0:0:
256,192,190411,1,8,0:0:0:0:
256,192,190582,1,0,0:0:0:0:
256,192,190754,1,4,0:0:0:0:
256,192,191097,1,8,0:0:0:0:
256,192,191268,1,0,0:0:0:0:
64,64,191354,1,0,0:0:0:0:
256,192,191439,1,8,0:0:0:0:
256,192,191611,1,8,0:0:0:0:
256,192,191782,1,0,0:0:0:0:
256,192,191868,1,0,0:0:0:0:
256,192,191954,1,8,0:0:0:0:
256,192,192125,1,8,0:0:0:0:
256,192,192297,1,0,0:0:0:0:
256,192,192382,1,0,0:0:0:0:
256,192,192468,1,8,0:0:0:0:
256,192,192639,1,8,0:0:0:0:
256,192,192811,1,0,0:0:0:0:
256,192,192897,1,0,0:0:0:0:
64,64,192982,1,0,0:0:0:0:
256,192,193154,1,8,0:0:0:0:
256,192,193497,1,4,0:0:0:0:
256,192,193839,1,8,0:0:0:0:
320,64,193925,1,8,0:0:0:0:
256,192,194011,1,0,0:0:0:0:
256,192,194182,1,8,0:0:0:0:
256,192,194354,1,0,0:0:0:0:
256,192,194525,1,8,0:0:0:0:
320,64,194611,1,8,0:0:0:0:
256,192,194697,1,8,0:0:0:0:
256,192,194868,1,4,0:0:0:0:
256,192,195211,1,8,0:0:0:0:
320,64,195297,1,8,0:0:0:0:
256,192,195382,1,0,0:0:0:0:
256,192,195554,1,8,0:0:0:0:
64,64,195725,1,0,0:0:0:0:
64,64,195811,1,0,0:0:0:0:
256,192,195897,1,8,0:0:0:0:
320,64,196068,1,8,0:0:0:0:
64,64,196239,1,4,0:0:0:0:
256,192,196582,1,4,0:0:0:0:
256,192,196925,1,4,0:0:0:0:
256,192,197268,1,4,0:0:0:0:
256,192,197611,1,0,0:0:0:0:
256,192,197954,1,0,0:0:0:0:
64,64,198297,1,0,0:0:0:0:
256,192,198639,1,8,0:0:0:0:
64,64,198982,1,0,0:0:0:0:
64,64,199239,1,0,0:0:0:0:
320,64,199325,1,8,0:0:0:0:
64,64,199497,1,0,0:0:0:0:
320,64,199668,1,8,0:0:0:0:
320,64,199839,1,8,0:0:0:0:
64,64,200011,1,0,0:0:0:0:
64,64,200182,1,0,0:0:0:0:
64,64,200268,1,0,0:0:0:0:
320,64,200354,1,8,0:0:0:0:
320,64,200525,1,8,0:0:0:0:
64,64,200697,1,0,0:0:0:0:
320,64,200868,1,8,0:0:0:0:
64,64,201039,1,0,0:0:0:0:
64,64,201382,1,0,0:0:0:0:
64,64,201554,1,0,0:0:0:0:
320,64,201725,1,8,0:0:0:0:
320,64,201982,1,8,0:0:0:0:
64,64,202068,1,0,0:0:0:0:
320,64,202239,1,8,0:0:0:0:
64,64,202411,1,0,0:0:0:0:
320,64,202582,1,8,0:0:0:0:
320,64,202754,1,8,0:0:0:0:
320,64,202925,1,8,0:0:0:0:
64,64,203097,1,0,0:0:0:0:
64,64,203268,1,0,0:0:0:0:
320,64,203439,1,8,0:0:0:0:
320,64,203525,1,8,0:0:0:0:
256,192,203611,1,0,0:0:0:0:
256,192,203697,1,0,0:0:0:0:
256,192,203782,1,8,0:0:0:0:
256,192,204125,1,8,0:0:0:0:
64,64,204297,1,0,0:0:0:0:
64,64,204382,1,0,0:0:0:0:
256,192,204468,1,8,0:0:0:0:
64,64,204725,1,0,0:0:0:0:
320,64,204811,1,8,0:0:0:0:
64,64,204982,1,0,0:0:0:0:
320,64,205154,1,8,0:0:0:0:
320,64,205325,1,8,0:0:0:0:
64,64,205497,1,0,0:0:0:0:
64,64,205668,1,0,0:0:0:0:
64,64,205754,1,0,0:0:0:0:
320,64,205839,1,8,0:0:0:0:
320,64,206011,1,8,0:0:0:0:
64,64,206182,1,0,0:0:0:0:
64,64,206525,1,0,0:0:0:0:
320,64,206697,1,8,0:0:0:0:
64,64,206868,1,0,0:0:0:0:
64,64,207039,1,0,0:0:0:0:
320,64,207211,1,8,0:0:0:0:
320,64,207468,1,8,0:0:0:0:
64,64,207554,1,0,0:0:0:0:
320,64,207725,1,8,0:0:0:0:
64,64,207897,1,0,0:0:0:0:
320,64,208068,1,8,0:0:0:0:
320,64,208239,1,8,0:0:0:0:
320,64,208325,1,8,0:0:0:0:
64,64,208411,1,0,0:0:0:0:
256,192,208582,1,8,0:0:0:0:
256,192,208754,1,8,0:0:0:0:
256,192,208925,1,8,0:0:0:0:
320,64,209011,1,8,0:0:0:0:
256,192,209097,1,8,0:0:0:0:
256,192,209268,1,0,0:0:0:0:
320,64,209439,1,8,0:0:0:0:
64,64,209611,1,0,0:0:0:0:
64,64,209697,1,0,0:0:0:0:
64,64,209782,1,0,0:0:0:0:
256,192,209954,1,8,0:0:0:0:
64,64,210211,1,0,0:0:0:0:
320,64,210297,1,8,0:0:0:0:
320,64,210468,1,8,0:0:0:0:
64,64,210639,1,0,0:0:0:0:
64,64,210811,1,0,0:0:0:0:
64,64,210897,1,0,0:0:0:0:
320,64,210982,1,8,0:0:0:0:
320,64,211239,1,8,0:0:0:0:
64,64,211325,1,0,0:0:0:0:
64,64,211497,1,0,0:0:0:0:
320,64,211668,1,8,0:0:0:0:
64,64,212011,1,0,0:0:0:0:
320,64,212354,1,8,0:0:0:0:
320,64,212525,1,8,0:0:0:0:
320,64,212611,1,8,0:0:0:0:
64,64,212697,1,0,0:0:0:0:
64,64,212954,1,0,0:0:0:0:
320,64,213039,1,8,0:0:0:0:
320,64,213211,1,8,0:0:0:0:
64,64,213382,1,0,0:0:0:0:
64,64,213468,1,0,0:0:0:0:
64,64,213554,1,0,0:0:0:0:
320,64,213725,1,8,0:0:0:0:
64,64,213982,1,0,0:0:0:0:
320,64,214068,1,8,0:0:0:0:
320,64,214239,1,8,0:0:0:0:
320,64,214411,1,8,0:0:0:0:
320,64,214582,1,8,0:0:0:0:
320,64,214754,1,8,0:0:0:0:
320,64,215097,1,8,0:0:0:0:
64,64,215268,1,0,0:0:0:0:
64,64,215354,1,0,0:0:0:0:
256,192,215439,1,8,0:0:0:0:
64,64,215697,1,0,0:0:0:0:
320,64,215782,1,8,0:0:0:0:
320,64,215954,1,8,0:0:0:0:
320,64,216125,1,8,0:0:0:0:
64,64,216297,1,0,0:0:0:0:
64,64,216382,1,0,0:0:0:0:
64,64,216468,1,0,0:0:0:0:
64,64,216725,1,0,0:0:0:0:
320,64,216811,1,8,0:0:0:0:
320,64,216982,1,8,0:0:0:0:
64,64,217154,1,0,0:0:0:0:
64,64,217497,1,0,0:0:0:0:
320,64,217668,1,8,0:0:0:0:
64,64,217839,1,0,0:0:0:0:
64,64,218011,1,0,0:0:0:0:
320,64,218182,1,8,0:0:0:0:
320,64,218268,1,8,0:0:0:0:
320,64,218439,1,8,0:0:0:0:
64,64,218525,1,0,0:0:0:0:
320,64,218697,1,8,0:0:0:0:
64,64,218868,1,0,0:0:0:0:
64,64,218954,1,0,0:0:0:0:
64,64,219125,1,0,0:0:0:0:
320,64,219211,1,8,0:0:0:0:
320,64,219382,1,8,0:0:0:0:
256,192,219554,1,0,0:0:0:0:
64,64,219639,1,0,0:0:0:0:
256,192,219725,1,0,0:0:0:0:
256,192,219897,1,8,0:0:0:0:
320,64,220068,1,8,0:0:0:0:
256,192,220239,1,0,0:0:0:0:
256,192,220325,1,0,0:0:0:0:
256,192,220411,1,0,0:0:0:0:
256,192,220582,1,8,0:0:0:0:
320,64,220754,1,8,0:0:0:0:
256,192,220925,1,0,0:0:0:0:
256,192,221268,1,8,0:0:0:0:
256,192,221611,1,0,0:0:0:0:
256,192,221782,1,0,0:0:0:0:
256,192,221954,1,8,0:0:0:0:
256,192,222297,1,0,0:0:0:0:
256,192,222639,1,8,0:0:0:0:
256,192,222811,1,8,0:0:0:0:
256,192,222982,1,0,0:0:0:0:
64,64,223068,1,0,0:0:0:0:
64,64,223154,1,0,0:0:0:0:
256,192,223325,1,8,0:0:0:0:
256,192,223497,1,8,0:0:0:0:
256,192,223668,1,0,0:0:0:0:
64,64,223925,1,0,0:0:0:0:
256,192,224011,1,8,0:0:0:0:
256,192,224182,1,8,0:0:0:0:
256,192,224354,1,0,0:0:0:0:
256,192,224525,1,0,0:0:0:0:
256,192,224697,1,8,0:0:0:0:
320,64,224954,1,8,0:0:0:0:
256,192,225039,1,0,0:0:0:0:
256,192,225211,1,0,0:0:0:0:
256,192,225382,1,8,0:0:0:0:
320,64,225554,1,8,0:0:0:0:
320,64,225639,1,8,0:0:0:0:
64,64,225725,1,0,0:0:0:0:
256,192,226068,1,8,0:0:0:0:
64,64,226239,1,0,0:0:0:0:
64,64,226325,1,0,0:0:0:0:
256,192,226411,1,0,0:0:0:0:
256,192,226754,1,8,0:0:0:0:
256,192,227097,1,0,0:0:0:0:
256,192,227268,1,0,0:0:0:0:
256,192,227439,1,8,0:0:0:0:
256,192,227782,1,0,0:0:0:0:
320,64,228125,1,8,0:0:0:0:
256,192,228297,1,8,0:0:0:0:
256,192,228468,1,0,0:0:0:0:
64,64,228554,1,0,0:0:0:0:
320,64,228639,1,8,0:0:0:0:
64,64,228811,1,0,0:0:0:0:
256,192,228982,1,0,0:0:0:0:
320,64,229154,1,8,0:0:0:0:
64,64,229411,1,0,0:0:0:0:
256,192,229497,1,8,0:0:0:0:
256,192,229668,1,8,0:0:0:0:
256,192,229839,1,0,0:0:0:0:
256,192,230011,1,0,0:0:0:0:
256,192,230182,1,8,0:0:0:0:
320,64,230439,1,8,0:0:0:0:
256,192,230525,1,0,0:0:0:0:
256,192,230697,1,0,0:0:0:0:
256,192,230868,1,8,0:0:0:0:
64,64,231039,1,0,0:0:0:0:
64,64,231125,1,0,0:0:0:0:
320,64,231211,1,8,0:0:0:0:
320,64,231297,1,8,0:0:0:0:
64,64,231382,1,0,0:0:0:0:
256,192,231554,1,8,0:0:0:0:
64,64,231725,1,0,0:0:0:0:
64,64,231811,1,0,0:0:0:0:
64,64,231897,1,0,0:0:0:0:
256,192,232239,1,8,0:0:0:0:
256,192,232582,1,0,0:0:0:0:
256,192,232754,1,0,0:0:0:0:
256,192,232925,1,8,0:0:0:0:
256,192,233268,1,0,0:0:0:0:
256,192,233611,1,8,0:0:0:0:
256,192,233782,1,8,0:0:0:0:
256,192,233954,1,0,0:0:0:0:
64,64,234039,1,0,0:0:0:0:
64,64,234125,1,0,0:0:0:0:
256,192,234297,1,8,0:0:0:0:
256,192,234468,1,8,0:0:0:0:
256,192,234639,1,0,0:0:0:0:
64,64,234897,1,0,0:0:0:0:
256,192,234982,1,8,0:0:0:0:
256,192,235154,1,8,0:0:0:0:
64,64,235325,1,0,0:0:0:0:
64,64,235411,1,0,0:0:0:0:
256,192,235497,1,0,0:0:0:0:
256,192,235668,1,8,0:0:0:0:
320,64,235925,1,8,0:0:0:0:
256,192,236011,1,0,0:0:0:0:
256,192,236182,1,0,0:0:0:0:
256,192,236354,1,8,0:0:0:0:
320,64,236525,1,8,0:0:0:0:
320,64,236611,1,8,0:0:0:0:
64,64,236697,1,0,0:0:0:0:
64,64,236868,1,0,0:0:0:0:
256,192,237039,1,8,0:0:0:0:
64,64,237211,1,0,0:0:0:0:
64,64,237297,1,0,0:0:0:0:
256,192,237382,1,0,0:0:0:0:
256,192,237725,1,8,0:0:0:0:
256,192,238068,1,0,0:0:0:0:
256,192,238239,1,0,0:0:0:0:
256,192,238411,1,8,0:0:0:0:
256,192,238754,1,0,0:0:0:0:
320,64,239097,1,8,0:0:0:0:
256,192,239268,1,8,0:0:0:0:
256,192,239439,1,0,0:0:0:0:
64,64,239611,1,0,0:0:0:0:
320,64,239782,1,8,0:0:0:0:
256,192,239954,1,0,0:0:0:0:
320,64,240125,1,8,0:0:0:0:
320,64,240211,1,8,0:0:0:0:
320,64,240382,1,8,0:0:0:0:
64,64,240468,1,0,0:0:0:0:
320,64,240639,1,8,0:0:0:0:
256,192,240811,1,0,0:0:0:0:
64,64,240897,1,0,0:0:0:0:
256,192,240982,1,0,0:0:0:0:
256,192,241154,1,8,0:0:0:0:
256,192,241497,1,0,0:0:0:0:
256,192,241668,1,0,0:0:0:0:
256,192,241839,1,8,0:0:0:0:
320,64,242011,1,8,0:0:0:0:
320,64,242097,1,8,0:0:0:0:
64,64,242182,1,0,0:0:0:0:
64,64,242354,1,0,0:0:0:0:
320,64,242525,1,8,0:0:0:0:
64,64,242868,1,0,0:0:0:0:
256,192,243039,1,8,0:0:0:0:
64,64,243211,1,0,0:0:0:0:
256,192,243554,1,0,0:0:0:0:
256,192,243639,1,0,0:0:0:0:
256,192,243725,1,8,0:0:0:0:
256,192,243897,1,0,0:0:0:0:
256,192,244239,1,0,0:0:0:0:
256,192,244411,1,8,0:0:0:0:
256,192,244582,1,0,0:0:0:0:
256,192,244925,1,0,0:0:0:0:
256,192,245011,1,0,0:0:0:0:
320,64,245097,1,8,0:0:0:0:
64,64,245268,1,0,0:0:0:0:
256,192,245439,1,8,0:0:0:0:
320,64,245525,1,8,0:0:0:0:
256,192,245611,1,0,0:0:0:0:
320,64,245782,1,8,0:0:0:0:
64,64,245954,1,0,0:0:0:0:
256,192,246297,1,0,0:0:0:0:
256,192,246382,1,0,0:0:0:0:
256,192,246468,1,8,0:0:0:0:
64,64,246639,1,0,0:0:0:0:
256,192,246982,1,0,0:0:0:0:
256,192,247154,1,8,0:0:0:0:
64,64,247325,1,0,0:0:0:0:
320,64,247497,1,8,0:0:0:0:
256,192,247668,1,0,0:0:0:0:
256,192,247754,1,0,0:0:0:0:
64,64,247839,1,0,0:0:0:0:
256,192,247925,1,0,0:0:0:0:
256,192,248011,1,8,0:0:0:0:
256,192,248354,1,0,0:0:0:0:
64,64,248525,1,0,0:0:0:0:
256,192,248697,1,8,0:0:0:0:
256,192,249039,1,0,0:0:0:0:
256,192,249125,1,0,0:0:0:0:
64,64,249211,1,0,0:0:0:0:
256,192,249382,1,8,0:0:0:0:
256,192,249725,1,0,0:0:0:0:
64,64,249897,1,0,0:0:0:0:
256,192,250068,1,8,0:0:0:0:
320,64,250239,1,8,0:0:0:0:
320,64,250325,1,8,0:0:0:0:
256,192,250411,1,0,0:0:0:0:
256,192,250582,1,0,0:0:0:0:
256,192,250754,1,8,0:0:0:0:
256,192,251097,1,0,0:0:0:0:
64,64,251182,1,0,0:0:0:0:
256,192,251268,1,0,0:0:0:0:
256,192,251439,1,8,0:0:0:0:
256,192,251782,1,0,0:0:0:0:
256,192,251954,1,0,0:0:0:0:
256,192,252125,1,8,0:0:0:0:
256,192,252468,1,8,0:0:0:0:
256,192,252554,1,8,0:0:0:0:
256,192,252639,1,0,0:0:0:0:
256,192,252811,1,8,0:0:0:0:
256,192,252897,1,8,0:0:0:0:
64,64,252982,1,0,0:0:0:0:
256,192,253154,1,8,0:0:0:0:
256,192,253239,1,8,0:0:0:0:
256,192,253325,1,0,0:0:0:0:
320,64,253497,1,8,0:0:0:0:
256,192,253668,1,8,0:0:0:0:
64,64,253839,1,0,0:0:0:0:
256,192,254011,1,8,0:0:0:0:
64,64,254182,1,0,0:0:0:0:
256,192,254525,1,0,0:0:0:0:
256,192,254611,1,0,0:0:0:0:
256,192,254697,1,8,0:0:0:0:
256,192,254868,1,0,0:0:0:0:
256,192,255211,1,0,0:0:0:0:
256,192,255382,1,8,0:0:0:0:
256,192,255554,1,0,0:0:0:0:
256,192,255897,1,0,0:0:0:0:
256,192,255982,1,0,0:0:0:0:
320,64,256068,1,8,0:0:0:0:
64,64,256239,1,0,0:0:0:0:
256,192,256411,1,8,0:0:0:0:
320,64,256497,1,8,0:0:0:0:
256,192,256582,1,0,0:0:0:0:
320,64,256754,1,8,0:0:0:0:
64,64,256925,1,0,0:0:0:0:
256,192,257268,1,0,0:0:0:0:
256,192,257354,1,0,0:0:0:0:
256,192,257439,1,8,0:0:0:0:
64,64,257611,1,0,0:0:0:0:
256,192,257954,1,0,0:0:0:0:
256,192,258125,1,8,0:0:0:0:
64,64,258297,1,0,0:0:0:0:
320,64,258468,1,8,0:0:0:0:
256,192,258639,1,0,0:0:0:0:
256,192,258725,1,0,0:0:0:0:
64,64,258811,1,0,0:0:0:0:
256,192,258897,1,0,0:0:0:0:
256,192,258982,1,8,0:0:0:0:
256,192,259325,1,0,0:0:0:0:
64,64,259497,1,0,0:0:0:0:
256,192,259668,1,8,0:0:0:0:
256,192,260011,1,0,0:0:0:0:
256,192,260097,1,0,0:0:0:0:
64,64,260182,1,0,0:0:0:0:
256,192,260354,1,8,0:0:0:0:
256,192,260697,1,0,0:0:0:0:
64,64,260868,1,0,0:0:0:0:
256,192,261039,1,8,0:0:0:0:
320,64,261211,1,8,0:0:0:0:
320,64,261297,1,8,0:0:0:0:
256,192,261382,1,0,0:0:0:0:
256,192,261554,1,0,0:0:0:0:
256,192,261725,1,8,0:0:0:0:
256,192,262068,1,0,0:0:0:0:
256,192,262411,1,0,0:0:0:0:
256,192,262754,1,0,0:0:0:0:
256,192,263097,1,0,0:0:0:0:
256,192,263439,1,0,0:0:0:0:
256,192,264468,1,0,0:0:0:0:
256,192,264811,1,0,0:0:0:0:
256,192,265154,1,8,0:0:0:0:
256,192,265497,1,0,0:0:0:0:
256,192,265754,1,0,0:0:0:0:
256,192,265839,1,8,0:0:0:0:
256,192,266182,1,0,0:0:0:0:
256,192,266525,1,8,0:0:0:0:
256,192,266868,1,0,0:0:0:0:
256,192,267125,1,0,0:0:0:0:
256,192,267211,1,8,0:0:0:0:
256,192,267382,1,8,0:0:0:0:
256,192,267554,1,0,0:0:0:0:
256,192,267897,1,8,0:0:0:0:
256,192,268239,1,0,0:0:0:0:
256,192,268497,1,0,0:0:0:0:
256,192,268582,1,8,0:0:0:0:
256,192,268925,1,0,0:0:0:0:
256,192,269268,1,8,0:0:0:0:
256,192,269611,1,0,0:0:0:0:
256,192,269868,1,0,0:0:0:0:
256,192,269954,1,8,0:0:0:0:
256,192,270125,1,8,0:0:0:0:
256,192,270297,1,0,0:0:0:0:
256,192,270639,1,8,0:0:0:0:
256,192,270982,1,0,0:0:0:0:
256,192,271239,1,0,0:0:0:0:
256,192,271325,1,8,0:0:0:0:
256,192,271668,1,0,0:0:0:0:
256,192,272011,1,8,0:0:0:0:
256,192,272354,1,0,0:0:0:0:
256,192,272611,1,0,0:0:0:0:
256,192,272697,1,8,0:0:0:0:
256,192,272868,1,8,0:0:0:0:
256,192,273039,1,0,0:0:0:0:
256,192,273382,1,8,0:0:0:0:
256,192,273725,1,0,0:0:0:0:
256,192,273982,1,0,0:0:0:0:
256,192,274068,1,8,0:0:0:0:
256,192,274411,1,0,0:0:0:0:
256,192,274754,1,8,0:0:0:0:
256,192,274839,1,8,0:0:0:0:
256,192,274925,1,0,0:0:0:0:
256,192,275011,1,0,0:0:0:0:
256,192,275097,1,8,0:0:0:0:
256,192,275439,1,8,0:0:0:0:
256,192,275525,1,8,0:0:0:0:
256,192,275611,1,8,0:0:0:0:
256,192,275782,1,0,0:0:0:0:
256,192,276125,1,8,0:0:0:0:
256,192,276468,1,0,0:0:0:0:
256,192,276725,1,0,0:0:0:0:
256,192,276811,1,8,0:0:0:0:
256,192,277154,1,0,0:0:0:0:
256,192,277497,1,8,0:0:0:0:
256,192,277839,1,0,0:0:0:0:
256,192,278097,1,0,0:0:0:0:
256,192,278182,1,8,0:0:0:0:
256,192,278354,1,8,0:0:0:0:
256,192,278525,1,0,0:0:0:0:
256,192,278868,1,8,0:0:0:0:
256,192,279211,1,0,0:0:0:0:
256,192,279468,1,0,0:0:0:0:
256,192,279554,1,8,0:0:0:0:
256,192,279897,1,0,0:0:0:0:
256,192,280239,1,0,0:0:0:0:
256,192,280582,1,0,0:0:0:0:
256,192,280925,1,0,0:0:0:0:
256,192,281268,1,0,0:0:0:0:
256,192,281611,1,8,0:0:0:0:
256,192,281954,1,0,0:0:0:0:
256,192,282211,1,0,0:0:0:0:
256,192,282297,1,8,0:0:0:0:
256,192,282639,1,0,0:0:0:0:
256,192,282982,1,8,0:0:0:0:
256,192,283325,1,0,0:0:0:0:
256,192,283582,1,0,0:0:0:0:
256,192,283668,1,8,0:0:0:0:
256,192,283839,1,8,0:0:0:0:
256,192,284011,1,0,0:0:0:0:
256,192,284354,1,8,0:0:0:0:
256,192,284697,1,0,0:0:0:0:
256,192,284954,1,0,0:0:0:0:
256,192,285039,1,8,0:0:0:0:
256,192,285382,1,0,0:0:0:0:
256,192,285725,1,0,0:0:0:0:
256,192,286068,1,0,0:0:0:0:
256,192,286411,1,0,0:0:0:0:
