osu file format v14

[General]
AudioFilename: audio.mp3
AudioLeadIn: 0
PreviewTime: 77347
Countdown: 0
SampleSet: Normal
StackLeniency: 0.7
Mode: 1
LetterboxInBreaks: 0
WidescreenStoryboard: 0

[Editor]
Bookmarks: 259985
DistanceSpacing: 1.8
BeatDivisor: 8
GridSize: 4
TimelineZoom: 1.6

[Metadata]
Title:Snow Song Show
TitleUnicode:Snow Song Show
Artist:pekomiko
ArtistUnicode:pekomiko
Creator:yuzu__rinrin
Version:Winter Love
Source:
Tags:さくらみこ 兎田ぺこら sakura miko usada pekora DECO*27 sasakure.UK hololive ホロライブ Vtuber Virtual Youtuber Cover taiko_ryuki JUDYDANNY ごず Gozu pop Japanese
BeatmapID:2381002
BeatmapSetID:1139911

[Difficulty]
HPDrainRate:6
CircleSize:5
OverallDifficulty:6
ApproachRate:5
SliderMultiplier:1.4
SliderTickRate:1

[Events]
//Background and Video events
0,0,"BG.jpg",0,50
//Break Periods
//Storyboard Layer 0 (Background)
//Storyboard Layer 1 (Fail)
//Storyboard Layer 2 (Pass)
//Storyboard Layer 3 (Foreground)
//Storyboard Layer 4 (Overlay)
//Storyboard Sound Samples

[TimingPoints]
760,352.941176470588,6,1,0,40,1,0
760,-200,6,1,0,40,0,0
16263,600,4,1,0,80,1,8
16575,434.782608695652,4,1,0,70,1,0
16575,-100,4,1,0,70,0,0
17438,434.782608695652,4,1,0,80,1,0
17438,-83.3333333333333,4,1,0,80,0,1
31351,-83.3333333333333,4,1,0,60,0,0
31405,-100,4,1,0,60,0,0
43579,-100,4,1,0,40,0,0
47003,-100,4,1,0,60,0,0
60916,-100,4,1,0,70,0,0
76568,-100,4,1,0,80,0,0
78307,-83.3333333333333,4,1,0,90,0,1
92220,-83.3333333333333,4,1,0,70,0,0
92329,-100,4,1,0,70,0,0
104448,-100,4,1,0,40,0,0
107872,-100,4,1,0,60,0,0
172138,-100,4,1,0,90,0,0
172220,326.086956521739,6,1,0,80,1,0
178008,-222.222222222221,6,1,0,80,0,0
179292,352.941176470588,6,1,0,80,1,8
179292,-200,6,1,0,40,0,0
180364,352.941176470588,6,1,0,40,1,0
180364,-200,6,1,0,40,0,0
194834,-133.333333333333,6,1,0,60,0,0
195187,434.782608695652,4,1,0,70,1,0
195187,-100,4,1,0,70,0,0
196708,-90.9090909090909,4,1,0,70,0,0
196926,-83.3333333333333,4,1,0,80,0,1
224752,-83.3333333333333,4,1,0,80,0,0
224860,-100,4,1,0,80,0,0
252578,-100,4,1,0,60,0,0
254317,-100,4,1,0,40,0,0
259915,-100,4,1,0,5,0,0

[HitObjects]
350,257,760,5,0,0:0:0:0:
281,179,1465,1,8,0:0:0:0:
57,63,1818,1,0,0:0:0:0:
299,172,2524,1,8,0:0:0:0:
51,218,2877,1,0,0:0:0:0:
276,222,3583,1,0,0:0:0:0:
511,131,3936,1,8,0:0:0:0:
276,222,4289,1,8,0:0:0:0:
259,184,4642,1,0,0:0:0:0:
510,169,4995,1,8,0:0:0:0:
258,174,5348,1,0,0:0:0:0:
505,128,5701,1,8,0:0:0:0:
294,266,6054,1,0,0:0:0:0:
293,195,6759,1,0,0:0:0:0:
403,168,7112,1,8,0:0:0:0:
293,195,7465,1,0,0:0:0:0:
377,176,8171,1,0,0:0:0:0:
377,176,8524,1,0,0:0:0:0:
377,176,8877,1,8,0:0:0:0:
417,189,9230,1,0,0:0:0:0:
361,171,9936,1,8,0:0:0:0:
422,168,10289,1,0,0:0:0:0:
350,173,10995,1,8,0:0:0:0:
388,166,11348,1,0,0:0:0:0:
308,208,12054,1,0,0:0:0:0:
457,173,12407,1,8,0:0:0:0:
457,173,12759,1,8,0:0:0:0:
204,177,13112,1,0,0:0:0:0:
455,169,13465,1,8,0:0:0:0:
265,335,13818,1,0,0:0:0:0:
415,132,14171,1,8,0:0:0:0:
181,226,14524,1,0,0:0:0:0:
218,224,15230,1,0,0:0:0:0:
249,160,15583,1,8,0:0:0:0:
332,170,15759,1,8,0:0:0:0:
332,170,15936,1,8,0:0:0:0:
383,173,16575,1,8,0:0:0:0:
259,195,16792,1,0,0:0:0:0:
201,168,16928,1,8,0:0:0:0:
383,173,17154,1,0,0:0:0:0:
326,232,17227,1,8,0:0:0:0:
263,224,17438,1,4,0:0:0:0:
386,200,17655,1,8,0:0:0:0:
262,176,17872,1,0,0:0:0:0:
319,174,18090,1,8,0:0:0:0:
319,174,18198,1,8,0:0:0:0:
319,174,18307,1,0,0:0:0:0:
262,176,18524,1,8,0:0:0:0:
368,243,18742,1,0,0:0:0:0:
305,235,18851,1,0,0:0:0:0:
363,212,18959,1,8,0:0:0:0:
371,189,19068,1,8,0:0:0:0:
359,85,19177,1,0,0:0:0:0:
278,181,19394,1,0,0:0:0:0:
434,185,19611,1,8,0:0:0:0:
371,189,19720,1,8,0:0:0:0:
309,175,19828,1,0,0:0:0:0:
309,175,19937,1,0,0:0:0:0:
247,189,20046,1,8,0:0:0:0:
367,152,20263,1,8,0:0:0:0:
306,170,20372,1,8,0:0:0:0:
246,190,20481,1,8,0:0:0:0:
371,192,20698,1,0,0:0:0:0:
286,285,20916,1,8,0:0:0:0:
384,207,21133,1,0,0:0:0:0:
345,156,21242,1,0,0:0:0:0:
473,117,21351,1,8,0:0:0:0:
406,224,21568,1,8,0:0:0:0:
281,241,21785,1,0,0:0:0:0:
336,210,21894,1,8,0:0:0:0:
443,144,22111,1,8,0:0:0:0:
386,173,22220,1,0,0:0:0:0:
260,186,22438,1,8,0:0:0:0:
385,180,22546,1,8,0:0:0:0:
386,173,22655,1,0,0:0:0:0:
386,173,22872,1,8,0:0:0:0:
290,256,23090,1,0,0:0:0:0:
200,157,23198,1,0,0:0:0:0:
200,157,23307,1,0,0:0:0:0:
446,184,23524,1,8,0:0:0:0:
384,171,23851,1,8,0:0:0:0:
441,195,23959,1,0,0:0:0:0:
317,164,24177,1,8,0:0:0:0:
434,209,24394,1,0,0:0:0:0:
386,200,24611,1,8,0:0:0:0:
262,176,24828,1,0,0:0:0:0:
319,174,25046,1,8,0:0:0:0:
319,174,25154,1,8,0:0:0:0:
319,174,25263,1,0,0:0:0:0:
262,176,25480,1,8,0:0:0:0:
368,243,25698,1,0,0:0:0:0:
305,235,25807,1,0,0:0:0:0:
363,212,25915,1,8,0:0:0:0:
371,189,26024,1,8,0:0:0:0:
359,85,26133,1,0,0:0:0:0:
278,181,26350,1,0,0:0:0:0:
434,185,26567,1,8,0:0:0:0:
371,189,26676,1,8,0:0:0:0:
309,175,26784,1,0,0:0:0:0:
309,175,26893,1,0,0:0:0:0:
247,189,27002,1,8,0:0:0:0:
367,152,27219,1,8,0:0:0:0:
306,170,27328,1,8,0:0:0:0:
246,190,27437,1,8,0:0:0:0:
371,192,27654,1,0,0:0:0:0:
286,285,27872,1,8,0:0:0:0:
384,207,28089,1,0,0:0:0:0:
345,156,28198,1,0,0:0:0:0:
221,181,28416,1,0,0:0:0:0:
406,224,28524,1,8,0:0:0:0:
281,241,28741,1,0,0:0:0:0:
336,210,28850,1,8,0:0:0:0:
443,144,28959,1,0,0:0:0:0:
260,186,29177,1,8,0:0:0:0:
385,180,29394,1,8,0:0:0:0:
386,173,29611,1,0,0:0:0:0:
386,173,29828,1,8,0:0:0:0:
290,256,30046,1,0,0:0:0:0:
337,215,30154,1,0,0:0:0:0:
386,173,30263,1,8,0:0:0:0:
446,184,30480,1,8,0:0:0:0:
320,173,30698,1,0,0:0:0:0:
384,171,30807,1,8,0:0:0:0:
441,195,30915,1,0,0:0:0:0:
380,214,31024,1,0,0:0:0:0:
317,164,31133,1,8,0:0:0:0:
211,233,31351,1,4,0:0:0:0:
251,272,31785,1,0,0:0:0:0:
342,184,32003,1,8,0:0:0:0:
280,241,32148,1,0,0:0:0:0:
227,126,32365,1,0,0:0:0:0:
310,271,32655,1,0,0:0:0:0:
415,201,32872,1,8,0:0:0:0:
211,233,33090,1,0,0:0:0:0:
316,164,33307,1,8,0:0:0:0:
251,272,33524,1,0,0:0:0:0:
342,184,33742,1,8,0:0:0:0:
280,241,33887,1,0,0:0:0:0:
227,126,34104,1,0,0:0:0:0:
310,271,34394,1,0,0:0:0:0:
415,201,34611,1,8,0:0:0:0:
211,233,34829,1,0,0:0:0:0:
316,164,35046,1,8,0:0:0:0:
251,272,35263,1,0,0:0:0:0:
342,184,35481,1,8,0:0:0:0:
280,241,35626,1,0,0:0:0:0:
227,126,35843,1,0,0:0:0:0:
310,271,36133,1,0,0:0:0:0:
415,201,36350,1,8,0:0:0:0:
211,233,36568,1,0,0:0:0:0:
316,164,36785,1,8,0:0:0:0:
251,272,37002,1,0,0:0:0:0:
280,241,37220,1,0,0:0:0:0:
342,184,37365,1,8,0:0:0:0:
227,126,37582,1,8,0:0:0:0:
241,165,37655,1,0,0:0:0:0:
310,271,37872,1,0,0:0:0:0:
415,201,38089,1,8,0:0:0:0:
211,233,38307,1,0,0:0:0:0:
251,272,38741,1,0,0:0:0:0:
342,184,38959,1,8,0:0:0:0:
280,241,39104,1,0,0:0:0:0:
342,184,39321,1,8,0:0:0:0:
227,126,39394,1,0,0:0:0:0:
310,271,39611,1,0,0:0:0:0:
415,201,39828,1,8,0:0:0:0:
211,233,40046,1,0,0:0:0:0:
316,164,40263,1,8,0:0:0:0:
251,272,40480,1,0,0:0:0:0:
342,184,40698,1,8,0:0:0:0:
280,241,40843,1,0,0:0:0:0:
231,168,41060,1,8,0:0:0:0:
227,126,41133,1,0,0:0:0:0:
310,271,41350,1,0,0:0:0:0:
415,201,41567,1,8,0:0:0:0:
211,233,41785,1,0,0:0:0:0:
316,164,42002,1,8,0:0:0:0:
251,272,42219,1,0,0:0:0:0:
342,184,42437,1,8,0:0:0:0:
227,126,42582,1,0,0:0:0:0:
342,184,42655,1,0,0:0:0:0:
310,212,42799,1,8,0:0:0:0:
319,254,42872,1,0,0:0:0:0:
274,188,43089,1,0,0:0:0:0:
354,212,43235,1,0,0:0:0:0:
415,201,43306,1,8,0:0:0:0:
342,184,43524,1,12,0:0:0:0:
256,192,43633,12,8,46568,0:0:0:0:
255,188,47003,5,0,0:0:0:0:
255,188,47220,1,0,0:0:0:0:
380,185,47437,1,8,0:0:0:0:
501,217,47872,1,0,0:0:0:0:
339,199,48198,1,8,0:0:0:0:
316,258,48307,1,0,0:0:0:0:
386,82,48524,1,8,0:0:0:0:
315,186,48742,1,0,0:0:0:0:
241,288,48959,1,0,0:0:0:0:
300,176,49177,1,8,0:0:0:0:
315,186,49611,1,0,0:0:0:0:
156,83,49937,1,0,0:0:0:0:
300,176,50046,1,8,0:0:0:0:
300,176,50264,1,8,0:0:0:0:
418,133,50481,1,0,0:0:0:0:
306,191,50698,1,0,0:0:0:0:
218,100,50916,1,8,0:0:0:0:
305,190,51133,1,8,0:0:0:0:
412,123,51351,1,0,0:0:0:0:
433,310,51677,1,8,0:0:0:0:
404,254,51785,1,0,0:0:0:0:
309,169,52003,1,0,0:0:0:0:
434,180,52220,1,8,0:0:0:0:
181,173,52655,1,8,0:0:0:0:
430,177,53090,1,8,0:0:0:0:
305,191,53307,1,0,0:0:0:0:
178,168,53524,1,8,0:0:0:0:
255,188,53959,5,0,0:0:0:0:
255,188,54176,1,0,0:0:0:0:
380,185,54393,1,8,0:0:0:0:
501,217,54828,1,0,0:0:0:0:
339,199,55154,1,8,0:0:0:0:
316,258,55263,1,0,0:0:0:0:
386,82,55480,1,8,0:0:0:0:
315,186,55698,1,0,0:0:0:0:
241,288,55915,1,0,0:0:0:0:
300,176,56133,1,8,0:0:0:0:
315,186,56567,1,0,0:0:0:0:
156,83,56893,1,0,0:0:0:0:
300,176,57002,1,8,0:0:0:0:
300,176,57220,1,8,0:0:0:0:
418,133,57437,1,0,0:0:0:0:
306,191,57654,1,0,0:0:0:0:
218,100,57872,1,8,0:0:0:0:
301,195,58090,1,8,0:0:0:0:
412,123,58307,1,0,0:0:0:0:
433,310,58633,1,8,0:0:0:0:
404,254,58741,1,0,0:0:0:0:
309,169,58959,1,0,0:0:0:0:
434,180,59176,1,8,0:0:0:0:
181,173,59611,1,8,0:0:0:0:
305,191,59828,1,0,0:0:0:0:
243,203,59937,1,0,0:0:0:0:
430,177,60046,1,8,0:0:0:0:
178,168,60480,1,8,0:0:0:0:
243,203,60916,1,4,0:0:0:0:
363,240,61133,1,8,0:0:0:0:
249,184,61351,1,8,0:0:0:0:
249,184,61459,1,0,0:0:0:0:
312,182,61568,1,0,0:0:0:0:
220,116,61677,1,8,0:0:0:0:
319,192,61894,1,0,0:0:0:0:
378,171,62003,1,8,0:0:0:0:
380,201,62220,1,8,0:0:0:0:
405,135,62655,1,0,0:0:0:0:
378,171,62872,1,8,0:0:0:0:
501,143,63090,1,8,0:0:0:0:
381,183,63307,1,0,0:0:0:0:
319,167,63416,1,8,0:0:0:0:
440,199,63633,1,8,0:0:0:0:
454,137,63742,1,0,0:0:0:0:
352,211,63959,1,8,0:0:0:0:
138,76,64394,1,0,0:0:0:0:
254,123,64611,1,8,0:0:0:0:
374,162,64829,1,0,0:0:0:0:
499,166,65046,1,8,0:0:0:0:
436,171,65155,1,0,0:0:0:0:
312,196,65372,1,8,0:0:0:0:
374,185,65481,1,0,0:0:0:0:
370,176,65698,1,8,0:0:0:0:
370,176,65916,1,8,0:0:0:0:
436,171,66133,1,0,0:0:0:0:
314,205,66351,1,0,0:0:0:0:
374,189,66459,1,0,0:0:0:0:
436,171,66568,1,8,0:0:0:0:
313,140,66785,1,8,0:0:0:0:
374,155,66894,1,8,0:0:0:0:
429,184,67003,1,0,0:0:0:0:
374,189,67111,1,0,0:0:0:0:
497,163,67329,1,8,0:0:0:0:
329,251,67655,1,8,0:0:0:0:
243,203,67872,1,0,0:0:0:0:
363,240,68089,1,8,0:0:0:0:
249,184,68307,1,0,0:0:0:0:
304,211,68415,1,0,0:0:0:0:
249,184,68524,1,8,0:0:0:0:
220,116,68633,1,0,0:0:0:0:
319,192,68850,1,8,0:0:0:0:
378,171,68959,1,8,0:0:0:0:
318,191,69067,1,0,0:0:0:0:
380,201,69176,1,8,0:0:0:0:
405,135,69611,1,0,0:0:0:0:
378,171,69828,1,8,0:0:0:0:
501,143,70046,1,8,0:0:0:0:
381,183,70263,1,0,0:0:0:0:
319,167,70372,1,8,0:0:0:0:
440,199,70589,1,8,0:0:0:0:
454,137,70698,1,0,0:0:0:0:
352,211,70915,1,8,0:0:0:0:
259,125,71133,1,8,0:0:0:0:
138,76,71350,1,4,0:0:0:0:
319,209,71677,1,0,0:0:0:0:
374,185,71785,1,8,0:0:0:0:
436,171,72003,1,0,0:0:0:0:
314,204,72220,1,8,0:0:0:0:
312,196,72328,1,8,0:0:0:0:
374,185,72437,1,0,0:0:0:0:
311,196,72546,1,0,0:0:0:0:
370,176,72654,1,8,0:0:0:0:
370,176,72872,1,8,0:0:0:0:
436,171,73089,1,0,0:0:0:0:
374,189,73415,1,0,0:0:0:0:
436,171,73524,1,8,0:0:0:0:
429,184,73742,1,0,0:0:0:0:
374,155,73959,1,8,0:0:0:0:
314,205,74177,1,0,0:0:0:0:
497,163,74285,1,8,0:0:0:0:
433,167,74394,1,0,0:0:0:0:
317,116,74611,1,0,0:0:0:0:
364,233,74829,1,8,0:0:0:0:
319,187,75155,1,0,0:0:0:0:
347,130,75264,1,8,0:0:0:0:
335,255,75481,1,0,0:0:0:0:
447,198,75698,1,8,0:0:0:0:
385,180,75916,1,0,0:0:0:0:
385,180,76024,1,0,0:0:0:0:
322,174,76133,1,8,0:0:0:0:
213,237,76351,5,0,0:0:0:0:
305,210,76568,1,12,0:0:0:0:
305,210,76894,1,12,0:0:0:0:
305,210,77220,1,12,0:0:0:0:
263,224,78307,1,4,0:0:0:0:
386,200,78524,1,8,0:0:0:0:
262,176,78741,1,0,0:0:0:0:
319,174,78959,1,8,0:0:0:0:
319,174,79067,1,8,0:0:0:0:
319,174,79176,1,0,0:0:0:0:
262,176,79393,1,8,0:0:0:0:
368,243,79611,1,0,0:0:0:0:
305,235,79720,1,0,0:0:0:0:
363,212,79828,1,8,0:0:0:0:
371,189,79937,1,8,0:0:0:0:
359,85,80046,1,0,0:0:0:0:
278,181,80263,1,0,0:0:0:0:
434,185,80480,1,8,0:0:0:0:
371,189,80589,1,8,0:0:0:0:
309,175,80697,1,0,0:0:0:0:
309,175,80806,1,0,0:0:0:0:
247,189,80915,1,8,0:0:0:0:
367,152,81132,1,8,0:0:0:0:
306,170,81241,1,8,0:0:0:0:
246,190,81350,1,8,0:0:0:0:
371,192,81567,1,0,0:0:0:0:
286,285,81785,1,8,0:0:0:0:
384,207,82002,1,0,0:0:0:0:
345,156,82111,1,0,0:0:0:0:
473,117,82220,1,8,0:0:0:0:
406,224,82437,1,8,0:0:0:0:
281,241,82654,1,0,0:0:0:0:
336,210,82763,1,8,0:0:0:0:
443,144,82980,1,8,0:0:0:0:
386,173,83089,1,0,0:0:0:0:
260,186,83307,1,8,0:0:0:0:
385,180,83415,1,8,0:0:0:0:
386,173,83524,1,0,0:0:0:0:
386,173,83741,1,8,0:0:0:0:
290,256,83959,1,0,0:0:0:0:
337,215,84067,1,0,0:0:0:0:
386,173,84176,1,0,0:0:0:0:
446,184,84393,1,8,0:0:0:0:
384,171,84720,1,8,0:0:0:0:
441,195,84828,1,0,0:0:0:0:
317,164,85046,1,8,0:0:0:0:
434,209,85263,1,0,0:0:0:0:
310,185,85480,1,0,0:0:0:0:
319,174,85697,1,8,0:0:0:0:
371,189,85807,1,8,0:0:0:0:
262,176,85915,1,0,0:0:0:0:
198,172,86024,1,0,0:0:0:0:
262,176,86132,1,8,0:0:0:0:
319,174,86351,1,0,0:0:0:0:
368,243,86567,1,0,0:0:0:0:
305,235,86676,1,0,0:0:0:0:
363,212,86784,1,8,0:0:0:0:
371,189,86893,1,8,0:0:0:0:
359,85,87002,1,0,0:0:0:0:
278,181,87219,1,0,0:0:0:0:
434,185,87436,1,8,0:0:0:0:
309,175,87655,1,0,0:0:0:0:
309,175,87764,1,0,0:0:0:0:
247,189,87871,1,8,0:0:0:0:
367,152,88090,1,8,0:0:0:0:
306,170,88197,1,8,0:0:0:0:
246,190,88306,1,8,0:0:0:0:
371,192,88523,1,0,0:0:0:0:
286,285,88741,1,8,0:0:0:0:
384,207,88958,1,8,0:0:0:0:
345,156,89067,1,0,0:0:0:0:
406,224,89393,1,8,0:0:0:0:
281,241,89610,1,0,0:0:0:0:
336,210,89719,1,8,0:0:0:0:
260,186,90046,1,8,0:0:0:0:
385,180,90263,1,8,0:0:0:0:
386,173,90480,1,0,0:0:0:0:
386,173,90697,1,8,0:0:0:0:
290,256,90915,1,0,0:0:0:0:
337,215,91023,1,0,0:0:0:0:
386,173,91132,1,8,0:0:0:0:
446,184,91351,1,8,0:0:0:0:
320,173,91567,1,0,0:0:0:0:
384,171,91676,1,8,0:0:0:0:
441,195,91784,1,0,0:0:0:0:
380,214,91893,1,0,0:0:0:0:
320,173,92003,1,8,0:0:0:0:
345,230,92111,1,8,0:0:0:0:
211,233,92220,1,0,0:0:0:0:
251,272,92654,1,0,0:0:0:0:
342,184,92872,1,8,0:0:0:0:
280,241,93017,1,0,0:0:0:0:
227,126,93234,1,0,0:0:0:0:
310,271,93524,1,0,0:0:0:0:
415,201,93741,1,8,0:0:0:0:
211,233,93959,1,0,0:0:0:0:
251,272,94393,1,0,0:0:0:0:
342,184,94611,1,8,0:0:0:0:
280,241,94756,1,0,0:0:0:0:
227,126,94973,1,0,0:0:0:0:
310,271,95263,1,0,0:0:0:0:
415,201,95480,1,8,0:0:0:0:
211,233,95698,1,0,0:0:0:0:
251,272,96132,1,0,0:0:0:0:
342,184,96350,1,8,0:0:0:0:
280,241,96495,1,0,0:0:0:0:
227,126,96712,1,0,0:0:0:0:
310,271,97002,1,0,0:0:0:0:
415,201,97219,1,8,0:0:0:0:
211,233,97437,1,0,0:0:0:0:
251,272,97871,1,0,0:0:0:0:
280,241,98089,1,0,0:0:0:0:
342,184,98234,1,8,0:0:0:0:
227,126,98451,1,8,0:0:0:0:
241,165,98524,1,0,0:0:0:0:
310,271,98741,1,0,0:0:0:0:
415,201,98958,1,8,0:0:0:0:
211,233,99176,1,0,0:0:0:0:
251,272,99610,1,0,0:0:0:0:
342,184,99828,1,8,0:0:0:0:
280,241,99973,1,0,0:0:0:0:
342,184,100190,1,8,0:0:0:0:
227,126,100263,1,0,0:0:0:0:
310,271,100480,1,0,0:0:0:0:
415,201,100697,1,8,0:0:0:0:
211,233,100915,1,0,0:0:0:0:
251,272,101351,1,0,0:0:0:0:
342,184,101567,1,8,0:0:0:0:
280,241,101712,1,0,0:0:0:0:
231,168,101929,1,8,0:0:0:0:
227,126,102002,1,0,0:0:0:0:
310,271,102219,1,0,0:0:0:0:
415,201,102436,1,8,0:0:0:0:
211,233,102654,1,0,0:0:0:0:
251,272,103090,1,0,0:0:0:0:
342,184,103306,1,8,0:0:0:0:
227,126,103451,1,0,0:0:0:0:
310,212,103668,1,8,0:0:0:0:
319,254,103741,1,0,0:0:0:0:
274,188,103958,1,0,0:0:0:0:
354,212,104104,1,0,0:0:0:0:
415,201,104177,1,8,0:0:0:0:
342,184,104393,1,12,0:0:0:0:
256,192,104503,12,0,107437,0:0:0:0:
255,188,107872,5,0,0:0:0:0:
255,188,108089,1,0,0:0:0:0:
380,185,108306,1,8,0:0:0:0:
501,217,108741,1,0,0:0:0:0:
339,199,109067,1,8,0:0:0:0:
316,258,109176,1,0,0:0:0:0:
386,82,109393,1,8,0:0:0:0:
315,186,109611,1,0,0:0:0:0:
241,288,109828,1,0,0:0:0:0:
300,176,110046,1,8,0:0:0:0:
315,186,110480,1,0,0:0:0:0:
156,83,110806,1,0,0:0:0:0:
300,176,110915,1,8,0:0:0:0:
300,176,111133,1,8,0:0:0:0:
418,133,111350,1,0,0:0:0:0:
306,191,111567,1,0,0:0:0:0:
218,100,111785,1,8,0:0:0:0:
305,190,112002,1,8,0:0:0:0:
412,123,112220,1,0,0:0:0:0:
433,310,112546,1,8,0:0:0:0:
404,254,112654,1,0,0:0:0:0:
309,169,112872,1,0,0:0:0:0:
434,180,113089,1,8,0:0:0:0:
181,173,113524,1,8,0:0:0:0:
305,191,113741,1,0,0:0:0:0:
430,177,113959,1,8,0:0:0:0:
178,168,114393,1,8,0:0:0:0:
255,188,114828,5,0,0:0:0:0:
255,188,115045,1,0,0:0:0:0:
380,185,115264,1,8,0:0:0:0:
501,217,115697,1,0,0:0:0:0:
339,199,116023,1,8,0:0:0:0:
316,258,116132,1,0,0:0:0:0:
386,82,116351,1,8,0:0:0:0:
315,186,116567,1,0,0:0:0:0:
241,288,116784,1,0,0:0:0:0:
300,176,117002,1,8,0:0:0:0:
315,186,117436,1,0,0:0:0:0:
156,83,117764,1,0,0:0:0:0:
300,176,117871,1,8,0:0:0:0:
300,176,118089,1,8,0:0:0:0:
418,133,118306,1,0,0:0:0:0:
306,191,118523,1,0,0:0:0:0:
218,100,118741,1,8,0:0:0:0:
305,190,118958,1,8,0:0:0:0:
412,123,119176,1,0,0:0:0:0:
433,310,119502,1,8,0:0:0:0:
404,254,119610,1,0,0:0:0:0:
309,169,119828,1,0,0:0:0:0:
434,180,120045,1,8,0:0:0:0:
312,215,120264,1,8,0:0:0:0:
181,173,120480,1,8,0:0:0:0:
294,228,120698,1,8,0:0:0:0:
183,167,120916,1,8,0:0:0:0:
293,227,121133,1,8,0:0:0:0:
178,168,121351,1,8,0:0:0:0:
59,214,121568,1,8,0:0:0:0:
184,209,121785,1,4,0:0:0:0:
310,201,122003,1,8,0:0:0:0:
432,173,122220,1,0,0:0:0:0:
306,167,122437,1,8,0:0:0:0:
432,170,122655,1,8,0:0:0:0:
316,219,122872,1,8,0:0:0:0:
432,173,123090,1,0,0:0:0:0:
369,167,123307,1,8,0:0:0:0:
284,260,123524,1,0,0:0:0:0:
369,167,123742,1,0,0:0:0:0:
493,186,123959,1,8,0:0:0:0:
367,168,124177,1,8,0:0:0:0:
369,167,124394,1,0,0:0:0:0:
250,207,124611,1,8,0:0:0:0:
374,184,124829,1,0,0:0:0:0:
489,127,125046,1,8,0:0:0:0:
255,223,125481,1,8,0:0:0:0:
375,186,125698,1,0,0:0:0:0:
282,99,125916,1,8,0:0:0:0:
373,184,126133,1,8,0:0:0:0:
399,153,126351,1,0,0:0:0:0:
295,84,126568,1,8,0:0:0:0:
373,184,126785,1,0,0:0:0:0:
498,173,127003,1,0,0:0:0:0:
372,184,127220,1,0,0:0:0:0:
399,153,127437,1,8,0:0:0:0:
399,153,127655,1,8,0:0:0:0:
372,184,128090,1,8,0:0:0:0:
496,163,128307,1,0,0:0:0:0:
372,184,128524,1,8,0:0:0:0:
136,94,128959,1,8,0:0:0:0:
252,143,129177,1,8,0:0:0:0:
375,168,129394,1,0,0:0:0:0:
249,172,129611,1,8,0:0:0:0:
375,168,129829,1,8,0:0:0:0:
375,168,130046,1,0,0:0:0:0:
260,222,130264,1,8,0:0:0:0:
354,139,130481,1,0,0:0:0:0:
367,156,130916,1,8,0:0:0:0:
261,224,131133,1,8,0:0:0:0:
367,156,131351,1,0,0:0:0:0:
256,215,131568,1,0,0:0:0:0:
367,156,131785,1,8,0:0:0:0:
473,223,132003,1,0,0:0:0:0:
221,239,132437,1,8,0:0:0:0:
354,175,132655,1,8,0:0:0:0:
312,293,132872,1,0,0:0:0:0:
354,175,133090,1,8,0:0:0:0:
465,117,133307,1,8,0:0:0:0:
351,170,133524,1,0,0:0:0:0:
477,168,133742,1,8,0:0:0:0:
351,176,133959,1,0,0:0:0:0:
477,168,134177,1,0,0:0:0:0:
351,172,134394,1,8,0:0:0:0:
262,260,134611,1,0,0:0:0:0:
379,214,134829,1,8,0:0:0:0:
268,154,135046,1,8,0:0:0:0:
350,167,135191,1,8,0:0:0:0:
268,154,135409,1,8,0:0:0:0:
268,154,135481,1,8,0:0:0:0:
375,219,135698,1,4,0:0:0:0:
310,201,135916,1,8,0:0:0:0:
350,167,136061,1,8,0:0:0:0:
316,219,136133,1,0,0:0:0:0:
432,170,136350,1,8,0:0:0:0:
306,167,136568,1,8,0:0:0:0:
432,173,136785,1,0,0:0:0:0:
432,173,137003,1,0,0:0:0:0:
369,167,137220,1,8,0:0:0:0:
367,168,137437,1,8,0:0:0:0:
493,186,137655,1,8,0:0:0:0:
369,167,137872,1,0,0:0:0:0:
284,260,138090,1,0,0:0:0:0:
369,167,138307,1,0,0:0:0:0:
419,205,138452,1,0,0:0:0:0:
250,207,138524,1,8,0:0:0:0:
374,184,138742,1,0,0:0:0:0:
489,127,138959,1,8,0:0:0:0:
255,223,139394,1,8,0:0:0:0:
295,84,139611,1,8,0:0:0:0:
373,184,139829,1,8,0:0:0:0:
282,99,140046,1,8,0:0:0:0:
375,186,140264,1,0,0:0:0:0:
399,153,140481,1,0,0:0:0:0:
373,184,140698,1,8,0:0:0:0:
399,153,140916,1,8,0:0:0:0:
399,153,141134,1,8,0:0:0:0:
372,184,141351,1,0,0:0:0:0:
498,173,141568,1,0,0:0:0:0:
298,228,141785,1,0,0:0:0:0:
298,228,141930,1,0,0:0:0:0:
372,184,142003,1,8,0:0:0:0:
496,163,142220,1,0,0:0:0:0:
372,184,142437,1,8,0:0:0:0:
260,125,142655,1,4,0:0:0:0:
136,94,142872,1,8,0:0:0:0:
252,143,143090,1,8,0:0:0:0:
375,168,143307,1,0,0:0:0:0:
249,172,143524,1,8,0:0:0:0:
375,168,143742,1,8,0:0:0:0:
366,230,143887,1,8,0:0:0:0:
375,168,143959,1,0,0:0:0:0:
260,222,144177,1,8,0:0:0:0:
354,139,144394,1,0,0:0:0:0:
231,168,144611,1,0,0:0:0:0:
367,156,144829,1,8,0:0:0:0:
261,224,145046,1,8,0:0:0:0:
367,156,145264,1,0,0:0:0:0:
256,215,145481,1,0,0:0:0:0:
306,177,145626,1,0,0:0:0:0:
367,156,145698,1,8,0:0:0:0:
473,223,145916,1,0,0:0:0:0:
221,239,146350,1,8,0:0:0:0:
354,175,146568,1,8,0:0:0:0:
312,293,146785,1,0,0:0:0:0:
354,175,147003,1,8,0:0:0:0:
465,117,147220,1,8,0:0:0:0:
417,159,147365,1,8,0:0:0:0:
351,170,147437,1,0,0:0:0:0:
477,168,147655,1,8,0:0:0:0:
351,176,147872,1,0,0:0:0:0:
351,172,148090,1,8,0:0:0:0:
262,260,148307,1,0,0:0:0:0:
379,214,148742,1,8,0:0:0:0:
194,175,149104,1,8,0:0:0:0:
375,123,149394,1,8,0:0:0:0:
243,203,149611,1,4,0:0:0:0:
363,240,149828,1,8,0:0:0:0:
249,184,150046,1,0,0:0:0:0:
249,184,150263,1,8,0:0:0:0:
220,116,150372,1,0,0:0:0:0:
319,192,150589,1,8,0:0:0:0:
378,171,150698,1,0,0:0:0:0:
318,191,150806,1,0,0:0:0:0:
380,201,150915,1,8,0:0:0:0:
405,135,151350,1,0,0:0:0:0:
378,171,151567,1,8,0:0:0:0:
501,143,151785,1,8,0:0:0:0:
381,183,152002,1,0,0:0:0:0:
319,167,152111,1,8,0:0:0:0:
440,199,152328,1,8,0:0:0:0:
454,137,152437,1,0,0:0:0:0:
352,211,152654,1,8,0:0:0:0:
138,76,153089,1,0,0:0:0:0:
254,123,153306,1,8,0:0:0:0:
374,162,153524,1,0,0:0:0:0:
499,166,153741,1,8,0:0:0:0:
436,171,153850,1,0,0:0:0:0:
312,196,154067,1,8,0:0:0:0:
374,185,154176,1,0,0:0:0:0:
311,196,154285,1,0,0:0:0:0:
370,176,154393,1,8,0:0:0:0:
370,176,154611,1,8,0:0:0:0:
436,171,154828,1,0,0:0:0:0:
314,205,155046,1,0,0:0:0:0:
374,189,155154,1,0,0:0:0:0:
436,171,155263,1,8,0:0:0:0:
313,140,155480,1,8,0:0:0:0:
374,155,155589,1,8,0:0:0:0:
429,184,155698,1,0,0:0:0:0:
374,189,155806,1,0,0:0:0:0:
497,163,156024,1,8,0:0:0:0:
329,251,156350,1,8,0:0:0:0:
243,203,156567,1,0,0:0:0:0:
363,240,156784,1,8,0:0:0:0:
249,184,157002,1,0,0:0:0:0:
304,211,157110,1,0,0:0:0:0:
249,184,157219,1,8,0:0:0:0:
220,116,157328,1,8,0:0:0:0:
319,192,157545,1,0,0:0:0:0:
378,171,157654,1,8,0:0:0:0:
318,191,157764,1,8,0:0:0:0:
380,201,157871,1,8,0:0:0:0:
405,135,158306,1,0,0:0:0:0:
378,171,158523,1,8,0:0:0:0:
501,143,158741,1,8,0:0:0:0:
381,183,158958,1,0,0:0:0:0:
319,167,159067,1,8,0:0:0:0:
440,199,159284,1,8,0:0:0:0:
454,137,159393,1,0,0:0:0:0:
396,164,159503,1,0,0:0:0:0:
352,211,159610,1,8,0:0:0:0:
259,125,159828,1,8,0:0:0:0:
138,76,160045,1,4,0:0:0:0:
276,205,160372,1,0,0:0:0:0:
374,185,160481,1,8,0:0:0:0:
436,171,160698,1,0,0:0:0:0:
314,204,160915,1,8,0:0:0:0:
312,196,161023,1,8,0:0:0:0:
374,185,161132,1,0,0:0:0:0:
311,196,161241,1,0,0:0:0:0:
370,176,161351,1,8,0:0:0:0:
370,176,161567,1,8,0:0:0:0:
436,171,161784,1,0,0:0:0:0:
314,205,162002,1,0,0:0:0:0:
374,189,162110,1,0,0:0:0:0:
436,171,162219,1,8,0:0:0:0:
429,184,162437,1,0,0:0:0:0:
374,155,162654,1,8,0:0:0:0:
433,167,163089,1,0,0:0:0:0:
317,116,163306,1,0,0:0:0:0:
364,233,163524,1,12,0:0:0:0:
276,205,163851,1,0,0:0:0:0:
374,185,163959,1,8,0:0:0:0:
436,171,164177,1,0,0:0:0:0:
314,204,164394,1,8,0:0:0:0:
312,196,164502,1,8,0:0:0:0:
374,185,164611,1,8,0:0:0:0:
311,196,164720,1,0,0:0:0:0:
370,176,164828,1,8,0:0:0:0:
370,176,165046,1,8,0:0:0:0:
436,171,165263,1,0,0:0:0:0:
314,205,165481,1,0,0:0:0:0:
374,189,165589,1,0,0:0:0:0:
436,171,165698,1,8,0:0:0:0:
429,184,165916,1,0,0:0:0:0:
374,155,166133,1,8,0:0:0:0:
433,167,166568,1,0,0:0:0:0:
317,116,166785,1,0,0:0:0:0:
364,233,167003,1,12,0:0:0:0:
319,187,167329,1,0,0:0:0:0:
347,130,167438,1,8,0:0:0:0:
335,255,167655,1,0,0:0:0:0:
447,198,167872,1,8,0:0:0:0:
385,180,168090,1,0,0:0:0:0:
385,180,168198,1,0,0:0:0:0:
322,174,168307,1,8,0:0:0:0:
385,180,168524,1,8,0:0:0:0:
262,209,168742,1,0,0:0:0:0:
374,185,169068,1,8,0:0:0:0:
276,205,169176,1,0,0:0:0:0:
436,171,169394,1,0,0:0:0:0:
314,204,169611,1,8,0:0:0:0:
374,185,169828,1,0,0:0:0:0:
311,196,169937,1,0,0:0:0:0:
370,176,170045,1,8,0:0:0:0:
370,176,170263,1,8,0:0:0:0:
436,171,170481,1,4,0:0:0:0:
374,189,170806,1,0,0:0:0:0:
436,171,170915,1,8,0:0:0:0:
429,184,171133,1,0,0:0:0:0:
374,155,171350,1,8,0:0:0:0:
433,167,171785,1,0,0:0:0:0:
317,116,172002,1,0,0:0:0:0:
364,233,172220,1,12,0:0:0:0:
177,206,172546,1,12,0:0:0:0:
364,233,172872,1,12,0:0:0:0:
120,167,173198,1,12,0:0:0:0:
362,236,173524,1,12,0:0:0:0:
119,167,173850,1,12,0:0:0:0:
361,236,174176,1,12,0:0:0:0:
308,256,174502,1,12,0:0:0:0:
308,256,174828,1,12,0:0:0:0:
308,256,175154,1,12,0:0:0:0:
308,256,175480,1,12,0:0:0:0:
308,256,175806,1,12,0:0:0:0:
308,256,176133,1,12,0:0:0:0:
256,192,176214,12,0,178741,0:0:0:0:
250,186,179292,5,0,0:0:0:0:
250,186,179644,5,8,0:0:0:0:
250,186,179997,1,8,0:0:0:0:
416,375,180364,1,0,0:0:0:0:
281,179,181069,1,8,0:0:0:0:
57,63,181422,1,0,0:0:0:0:
299,172,182128,1,8,0:0:0:0:
51,218,182481,1,0,0:0:0:0:
276,222,183187,1,0,0:0:0:0:
511,131,183540,1,8,0:0:0:0:
276,222,183893,1,8,0:0:0:0:
259,184,184246,1,0,0:0:0:0:
510,169,184599,1,8,0:0:0:0:
258,174,184952,1,0,0:0:0:0:
505,128,185305,1,8,0:0:0:0:
294,266,185658,1,0,0:0:0:0:
293,195,186363,1,0,0:0:0:0:
403,168,186716,1,8,0:0:0:0:
293,195,187069,1,0,0:0:0:0:
377,176,187775,1,0,0:0:0:0:
377,176,188128,1,0,0:0:0:0:
377,176,188481,1,8,0:0:0:0:
417,189,188834,1,0,0:0:0:0:
422,168,189540,1,0,0:0:0:0:
361,171,189893,1,8,0:0:0:0:
350,173,190599,1,0,0:0:0:0:
388,166,190952,1,0,0:0:0:0:
308,208,191658,1,0,0:0:0:0:
457,173,192011,1,8,0:0:0:0:
457,173,192363,1,8,0:0:0:0:
204,177,192716,1,0,0:0:0:0:
455,169,193069,1,8,0:0:0:0:
265,335,193422,1,0,0:0:0:0:
415,132,193775,1,8,0:0:0:0:
181,226,194128,1,0,0:0:0:0:
218,224,194834,1,0,0:0:0:0:
419,189,195187,1,4,0:0:0:0:
289,188,195513,1,8,0:0:0:0:
231,210,195621,1,0,0:0:0:0:
450,189,195839,1,8,0:0:0:0:
415,180,196056,1,0,0:0:0:0:
325,170,196273,1,8,0:0:0:0:
328,193,196418,1,8,0:0:0:0:
285,195,196491,1,0,0:0:0:0:
328,193,196708,1,8,0:0:0:0:
263,224,196926,1,4,0:0:0:0:
386,200,197143,1,8,0:0:0:0:
262,176,197360,1,0,0:0:0:0:
319,174,197578,1,8,0:0:0:0:
319,174,197686,1,8,0:0:0:0:
319,174,197795,1,0,0:0:0:0:
262,176,198012,1,8,0:0:0:0:
368,243,198230,1,0,0:0:0:0:
305,235,198339,1,0,0:0:0:0:
363,212,198447,1,8,0:0:0:0:
371,189,198556,1,8,0:0:0:0:
359,85,198665,1,0,0:0:0:0:
278,181,198882,1,0,0:0:0:0:
434,185,199099,1,8,0:0:0:0:
371,189,199208,1,8,0:0:0:0:
309,175,199316,1,0,0:0:0:0:
309,175,199425,1,0,0:0:0:0:
247,189,199534,1,8,0:0:0:0:
367,152,199751,1,8,0:0:0:0:
306,170,199860,1,8,0:0:0:0:
246,190,199969,1,8,0:0:0:0:
371,192,200186,1,0,0:0:0:0:
286,285,200404,1,8,0:0:0:0:
384,207,200621,1,0,0:0:0:0:
345,156,200730,1,0,0:0:0:0:
473,117,200839,1,8,0:0:0:0:
406,224,201056,1,8,0:0:0:0:
281,241,201273,1,0,0:0:0:0:
336,210,201382,1,8,0:0:0:0:
443,144,201599,1,8,0:0:0:0:
386,173,201708,1,0,0:0:0:0:
327,197,201817,1,0,0:0:0:0:
260,186,201926,1,8,0:0:0:0:
385,180,202034,1,8,0:0:0:0:
386,173,202143,1,0,0:0:0:0:
386,173,202360,1,8,0:0:0:0:
290,256,202578,1,0,0:0:0:0:
23,159,202687,1,0,0:0:0:0:
23,159,202795,1,0,0:0:0:0:
446,184,203012,1,8,0:0:0:0:
384,171,203339,1,8,0:0:0:0:
441,195,203447,1,0,0:0:0:0:
317,164,203665,1,8,0:0:0:0:
434,209,203882,1,0,0:0:0:0:
262,176,204099,1,0,0:0:0:0:
386,200,204316,1,8,0:0:0:0:
371,189,204426,1,8,0:0:0:0:
319,174,204534,1,0,0:0:0:0:
198,172,204643,1,0,0:0:0:0:
262,176,204751,1,8,0:0:0:0:
319,174,204968,1,0,0:0:0:0:
368,243,205186,1,0,0:0:0:0:
305,235,205295,1,0,0:0:0:0:
363,212,205403,1,8,0:0:0:0:
371,189,205512,1,8,0:0:0:0:
359,85,205621,1,0,0:0:0:0:
278,181,205838,1,0,0:0:0:0:
434,185,206055,1,8,0:0:0:0:
309,175,206272,1,0,0:0:0:0:
309,175,206381,1,0,0:0:0:0:
247,189,206490,1,8,0:0:0:0:
367,152,206707,1,8,0:0:0:0:
306,170,206816,1,8,0:0:0:0:
246,190,206925,1,8,0:0:0:0:
371,192,207142,1,0,0:0:0:0:
286,285,207360,1,8,0:0:0:0:
384,207,207577,1,8,0:0:0:0:
345,156,207686,1,0,0:0:0:0:
281,241,207904,1,0,0:0:0:0:
406,224,208012,1,8,0:0:0:0:
466,204,208121,1,8,0:0:0:0:
343,214,208230,1,0,0:0:0:0:
336,210,208339,1,8,0:0:0:0:
295,161,208556,1,0,0:0:0:0:
378,256,208665,1,8,0:0:0:0:
385,180,208882,1,8,0:0:0:0:
262,210,209100,1,8,0:0:0:0:
386,173,209316,1,0,0:0:0:0:
336,213,209426,1,0,0:0:0:0:
398,212,209534,1,8,0:0:0:0:
337,215,209642,1,0,0:0:0:0:
386,173,209751,1,8,0:0:0:0:
446,184,209968,1,8,0:0:0:0:
320,173,210186,1,0,0:0:0:0:
384,171,210295,1,8,0:0:0:0:
441,195,210403,1,0,0:0:0:0:
380,214,210512,1,0,0:0:0:0:
320,173,210622,1,8,0:0:0:0:
211,233,210839,1,4,0:0:0:0:
450,157,211273,1,8,0:0:0:0:
403,274,211491,1,0,0:0:0:0:
411,211,211600,1,8,0:0:0:0:
422,85,211817,1,8,0:0:0:0:
383,135,211926,1,0,0:0:0:0:
401,259,212143,1,8,0:0:0:0:
472,155,212360,1,8,0:0:0:0:
211,233,212578,1,0,0:0:0:0:
330,194,212795,1,8,0:0:0:0:
450,157,213012,1,8,0:0:0:0:
403,274,213230,1,0,0:0:0:0:
411,211,213339,1,8,0:0:0:0:
422,85,213556,1,8,0:0:0:0:
383,135,213665,1,0,0:0:0:0:
401,259,213882,1,8,0:0:0:0:
472,155,214099,1,8,0:0:0:0:
211,233,214317,1,0,0:0:0:0:
330,194,214534,1,8,0:0:0:0:
450,157,214751,1,8,0:0:0:0:
403,274,214969,1,0,0:0:0:0:
411,211,215078,1,8,0:0:0:0:
422,85,215295,1,8,0:0:0:0:
383,135,215404,1,0,0:0:0:0:
401,259,215621,1,8,0:0:0:0:
472,155,215838,1,8,0:0:0:0:
357,208,216056,1,8,0:0:0:0:
231,195,216273,1,8,0:0:0:0:
293,188,216382,1,0,0:0:0:0:
231,195,216491,1,8,0:0:0:0:
356,190,216708,1,8,0:0:0:0:
481,203,216926,1,0,0:0:0:0:
422,181,217034,1,0,0:0:0:0:
309,122,217143,1,8,0:0:0:0:
349,169,217360,1,8,0:0:0:0:
420,180,217469,1,8,0:0:0:0:
211,233,217795,1,0,0:0:0:0:
317,219,218013,1,8,0:0:0:0:
450,157,218229,1,8,0:0:0:0:
403,274,218447,1,0,0:0:0:0:
411,211,218556,1,8,0:0:0:0:
422,85,218773,1,8,0:0:0:0:
383,135,218882,1,0,0:0:0:0:
401,259,219099,1,8,0:0:0:0:
472,155,219316,1,8,0:0:0:0:
211,233,219534,1,0,0:0:0:0:
330,194,219751,1,8,0:0:0:0:
450,157,219968,1,8,0:0:0:0:
403,274,220186,1,0,0:0:0:0:
411,211,220295,1,8,0:0:0:0:
422,85,220512,1,8,0:0:0:0:
383,135,220621,1,0,0:0:0:0:
401,259,220838,1,8,0:0:0:0:
472,155,221055,1,8,0:0:0:0:
211,233,221273,1,0,0:0:0:0:
330,194,221490,1,8,0:0:0:0:
266,199,221600,1,0,0:0:0:0:
450,157,221707,1,8,0:0:0:0:
403,274,221925,1,0,0:0:0:0:
411,211,222034,1,8,0:0:0:0:
422,85,222251,1,8,0:0:0:0:
383,135,222360,1,0,0:0:0:0:
343,183,222469,1,0,0:0:0:0:
401,259,222577,1,8,0:0:0:0:
472,155,222794,1,8,0:0:0:0:
347,181,223013,1,0,0:0:0:0:
224,207,223230,1,0,0:0:0:0:
285,194,223339,1,0,0:0:0:0:
343,183,223447,1,8,0:0:0:0:
347,181,223665,1,8,0:0:0:0:
347,181,223773,1,8,0:0:0:0:
347,181,223882,1,0,0:0:0:0:
410,184,223991,1,0,0:0:0:0:
343,183,224100,1,8,0:0:0:0:
374,237,224208,1,0,0:0:0:0:
338,308,224317,1,8,0:0:0:0:
324,182,224534,1,8,0:0:0:0:
211,233,224752,1,4,0:0:0:0:
251,272,225186,1,0,0:0:0:0:
342,184,225404,1,8,0:0:0:0:
280,241,225549,1,0,0:0:0:0:
227,126,225766,1,0,0:0:0:0:
310,271,226056,1,0,0:0:0:0:
415,201,226273,1,8,0:0:0:0:
211,233,226491,1,0,0:0:0:0:
316,164,226708,1,8,0:0:0:0:
251,272,226925,1,0,0:0:0:0:
342,184,227143,1,8,0:0:0:0:
280,241,227288,1,0,0:0:0:0:
227,126,227505,1,0,0:0:0:0:
209,293,227795,1,0,0:0:0:0:
303,208,228013,1,8,0:0:0:0:
211,233,228230,1,0,0:0:0:0:
316,164,228447,1,8,0:0:0:0:
251,272,228664,1,0,0:0:0:0:
342,184,228882,1,8,0:0:0:0:
280,241,229027,1,0,0:0:0:0:
227,126,229244,1,0,0:0:0:0:
310,271,229534,1,0,0:0:0:0:
415,201,229751,1,8,0:0:0:0:
211,233,229969,1,0,0:0:0:0:
316,164,230186,1,8,0:0:0:0:
251,272,230403,1,0,0:0:0:0:
280,241,230621,1,0,0:0:0:0:
342,184,230766,1,8,0:0:0:0:
228,128,230983,1,8,0:0:0:0:
280,241,231056,1,0,0:0:0:0:
157,210,231273,1,0,0:0:0:0:
282,196,231491,1,8,0:0:0:0:
211,233,231708,1,0,0:0:0:0:
251,272,232142,1,0,0:0:0:0:
342,184,232360,1,8,0:0:0:0:
280,241,232505,1,0,0:0:0:0:
227,126,232722,1,0,0:0:0:0:
310,271,233012,1,0,0:0:0:0:
415,201,233229,1,8,0:0:0:0:
211,233,233447,1,0,0:0:0:0:
316,164,233664,1,8,0:0:0:0:
251,272,233881,1,0,0:0:0:0:
342,184,234099,1,8,0:0:0:0:
280,241,234244,1,0,0:0:0:0:
227,126,234461,1,0,0:0:0:0:
190,290,234752,1,0,0:0:0:0:
304,238,234969,1,8,0:0:0:0:
211,233,235187,1,0,0:0:0:0:
316,164,235404,1,8,0:0:0:0:
251,272,235621,1,0,0:0:0:0:
342,184,235839,1,8,0:0:0:0:
280,241,235984,1,0,0:0:0:0:
227,126,236201,1,0,0:0:0:0:
310,271,236491,1,0,0:0:0:0:
415,201,236708,1,8,0:0:0:0:
211,233,236926,1,0,0:0:0:0:
316,164,237143,1,8,0:0:0:0:
379,165,237252,1,8,0:0:0:0:
251,272,237360,1,0,0:0:0:0:
280,241,237578,1,0,0:0:0:0:
342,184,237723,1,8,0:0:0:0:
227,126,237940,1,8,0:0:0:0:
195,154,238013,1,0,0:0:0:0:
317,184,238230,1,0,0:0:0:0:
441,166,238447,1,8,0:0:0:0:
315,177,238665,1,0,0:0:0:0:
251,272,239100,1,0,0:0:0:0:
342,184,239318,1,8,0:0:0:0:
280,241,239463,1,0,0:0:0:0:
227,126,239680,1,0,0:0:0:0:
310,271,239970,1,0,0:0:0:0:
415,201,240187,1,8,0:0:0:0:
211,233,240405,1,0,0:0:0:0:
251,272,240839,1,0,0:0:0:0:
342,184,241057,1,8,0:0:0:0:
280,241,241202,1,0,0:0:0:0:
227,126,241419,1,0,0:0:0:0:
310,271,241709,1,0,0:0:0:0:
415,201,241926,1,8,0:0:0:0:
211,233,242144,1,0,0:0:0:0:
251,272,242578,1,0,0:0:0:0:
342,184,242796,1,8,0:0:0:0:
280,241,242941,1,0,0:0:0:0:
227,126,243158,1,0,0:0:0:0:
310,271,243448,1,0,0:0:0:0:
415,201,243665,1,8,0:0:0:0:
211,233,243883,1,0,0:0:0:0:
251,272,244317,1,0,0:0:0:0:
280,241,244535,1,0,0:0:0:0:
342,184,244680,1,8,0:0:0:0:
227,126,244897,1,8,0:0:0:0:
192,149,244969,1,0,0:0:0:0:
310,271,245187,1,0,0:0:0:0:
415,201,245404,1,8,0:0:0:0:
211,233,245622,1,0,0:0:0:0:
283,193,246491,1,0,0:0:0:0:
283,193,247360,1,8,0:0:0:0:
283,193,248230,1,8,0:0:0:0:
392,184,249100,1,0,0:0:0:0:
325,205,249969,1,0,0:0:0:0:
256,192,250839,12,0,259969,0:0:0:0:
