osu file format v14

[General]
AudioFilename: audio.mp3
AudioLeadIn: 0
PreviewTime: 77347
Countdown: 0
SampleSet: Normal
StackLeniency: 0.7
Mode: 1
LetterboxInBreaks: 0
WidescreenStoryboard: 1

[Editor]
Bookmarks: 259985
DistanceSpacing: 1.8
BeatDivisor: 1
GridSize: 4
TimelineZoom: 0.3

[Metadata]
Title:Snow Song Show
TitleUnicode:Snow Song Show
Artist:pekomiko
ArtistUnicode:pekomiko
Creator:yuzu__rinrin
Version:Kantan
Source:
Tags:さくらみこ 兎田ぺこら sakura miko usada pekora DECO*27 sasakure.UK hololive ホロライブ Vtuber Virtual Youtuber Cover taiko_ryuki JUDYDANNY ごず Gozu pop Japanese
BeatmapID:2402911
BeatmapSetID:1139911

[Difficulty]
HPDrainRate:8
CircleSize:5
OverallDifficulty:3
ApproachRate:5
SliderMultiplier:1.4
SliderTickRate:1

[Events]
//Background and Video events
0,0,"BG.jpg",0,50
//Break Periods
//Storyboard Layer 0 (Background)
//Storyboard Layer 1 (Fail)
//Storyboard Layer 2 (Pass)
//Storyboard Layer 3 (Foreground)
//Storyboard Layer 4 (Overlay)
//Storyboard Sound Samples

[TimingPoints]
760,352.941176470588,6,1,0,40,1,0
760,-123.456790123457,6,1,0,40,0,0
16263,600,4,1,0,80,1,8
16575,434.782608695652,4,1,0,70,1,0
16575,-100,4,1,0,70,0,0
17438,434.782608695652,4,1,0,80,1,0
17438,-100,4,1,0,80,0,1
31351,-100,4,1,0,60,0,0
43416,-100,4,1,0,40,0,0
47003,-100,4,1,0,60,0,0
60916,-100,4,1,0,70,0,0
76568,-100,4,1,0,80,0,0
78307,-100,4,1,0,90,0,1
92220,-100,4,1,0,70,0,0
104285,-100,4,1,0,40,0,0
172138,-133.333333333333,4,1,0,90,0,0
172220,326.086956521739,6,1,0,80,1,0
179292,352.941176470588,6,1,0,80,1,8
179292,-100,6,1,0,40,0,0
180364,352.941176470588,6,1,0,40,1,0
180364,-123.456790123457,6,1,0,40,0,0
194834,-100,6,1,0,60,0,0
195187,434.782608695652,4,1,0,70,1,0
195187,-100,4,1,0,70,0,0
196926,-100,4,1,0,80,0,1
224752,-100,4,1,0,80,0,0
252578,-100,4,1,0,60,0,0
254317,-100,4,1,0,40,0,0
259915,-100,4,1,0,5,0,0

[HitObjects]
350,257,760,5,0,0:0:0:0:
57,63,1818,1,0,0:0:0:0:
51,218,2877,1,0,0:0:0:0:
511,131,3936,1,8,0:0:0:0:
510,169,4995,1,8,0:0:0:0:
294,266,6054,1,0,0:0:0:0:
293,195,7112,1,8,0:0:0:0:
417,189,9230,1,0,0:0:0:0:
422,168,10289,1,0,0:0:0:0:
388,166,11348,1,0,0:0:0:0:
457,173,12407,1,8,0:0:0:0:
455,169,13465,5,8,0:0:0:0:
181,226,14524,5,0,0:0:0:0:
249,160,15583,5,8,0:0:0:0:
263,224,17438,1,4,0:0:0:0:
325,178,18307,1,8,0:0:0:0:
365,89,19177,1,0,0:0:0:0:
253,193,20046,1,8,0:0:0:0:
252,194,20481,1,8,0:0:0:0:
292,289,20916,1,8,0:0:0:0:
287,245,21785,1,0,0:0:0:0:
392,177,22220,1,0,0:0:0:0:
391,184,22655,1,8,0:0:0:0:
440,213,24394,1,0,0:0:0:0:
325,178,25263,1,8,0:0:0:0:
365,89,26133,1,0,0:0:0:0:
253,193,27002,1,8,0:0:0:0:
252,194,27437,1,8,0:0:0:0:
292,289,27872,1,8,0:0:0:0:
287,245,28741,1,0,0:0:0:0:
266,190,29177,1,8,0:0:0:0:
392,177,29611,1,0,0:0:0:0:
452,188,30480,1,8,0:0:0:0:
217,237,31351,1,4,0:0:0:0:
217,237,33090,1,0,0:0:0:0:
316,275,33959,1,0,0:0:0:0:
217,237,34829,1,0,0:0:0:0:
217,237,36568,1,0,0:0:0:0:
233,130,37437,1,8,0:0:0:0:
217,237,38307,1,0,0:0:0:0:
217,237,40046,1,0,0:0:0:0:
245,136,40916,1,0,0:0:0:0:
217,237,41785,1,8,0:0:0:0:
316,216,42655,1,8,0:0:0:0:
256,192,43524,12,8,46133,0:0:0:0:
261,192,47003,5,4,0:0:0:0:
321,190,48742,1,0,0:0:0:0:
424,137,50481,1,0,0:0:0:0:
440,184,52220,1,8,0:0:0:0:
436,181,53090,1,8,0:0:0:0:
184,172,53524,1,8,0:0:0:0:
261,192,53959,5,0,0:0:0:0:
321,190,55699,1,0,0:0:0:0:
424,137,57438,1,0,0:0:0:0:
440,184,59177,1,8,0:0:0:0:
187,177,60046,5,8,0:0:0:0:
249,207,60916,1,4,0:0:0:0:
255,188,61785,1,8,0:0:0:0:
411,139,62655,1,0,0:0:0:0:
387,187,63524,1,8,0:0:0:0:
358,215,64394,1,0,0:0:0:0:
261,135,65264,1,0,0:0:0:0:
442,175,66133,1,8,0:0:0:0:
249,207,67872,1,0,0:0:0:0:
226,120,68742,1,0,0:0:0:0:
386,205,69177,1,8,0:0:0:0:
411,139,69611,1,0,0:0:0:0:
446,203,70481,1,8,0:0:0:0:
144,80,71350,1,4,0:0:0:0:
380,164,73090,1,8,0:0:0:0:
370,237,74829,1,0,0:0:0:0:
311,214,76568,1,12,0:0:0:0:
311,214,77220,1,12,0:0:0:0:
269,228,78307,1,4,0:0:0:0:
377,193,79177,1,8,0:0:0:0:
365,89,80046,1,0,0:0:0:0:
253,193,80915,1,8,0:0:0:0:
252,194,81350,1,8,0:0:0:0:
292,289,81785,1,8,0:0:0:0:
287,245,82654,1,0,0:0:0:0:
392,177,83524,1,8,0:0:0:0:
440,213,85263,1,0,0:0:0:0:
268,180,86132,1,8,0:0:0:0:
365,89,87002,1,0,0:0:0:0:
440,189,87436,1,0,0:0:0:0:
253,193,87871,1,8,0:0:0:0:
252,194,88306,1,8,0:0:0:0:
351,160,88742,1,0,0:0:0:0:
342,214,89611,1,8,0:0:0:0:
392,177,90480,1,0,0:0:0:0:
452,188,90916,1,8,0:0:0:0:
140,172,91351,1,0,0:0:0:0:
217,237,92220,1,0,0:0:0:0:
217,237,93959,1,8,0:0:0:0:
217,237,95698,1,0,0:0:0:0:
217,237,97437,1,8,0:0:0:0:
348,188,98307,1,8,0:0:0:0:
217,237,99176,1,0,0:0:0:0:
217,237,100915,1,8,0:0:0:0:
217,237,102654,1,0,0:0:0:0:
325,258,103524,1,8,0:0:0:0:
421,205,103959,1,8,0:0:0:0:
256,192,104394,12,0,107003,0:0:0:0:
261,192,107872,5,4,0:0:0:0:
321,190,109611,1,0,0:0:0:0:
424,137,111350,1,0,0:0:0:0:
440,184,113089,1,8,0:0:0:0:
436,181,113959,1,8,0:0:0:0:
261,192,114828,5,0,0:0:0:0:
321,190,116568,1,0,0:0:0:0:
424,137,118307,1,0,0:0:0:0:
259,196,120046,1,8,0:0:0:0:
259,196,120481,1,8,0:0:0:0:
265,207,120916,1,8,0:0:0:0:
249,207,121785,5,0,0:0:0:0:
268,196,122655,1,0,0:0:0:0:
290,264,123524,1,0,0:0:0:0:
381,190,125264,1,8,0:0:0:0:
288,103,126133,1,8,0:0:0:0:
504,177,127003,1,8,0:0:0:0:
381,172,128742,1,0,0:0:0:0:
360,143,129611,1,0,0:0:0:0:
256,144,130481,1,8,0:0:0:0:
256,80,131351,1,8,0:0:0:0:
360,179,132220,1,0,0:0:0:0:
479,227,133090,1,0,0:0:0:0:
357,180,133959,1,8,0:0:0:0:
381,223,135698,1,4,0:0:0:0:
438,174,136568,1,8,0:0:0:0:
290,264,137437,1,0,0:0:0:0:
499,190,137872,1,8,0:0:0:0:
375,171,138307,1,0,0:0:0:0:
381,190,139177,1,0,0:0:0:0:
288,103,140046,1,8,0:0:0:0:
504,177,140916,1,0,0:0:0:0:
381,172,142655,5,4,0:0:0:0:
258,147,143524,1,8,0:0:0:0:
360,143,144394,1,0,0:0:0:0:
373,160,144829,1,8,0:0:0:0:
373,160,145264,1,0,0:0:0:0:
479,227,146133,1,8,0:0:0:0:
357,180,147003,1,0,0:0:0:0:
360,179,147872,1,8,0:0:0:0:
249,207,149611,1,4,0:0:0:0:
255,188,150480,1,8,0:0:0:0:
411,139,151350,1,0,0:0:0:0:
358,215,152220,1,8,0:0:0:0:
144,80,153089,1,0,0:0:0:0:
442,175,153959,1,0,0:0:0:0:
505,170,154828,1,8,0:0:0:0:
249,207,156567,1,0,0:0:0:0:
226,120,157437,1,0,0:0:0:0:
386,205,157871,1,8,0:0:0:0:
411,139,158306,1,0,0:0:0:0:
446,203,159176,5,8,0:0:0:0:
144,80,160046,1,4,0:0:0:0:
380,159,161785,1,8,0:0:0:0:
144,79,163524,1,4,0:0:0:0:
380,158,165264,1,8,0:0:0:0:
318,200,166133,1,8,0:0:0:0:
144,80,167003,1,4,0:0:0:0:
467,200,168742,1,8,0:0:0:0:
370,237,170482,1,0,0:0:0:0:
256,192,172220,12,0,176133,0:0:0:0:
416,375,180364,5,0,0:0:0:0:
57,63,181422,1,0,0:0:0:0:
51,218,182481,1,0,0:0:0:0:
511,131,183540,1,8,0:0:0:0:
259,184,184599,1,8,0:0:0:0:
258,205,185658,1,0,0:0:0:0:
403,168,186716,1,8,0:0:0:0:
417,189,188834,1,0,0:0:0:0:
361,171,189893,1,8,0:0:0:0:
388,166,190952,1,0,0:0:0:0:
457,173,192011,1,8,0:0:0:0:
455,169,193069,1,8,0:0:0:0:
181,226,194128,1,0,0:0:0:0:
116,316,195187,1,0,0:0:0:0:
231,210,195621,1,0,0:0:0:0:
450,189,196056,1,8,0:0:0:0:
285,195,196491,1,8,0:0:0:0:
263,223,196926,1,4,0:0:0:0:
371,188,197795,1,8,0:0:0:0:
359,84,198665,1,0,0:0:0:0:
247,188,199534,1,8,0:0:0:0:
246,189,199969,1,8,0:0:0:0:
286,284,200404,1,8,0:0:0:0:
281,240,201273,1,0,0:0:0:0:
420,32,201708,1,0,0:0:0:0:
386,172,202143,1,8,0:0:0:0:
288,224,203013,1,0,0:0:0:0:
434,208,203882,5,0,0:0:0:0:
262,175,204751,1,8,0:0:0:0:
359,84,205621,1,0,0:0:0:0:
434,184,206055,1,0,0:0:0:0:
247,188,206490,1,8,0:0:0:0:
246,189,206925,1,8,0:0:0:0:
345,155,207361,1,0,0:0:0:0:
336,209,208230,1,8,0:0:0:0:
386,172,209099,1,8,0:0:0:0:
136,212,209534,1,0,0:0:0:0:
384,264,209969,1,8,0:0:0:0:
438,184,210839,1,4,0:0:0:0:
363,201,211709,1,8,0:0:0:0:
392,210,212578,1,0,0:0:0:0:
411,211,214317,1,0,0:0:0:0:
161,191,215187,1,8,0:0:0:0:
357,208,216056,1,8,0:0:0:0:
104,192,216491,1,8,0:0:0:0:
355,212,216926,1,0,0:0:0:0:
355,176,217360,1,8,0:0:0:0:
211,233,217795,1,0,0:0:0:0:
210,234,218665,1,8,0:0:0:0:
211,233,219534,1,0,0:0:0:0:
211,233,221273,1,0,0:0:0:0:
411,211,222143,1,8,0:0:0:0:
347,181,223013,1,0,0:0:0:0:
408,203,223882,1,8,0:0:0:0:
347,181,224317,1,8,0:0:0:0:
211,233,224752,1,4,0:0:0:0:
211,233,226491,1,8,0:0:0:0:
211,233,228230,1,0,0:0:0:0:
310,271,229969,1,8,0:0:0:0:
251,272,230838,1,8,0:0:0:0:
157,210,231708,1,0,0:0:0:0:
211,233,233447,1,8,0:0:0:0:
211,233,235187,1,0,0:0:0:0:
211,233,236926,1,8,0:0:0:0:
211,233,237795,1,8,0:0:0:0:
315,177,238665,1,0,0:0:0:0:
211,233,240405,1,8,0:0:0:0:
211,233,242144,1,0,0:0:0:0:
211,233,243883,1,8,0:0:0:0:
368,168,244752,1,8,0:0:0:0:
211,233,245622,1,8,0:0:0:0:
283,193,247360,1,8,0:0:0:0:
392,184,249100,1,8,0:0:0:0:
256,192,250839,12,0,259969,0:0:0:0:
