osu file format v14

[General]
AudioFilename: audio.mp3
AudioLeadIn: 0
PreviewTime:31964
Countdown: 0
SampleSet: Normal
StackLeniency: 0.7
Mode: 1
LetterboxInBreaks: 0
WidescreenStoryboard: 1

[Editor]
DistanceSpacing: 1
BeatDivisor: 4
GridSize: 32
TimelineZoom: 2.599999

[Metadata]
Title:david gold took it slow (alt version)
TitleUnicode:david gold took it slow (alt version)
Artist:passchooo
ArtistUnicode:passchooo
Creator:Hivie
Version:oni
Source:
Tags:electronic instrumental breakcore featured artist fa mpg mg mappers' guild Passchooo² genguh
BeatmapID:4215360
BeatmapSetID:2023751

[Difficulty]
HPDrainRate:7.5
CircleSize:2
OverallDifficulty:6
ApproachRate:10
SliderMultiplier:1.4
SliderTickRate:1

[Events]
//Background and Video events
0,0,"file (1).png",0,0
//Break Periods
2,53407,58761
//Storyboard Layer 0 (Background)
//Storyboard Layer 1 (Fail)
//Storyboard Layer 2 (Pass)
//Storyboard Layer 3 (Foreground)
//Storyboard Layer 4 (Overlay)
//Storyboard Sound Samples

[TimingPoints]
10777,331.491712707182,4,1,0,40,1,0
12099,-142.857142857143,4,1,0,40,0,0
12348,-162.595644496763,4,1,0,41,0,0
12431,-141.007826678766,4,1,0,41,0,0
12597,-140.101007966528,4,1,0,41,0,0
12845,-138.767764576197,4,1,0,42,0,0
12928,-138.327207480379,4,1,0,42,0,0
13094,-137.454432369862,4,1,0,43,0,0
13260,-136.592601749127,4,1,0,43,0,0
13343,-148.136562695504,4,1,0,43,0,0
13425,-135.746606334842,4,1,0,44,0,0
13674,-134.489578579035,4,1,0,44,0,0
13757,-134.075726833346,4,1,0,44,0,0
13923,-133.255617638783,4,1,0,45,0,0
14006,-132.849313879046,4,1,0,45,0,0
14171,-132.04891585782,4,1,0,46,0,0
14254,-136.98347107438,4,1,0,46,0,0
14337,-131.25334072417,4,1,0,46,0,0
14420,-130.85913727709,4,1,0,47,0,0
14586,-130.077791620479,4,1,0,47,0,0
14751,-129.310344827586,4,1,0,47,0,0
15000,-129.028491359178,4,1,0,48,0,0
15083,-127.79326916899,4,1,0,48,0,0
15249,-127.048002299511,4,1,0,49,0,0
15332,-126.678619082042,4,1,0,49,0,0
15414,-125,4,1,0,49,0,0
15497,-125.950645584129,4,1,0,50,0,0
15663,-125.226654578422,4,1,0,50,0,0
15746,-124.867771370815,4,1,0,50,0,0
15912,-124.156140860104,4,1,0,51,0,0
15994,-123.807597142902,4,1,0,51,0,0
16077,-123.456790123457,4,1,0,52,0,0
16326,-122.416196604474,4,1,0,52,0,0
16409,-122.073219381962,4,1,0,52,0,0
16575,-121.392998388751,4,1,0,53,0,0
16658,-121.055722758658,4,1,0,53,0,0
16823,-120.3907706462,4,1,0,53,0,0
16906,-112.357646420824,4,1,0,54,0,0
16989,-119.729119638826,4,1,0,54,0,0
17072,-119.401013918112,4,1,0,55,0,0
17238,-118.750167915961,4,1,0,55,0,0
17403,-118.110236220472,4,1,0,55,0,0
17652,-106.949283778552,4,1,0,56,0,0
17735,-116.843292525319,4,1,0,56,0,0
17901,-116.219958981191,4,1,0,56,0,0
17983,-104.712868785141,4,1,0,57,0,0
18066,-115.606936416185,4,1,0,57,0,0
18149,-115.301005767949,4,1,0,58,0,0
18315,-114.693976403834,4,1,0,58,0,0
18398,-114.392852315895,4,1,0,58,0,0
18564,-113.795322892083,4,1,0,59,0,0
18646,-100.503274314819,4,1,0,59,0,0
18729,-113.207547169811,4,1,0,59,0,0
18978,-112.331946832934,4,1,0,60,0,0
19061,-112.043082226891,4,1,0,60,0,0
19227,-111.469787148189,4,1,0,60,0,0
19310,-111.185334045128,4,1,0,61,0,0
19475,-110.624144873692,4,1,0,61,0,0
19558,-98.0837243706803,4,1,0,62,0,0
19641,-110.065242292943,4,1,0,62,0,0
19724,-109.787903459506,4,1,0,62,0,0
19890,-109.237397744404,4,1,0,63,0,0
20055,-108.695652173913,4,1,0,63,0,0
20304,-96.4210239280115,4,1,0,63,0,0
20387,-107.621716969494,4,1,0,64,0,0
20553,-107.092668271172,4,1,0,64,0,0
20636,-106.8300896696,4,1,0,65,0,0
20718,-95.5223880597015,4,1,0,65,0,0
20801,-106.311901694897,4,1,0,65,0,0
20967,-105.795621369758,4,1,0,66,0,0
21050,-105.5393570536,4,1,0,66,0,0
21216,-105.030534895326,4,1,0,66,0,0
21384,-104.529616724739,4,1,0,67,0,1
21633,-103.782666885816,4,1,0,67,0,1
21716,-103.536050222012,4,1,0,68,0,0
21879,-103.046316443892,4,1,0,68,0,0
21962,-102.803182815484,4,1,0,68,0,0
22127,-102.323236480369,4,1,0,69,0,0
22210,-92.4182693354823,4,1,0,69,0,0
22293,-101.844882409868,4,1,0,69,0,0
22376,-101.607378667559,4,1,0,70,0,0
22459,-101.370980072371,4,1,0,70,0,0
22542,-101.135678928541,4,1,0,71,0,0
22707,-100.671140939597,4,1,0,71,0,0
22956,-90.9406545361024,4,1,0,71,0,0
23039,-99.7492477432297,4,1,0,72,0,0
23205,-99.2946039448263,4,1,0,72,0,0
23288,-99.0688326663164,4,1,0,72,0,0
23453,-98.6230457612916,4,1,0,73,0,0
23536,-89.8240860306103,4,1,0,73,0,0
23619,-98.1785872945358,4,1,0,73,0,0
23702,-97.957856944099,4,1,0,74,0,0
23785,-97.7381168827978,4,1,0,74,0,0
23868,-97.519360461268,4,1,0,74,0,0
23950,-89.0437118334628,4,1,0,75,0,0
24036,-97.0873786407767,4,1,0,75,0,1
24285,-96.4426762478999,4,1,0,75,0,1
24368,-96.2296739608985,4,1,0,76,0,0
24531,-95.806479581515,4,1,0,76,0,0
24613,-95.5988022513061,4,1,0,77,0,0
24779,-95.1811264774848,4,1,0,77,0,0
24862,-94.9736542414642,4,1,0,77,0,0
24945,-87.2224962999507,4,1,0,78,0,0
25028,-94.5614114324699,4,1,0,78,0,0
25111,-86.9258819191216,4,1,0,78,0,0
25194,-94.1527319203323,4,1,0,79,0,0
25359,-93.75,4,1,0,79,0,0
25608,-86.0497657723429,4,1,0,80,0,0
25691,-92.9500060751638,4,1,0,80,0,0
25857,-92.5551072829562,4,1,0,80,0,0
25940,-92.3589135174166,4,1,0,81,0,0
26022,-85.3333333333333,4,1,0,81,0,0
26105,-91.9713496992088,4,1,0,81,0,0
26188,-91.7776203802611,4,1,0,82,0,0
26271,-91.5847054923196,4,1,0,82,0,0
26354,-91.3925999103994,4,1,0,82,0,0
26520,-91.0107963787861,4,1,0,83,0,0
26602,-84.3494682437133,4,1,0,83,0,0
26688,-90.6344410876133,4,1,0,84,0,1
26937,-90.0723431715518,4,1,0,84,0,1
27020,-89.8865233483521,4,1,0,84,0,0
27183,-89.5171743357097,4,1,0,85,0,0
27266,-89.3336357532164,4,1,0,85,0,0
27431,-88.9709960815187,4,1,0,85,0,0
27514,-82.8474920436574,4,1,0,86,0,0
27597,-88.6091175173409,4,1,0,86,0,0
27680,-88.4292799171281,4,1,0,87,0,0
27763,-88.2501708210949,4,1,0,87,0,0
27846,-88.0717858115423,4,1,0,87,0,0
28011,-87.719298245614,4,1,0,88,0,0
28260,-81.658102880896,4,1,0,88,0,0
28343,-87.0185324536689,4,1,0,88,0,0
28509,-86.6723315249363,4,1,0,89,0,0
28592,-86.5002620231668,4,1,0,89,0,0
28757,-86.1602172848918,4,1,0,90,0,0
28840,-85.9901731692502,4,1,0,90,0,0
29006,-85.6520905957105,4,1,0,90,0,0
29089,-85.4840442677555,4,1,0,91,0,0
29172,-85.3166560503407,4,1,0,91,0,0
29254,-80.1253847461148,4,1,0,91,0,0
29340,-84.985835694051,4,1,0,92,0,1
29586,-84.4914266052415,4,1,0,92,0,1
29672,-84.3278994339983,4,1,0,93,0,0
29835,-84.0027367407445,4,1,0,93,0,0
29918,-83.8410939386978,4,1,0,93,0,0
30083,-83.5215963584752,4,1,0,94,0,0
30166,-75.2927816026688,4,1,0,94,0,0
30249,-83.2026102779695,4,1,0,94,0,0
30332,-83.0440292011031,4,1,0,95,0,0
30415,-82.8860514735298,4,1,0,95,0,0
30498,-82.7286736584666,4,1,0,96,0,0
30580,-73.1434875542991,4,1,0,96,0,0
30663,-82.4175824175824,4,1,0,96,0,0
30912,-81.9525219250808,4,1,0,97,0,0
30995,-81.7986658880234,4,1,0,97,0,0
31161,-81.4926804085696,4,1,0,97,0,0
31244,-81.3405445195326,4,1,0,98,0,0
31409,-81.0397865015177,4,1,0,98,0,0
31492,-68.8160882257541,4,1,0,99,0,0
31575,-80.7394417653076,4,1,0,99,0,0
31658,-80.590102692617,4,1,0,99,0,0
31740,-80.4431044001043,4,1,0,100,0,0
31823,-80.2948585454076,4,1,0,100,0,0
31992,-80,4,1,0,100,0,1
47904,-80,4,1,0,100,0,0
48567,-80,4,1,0,100,0,1
53539,-142.857142857143,4,1,0,30,0,0
59208,-71.4285714285714,4,1,0,30,0,0
59506,-142.857142857143,4,1,0,30,0,0
63186,-83.3333333333333,4,1,0,30,0,0
63296,-142.857142857143,4,1,0,30,0,0
64586,-62.5,4,1,0,30,0,0
64697,-142.857142857143,4,1,0,30,0,0

[HitObjects]
256,192,12102,5,8,0:0:0:0:
256,192,12434,1,8,0:0:0:0:
256,192,12600,1,0,0:0:0:0:
256,192,12848,1,8,0:0:0:0:
256,192,12931,1,0,0:0:0:0:
256,192,13097,1,8,0:0:0:0:
256,192,13263,1,0,0:0:0:0:
256,192,13428,1,8,0:0:0:0:
256,192,13677,1,0,0:0:0:0:
256,192,13760,1,8,0:0:0:0:
256,192,13926,1,0,0:0:0:0:
256,192,14009,1,0,0:0:0:0:
256,192,14174,1,8,0:0:0:0:
256,192,14340,1,0,0:0:0:0:
256,192,14423,1,8,0:0:0:0:
256,192,14589,1,0,0:0:0:0:
256,192,14754,1,8,0:0:0:0:
256,192,15086,1,8,0:0:0:0:
256,192,15252,1,0,0:0:0:0:
256,192,15335,1,0,0:0:0:0:
256,192,15500,1,8,0:0:0:0:
256,192,15666,1,0,0:0:0:0:
256,192,15749,1,8,0:0:0:0:
256,192,15915,1,0,0:0:0:0:
256,192,15997,1,0,0:0:0:0:
256,192,16080,1,8,0:0:0:0:
256,192,16329,1,0,0:0:0:0:
256,192,16412,1,8,0:0:0:0:
256,192,16578,1,0,0:0:0:0:
256,192,16661,1,0,0:0:0:0:
256,192,16826,1,8,0:0:0:0:
256,192,16992,1,0,0:0:0:0:
256,192,17075,1,8,0:0:0:0:
256,192,17241,1,0,0:0:0:0:
256,192,17406,1,8,0:0:0:0:
256,192,17738,1,8,0:0:0:0:
256,192,17904,1,0,0:0:0:0:
256,192,18069,1,0,0:0:0:0:
256,192,18152,1,8,0:0:0:0:
256,192,18318,1,0,0:0:0:0:
256,192,18401,1,8,0:0:0:0:
256,192,18567,1,0,0:0:0:0:
256,192,18732,1,8,0:0:0:0:
256,192,18981,1,0,0:0:0:0:
256,192,19064,1,8,0:0:0:0:
256,192,19230,1,0,0:0:0:0:
256,192,19313,1,0,0:0:0:0:
256,192,19478,1,8,0:0:0:0:
256,192,19644,1,0,0:0:0:0:
256,192,19727,1,8,0:0:0:0:
256,192,19893,1,0,0:0:0:0:
256,192,20058,1,8,0:0:0:0:
256,192,20390,1,8,0:0:0:0:
256,192,20556,1,0,0:0:0:0:
256,192,20639,1,0,0:0:0:0:
256,192,20804,1,8,0:0:0:0:
256,192,20970,1,0,0:0:0:0:
256,192,21053,1,8,0:0:0:0:
256,192,21219,1,0,0:0:0:0:
256,192,21384,1,8,0:0:0:0:
256,192,21633,1,0,0:0:0:0:
256,192,21716,1,8,0:0:0:0:
256,192,21882,1,0,0:0:0:0:
256,192,21965,1,0,0:0:0:0:
256,192,22130,1,8,0:0:0:0:
256,192,22296,1,0,0:0:0:0:
256,192,22379,1,8,0:0:0:0:
256,192,22462,1,8,0:0:0:0:
256,192,22545,1,0,0:0:0:0:
256,192,22710,1,8,0:0:0:0:
256,192,23042,1,8,0:0:0:0:
256,192,23208,1,0,0:0:0:0:
256,192,23291,1,0,0:0:0:0:
256,192,23456,1,8,0:0:0:0:
256,192,23622,1,0,0:0:0:0:
256,192,23705,1,8,0:0:0:0:
256,192,23788,1,0,0:0:0:0:
256,192,23871,1,0,0:0:0:0:
256,192,24036,1,8,0:0:0:0:
256,192,24285,1,0,0:0:0:0:
256,192,24368,1,8,0:0:0:0:
256,192,24534,1,0,0:0:0:0:
256,192,24616,1,0,0:0:0:0:
256,192,24782,1,8,0:0:0:0:
256,192,24865,1,8,0:0:0:0:
256,192,25031,1,8,0:0:0:0:
256,192,25197,1,0,0:0:0:0:
256,192,25362,1,8,0:0:0:0:
256,192,25694,1,8,0:0:0:0:
256,192,25860,1,0,0:0:0:0:
256,192,25943,1,0,0:0:0:0:
256,192,26108,1,8,0:0:0:0:
256,192,26191,1,0,0:0:0:0:
256,192,26274,1,0,0:0:0:0:
256,192,26357,1,8,0:0:0:0:
256,192,26523,1,0,0:0:0:0:
256,192,26688,1,8,0:0:0:0:
256,192,26937,1,0,0:0:0:0:
256,192,27020,1,8,0:0:0:0:
256,192,27186,1,0,0:0:0:0:
256,192,27269,1,0,0:0:0:0:
256,192,27434,1,8,0:0:0:0:
256,192,27600,1,0,0:0:0:0:
256,192,27683,1,8,0:0:0:0:
256,192,27766,1,8,0:0:0:0:
256,192,27849,1,0,0:0:0:0:
256,192,28014,1,8,0:0:0:0:
256,192,28346,1,8,0:0:0:0:
256,192,28512,1,0,0:0:0:0:
256,192,28595,1,0,0:0:0:0:
256,192,28760,1,8,0:0:0:0:
256,192,28843,1,0,0:0:0:0:
256,192,29009,1,8,0:0:0:0:
256,192,29092,1,0,0:0:0:0:
256,192,29175,1,0,0:0:0:0:
256,192,29340,1,8,0:0:0:0:
256,192,29589,1,0,0:0:0:0:
256,192,29672,1,8,0:0:0:0:
256,192,29838,1,0,0:0:0:0:
256,192,29921,1,0,0:0:0:0:
256,192,30086,1,8,0:0:0:0:
256,192,30252,1,0,0:0:0:0:
256,192,30335,1,8,0:0:0:0:
256,192,30418,1,8,0:0:0:0:
256,192,30501,1,0,0:0:0:0:
256,192,30666,1,8,0:0:0:0:
256,192,30915,1,0,0:0:0:0:
256,192,30998,1,8,0:0:0:0:
256,192,31164,1,0,0:0:0:0:
256,192,31247,1,0,0:0:0:0:
256,192,31412,1,8,0:0:0:0:
256,192,31578,1,0,0:0:0:0:
256,192,31661,1,8,0:0:0:0:
256,192,31743,1,0,0:0:0:0:
256,192,31826,1,8,0:0:0:0:
256,96,31992,1,4,0:0:0:0:
256,192,32323,1,8,0:0:0:0:
256,192,32489,1,0,0:0:0:0:
256,192,32655,1,8,0:0:0:0:
256,192,32738,1,0,0:0:0:0:
256,192,32821,1,8,0:0:0:0:
256,192,32904,1,8,0:0:0:0:
256,192,32986,1,0,0:0:0:0:
256,192,33152,1,0,0:0:0:0:
256,192,33235,1,8,0:0:0:0:
256,192,33318,1,8,0:0:0:0:
256,192,33484,1,0,0:0:0:0:
256,192,33567,1,8,0:0:0:0:
256,192,33732,1,0,0:0:0:0:
256,192,33815,1,8,0:0:0:0:
256,192,33981,1,0,0:0:0:0:
256,192,34147,1,8,0:0:0:0:
256,192,34312,1,0,0:0:0:0:
256,192,34395,1,8,0:0:0:0:
256,192,34478,1,8,0:0:0:0:
256,192,34561,1,8,0:0:0:0:
256,192,34644,1,0,0:0:0:0:
256,192,34975,1,8,0:0:0:0:
256,192,35141,1,0,0:0:0:0:
256,192,35307,1,0,0:0:0:0:
256,192,35390,1,0,0:0:0:0:
256,192,35473,1,8,0:0:0:0:
256,192,35638,1,0,0:0:0:0:
256,192,35804,1,8,0:0:0:0:
256,192,35887,1,0,0:0:0:0:
256,192,35970,1,8,0:0:0:0:
256,192,36136,1,0,0:0:0:0:
256,192,36218,1,0,0:0:0:0:
256,192,36384,1,8,0:0:0:0:
256,192,36467,1,0,0:0:0:0:
256,192,36633,1,0,0:0:0:0:
256,192,36799,1,8,0:0:0:0:
256,192,36881,1,0,0:0:0:0:
256,192,36964,1,8,0:0:0:0:
256,192,37047,1,8,0:0:0:0:
256,192,37130,1,0,0:0:0:0:
256,96,37296,1,4,0:0:0:0:
256,192,37627,1,8,0:0:0:0:
256,192,37793,1,0,0:0:0:0:
256,192,37959,1,8,0:0:0:0:
256,192,38042,1,8,0:0:0:0:
256,192,38125,1,0,0:0:0:0:
256,192,38207,1,0,0:0:0:0:
256,192,38290,1,8,0:0:0:0:
256,192,38456,1,0,0:0:0:0:
256,192,38622,1,8,0:0:0:0:
256,192,38788,1,0,0:0:0:0:
256,192,38871,1,8,0:0:0:0:
256,192,39036,1,0,0:0:0:0:
256,192,39119,1,0,0:0:0:0:
256,192,39285,1,8,0:0:0:0:
256,192,39451,1,8,0:0:0:0:
256,192,39616,1,0,0:0:0:0:
256,192,39699,1,8,0:0:0:0:
256,192,39782,1,8,0:0:0:0:
256,192,39865,1,8,0:0:0:0:
256,192,39948,1,0,0:0:0:0:
256,192,40279,1,8,0:0:0:0:
256,192,40445,1,0,0:0:0:0:
256,192,40611,1,0,0:0:0:0:
256,192,40694,1,0,0:0:0:0:
256,192,40777,1,8,0:0:0:0:
256,192,40859,1,8,0:0:0:0:
256,192,40942,1,0,0:0:0:0:
256,192,41108,1,8,0:0:0:0:
256,192,41191,1,0,0:0:0:0:
256,192,41274,1,8,0:0:0:0:
256,192,41440,1,0,0:0:0:0:
256,192,41522,1,0,0:0:0:0:
256,192,41688,1,8,0:0:0:0:
256,192,41771,1,0,0:0:0:0:
256,192,41937,1,0,0:0:0:0:
256,192,42103,1,8,0:0:0:0:
256,192,42185,1,0,0:0:0:0:
256,192,42268,1,8,0:0:0:0:
256,192,42351,1,8,0:0:0:0:
256,192,42434,1,0,0:0:0:0:
256,96,42600,1,12,0:0:0:0:
256,192,42931,1,8,0:0:0:0:
256,192,43097,1,0,0:0:0:0:
256,192,43180,1,8,0:0:0:0:
256,192,43263,1,0,0:0:0:0:
256,192,43428,1,8,0:0:0:0:
256,192,43511,1,0,0:0:0:0:
256,192,43594,1,8,0:0:0:0:
256,192,43677,1,8,0:0:0:0:
256,192,43760,1,0,0:0:0:0:
256,192,43926,1,8,0:0:0:0:
256,192,44091,1,0,0:0:0:0:
256,192,44174,1,8,0:0:0:0:
256,192,44340,1,0,0:0:0:0:
256,192,44423,1,8,0:0:0:0:
256,192,44506,1,8,0:0:0:0:
256,192,44589,1,0,0:0:0:0:
256,192,44754,1,8,0:0:0:0:
256,192,44920,1,0,0:0:0:0:
256,192,45003,1,8,0:0:0:0:
256,192,45086,1,8,0:0:0:0:
256,192,45169,1,8,0:0:0:0:
256,192,45252,1,0,0:0:0:0:
256,192,45583,1,8,0:0:0:0:
256,192,45749,1,0,0:0:0:0:
256,192,45832,1,8,0:0:0:0:
256,192,45915,1,0,0:0:0:0:
256,192,45998,1,0,0:0:0:0:
256,192,46080,1,8,0:0:0:0:
256,192,46246,1,0,0:0:0:0:
256,192,46412,1,8,0:0:0:0:
256,192,46495,1,0,0:0:0:0:
256,192,46578,1,8,0:0:0:0:
256,192,46660,1,8,0:0:0:0:
256,192,46743,1,0,0:0:0:0:
256,192,46909,1,0,0:0:0:0:
256,192,47075,1,8,0:0:0:0:
256,192,47158,1,0,0:0:0:0:
256,192,47241,1,0,0:0:0:0:
256,192,47406,1,8,0:0:0:0:
256,192,47572,1,8,0:0:0:0:
256,192,47655,1,8,0:0:0:0:
256,192,47738,1,0,0:0:0:0:
256,192,47821,1,0,0:0:0:0:
256,192,47904,1,8,0:0:0:0:
256,192,48069,1,0,0:0:0:0:
256,192,48235,1,0,0:0:0:0:
256,192,48401,1,0,0:0:0:0:
256,192,48567,1,8,0:0:0:0:
256,192,48649,1,8,0:0:0:0:
256,192,48733,1,0,0:0:0:0:
256,192,48815,1,0,0:0:0:0:
256,192,48898,1,8,0:0:0:0:
256,192,49064,1,8,0:0:0:0:
256,192,49147,1,0,0:0:0:0:
256,192,49230,1,8,0:0:0:0:
256,192,49312,1,8,0:0:0:0:
256,192,49396,1,0,0:0:0:0:
256,192,49561,1,0,0:0:0:0:
256,192,49727,1,8,0:0:0:0:
256,192,49810,1,8,0:0:0:0:
256,192,49893,1,0,0:0:0:0:
256,192,50058,1,8,0:0:0:0:
256,192,50224,1,0,0:0:0:0:
256,192,50307,1,0,0:0:0:0:
256,192,50390,1,8,0:0:0:0:
256,96,50556,1,4,0:0:0:0:
256,192,50887,1,8,0:0:0:0:
256,192,51053,1,0,0:0:0:0:
256,192,51136,1,0,0:0:0:0:
256,192,51218,1,8,0:0:0:0:
256,192,51301,1,8,0:0:0:0:
256,192,51384,1,0,0:0:0:0:
256,192,51549,1,8,0:0:0:0:
256,192,51633,1,8,0:0:0:0:
256,192,51715,1,8,0:0:0:0:
256,192,51881,1,0,0:0:0:0:
256,192,52047,1,0,0:0:0:0:
256,192,52129,1,8,0:0:0:0:
256,192,52212,1,0,0:0:0:0:
256,192,52295,1,0,0:0:0:0:
256,192,52378,1,8,0:0:0:0:
256,192,52544,1,0,0:0:0:0:
256,192,52709,1,8,0:0:0:0:
256,192,52792,1,8,0:0:0:0:
256,192,52875,1,0,0:0:0:0:
256,192,52959,1,0,0:0:0:0:
256,192,53042,1,8,0:0:0:0:
256,96,53207,1,4,0:0:0:0:
256,192,59211,12,0,62858,0:0:0:0:
256,192,63189,12,0,63742,0:0:0:0:
256,192,64589,12,0,66467,0:0:0:0:
