osu file format v14

[General]
AudioFilename: audio.mp3
AudioLeadIn: 0
PreviewTime:31964
Countdown: 0
SampleSet: Normal
StackLeniency: 0.7
Mode: 1
LetterboxInBreaks: 0
WidescreenStoryboard: 1

[Editor]
DistanceSpacing: 1
BeatDivisor: 4
GridSize: 32
TimelineZoom: 2.599999

[Metadata]
Title:david gold took it slow (alt version)
TitleUnicode:david gold took it slow (alt version)
Artist:passchooo
ArtistUnicode:passchooo
Creator:Hivie
Version:muzukashii
Source:
Tags:electronic instrumental breakcore featured artist fa mpg mg mappers' guild Passchooo² genguh
BeatmapID:4215359
BeatmapSetID:2023751

[Difficulty]
HPDrainRate:8
CircleSize:2
OverallDifficulty:5
ApproachRate:10
SliderMultiplier:1.4
SliderTickRate:1

[Events]
//Background and Video events
0,0,"file (1).png",0,0
//Break Periods
2,53407,58761
//Storyboard Layer 0 (Background)
//Storyboard Layer 1 (Fail)
//Storyboard Layer 2 (Pass)
//Storyboard Layer 3 (Foreground)
//Storyboard Layer 4 (Overlay)
//Storyboard Sound Samples

[TimingPoints]
10777,331.491712707182,4,1,0,40,1,0
21053,-100,4,1,0,65,0,0
21384,-100,4,1,0,65,0,1
21716,-99.6880051122054,4,1,0,66,0,0
21879,-99.5327365872882,4,1,0,66,0,0
21962,-99.4552835619392,4,1,0,67,0,0
22127,-99.301668133226,4,1,0,68,0,0
22376,-99.0707448050432,4,1,0,68,0,0
22542,-98.917391669231,4,1,0,69,0,0
22707,-98.7654320987654,4,1,0,70,0,0
23039,-98.4610815125583,4,1,0,70,0,0
23205,-98.3096085409253,4,1,0,71,0,0
23288,-98.2340466908054,4,1,0,72,0,0
23453,-98.0841778238035,4,1,0,73,0,0
23702,-97.8588758406288,4,1,0,73,0,0
24036,-97.5609756097561,4,1,0,74,0,1
24368,-97.2639917846402,4,1,0,75,0,0
24531,-97.116176874485,4,1,0,75,0,0
24613,-97.0433255269321,4,1,0,76,0,0
24779,-96.8961800544402,4,1,0,77,0,0
25194,-96.530261254129,4,1,0,77,0,0
25359,-96.3855421686747,4,1,0,78,0,0
25691,-96.0956608388441,4,1,0,79,0,0
25857,-95.9513730598068,4,1,0,79,0,0
25940,-95.8793915346307,4,1,0,80,0,0
26105,-95.7366160066424,4,1,0,81,0,0
26354,-95.5219579840256,4,1,0,81,0,0
26519,-95.3802442050747,4,1,0,82,0,0
26688,-95.2380952380952,4,1,0,83,0,1
27020,-94.9550646281643,4,1,0,84,0,0
27183,-94.8141792245401,4,1,0,84,0,0
27266,-94.7438931809047,4,1,0,85,0,0
27431,-94.6044769464015,4,1,0,86,0,0
27680,-94.3948602496908,4,1,0,86,0,0
28011,-94.1176470588235,4,1,0,87,0,0
28343,-93.8412271545089,4,1,0,88,0,0
28509,-93.7036251854993,4,1,0,88,0,0
28592,-93.6349754172882,4,1,0,89,0,0
28757,-93.4988012974193,4,1,0,90,0,0
29172,-93.1580472640093,4,1,0,90,0,0
29340,-93.0232558139535,4,1,0,91,0,1
29672,-92.753217683268,4,1,0,92,0,0
29835,-92.6187856880926,4,1,0,92,0,0
29918,-92.5517157140738,4,1,0,93,0,0
30083,-92.4186719171995,4,1,0,94,0,0
30332,-92.2186193287027,4,1,0,95,0,0
30498,-92.0857313992552,4,1,0,95,0,0
30663,-91.9540229885057,4,1,0,96,0,0
30995,-91.6901481494287,4,1,0,97,0,0
31161,-91.5587778353185,4,1,0,97,0,0
31244,-91.4932337441674,4,1,0,98,0,0
31409,-91.3632135597892,4,1,0,99,0,0
31657,-91.1684829316924,4,1,0,99,0,0
31992,-90.9090909090909,4,1,0,100,0,1
47904,-90.9090909090909,4,1,0,100,0,0
48567,-90.9090909090909,4,1,0,100,0,1
53539,-142.857142857143,4,1,0,30,0,0
59208,-71.4285714285714,4,1,0,30,0,0
59506,-142.857142857143,4,1,0,30,0,0
63186,-83.3333333333333,4,1,0,30,0,0
63296,-142.857142857143,4,1,0,30,0,0
64586,-62.5,4,1,0,30,0,0
64697,-142.857142857143,4,1,0,30,0,0

[HitObjects]
256,192,21384,5,8,1:0:0:0:
256,192,21716,1,8,1:0:0:0:
256,192,21882,1,0,1:0:0:0:
256,192,21965,1,0,1:0:0:0:
256,192,22130,1,8,1:0:0:0:
256,192,22379,1,8,1:0:0:0:
256,192,22545,1,0,1:0:0:0:
256,192,22710,1,8,1:0:0:0:
256,192,23042,1,8,1:0:0:0:
256,192,23208,1,0,1:0:0:0:
256,192,23291,1,0,1:0:0:0:
256,192,23456,1,8,1:0:0:0:
256,192,23705,1,0,1:0:0:0:
256,192,24036,1,8,1:0:0:0:
256,192,24368,1,8,1:0:0:0:
256,192,24534,1,0,1:0:0:0:
256,192,24616,1,0,1:0:0:0:
256,192,24782,1,8,1:0:0:0:
256,192,25031,1,8,0:0:0:0:
256,192,25197,1,0,1:0:0:0:
256,192,25362,1,8,1:0:0:0:
256,192,25694,1,8,1:0:0:0:
256,192,25860,1,0,1:0:0:0:
256,192,25943,1,0,1:0:0:0:
256,192,26108,1,8,1:0:0:0:
256,192,26357,1,0,1:0:0:0:
256,192,26522,1,0,1:0:0:0:
256,192,26688,1,8,1:0:0:0:
256,192,27020,1,8,1:0:0:0:
256,192,27186,1,0,1:0:0:0:
256,192,27269,1,0,1:0:0:0:
256,192,27434,1,8,1:0:0:0:
256,192,27683,1,0,1:0:0:0:
256,192,28014,1,8,1:0:0:0:
256,192,28346,1,8,1:0:0:0:
256,192,28512,1,0,1:0:0:0:
256,192,28595,1,0,1:0:0:0:
256,192,28760,1,8,1:0:0:0:
256,192,29009,1,8,0:0:0:0:
256,192,29175,1,0,1:0:0:0:
256,192,29340,1,8,1:0:0:0:
256,192,29672,1,8,1:0:0:0:
256,192,29838,1,0,1:0:0:0:
256,192,29921,1,0,1:0:0:0:
256,192,30086,1,8,1:0:0:0:
256,192,30335,1,8,1:0:0:0:
256,192,30501,1,0,1:0:0:0:
256,192,30666,1,8,1:0:0:0:
256,192,30998,1,8,1:0:0:0:
256,192,31164,1,0,1:0:0:0:
256,192,31247,1,0,1:0:0:0:
256,192,31412,1,8,1:0:0:0:
256,192,31660,1,0,1:0:0:0:
256,96,31992,1,4,1:0:0:0:
256,192,32323,1,8,1:0:0:0:
256,192,32655,1,8,1:0:0:0:
256,192,32821,1,8,1:0:0:0:
256,192,32904,1,8,1:0:0:0:
256,192,32986,1,8,1:0:0:0:
256,192,33152,1,0,1:0:0:0:
256,192,33318,1,8,1:0:0:0:
256,192,33649,1,0,1:0:0:0:
256,192,33815,1,8,1:0:0:0:
256,192,33981,1,0,1:0:0:0:
256,192,34147,1,8,1:0:0:0:
256,192,34312,1,0,1:0:0:0:
256,192,34395,1,0,1:0:0:0:
256,192,34478,1,0,1:0:0:0:
256,192,34644,1,8,1:0:0:0:
256,192,34975,1,8,1:0:0:0:
256,192,35307,1,0,1:0:0:0:
256,192,35473,1,8,1:0:0:0:
256,192,35638,1,0,1:0:0:0:
256,192,35804,1,8,1:0:0:0:
256,192,35887,1,8,1:0:0:0:
256,192,35970,1,8,1:0:0:0:
256,192,36301,1,0,1:0:0:0:
256,192,36467,1,8,1:0:0:0:
256,192,36633,1,0,1:0:0:0:
256,192,36799,1,8,1:0:0:0:
256,192,36881,1,8,1:0:0:0:
256,192,36964,1,8,1:0:0:0:
256,96,37296,1,4,1:0:0:0:
256,192,37627,1,8,1:0:0:0:
256,192,37959,1,8,1:0:0:0:
256,192,38125,1,0,1:0:0:0:
256,192,38207,1,0,1:0:0:0:
256,192,38290,1,0,1:0:0:0:
256,192,38456,1,0,1:0:0:0:
256,192,38622,1,8,1:0:0:0:
256,192,38953,1,8,1:0:0:0:
256,192,39119,1,0,1:0:0:0:
256,192,39285,1,0,1:0:0:0:
256,192,39451,1,8,1:0:0:0:
256,192,39616,1,8,1:0:0:0:
256,192,39699,1,8,1:0:0:0:
256,192,39782,1,8,1:0:0:0:
256,192,39948,1,0,1:0:0:0:
256,192,40279,1,8,1:0:0:0:
256,192,40611,1,0,1:0:0:0:
256,192,40777,1,8,1:0:0:0:
256,192,40859,1,8,1:0:0:0:
256,192,40942,1,8,1:0:0:0:
256,192,41108,1,0,1:0:0:0:
256,192,41274,1,8,1:0:0:0:
256,192,41605,1,0,1:0:0:0:
256,192,41771,1,8,1:0:0:0:
256,192,41937,1,0,1:0:0:0:
256,192,42103,1,8,1:0:0:0:
256,192,42185,1,8,1:0:0:0:
256,192,42268,1,8,1:0:0:0:
256,96,42600,1,12,1:0:0:0:
256,192,42931,1,8,1:0:0:0:
256,192,43263,1,0,1:0:0:0:
256,192,43428,1,8,1:0:0:0:
256,192,43594,1,0,1:0:0:0:
256,192,43677,1,0,1:0:0:0:
256,192,43760,1,0,1:0:0:0:
256,192,43926,1,8,1:0:0:0:
256,192,44091,1,0,1:0:0:0:
256,192,44257,1,8,1:0:0:0:
256,192,44340,1,8,1:0:0:0:
256,192,44423,1,8,1:0:0:0:
256,192,44589,1,0,1:0:0:0:
256,192,44754,1,8,1:0:0:0:
256,192,44920,1,0,1:0:0:0:
256,192,45003,1,0,1:0:0:0:
256,192,45086,1,0,1:0:0:0:
256,192,45252,1,8,1:0:0:0:
256,192,45583,1,8,1:0:0:0:
256,192,45915,1,0,1:0:0:0:
256,192,46080,1,8,1:0:0:0:
256,192,46246,1,0,1:0:0:0:
256,192,46412,1,8,1:0:0:0:
256,192,46495,1,8,1:0:0:0:
256,192,46578,1,8,1:0:0:0:
256,192,46743,1,0,1:0:0:0:
256,192,46909,1,0,1:0:0:0:
256,192,47075,1,8,1:0:0:0:
256,192,47241,1,0,1:0:0:0:
256,192,47406,1,8,1:0:0:0:
256,192,47572,1,8,1:0:0:0:
256,192,47655,1,8,1:0:0:0:
256,192,47738,1,8,1:0:0:0:
256,192,47904,1,0,1:0:0:0:
256,192,48567,1,8,1:0:0:0:
256,192,48649,1,8,1:0:0:0:
256,192,48733,1,8,1:0:0:0:
256,192,48898,1,0,1:0:0:0:
256,192,49064,1,8,1:0:0:0:
256,192,49230,1,0,1:0:0:0:
256,192,49312,1,0,1:0:0:0:
256,192,49396,1,0,1:0:0:0:
256,192,49561,1,0,1:0:0:0:
256,192,49727,1,8,1:0:0:0:
256,192,49893,1,0,1:0:0:0:
256,192,50058,1,8,1:0:0:0:
256,192,50224,1,8,1:0:0:0:
256,192,50307,1,8,1:0:0:0:
256,192,50390,1,8,1:0:0:0:
256,96,50556,1,4,1:0:0:0:
256,192,50887,1,8,1:0:0:0:
256,192,51218,1,8,1:0:0:0:
256,192,51301,1,8,1:0:0:0:
256,192,51384,1,8,1:0:0:0:
256,192,51549,1,0,1:0:0:0:
256,192,51715,1,8,1:0:0:0:
256,192,51881,1,0,1:0:0:0:
256,192,51964,1,0,1:0:0:0:
256,192,52047,1,0,1:0:0:0:
256,192,52212,1,8,1:0:0:0:
256,192,52378,1,8,1:0:0:0:
256,192,52544,1,0,1:0:0:0:
256,192,52709,1,8,1:0:0:0:
256,192,52792,1,8,1:0:0:0:
256,192,52876,1,8,1:0:0:0:
256,192,53042,1,8,1:0:0:0:
256,96,53207,1,4,1:0:0:0:
256,192,59211,12,0,62858,1:0:0:0:
256,192,63189,12,0,63742,1:0:0:0:
256,192,64589,12,0,66467,1:0:0:0:
