osu file format v14

[General]
AudioFilename: audio.mp3
AudioLeadIn: 0
PreviewTime: 31964
Countdown: 0
SampleSet: Normal
StackLeniency: 0.7
Mode: 1
LetterboxInBreaks: 0
WidescreenStoryboard: 0

[Editor]
DistanceSpacing: 1
BeatDivisor: 4
GridSize: 32
TimelineZoom: 2.599999

[Metadata]
Title:david gold took it slow (alt version)
TitleUnicode:david gold took it slow (alt version)
Artist:passchooo
ArtistUnicode:passchooo
Creator:Hivie
Version:inner
Source:
Tags:electronic instrumental breakcore featured artist fa mpg mg mappers' guild Passchooo² genguh
BeatmapID:4215357
BeatmapSetID:2023751

[Difficulty]
HPDrainRate:7
CircleSize:2
OverallDifficulty:7
ApproachRate:10
SliderMultiplier:1.4
SliderTickRate:1

[Events]
//Background and Video events
0,0,"file (1).png",0,0
//Break Periods
2,53407,58761
//Storyboard Layer 0 (Background)
//Storyboard Layer 1 (Fail)
//Storyboard Layer 2 (Pass)
//Storyboard Layer 3 (Foreground)
//Storyboard Layer 4 (Overlay)
//Storyboard Sound Samples

[TimingPoints]
10777,331.491712707182,4,1,0,40,1,0
12099,-166.666666666667,4,1,0,40,0,0
12348,-162.595644496763,4,1,0,41,0,0
12431,-161.282475430573,4,1,0,41,0,0
12597,-158.718758977305,4,1,0,41,0,0
12845,-155.036946964737,4,1,0,42,0,0
12928,-153.842583998515,4,1,0,42,0,0
13094,-151.508226691042,4,1,0,43,0,0
13260,-149.243652079957,4,1,0,43,0,0
13343,-148.136562695504,4,1,0,43,0,0
13425,-147.058823529412,4,1,0,44,0,0
13674,-143.880208333333,4,1,0,44,0,0
13757,-142.850986813755,4,1,0,44,0,0
13923,-140.836094825389,4,1,0,45,0,0
14006,-139.84981437732,4,1,0,45,0,0
14171,-137.929599733711,4,1,0,46,0,0
14254,-136.98347107438,4,1,0,46,0,0
14337,-136.050233932529,4,1,0,46,0,0
14420,-135.129626610142,4,1,0,47,0,0
14586,-133.32528957529,4,1,0,47,0,0
14751,-131.578947368421,4,1,0,47,0,0
15000,-129.028491359178,4,1,0,48,0,0
15083,-128.200170160105,4,1,0,48,0,0
15249,-126.575028636884,4,1,0,49,0,0
15332,-125.777811504022,4,1,0,49,0,0
15414,-125,4,1,0,49,0,0
15497,-124.222438731919,4,1,0,50,0,0
15663,-122.695980457473,4,1,0,50,0,0
15746,-121.946733372572,4,1,0,50,0,0
15912,-120.475359790667,4,1,0,51,0,0
15994,-119.761560693642,4,1,0,51,0,0
16077,-119.047619047619,4,1,0,52,0,0
16326,-116.955969517358,4,1,0,52,0,0
16409,-116.274991231147,4,1,0,52,0,0
16575,-114.936550863324,4,1,0,53,0,0
16658,-114.278819635962,4,1,0,53,0,0
16823,-112.993387415638,4,1,0,53,0,0
16906,-112.357646420824,4,1,0,54,0,0
16989,-111.729019211325,4,1,0,54,0,0
17072,-111.107387049202,4,1,0,55,0,0
17238,-109.884645982498,4,1,0,55,0,0
17403,-108.695652173913,4,1,0,55,0,0
17652,-106.949283778552,4,1,0,56,0,0
17735,-106.379564854631,4,1,0,56,0,0
17901,-105.258144408459,4,1,0,56,0,0
17983,-104.712868785141,4,1,0,57,0,0
18066,-104.166666666667,4,1,0,57,0,0
18149,-103.626133166615,4,1,0,58,0,0
18315,-102.561722665677,4,1,0,58,0,0
18398,-102.037675449397,4,1,0,58,0,0
18564,-101.005484460695,4,1,0,59,0,0
18646,-100.503274314819,4,1,0,59,0,0
18729,-100,4,1,0,59,0,0
18978,-99.4166022351866,4,1,0,60,0,0
19061,-99.2236460574315,4,1,0,60,0,0
19227,-98.8399720475192,4,1,0,60,0,0
19310,-98.6492455769186,4,1,0,61,0,0
19475,-98.2722682847747,4,1,0,61,0,0
19558,-98.0837243706803,4,1,0,62,0,0
19641,-97.8959025470653,4,1,0,62,0,0
19724,-97.7087986736362,4,1,0,62,0,0
19890,-97.3367283738215,4,1,0,63,0,0
20055,-96.969696969697,4,1,0,63,0,0
20304,-96.4210239280115,4,1,0,63,0,0
20387,-96.2395100929916,4,1,0,64,0,0
20553,-95.8785249457701,4,1,0,64,0,0
20636,-95.6990459866032,4,1,0,65,0,0
20718,-95.5223880597015,4,1,0,65,0,0
20801,-95.344238720115,4,1,0,65,0,0
20967,-94.9899261249161,4,1,0,66,0,0
21050,-94.8137555024244,4,1,0,66,0,0
21216,-94.4633673946437,4,1,0,66,0,0
21384,-94.1176470588235,4,1,0,67,0,1
21633,-93.6006882403547,4,1,0,67,0,1
21716,-93.4296283248194,4,1,0,68,0,0
21879,-93.0893773858102,4,1,0,68,0,0
21962,-92.9201795685974,4,1,0,68,0,0
22127,-92.5856425921885,4,1,0,69,0,0
22210,-92.4182693354823,4,1,0,69,0,0
22293,-92.2515001304461,4,1,0,69,0,0
22376,-92.0853317129278,4,1,0,70,0,0
22459,-91.9197608422512,4,1,0,70,0,0
22542,-91.7547843010055,4,1,0,71,0,0
22707,-91.4285714285714,4,1,0,71,0,0
22956,-90.9406545361024,4,1,0,71,0,0
23039,-90.7791707671901,4,1,0,72,0,0
23205,-90.4579176259913,4,1,0,72,0,0
23288,-90.298142197442,4,1,0,72,0,0
23453,-89.9821867842904,4,1,0,73,0,0
23536,-89.8240860306103,4,1,0,73,0,0
23702,-89.5095454066027,4,1,0,74,0,0
23785,-89.3530997304582,4,1,0,74,0,0
23868,-89.1971999747745,4,1,0,74,0,0
23950,-89.0437118334628,4,1,0,75,0,0
24036,-88.8888888888889,4,1,0,75,0,1
24285,-88.4276336355111,4,1,0,75,0,1
24368,-88.2749438295748,4,1,0,76,0,0
24531,-87.9711406891404,4,1,0,76,0,0
24613,-87.8218395562547,4,1,0,77,0,0
24779,-87.5211418670847,4,1,0,77,0,0
24862,-87.3715638834552,4,1,0,77,0,0
24945,-87.2224962999507,4,1,0,78,0,0
25028,-87.073936508588,4,1,0,78,0,0
25111,-86.9258819191216,4,1,0,78,0,0
25194,-86.7783299588932,4,1,0,79,0,0
25359,-86.4864864864865,4,1,0,79,0,0
25608,-86.0497657723429,4,1,0,80,0,0
25691,-85.9051706685023,4,1,0,80,0,0
25857,-85.6174334140436,4,1,0,80,0,0
25940,-85.4742864049312,4,1,0,81,0,0
26022,-85.3333333333333,4,1,0,81,0,0
26105,-85.1911339543848,4,1,0,81,0,0
26188,-85.0494077088052,4,1,0,82,0,0
26271,-84.9081522391644,4,1,0,82,0,0
26354,-84.7673652036678,4,1,0,82,0,0
26520,-84.4871871453318,4,1,0,83,0,0
26602,-84.3494682437133,4,1,0,83,0,0
26688,-84.2105263157895,4,1,0,84,0,1
26937,-83.7964334379999,4,1,0,84,0,1
27020,-83.6593059936909,4,1,0,84,0,0
27183,-83.3863931140196,4,1,0,85,0,0
27266,-83.250603307893,4,1,0,85,0,0
27431,-82.9819689443423,4,1,0,85,0,0
27514,-82.8474920436574,4,1,0,86,0,0
27597,-82.7134502923977,4,1,0,86,0,0
27680,-82.5798415818461,4,1,0,87,0,0
27763,-82.4466638168888,4,1,0,87,0,0
27846,-82.3139149159052,4,1,0,87,0,0
28011,-82.0512820512821,4,1,0,88,0,0
28260,-81.658102880896,4,1,0,88,0,0
28343,-81.5278791837989,4,1,0,88,0,0
28509,-81.2686738680763,4,1,0,89,0,0
28592,-81.1396883067215,4,1,0,89,0,0
28757,-80.8844834159359,4,1,0,90,0,0
28840,-80.7567135489028,4,1,0,90,0,0
29006,-80.5023809975526,4,1,0,90,0,0
29089,-80.3758145173511,4,1,0,91,0,0
29172,-80.2496453900709,4,1,0,91,0,0
29254,-80.1253847461148,4,1,0,91,0,0
29340,-80,4,1,0,92,0,1
29589,-78.5254274927826,4,1,0,92,0,1
29672,-78.0459093584462,4,1,0,93,0,0
29835,-77.104230266027,4,1,0,93,0,0
29918,-76.6418611372011,4,1,0,93,0,0
30083,-75.73896901328,4,1,0,94,0,0
30166,-75.2927816026688,4,1,0,94,0,0
30249,-74.8518204911092,4,1,0,94,0,0
30332,-74.4159943879341,4,1,0,95,0,0
30415,-73.9852141163342,4,1,0,95,0,0
30498,-73.5593925525276,4,1,0,96,0,0
30580,-73.1434875542991,4,1,0,96,0,0
30663,-72.7272727272727,4,1,0,96,0,0
30912,-71.5065722952477,4,1,0,97,0,0
30995,-71.1087277114895,4,1,0,97,0,0
31161,-70.3261734287987,4,1,0,97,0,0
31244,-69.9413199709897,4,1,0,98,0,0
31409,-69.1886250978346,4,1,0,98,0,0
31492,-68.8160882257541,4,1,0,99,0,0
31575,-68.4475416182733,4,1,0,99,0,0
31658,-68.0829215069636,4,1,0,99,0,0
31740,-67.7264891783183,4,1,0,100,0,0
31823,-67.3694906642957,4,1,0,100,0,0
31992,-50,4,1,0,100,0,1
32158,-62.5,4,1,0,100,0,1
37296,-50,4,1,0,100,0,1
37462,-62.5,4,1,0,100,0,1
42600,-50,4,1,0,100,0,1
42765,-62.5,4,1,0,100,0,1
43011,-62.9218966031393,4,1,0,100,0,1
43094,-63.3495278126535,4,1,0,100,0,1
43177,-63.7830113495837,4,1,0,100,0,1
43260,-64.2224681793027,4,1,0,100,0,1
43343,-64.6680226240562,4,1,0,100,0,1
43425,-65.1143217842615,4,1,0,100,0,1
43508,-65.5723810600068,4,1,0,100,0,1
43591,-66.0369306057416,4,1,0,100,0,1
43674,-66.5081093472405,4,1,0,100,0,1
43757,-66.9860602037577,4,1,0,100,0,1
43840,-67.4709302325581,4,1,0,100,0,1
43923,-67.9628707797722,4,1,0,100,0,1
43978,-68.2928264579533,4,1,0,100,0,1
44033,-68.6260015966411,4,1,0,100,0,1
44088,-68.9624435464702,4,1,0,100,0,1
44171,-69.4764570299638,4,1,0,100,0,1
44254,-69.998190481935,4,1,0,100,0,1
44337,-70.5278191376219,4,1,0,100,0,1
44420,-71.0655235762401,4,1,0,100,0,1
44503,-71.6114899262596,4,1,0,100,0,1
44586,-72.1659100802189,4,1,0,100,0,1
44669,-72.7289819195939,4,1,0,100,0,1
44751,-73.2939653266808,4,1,0,100,0,1
44834,-73.8748488127825,4,1,0,100,0,1
44917,-74.4650133145112,4,1,0,100,0,1
45000,-75.0646830530401,4,1,0,100,0,1
45083,-75.6740895308272,4,1,0,100,0,1
45138,-76.0833934308005,4,1,0,100,0,1
45193,-76.4971490722125,4,1,0,100,0,1
45249,-76.9230769230769,4,1,0,100,0,1
45580,-62.5,4,1,0,100,0,1
45663,-62.9218966031393,4,1,0,100,0,1
45746,-63.3495278126535,4,1,0,100,0,1
45829,-63.7830113495837,4,1,0,100,0,1
45912,-64.2224681793027,4,1,0,100,0,1
45995,-64.6680226240562,4,1,0,100,0,1
46077,-65.1143217842615,4,1,0,100,0,1
46160,-65.5723810600068,4,1,0,100,0,1
46243,-66.0369306057416,4,1,0,100,0,1
46298,-66.3484077525585,4,1,0,100,0,1
46354,-66.6685816051014,4,1,0,100,0,1
46409,-66.9860602037577,4,1,0,100,0,1
46492,-67.4709302325581,4,1,0,100,0,1
46575,-67.9628707797722,4,1,0,100,0,1
46630,-68.2928264579533,4,1,0,100,0,1
46685,-68.6260015966411,4,1,0,100,0,1
46740,-68.9624435464702,4,1,0,100,0,1
46823,-69.4764570299638,4,1,0,100,0,1
46906,-69.998190481935,4,1,0,100,0,1
46989,-70.5278191376219,4,1,0,100,0,1
47072,-71.0655235762401,4,1,0,100,0,1
47155,-71.6114899262596,4,1,0,100,0,1
47238,-72.1659100802189,4,1,0,100,0,1
47320,-72.7221456322847,4,1,0,100,0,1
47403,-73.2939653266808,4,1,0,100,0,1
47486,-73.8748488127825,4,1,0,100,0,1
47569,-74.4650133145112,4,1,0,100,0,1
47624,-74.8613082182944,4,1,0,100,0,1
47680,-75.2691659099753,4,1,0,100,0,1
47735,-75.6740895308272,4,1,0,100,0,1
47818,-76.293471829597,4,1,0,100,0,1
47904,-76.9230769230769,4,1,0,100,0,0
48069,-86.9565217391304,4,1,0,100,0,0
48235,-100,4,1,0,100,0,0
48401,-117.647058823529,4,1,0,100,0,0
48567,-62.5,4,1,0,100,0,1
48619,-62.8257367573202,4,1,0,100,0,1
48675,-63.1609031151758,4,1,0,100,0,1
48730,-63.4935836046734,4,1,0,100,0,1
48812,-63.996138996139,4,1,0,100,0,1
48895,-64.5129901722293,4,1,0,100,0,1
48950,-64.8601056544707,4,1,0,100,0,1
49006,-65.2173913043478,4,1,0,100,0,1
49061,-65.5721491444961,4,1,0,100,0,1
49144,-66.1148783406462,4,1,0,100,0,1
49227,-66.6666666666667,4,1,0,100,0,1
49282,-67.0374115267947,4,1,0,100,0,1
49338,-67.4191580231849,4,1,0,100,0,1
49393,-67.7983433888946,4,1,0,100,0,1
49475,-68.3716613385583,4,1,0,100,0,1
49558,-68.9619305179946,4,1,0,100,0,1
49641,-69.5624803273528,4,1,0,100,0,1
49724,-70.1735817104149,4,1,0,100,0,1
49807,-70.7955152162306,4,1,0,100,0,1
49890,-71.4285714285714,4,1,0,100,0,1
49972,-72.0652173913043,4,1,0,100,0,1
50055,-72.7212898979928,4,1,0,100,0,1
50138,-73.3894177551472,4,1,0,100,0,1
50221,-74.0699363199642,4,1,0,100,0,1
50304,-74.7631935047361,4,1,0,100,0,1
50387,-75.4695503699488,4,1,0,100,0,1
50553,-50,4,1,0,100,0,1
50884,-62.5,4,1,0,100,0,1
50967,-62.9220796832199,4,1,0,100,0,1
51050,-63.3498989678335,4,1,0,100,0,1
51133,-63.7835757292497,4,1,0,100,0,1
51215,-64.2178979710466,4,1,0,100,0,1
51270,-64.5125410155164,4,1,0,100,0,1
51326,-64.8153321785774,4,1,0,100,0,1
51381,-65.1154958039799,4,1,0,100,0,1
51463,-65.5682107226634,4,1,0,100,0,1
51546,-66.0329026014687,4,1,0,100,0,1
51601,-66.3444765363608,4,1,0,100,0,1
51657,-66.6647510129019,4,1,0,100,0,1
51712,-66.9823305231551,4,1,0,100,0,1
51795,-67.4673568499724,4,1,0,100,0,1
51878,-67.9594586677603,4,1,0,100,0,1
51933,-68.2895240337915,4,1,0,100,0,1
51989,-68.6289010501405,4,1,0,100,0,1
52044,-68.9655172413793,4,1,0,100,0,1
52126,-69.4735581242139,4,1,0,100,0,1
52209,-69.9954744305325,4,1,0,100,0,1
52292,-70.5252918287938,4,1,0,100,0,1
52375,-71.0631911048488,4,1,0,100,0,1
52458,-71.6093586023829,4,1,0,100,0,1
52541,-72.1639864381474,4,1,0,100,0,1
52623,-72.7204338150017,4,1,0,100,0,1
52706,-73.2924748846907,4,1,0,100,0,1
52789,-73.8735870084382,4,1,0,100,0,1
52872,-74.4639876749262,4,1,0,100,0,1
52928,-74.867690718988,4,1,0,100,0,1
52983,-75.2684683515557,4,1,0,100,0,1
53039,-75.6809655847333,4,1,0,100,0,1
53122,-76.3007301190554,4,1,0,100,0,1
53204,-50,4,1,0,100,0,1
53539,-166.666666666667,4,1,0,30,0,0
59174,-83.3333333333333,4,1,0,30,0,0
59208,-71.4285714285714,4,1,0,30,0,0
59319,-72.3725988252104,4,1,0,30,0,0
59429,-73.3330652296308,4,1,0,30,0,0
59540,-74.3284555496678,4,1,0,30,0,0
59650,-75.341899764492,4,1,0,30,0,0
59761,-76.3929618768328,4,1,0,30,0,0
59837,-166.666666666667,4,1,0,30,0,0
59871,-77.463891248938,4,1,0,30,0,0
59982,-78.5754298272073,4,1,0,30,0,0
60093,-79.7193319926554,4,1,0,30,0,0
60203,-80.8862668559262,4,1,0,30,0,0
60314,-82.0989599747873,4,1,0,30,0,0
60424,-83.3371418125314,4,1,0,30,0,0
60535,-84.6250232040097,4,1,0,30,0,0
60645,-85.9411820152701,4,1,0,30,0,0
60756,-87.3114675604501,4,1,0,30,0,0
60866,-88.7132084650937,4,1,0,30,0,0
60977,-90.1740678468994,4,1,0,30,0,0
61087,-91.6700180977277,4,1,0,30,0,0
61163,-166.666666666667,4,1,0,30,0,0
61198,-93.2307377677795,4,1,0,30,0,0
61308,-94.8307244266472,4,1,0,30,0,0
61418,-96.4865865918832,4,1,0,30,0,0
61529,-98.2171711731121,4,1,0,30,0,0
61639,-99.9945163413029,4,1,0,30,0,0
61750,-101.85443780372,4,1,0,30,0,0
61860,-103.767142775849,4,1,0,30,0,0
61971,-105.771461716937,4,1,0,30,0,0
62081,-107.835600236546,4,1,0,30,0,0
62192,-110.001809736382,4,1,0,30,0,0
62303,-112.256833292293,4,1,0,30,0,0
62413,-114.584642453186,4,1,0,30,0,0
62489,-166.666666666667,4,1,0,30,0,0
62524,-117.03356652333,4,1,0,30,0,0
62634,-119.565930102944,4,1,0,30,0,0
62745,-122.234884032712,4,1,0,30,0,0
62855,-125,4,1,0,30,0,0
63186,-83.3333333333333,4,1,0,30,0,0
63296,-86.1907730673317,4,1,0,30,0,0
63407,-89.2799483371004,4,1,0,30,0,0
63517,-92.5677937730164,4,1,0,30,0,0
63628,-96.1404728789986,4,1,0,30,0,0
63739,-100,4,1,0,30,0,0
63815,-166.666666666667,4,1,0,30,0,0
63852,-83.3333333333333,4,1,0,30,0,0
64586,-71.4285714285714,4,1,0,30,0,0
64697,-73.403636967533,4,1,0,30,0,0
64807,-75.4716981132076,4,1,0,30,0,0
64918,-77.6801405975395,4,1,0,30,0,0
65028,-80,4,1,0,30,0,0
65141,-166.666666666667,4,1,0,30,0,0
65142,-82.4857702715312,4,1,0,30,0,0
65249,-85.1063829787234,4,1,0,30,0,0
65360,-87.9252038989457,4,1,0,30,0,0
65471,-90.9371463841169,4,1,0,30,0,0
65581,-94.1326802257481,4,1,0,30,0,0
65692,-97.5932877014794,4,1,0,30,0,0
65802,-101.2832263978,4,1,0,30,0,0
65913,-105.300774270399,4,1,0,30,0,0
66023,-109.609423434594,4,1,0,30,0,0
66133,-114.285714285714,4,1,0,30,0,0
66243,-119.378798109386,4,1,0,30,0,0
66354,-125,4,1,0,30,0,0
66467,-166.666666666667,4,1,0,30,0,0
66468,-131.578947368421,4,1,0,30,0,0

[HitObjects]
256,192,12102,5,8,0:0:0:0:
256,192,12351,1,0,0:0:0:0:
256,192,12434,1,8,0:0:0:0:
256,192,12600,1,0,0:0:0:0:
256,192,12848,1,8,0:0:0:0:
256,192,12931,1,0,0:0:0:0:
256,192,13097,1,8,0:0:0:0:
256,192,13263,1,0,0:0:0:0:
256,192,13346,1,0,0:0:0:0:
256,192,13428,1,8,0:0:0:0:
256,192,13677,1,0,0:0:0:0:
256,192,13760,1,8,0:0:0:0:
256,192,13926,1,0,0:0:0:0:
256,192,14009,1,0,0:0:0:0:
256,192,14174,1,8,0:0:0:0:
256,192,14257,1,0,0:0:0:0:
256,192,14340,1,0,0:0:0:0:
256,192,14423,1,8,0:0:0:0:
256,192,14589,1,0,0:0:0:0:
256,192,14754,1,8,0:0:0:0:
256,192,15003,1,0,0:0:0:0:
256,192,15086,1,8,0:0:0:0:
256,192,15252,1,0,0:0:0:0:
256,192,15335,1,0,0:0:0:0:
256,192,15417,1,0,0:0:0:0:
256,192,15500,1,8,0:0:0:0:
256,192,15666,1,0,0:0:0:0:
256,192,15749,1,8,0:0:0:0:
256,192,15915,1,0,0:0:0:0:
256,192,15997,1,0,0:0:0:0:
256,192,16080,1,8,0:0:0:0:
256,192,16329,1,0,0:0:0:0:
256,192,16412,1,8,0:0:0:0:
256,192,16578,1,0,0:0:0:0:
256,192,16661,1,0,0:0:0:0:
256,192,16826,1,8,0:0:0:0:
256,192,16909,1,0,0:0:0:0:
256,192,16992,1,0,0:0:0:0:
256,192,17075,1,8,0:0:0:0:
256,192,17241,1,0,0:0:0:0:
256,192,17406,1,8,0:0:0:0:
256,192,17655,1,0,0:0:0:0:
256,192,17738,1,8,0:0:0:0:
256,192,17904,1,0,0:0:0:0:
256,192,17986,1,8,0:0:0:0:
256,192,18069,1,0,0:0:0:0:
256,192,18152,1,8,0:0:0:0:
256,192,18318,1,0,0:0:0:0:
256,192,18401,1,8,0:0:0:0:
256,192,18567,1,0,0:0:0:0:
256,192,18649,1,8,0:0:0:0:
256,192,18732,1,0,0:0:0:0:
256,192,18981,1,0,0:0:0:0:
256,192,19064,1,8,0:0:0:0:
256,192,19230,1,0,0:0:0:0:
256,192,19313,1,0,0:0:0:0:
256,192,19478,1,8,0:0:0:0:
256,192,19561,1,0,0:0:0:0:
256,192,19644,1,0,0:0:0:0:
256,192,19727,1,8,0:0:0:0:
256,192,19893,1,0,0:0:0:0:
256,192,20058,1,8,0:0:0:0:
256,192,20307,1,0,0:0:0:0:
256,192,20390,1,8,0:0:0:0:
256,192,20556,1,0,0:0:0:0:
256,192,20639,1,0,0:0:0:0:
256,192,20721,1,0,0:0:0:0:
256,192,20804,1,8,0:0:0:0:
256,192,20970,1,0,0:0:0:0:
256,192,21053,1,8,0:0:0:0:
256,192,21219,1,0,0:0:0:0:
256,192,21384,1,8,0:0:0:0:
256,192,21633,1,0,0:0:0:0:
256,192,21716,1,8,0:0:0:0:
256,192,21882,1,0,0:0:0:0:
256,192,21965,1,0,0:0:0:0:
256,192,22130,1,8,0:0:0:0:
256,192,22213,1,0,0:0:0:0:
256,192,22296,1,0,0:0:0:0:
256,192,22379,1,8,0:0:0:0:
256,192,22462,1,8,0:0:0:0:
256,192,22545,1,0,0:0:0:0:
256,192,22710,1,8,0:0:0:0:
256,192,22959,1,0,0:0:0:0:
256,192,23042,1,8,0:0:0:0:
256,192,23208,1,0,0:0:0:0:
256,192,23291,1,0,0:0:0:0:
256,192,23456,1,8,0:0:0:0:
256,192,23539,1,0,0:0:0:0:
256,192,23705,1,8,0:0:0:0:
256,192,23788,1,0,0:0:0:0:
256,192,23871,1,0,0:0:0:0:
256,192,23953,1,0,0:0:0:0:
256,192,24036,1,8,0:0:0:0:
256,192,24285,1,0,0:0:0:0:
256,192,24368,1,8,0:0:0:0:
256,192,24534,1,0,0:0:0:0:
256,192,24616,1,0,0:0:0:0:
256,192,24782,1,8,0:0:0:0:
256,192,24865,1,8,0:0:0:0:
256,192,24948,1,0,0:0:0:0:
256,192,25031,1,8,0:0:0:0:
256,192,25114,1,0,0:0:0:0:
256,192,25197,1,0,0:0:0:0:
256,192,25362,1,8,0:0:0:0:
256,192,25611,1,0,0:0:0:0:
256,192,25694,1,8,0:0:0:0:
256,192,25860,1,0,0:0:0:0:
256,192,25943,1,0,0:0:0:0:
256,192,26025,1,0,0:0:0:0:
256,192,26108,1,8,0:0:0:0:
256,192,26191,1,0,0:0:0:0:
256,192,26274,1,0,0:0:0:0:
256,192,26357,1,8,0:0:0:0:
256,192,26523,1,0,0:0:0:0:
256,192,26605,1,0,0:0:0:0:
256,192,26688,1,8,0:0:0:0:
256,192,26937,1,0,0:0:0:0:
256,192,27020,1,8,0:0:0:0:
256,192,27186,1,0,0:0:0:0:
256,192,27269,1,0,0:0:0:0:
256,192,27434,1,8,0:0:0:0:
256,192,27517,1,0,0:0:0:0:
256,192,27600,1,0,0:0:0:0:
256,192,27683,1,8,0:0:0:0:
256,192,27766,1,8,0:0:0:0:
256,192,27849,1,0,0:0:0:0:
256,192,28014,1,8,0:0:0:0:
256,192,28263,1,0,0:0:0:0:
256,192,28346,1,8,0:0:0:0:
256,192,28512,1,0,0:0:0:0:
256,192,28595,1,0,0:0:0:0:
256,192,28760,1,8,0:0:0:0:
256,192,28843,1,0,0:0:0:0:
256,192,29009,1,8,0:0:0:0:
256,192,29092,1,0,0:0:0:0:
256,192,29175,1,0,0:0:0:0:
256,192,29257,1,0,0:0:0:0:
256,192,29340,1,8,0:0:0:0:
256,192,29589,1,0,0:0:0:0:
256,192,29672,1,8,0:0:0:0:
256,192,29838,1,0,0:0:0:0:
256,192,29921,1,0,0:0:0:0:
256,192,30086,1,8,0:0:0:0:
256,192,30169,1,0,0:0:0:0:
256,192,30252,1,0,0:0:0:0:
256,192,30335,1,8,0:0:0:0:
256,192,30418,1,8,0:0:0:0:
256,192,30501,1,0,0:0:0:0:
256,192,30583,1,0,0:0:0:0:
256,192,30666,1,8,0:0:0:0:
256,192,30915,1,0,0:0:0:0:
256,192,30998,1,8,0:0:0:0:
256,192,31164,1,0,0:0:0:0:
256,192,31247,1,0,0:0:0:0:
256,192,31412,1,8,0:0:0:0:
256,192,31495,1,0,0:0:0:0:
256,192,31578,1,0,0:0:0:0:
256,192,31661,1,8,0:0:0:0:
256,192,31743,1,0,0:0:0:0:
256,192,31826,1,8,0:0:0:0:
256,96,31992,1,4,0:0:0:0:
256,192,32323,1,8,0:0:0:0:
256,192,32489,1,0,0:0:0:0:
256,192,32572,1,8,0:0:0:0:
256,192,32655,1,0,0:0:0:0:
256,192,32738,1,8,0:0:0:0:
256,192,32821,1,8,0:0:0:0:
256,192,32904,1,8,0:0:0:0:
256,192,32986,1,0,0:0:0:0:
256,192,33152,1,0,0:0:0:0:
256,192,33235,1,8,0:0:0:0:
256,192,33318,1,8,0:0:0:0:
256,192,33484,1,0,0:0:0:0:
256,192,33567,1,8,0:0:0:0:
256,192,33649,1,0,0:0:0:0:
256,192,33732,1,0,0:0:0:0:
256,192,33898,1,8,0:0:0:0:
256,192,33981,1,0,0:0:0:0:
256,192,34147,1,8,0:0:0:0:
256,192,34312,1,0,0:0:0:0:
256,192,34395,1,8,0:0:0:0:
256,192,34478,1,8,0:0:0:0:
256,192,34534,1,8,0:0:0:0:
256,192,34589,1,8,0:0:0:0:
256,192,34644,1,0,0:0:0:0:
256,192,34975,1,8,0:0:0:0:
256,192,35141,1,0,0:0:0:0:
256,192,35224,1,8,0:0:0:0:
256,192,35307,1,0,0:0:0:0:
256,192,35390,1,8,0:0:0:0:
256,192,35473,1,8,0:0:0:0:
256,192,35638,1,0,0:0:0:0:
256,192,35804,1,8,0:0:0:0:
256,192,35887,1,0,0:0:0:0:
256,192,35970,1,8,0:0:0:0:
256,192,36136,1,0,0:0:0:0:
256,192,36218,1,0,0:0:0:0:
256,192,36384,1,8,0:0:0:0:
256,192,36467,1,0,0:0:0:0:
256,192,36550,1,8,0:0:0:0:
256,192,36633,1,0,0:0:0:0:
256,192,36716,1,0,0:0:0:0:
256,192,36799,1,8,0:0:0:0:
256,192,36881,1,0,0:0:0:0:
256,192,36964,1,8,0:0:0:0:
256,192,37020,1,8,0:0:0:0:
256,192,37075,1,8,0:0:0:0:
256,192,37130,1,0,0:0:0:0:
256,96,37296,1,4,0:0:0:0:
256,192,37627,1,8,0:0:0:0:
256,192,37793,1,0,0:0:0:0:
256,192,37876,1,8,0:0:0:0:
256,192,37959,1,0,0:0:0:0:
256,192,38042,1,8,0:0:0:0:
256,192,38125,1,8,0:0:0:0:
256,192,38207,1,0,0:0:0:0:
256,192,38290,1,8,0:0:0:0:
256,192,38456,1,0,0:0:0:0:
256,192,38539,1,8,0:0:0:0:
256,192,38622,1,0,0:0:0:0:
256,192,38788,1,8,0:0:0:0:
256,192,38871,1,8,0:0:0:0:
256,192,38953,1,0,0:0:0:0:
256,192,39036,1,0,0:0:0:0:
256,192,39202,1,8,0:0:0:0:
256,192,39285,1,0,0:0:0:0:
256,192,39451,1,8,0:0:0:0:
256,192,39616,1,0,0:0:0:0:
256,192,39699,1,8,0:0:0:0:
256,192,39782,1,8,0:0:0:0:
256,192,39838,1,8,0:0:0:0:
256,192,39893,1,8,0:0:0:0:
256,192,39948,1,0,0:0:0:0:
256,192,40279,1,8,0:0:0:0:
256,192,40445,1,0,0:0:0:0:
256,192,40528,1,8,0:0:0:0:
256,192,40611,1,0,0:0:0:0:
256,192,40694,1,8,0:0:0:0:
256,192,40777,1,8,0:0:0:0:
256,192,40942,1,0,0:0:0:0:
256,192,41108,1,8,0:0:0:0:
256,192,41191,1,0,0:0:0:0:
256,192,41274,1,8,0:0:0:0:
256,192,41440,1,0,0:0:0:0:
256,192,41522,1,0,0:0:0:0:
256,192,41688,1,8,0:0:0:0:
256,192,41771,1,0,0:0:0:0:
256,192,41854,1,8,0:0:0:0:
256,192,41937,1,0,0:0:0:0:
256,192,42020,1,0,0:0:0:0:
256,192,42103,1,8,0:0:0:0:
256,192,42185,1,0,0:0:0:0:
256,192,42268,1,8,0:0:0:0:
256,192,42324,1,8,0:0:0:0:
256,192,42379,1,8,0:0:0:0:
256,192,42434,1,0,0:0:0:0:
256,96,42600,1,12,0:0:0:0:
256,192,42931,1,8,0:0:0:0:
256,192,43014,1,8,0:0:0:0:
256,192,43097,1,0,0:0:0:0:
256,192,43180,1,8,0:0:0:0:
256,192,43263,1,0,0:0:0:0:
256,192,43346,1,0,0:0:0:0:
256,192,43428,1,8,0:0:0:0:
256,192,43511,1,0,0:0:0:0:
256,192,43594,1,8,0:0:0:0:
256,192,43677,1,0,0:0:0:0:
256,192,43760,1,0,0:0:0:0:
256,192,43843,1,0,0:0:0:0:
256,192,43926,1,8,0:0:0:0:
256,192,43981,1,8,0:0:0:0:
256,192,44036,1,0,0:0:0:0:
256,192,44091,1,0,0:0:0:0:
256,192,44174,1,8,0:0:0:0:
256,192,44257,1,0,0:0:0:0:
256,192,44340,1,0,0:0:0:0:
256,192,44423,1,8,0:0:0:0:
256,192,44506,1,8,0:0:0:0:
256,192,44589,1,0,0:0:0:0:
256,192,44672,1,0,0:0:0:0:
256,192,44754,1,8,0:0:0:0:
256,192,44837,1,8,0:0:0:0:
256,192,44920,1,0,0:0:0:0:
256,192,45003,1,8,0:0:0:0:
256,192,45086,1,8,0:0:0:0:
256,192,45141,1,8,0:0:0:0:
256,192,45196,1,8,0:0:0:0:
256,192,45252,1,0,0:0:0:0:
256,192,45583,1,8,0:0:0:0:
256,192,45666,1,8,0:0:0:0:
256,192,45749,1,0,0:0:0:0:
256,192,45832,1,8,0:0:0:0:
256,192,45915,1,0,0:0:0:0:
256,192,45998,1,0,0:0:0:0:
256,192,46080,1,8,0:0:0:0:
256,192,46163,1,0,0:0:0:0:
256,192,46246,1,8,0:0:0:0:
256,192,46301,1,0,0:0:0:0:
256,192,46357,1,0,0:0:0:0:
256,192,46412,1,8,0:0:0:0:
256,192,46495,1,0,0:0:0:0:
256,192,46578,1,8,0:0:0:0:
256,192,46633,1,8,0:0:0:0:
256,192,46688,1,8,0:0:0:0:
256,192,46743,1,0,0:0:0:0:
256,192,46826,1,8,0:0:0:0:
256,192,46909,1,0,0:0:0:0:
256,192,46992,1,0,0:0:0:0:
256,192,47075,1,8,0:0:0:0:
256,192,47158,1,8,0:0:0:0:
256,192,47241,1,0,0:0:0:0:
256,192,47323,1,0,0:0:0:0:
256,192,47406,1,8,0:0:0:0:
256,192,47489,1,0,0:0:0:0:
256,192,47572,1,8,0:0:0:0:
256,192,47627,1,8,0:0:0:0:
256,192,47683,1,8,0:0:0:0:
256,192,47738,1,0,0:0:0:0:
256,192,47821,1,0,0:0:0:0:
256,192,47904,1,8,0:0:0:0:
256,192,48069,1,0,0:0:0:0:
256,192,48235,1,0,0:0:0:0:
256,192,48401,1,0,0:0:0:0:
256,192,48567,1,8,0:0:0:0:
256,192,48622,1,8,0:0:0:0:
256,192,48678,1,8,0:0:0:0:
256,192,48733,1,0,0:0:0:0:
256,192,48815,1,0,0:0:0:0:
256,192,48898,1,8,0:0:0:0:
256,192,48953,1,0,0:0:0:0:
256,192,49009,1,0,0:0:0:0:
256,192,49064,1,8,0:0:0:0:
256,192,49147,1,0,0:0:0:0:
256,192,49230,1,8,0:0:0:0:
256,192,49285,1,8,0:0:0:0:
256,192,49341,1,0,0:0:0:0:
256,192,49396,1,0,0:0:0:0:
256,192,49478,1,8,0:0:0:0:
256,192,49561,1,0,0:0:0:0:
256,192,49644,1,0,0:0:0:0:
256,192,49727,1,8,0:0:0:0:
256,192,49810,1,8,0:0:0:0:
256,192,49893,1,0,0:0:0:0:
256,192,49975,1,8,0:0:0:0:
256,192,50058,1,8,0:0:0:0:
256,192,50141,1,8,0:0:0:0:
256,192,50224,1,0,0:0:0:0:
256,192,50307,1,0,0:0:0:0:
256,192,50390,1,8,0:0:0:0:
256,96,50556,1,4,0:0:0:0:
256,192,50887,1,8,0:0:0:0:
256,192,50970,1,8,0:0:0:0:
256,192,51053,1,0,0:0:0:0:
256,192,51136,1,0,0:0:0:0:
256,192,51218,1,8,0:0:0:0:
256,192,51273,1,8,0:0:0:0:
256,192,51329,1,8,0:0:0:0:
256,192,51384,1,0,0:0:0:0:
256,192,51466,1,0,0:0:0:0:
256,192,51549,1,8,0:0:0:0:
256,192,51604,1,0,0:0:0:0:
256,192,51660,1,0,0:0:0:0:
256,192,51715,1,8,0:0:0:0:
256,192,51798,1,0,0:0:0:0:
256,192,51881,1,8,0:0:0:0:
256,192,51936,1,8,0:0:0:0:
256,192,51992,1,0,0:0:0:0:
256,192,52047,1,0,0:0:0:0:
256,192,52129,1,8,0:0:0:0:
256,192,52212,1,0,0:0:0:0:
256,192,52295,1,0,0:0:0:0:
256,192,52378,1,8,0:0:0:0:
256,192,52461,1,8,0:0:0:0:
256,192,52544,1,0,0:0:0:0:
256,192,52626,1,8,0:0:0:0:
256,192,52709,1,8,0:0:0:0:
256,192,52792,1,0,0:0:0:0:
256,192,52875,1,8,0:0:0:0:
256,192,52931,1,8,0:0:0:0:
256,192,52986,1,8,0:0:0:0:
256,192,53042,1,8,0:0:0:0:
256,96,53207,1,4,0:0:0:0:
256,192,59211,5,8,0:0:0:0:
256,192,59322,1,8,0:0:0:0:
256,192,59432,1,8,0:0:0:0:
256,192,59543,1,8,0:0:0:0:
256,192,59653,1,8,0:0:0:0:
256,192,59764,1,8,0:0:0:0:
256,192,59874,1,8,0:0:0:0:
256,192,59985,1,8,0:0:0:0:
256,192,60096,1,8,0:0:0:0:
256,192,60206,1,8,0:0:0:0:
256,192,60317,1,8,0:0:0:0:
256,192,60427,1,8,0:0:0:0:
256,192,60538,1,8,0:0:0:0:
256,192,60648,1,8,0:0:0:0:
256,192,60759,5,0,0:0:0:0:
256,192,60869,1,0,0:0:0:0:
256,192,60980,1,0,0:0:0:0:
256,192,61090,1,0,0:0:0:0:
256,192,61201,1,0,0:0:0:0:
256,192,61311,1,0,0:0:0:0:
256,192,61421,1,0,0:0:0:0:
256,192,61532,1,0,0:0:0:0:
256,192,61642,1,0,0:0:0:0:
256,192,61753,1,0,0:0:0:0:
256,192,61863,5,8,0:0:0:0:
256,192,61974,1,0,0:0:0:0:
256,192,62084,1,0,0:0:0:0:
256,192,62195,1,0,0:0:0:0:
256,192,62306,1,0,0:0:0:0:
256,192,62416,1,0,0:0:0:0:
256,192,62527,1,8,0:0:0:0:
256,192,62637,1,8,0:0:0:0:
256,192,62748,1,8,0:0:0:0:
256,192,62858,1,8,0:0:0:0:
256,192,63189,1,0,0:0:0:0:
256,192,63299,1,8,0:0:0:0:
256,192,63410,1,8,0:0:0:0:
256,192,63520,1,0,0:0:0:0:
256,192,63631,1,8,0:0:0:0:
256,192,63742,1,8,0:0:0:0:
256,192,64589,5,8,0:0:0:0:
256,192,64700,1,8,0:0:0:0:
256,192,64810,1,8,0:0:0:0:
256,192,64921,1,8,0:0:0:0:
256,192,65031,1,8,0:0:0:0:
256,192,65142,1,8,0:0:0:0:
256,192,65252,1,8,0:0:0:0:
256,192,65363,1,8,0:0:0:0:
256,192,65474,1,8,0:0:0:0:
256,192,65584,1,8,0:0:0:0:
256,192,65695,1,8,0:0:0:0:
256,192,65805,1,8,0:0:0:0:
256,192,65916,1,0,0:0:0:0:
256,192,66026,1,0,0:0:0:0:
256,192,66136,1,0,0:0:0:0:
256,192,66246,1,0,0:0:0:0:
256,192,66357,1,0,0:0:0:0:
256,192,66468,1,0,0:0:0:0:
