osu file format v14

[General]
AudioFilename: audio.mp3
AudioLeadIn: 0
PreviewTime:31964
Countdown: 0
SampleSet: Normal
StackLeniency: 0.7
Mode: 1
LetterboxInBreaks: 0
WidescreenStoryboard: 1

[Editor]
DistanceSpacing: 1
BeatDivisor: 4
GridSize: 32
TimelineZoom: 1.599999

[Metadata]
Title:david gold took it slow (alt version)
TitleUnicode:david gold took it slow (alt version)
Artist:passchooo
ArtistUnicode:passchooo
Creator:Hivie
Version:futsuu
Source:
Tags:electronic instrumental breakcore featured artist fa mpg mg mappers' guild Passchooo² genguh
BeatmapID:4215356
BeatmapSetID:2023751

[Difficulty]
HPDrainRate:9
CircleSize:2
OverallDifficulty:4
ApproachRate:10
SliderMultiplier:1.4
SliderTickRate:1

[Events]
//Background and Video events
0,0,"file (1).png",0,0
//Break Periods
2,53407,58761
//Storyboard Layer 0 (Background)
//Storyboard Layer 1 (Fail)
//Storyboard Layer 2 (Pass)
//Storyboard Layer 3 (Foreground)
//Storyboard Layer 4 (Overlay)
//Storyboard Sound Samples

[TimingPoints]
10777,331.491712707182,4,1,0,40,1,0
21053,-100,4,1,0,65,0,0
21384,-100,4,1,0,65,0,1
21716,-100,4,1,0,66,0,0
21879,-100,4,1,0,66,0,0
21962,-100,4,1,0,67,0,0
22127,-100,4,1,0,68,0,0
22376,-100,4,1,0,68,0,0
22542,-100,4,1,0,69,0,0
22707,-100,4,1,0,70,0,0
23039,-100,4,1,0,70,0,0
23205,-100,4,1,0,71,0,0
23288,-100,4,1,0,72,0,0
23453,-100,4,1,0,73,0,0
23702,-100,4,1,0,73,0,0
24036,-100,4,1,0,74,0,1
24368,-100,4,1,0,75,0,0
24531,-100,4,1,0,75,0,0
24613,-100,4,1,0,76,0,0
24779,-100,4,1,0,77,0,0
25194,-100,4,1,0,77,0,0
25359,-100,4,1,0,78,0,0
25691,-100,4,1,0,79,0,0
25857,-100,4,1,0,79,0,0
25940,-100,4,1,0,80,0,0
26105,-100,4,1,0,81,0,0
26354,-100,4,1,0,81,0,0
26519,-100,4,1,0,82,0,0
26688,-100,4,1,0,83,0,1
27020,-100,4,1,0,84,0,0
27183,-100,4,1,0,84,0,0
27266,-100,4,1,0,85,0,0
27431,-100,4,1,0,86,0,0
27680,-100,4,1,0,86,0,0
28011,-100,4,1,0,87,0,0
28343,-100,4,1,0,88,0,0
28509,-100,4,1,0,88,0,0
28592,-100,4,1,0,89,0,0
28757,-100,4,1,0,90,0,0
29172,-100,4,1,0,90,0,0
29340,-100,4,1,0,91,0,1
29672,-100,4,1,0,92,0,0
29835,-100,4,1,0,92,0,0
29918,-100,4,1,0,93,0,0
30083,-100,4,1,0,94,0,0
30332,-100,4,1,0,95,0,0
30498,-100,4,1,0,95,0,0
30663,-100,4,1,0,96,0,0
30995,-100,4,1,0,97,0,0
31161,-100,4,1,0,97,0,0
31244,-100,4,1,0,98,0,0
31409,-100,4,1,0,99,0,0
31657,-100,4,1,0,99,0,0
31992,-100,4,1,0,100,0,1
47904,-100,4,1,0,100,0,0
48567,-100,4,1,0,100,0,1
53539,-100,4,1,0,30,0,0
59208,-100,4,1,0,30,0,0
59506,-100,4,1,0,30,0,0
63186,-100,4,1,0,30,0,0
63296,-100,4,1,0,30,0,0
64586,-100,4,1,0,30,0,0
64697,-100,4,1,0,30,0,0

[HitObjects]
256,192,21384,5,0,1:0:0:0:
256,192,21716,1,8,1:0:0:0:
256,192,21882,1,0,1:0:0:0:
256,192,22379,1,8,1:0:0:0:
256,192,22710,1,0,0:0:0:0:
256,192,23042,1,8,1:0:0:0:
256,192,23705,1,0,1:0:0:0:
256,192,24036,1,8,1:0:0:0:
256,192,24368,1,8,1:0:0:0:
256,192,24534,1,0,1:0:0:0:
256,192,25031,1,8,1:0:0:0:
256,192,25362,1,0,1:0:0:0:
256,192,25694,1,8,1:0:0:0:
256,192,26191,1,0,1:0:0:0:
256,192,26357,1,0,1:0:0:0:
256,192,26688,1,8,1:0:0:0:
256,192,27020,1,8,1:0:0:0:
256,192,27186,1,0,1:0:0:0:
256,192,27683,1,0,1:0:0:0:
256,192,28014,1,8,1:0:0:0:
256,192,28346,1,8,1:0:0:0:
256,192,29009,1,0,1:0:0:0:
256,192,29340,1,8,1:0:0:0:
256,192,29672,1,8,1:0:0:0:
256,192,29838,1,0,1:0:0:0:
256,192,30335,1,0,1:0:0:0:
256,192,30666,1,8,1:0:0:0:
256,192,30998,1,8,1:0:0:0:
256,192,31660,1,8,1:0:0:0:
256,96,31992,1,4,1:0:0:0:
256,192,32655,1,8,1:0:0:0:
256,192,32986,1,0,1:0:0:0:
256,192,33152,1,0,1:0:0:0:
256,192,33318,1,8,1:0:0:0:
256,192,33649,1,0,1:0:0:0:
256,192,33981,1,0,1:0:0:0:
256,192,34147,1,8,1:0:0:0:
256,192,34312,1,0,1:0:0:0:
256,192,34478,1,8,1:0:0:0:
256,192,34644,1,0,1:0:0:0:
256,192,34975,1,8,1:0:0:0:
256,192,35307,1,0,1:0:0:0:
256,192,35473,1,8,1:0:0:0:
256,192,35638,1,0,1:0:0:0:
256,192,35804,1,8,1:0:0:0:
256,192,35970,1,8,1:0:0:0:
256,192,36301,1,0,1:0:0:0:
256,192,36633,1,0,1:0:0:0:
256,192,36799,1,8,1:0:0:0:
256,192,36964,1,8,1:0:0:0:
256,96,37296,1,4,1:0:0:0:
256,192,37959,1,8,1:0:0:0:
256,192,38290,1,0,1:0:0:0:
256,192,38456,1,0,1:0:0:0:
256,192,38622,1,8,1:0:0:0:
256,192,38953,1,8,1:0:0:0:
256,192,39285,1,0,1:0:0:0:
256,192,39451,1,0,1:0:0:0:
256,192,39616,1,8,1:0:0:0:
256,192,39782,1,8,1:0:0:0:
256,192,39948,1,0,1:0:0:0:
256,192,40279,1,8,1:0:0:0:
256,192,40611,1,0,1:0:0:0:
256,192,40777,1,8,1:0:0:0:
256,192,40942,1,0,1:0:0:0:
256,192,41108,1,0,1:0:0:0:
256,192,41274,1,8,1:0:0:0:
256,192,41605,1,0,1:0:0:0:
256,192,41771,1,8,1:0:0:0:
256,192,41937,1,0,1:0:0:0:
256,192,42103,1,8,1:0:0:0:
256,192,42268,1,8,1:0:0:0:
256,96,42600,1,12,1:0:0:0:
256,192,43263,1,0,1:0:0:0:
256,192,43428,1,8,1:0:0:0:
256,192,43594,1,0,1:0:0:0:
256,192,43926,1,8,1:0:0:0:
256,192,44091,1,0,1:0:0:0:
256,192,44257,1,8,1:0:0:0:
256,192,44423,1,8,1:0:0:0:
256,192,44589,1,0,1:0:0:0:
256,192,44920,1,0,1:0:0:0:
256,192,45086,1,0,1:0:0:0:
256,192,45252,1,8,1:0:0:0:
256,192,45583,1,8,1:0:0:0:
256,192,45915,1,0,1:0:0:0:
256,192,46080,1,8,1:0:0:0:
256,192,46246,1,0,1:0:0:0:
256,192,46578,1,8,1:0:0:0:
256,192,46909,1,0,1:0:0:0:
256,192,47075,1,8,1:0:0:0:
256,192,47406,1,8,1:0:0:0:
256,192,47572,1,8,1:0:0:0:
256,192,47904,1,0,1:0:0:0:
256,192,48567,1,8,1:0:0:0:
256,192,48733,1,8,1:0:0:0:
256,192,48898,1,0,1:0:0:0:
256,192,49064,1,8,1:0:0:0:
256,192,49230,1,0,1:0:0:0:
256,192,49561,1,0,1:0:0:0:
256,192,49727,1,8,1:0:0:0:
256,192,49893,1,0,1:0:0:0:
256,192,50224,1,8,1:0:0:0:
256,192,50390,1,8,1:0:0:0:
256,96,50556,1,4,1:0:0:0:
256,192,50887,1,8,1:0:0:0:
256,192,51218,1,8,1:0:0:0:
256,192,51384,1,8,1:0:0:0:
256,192,51549,1,0,1:0:0:0:
256,192,51715,1,8,1:0:0:0:
256,192,51881,1,0,1:0:0:0:
256,192,52212,1,8,1:0:0:0:
256,192,52378,1,8,1:0:0:0:
256,192,52709,1,0,1:0:0:0:
256,192,52876,1,8,1:0:0:0:
256,192,53042,1,8,1:0:0:0:
256,96,53207,1,4,1:0:0:0:
256,192,59211,12,0,62858,1:0:0:0:
256,192,63189,12,0,63742,1:0:0:0:
256,192,64589,12,0,66467,1:0:0:0:
