osu file format v14

[General]
AudioFilename: audio.mp3
AudioLeadIn: 0
PreviewTime: 11490
Countdown: 0
SampleSet: Soft
StackLeniency: 0.5
Mode: 0
LetterboxInBreaks: 0
WidescreenStoryboard: 0

[Editor]
Bookmarks: 11535,23093,34650,46208,57766,69323,80881,93341
DistanceSpacing: 1.5
BeatDivisor: 4
GridSize: 4
TimelineZoom: 2.2

[Metadata]
Title:bright
TitleUnicode:bright
Artist:passchooo
ArtistUnicode:passchooo
Creator:Chompy
Version:radiance
Source:
Tags:mappers guild mpg featured artist fa english pop hiphop hip hop hyperpop rap trap pass passchoo draf2k mental baredex wafer goopert kami no kotoba ascended -ascended- -_ascended_-
BeatmapID:3183594
BeatmapSetID:1558557

[Difficulty]
HPDrainRate:5.5
CircleSize:4.2
OverallDifficulty:8.5
ApproachRate:9.2
SliderMultiplier:2.3
SliderTickRate:1

[Events]
//Background and Video events
0,0,"bright.jpg",0,0
//Break Periods
2,58324,68751
//Storyboard Layer 0 (Background)
//Storyboard Layer 1 (Fail)
//Storyboard Layer 2 (Pass)
//Storyboard Layer 3 (Foreground)
//Storyboard Layer 4 (Overlay)
//Storyboard Sound Samples

[TimingPoints]
-22,361.162944681876,4,2,0,70,1,0
11535,-40,4,2,0,70,0,0
11715,-100,4,2,0,70,0,0
12799,-40,4,2,0,70,0,0
12979,-71.4285714285714,4,2,0,70,0,0
14063,-52.6315789473684,4,2,0,70,0,0
14424,-66.6666666666667,4,2,0,70,0,0
14966,-52.6315789473684,4,2,0,70,0,0
15146,-83.3333333333333,4,2,0,70,0,0
15508,-58.8235294117647,4,2,0,70,0,0
16049,-66.6666666666667,4,2,0,70,0,0
16772,-58.8235294117647,4,2,0,70,0,0
17133,-83.3333333333333,4,2,0,70,0,0
17313,-58.8235294117647,4,2,0,70,0,0
18397,-83.3333333333333,4,2,0,70,0,0
20203,-58.8235294117647,4,2,0,70,0,0
20564,-66.6666666666667,4,2,0,70,0,0
20744,-47.6190476190476,4,2,0,70,0,0
20925,-66.6666666666667,4,2,0,70,0,0
23092,-40,4,2,0,70,0,0
23273,-83.3333333333333,4,2,0,70,0,0
24356,-40,4,2,0,70,0,0
24537,-71.4285714285714,4,2,0,70,0,0
25620,-52.6315789473684,4,2,0,70,0,0
25981,-66.6666666666667,4,2,0,70,0,0
26523,-52.6315789473684,4,2,0,70,0,0
26704,-83.3333333333333,4,2,0,70,0,0
27065,-58.8235294117647,4,2,0,70,0,0
27426,-66.6666666666667,4,2,0,70,0,0
28329,-58.8235294117647,4,2,0,70,0,0
28690,-83.3333333333333,4,2,0,70,0,0
28871,-58.8235294117647,4,2,0,70,0,0
29954,-83.3333333333333,4,2,0,70,0,0
31038,-66.6666666666667,4,2,0,70,0,0
32843,-58.8235294117647,4,2,0,70,0,0
33204,-83.3333333333333,4,2,0,70,0,0
33927,-66.6666666666667,4,2,0,70,0,0
34288,-58.8235294117647,4,2,0,70,0,0
34649,-83.3333333333333,4,2,0,70,0,0
35371,-66.6666666666667,4,2,0,70,0,0
35913,-47.6190476190476,4,2,0,70,0,0
36094,-66.6666666666667,4,2,0,70,0,0
36816,-71.4285714285714,4,2,0,70,0,0
37177,-52.6315789473684,4,2,0,70,0,0
37538,-66.6666666666667,4,2,0,70,0,0
38080,-58.8235294117647,4,2,0,70,0,0
38622,-83.3333333333333,4,2,0,70,0,0
39164,-66.6666666666667,4,2,0,70,0,0
40428,-58.8235294117647,4,2,0,70,0,0
42234,-83.3333333333333,4,2,0,70,0,0
42595,-66.6666666666667,4,2,0,70,0,0
42956,-100,4,2,0,70,0,0
43317,-58.8235294117647,4,2,0,70,0,0
43678,-66.6666666666667,4,2,0,70,0,0
44401,-52.6315789473684,4,2,0,70,0,0
44942,-66.6666666666667,4,2,0,70,0,0
45303,-40,4,2,0,70,0,0
45484,-83.3333333333333,4,2,0,70,0,0
45845,-66.6666666666667,4,2,0,70,0,0
46206,-100,4,2,0,70,0,0
46929,-66.6666666666667,4,2,0,70,0,0
49096,-58.8235294117647,4,2,0,70,0,0
49457,-66.6666666666667,4,2,0,70,0,0
49637,-47.6190476190476,4,2,0,70,0,0
49818,-66.6666666666667,4,2,0,70,0,0
51624,-58.8235294117647,4,2,0,70,0,0
53791,-47.6190476190476,4,2,0,70,0,0
53971,-66.6666666666667,4,2,0,70,0,0
54874,-58.8235294117647,4,2,0,70,0,0
55235,-83.3333333333333,4,2,0,70,0,0
55597,-66.6666666666667,4,2,0,70,0,0
57402,-125,4,2,0,70,0,0
69321,-40,4,2,0,70,0,0
69501,-100,4,2,0,70,0,0
70585,-40,4,2,0,70,0,0
70765,-71.4285714285714,4,2,0,70,0,0
71849,-52.6315789473684,4,2,0,70,0,0
72210,-66.6666666666667,4,2,0,70,0,0
72752,-52.6315789473684,4,2,0,70,0,0
72932,-83.3333333333333,4,2,0,70,0,0
73294,-58.8235294117647,4,2,0,70,0,0
73835,-66.6666666666667,4,2,0,70,0,0
74558,-58.8235294117647,4,2,0,70,0,0
74919,-83.3333333333333,4,2,0,70,0,0
75099,-58.8235294117647,4,2,0,70,0,0
76183,-83.3333333333333,4,2,0,70,0,0
77989,-58.8235294117647,4,2,0,70,0,0
78350,-66.6666666666667,4,2,0,70,0,0
78530,-47.6190476190476,4,2,0,70,0,0
78711,-66.6666666666667,4,2,0,70,0,0
80878,-47.6190476190476,4,2,0,70,0,0
81059,-83.3333333333333,4,2,0,70,0,0
82142,-40,4,2,0,70,0,0
82323,-71.4285714285714,4,2,0,70,0,0
83406,-52.6315789473684,4,2,0,70,0,0
83767,-66.6666666666667,4,2,0,70,0,0
84309,-52.6315789473684,4,2,0,70,0,0
84490,-83.3333333333333,4,2,0,70,0,0
84851,-58.8235294117647,4,2,0,70,0,0
85212,-66.6666666666667,4,2,0,70,0,0
86115,-58.8235294117647,4,2,0,70,0,0
86476,-83.3333333333333,4,2,0,70,0,0
86657,-58.8235294117647,4,2,0,70,0,0
87740,-83.3333333333333,4,2,0,70,0,0
89185,-66.6666666666667,4,2,0,70,0,0
90629,-58.8235294117647,4,2,0,70,0,0
90991,-83.3333333333333,4,2,0,70,0,0
91713,-52.6315789473684,4,2,0,70,0,0
92074,-66.6666666666667,4,2,0,70,0,0
92435,-100,4,2,0,70,0,0
93158,-66.6666666666667,4,2,0,70,0,0

[Colours]
Combo1 : 248,241,156
Combo2 : 187,223,159
Combo3 : 221,172,119

[HitObjects]
67,336,11535,6,0,B|52:328|37:344|38:371|71:367|110:359|132:337|139:307,1,143.75,4|0,1:2|2:0,2:0:0:0:
205,270,11715,2,0,P|200:243|184:213,1,57.5,8|0,2:2|2:0,2:0:0:0:
96,101,11896,5,2,2:0:0:0:
81,92,11986,1,2,2:0:0:0:
65,96,12076,1,2,2:0:0:0:
26,166,12257,6,0,P|74:136|129:116,1,115,10|0,0:1|2:0,2:0:0:0:
285,49,12618,1,2,2:0:0:0:
311,143,12799,6,0,P|297:82|240:109,1,143.75,0|0,1:0|2:0,2:0:0:0:
282,214,12979,6,0,B|327:228|363:210|354:196|390:178|435:192,1,161,2|10,2:0|0:2,2:0:0:0:
289,324,13341,2,0,B|243:310|207:328|216:342|180:360|135:345,1,161,2|2,2:0|2:0,2:0:0:0:
19,220,13702,6,0,P|58:218|92:197,1,80.5,10|0,2:1|2:0,2:0:0:0:
77,121,13882,2,0,P|84:102|81:83,3,40.25,2|0|0|0,1:2|2:0|2:0|2:0,2:0:0:0:
64,38,14063,6,0,P|116:51|166:74,1,109.25,2|0,1:2|2:0,2:0:0:0:
253,71,14243,2,0,P|280:116|299:168,1,109.25,0|0,1:0|2:0,2:0:0:0:
421,173,14424,6,0,P|409:217|390:259,1,86.25,2|0,3:2|2:0,2:0:0:0:
392,333,14605,2,0,P|352:356|309:372,1,86.25,0|0,3:0|2:0,2:0:0:0:
163,338,14785,6,0,B|144:356|149:377|149:377|168:367|170:342,1,86.25,8|0,2:2|2:2,2:0:0:0:
201,272,14966,2,0,P|207:225|211:119,1,109.25,0|0,1:2|2:0,2:0:0:0:
135,140,15146,6,0,P|132:208|121:277,1,138,10|10,2:1|2:2,2:0:0:0:
26,184,15508,2,0,B|77:209|124:187|113:169|162:141|210:163,1,195.5,2|0,1:2|2:0,2:0:0:0:
409,260,15869,5,2,2:2:0:0:
455,320,16049,2,0,B|473:338|468:359|468:359|449:349|447:324,1,86.25,10|0,2:2|2:0,2:0:0:0:
475,169,16230,5,2,2:2:0:0:
493,93,16410,1,2,2:2:0:0:
385,43,16591,6,0,P|397:14|374:35,1,86.25,10|0,2:1|2:0,2:0:0:0:
493,93,16772,6,0,B|442:118|394:96|405:78|357:50|308:72,1,195.5,2|2,3:2|2:2,2:0:0:0:
59,221,17133,2,0,B|68:235|69:254|69:254|68:235|77:218,1,69,8|0,2:2|2:0,2:0:0:0:
8,289,17313,6,0,P|48:261|76:222,1,97.75,2|0,3:2|2:0,2:0:0:0:
173,196,17494,1,8,2:2:0:0:
173,196,17584,6,0,P|159:99|118:11,1,195.5,0|0,3:0|2:0,2:0:0:0:
36,134,17855,6,0,P|48:181|75:221,1,97.75,0|0,3:0|2:0,2:0:0:0:
145,278,18036,2,0,P|158:311|132:287,1,97.75,8|0,2:1|2:0,2:0:0:0:
404,41,18397,6,0,B|364:29|335:61|337:97|353:126|396:131|446:126|476:101|496:35,1,276,6|0,1:2|2:0,2:0:0:0:
462,192,18939,1,8,2:2:0:0:
404,343,19119,2,0,B|364:354|335:322|337:286|353:257|396:252|446:257|476:282|496:348,1,276,6|0,1:2|2:0,2:0:0:0:
494,343,20203,6,0,P|366:269|234:206,1,293.25,6|0,1:2|2:0,2:0:0:0:
149,206,20564,6,0,B|123:202|109:218|109:218|129:227|150:214,1,86.25,8|0,2:2|2:0,2:0:0:0:
235,206,20744,2,0,B|290:219|295:172|350:184,1,120.75,2|0,1:2|2:0,2:0:0:0:
460,184,20925,6,0,P|435:134|407:146,1,86.25,10|0,2:1|2:0,2:0:0:0:
409,248,21106,1,2,2:2:0:0:
246,120,21286,6,0,B|198:143|160:125|169:106|122:85|82:106,2,172.5,2|2|2,1:2|2:2|2:2,2:0:0:0:
345,80,21828,2,0,B|329:64|329:42|329:42|313:59|289:56,1,86.25,8|0,2:2|2:0,2:0:0:0:
211,53,22008,5,2,2:2:0:0:
22,210,22189,2,0,P|62:195|105:191,1,86.25,2|0,3:2|2:0,2:0:0:0:
158,249,22370,1,10,2:1:0:0:
158,249,23092,6,0,B|140:249|127:260|127:260|186:254|236:281,1,143.75,6|0,1:2|2:0,2:0:0:0:
296,339,23273,2,0,P|329:333|356:312,1,69,8|0,2:2|2:0,2:0:0:0:
459,178,23453,5,2,2:2:0:0:
446,191,23543,1,2,2:2:0:0:
447,208,23634,1,2,2:2:0:0:
488,112,23814,6,0,P|434:143|352:173,1,138,10|0,2:1|2:0,2:0:0:0:
247,30,24175,1,2,2:2:0:0:
324,87,24356,6,0,B|284:106|252:91|260:75|221:57|187:75,1,143.75,2|0,1:2|2:0,2:0:0:0:
38,138,24537,6,0,B|78:169|131:128|131:128|110:103|113:73,1,161,2|10,2:2|2:2,2:0:0:0:
347,304,24898,2,0,B|307:335|254:294|254:294|275:269|271:239,1,161,2|2,2:2|2:2,2:0:0:0:
27,300,25259,6,0,P|49:331|86:348,1,80.5,10|0,2:1|2:0,2:0:0:0:
140,294,25439,2,0,P|159:289|174:276,3,40.25,2|0|0|0,1:2|2:0|2:0|2:0,2:0:0:0:
195,243,25620,6,0,P|180:182|154:127,1,109.25,2|0,1:2|2:0,2:0:0:0:
187,66,25801,2,0,P|133:33|76:12,1,109.25,2|0,1:2|2:0,2:0:0:0:
0,141,25981,6,0,P|45:136|90:125,1,86.25,2|0,3:2|2:0,2:0:0:0:
162,140,26162,2,0,P|191:104|214:65,1,86.25,0|0,3:0|2:0,2:0:0:0:
356,54,26342,6,0,B|377:39|376:18|376:18|356:24|350:50,1,86.25,8|0,2:2|2:0,2:0:0:0:
317,121,26523,2,0,P|327:167|340:272,1,109.25,0|0,1:0|2:0,2:0:0:0:
262,258,26704,6,0,P|253:190|236:122,1,138,10|2,2:1|2:2,2:0:0:0:
446,237,27065,2,0,B|395:212|348:234|359:252|310:280|262:258,1,195.5,2|2,1:2|2:2,2:0:0:0:
4,322,27426,6,0,P|40:299|82:289,1,86.25,2|0,2:2|2:0,2:0:0:0:
160,315,27606,2,0,B|178:333|173:354|173:354|154:344|152:319,1,86.25,8|0,2:2|2:0,2:0:0:0:
33,196,27787,5,2,2:2:0:0:
33,196,27968,1,2,2:2:0:0:
198,75,28148,6,0,B|182:59|184:38|184:38|166:54|142:51,1,86.25,10|0,2:1|2:0,2:0:0:0:
13,96,28329,2,0,B|64:121|112:99|101:81|149:53|198:75,1,195.5,2|2,1:2|2:2,2:0:0:0:
446,194,28690,2,0,B|444:212|459:225|459:225|476:215|477:197,1,69,10|0,2:2|2:0,2:0:0:0:
399,135,28871,6,0,P|354:154|307:168,1,97.75,2|0,3:2|2:0,2:0:0:0:
206,178,29051,1,8,2:2:0:0:
206,178,29141,6,0,P|295:216|374:273,1,195.5,0|0,3:0|2:0,2:0:0:0:
500,361,29412,6,0,P|452:350|403:345,1,97.75,2|0,3:2|2:0,2:0:0:0:
314,329,29593,2,0,P|287:352|321:342,1,97.75,10|0,2:1|2:0,2:0:0:0:
53,149,29954,6,0,B|34:141|10:146|10:146|81:68|180:93|180:93|160:103|146:123,1,276,6|2,1:2|2:2,2:0:0:0:
28,226,30496,1,8,2:2:0:0:
193,337,30676,6,0,B|248:345|287:305|269:291|307:245|370:258,1,207,6|0,1:2|2:0,2:0:0:0:
502,244,31038,2,0,P|467:218|426:206,1,86.25,10|0,2:1|2:0,2:0:0:0:
348,333,31218,1,2,1:2:0:0:
419,76,31399,6,0,B|415:50|432:37|432:37|441:57|427:78,1,86.25,10|0,2:2|2:0,2:0:0:0:
471,140,31579,1,2,2:2:0:0:
371,258,31760,6,0,P|251:207|137:146,1,258.75,6|0,1:2|2:0,2:0:0:0:
62,160,32121,2,0,B|40:175|21:166|21:166|34:149|59:152,1,86.25,10|0,2:2|2:0,2:0:0:0:
154,261,32302,1,2,1:2:0:0:
154,261,32392,1,2,2:2:0:0:
154,261,32482,6,0,P|196:251|235:233,1,86.25,10|2,2:1|2:2,2:0:0:0:
313,209,32663,2,0,P|326:167|329:125,1,86.25,2|2,2:2|2:2,2:0:0:0:
374,59,32843,2,0,B|326:29|277:51|288:70|239:98|188:65,1,195.5,0|0,1:0|2:0,2:0:0:0:
67,205,33204,6,0,P|88:271|100:337,2,138,2|10|2,2:2|2:2|2:2,2:0:0:0:
2,155,33746,1,0,1:0:0:0:
162,196,33927,6,0,P|198:173|240:166,1,86.25,2|0,2:2|2:0,2:0:0:0:
300,106,34107,2,0,P|337:126|365:159,1,86.25,2|0,2:2|2:0,2:0:0:0:
420,240,34288,6,0,B|400:280|452:312|500:284|492:228|480:171|365:169|342:240|342:240|334:265,1,293.25,2|0,3:2|2:0,2:0:0:0:
506,367,34649,6,0,P|174:175|85:130,1,483,6|0,1:2|2:0,2:0:0:0:
46,62,35371,2,0,P|40:31|59:56,1,86.25,8|0,2:1|2:0,2:0:0:0:
146,277,35733,6,0,P|187:264|223:241,1,86.25,2|0,2:2|2:0,2:0:0:0:
249,166,35913,2,0,B|304:179|309:132|364:144,1,120.75,0|0,1:0|2:0,2:0:0:0:
423,63,36094,2,0,P|378:136|352:218,2,172.5,2|10|2,2:2|2:2|2:2,2:0:0:0:
502,380,36816,6,0,P|499:341|478:307,1,80.5,10|0,2:1|2:0,2:0:0:0:
402,321,36997,2,0,P|383:313|364:316,3,40.25,2|0|0|0,1:2|2:0|2:0|2:0,2:0:0:0:
357,355,37177,6,0,P|305:342|255:319,1,109.25,2|0,1:2|2:0,2:0:0:0:
168,322,37358,2,0,P|141:277|122:225,1,109.25,0|0,1:0|2:0,2:0:0:0:
8,212,37538,6,0,P|20:168|39:126,1,86.25,2|0,3:2|2:0,2:0:0:0:
37,52,37719,2,0,P|77:29|120:13,1,86.25,2|0,3:2|2:0,2:0:0:0:
246,125,37900,6,0,B|242:150|223:159|223:159|218:139|237:121,1,86.25,10|0,2:2|2:0,2:0:0:0:
287,60,38080,2,0,P|385:59|480:35,2,195.5,2|10|10,1:2|2:1|0:2,2:0:0:0:
376,296,38622,2,0,B|319:274|273:315|289:332|242:367|188:350,1,207,2|0,1:2|2:0,2:0:0:0:
128,299,38983,5,2,2:2:0:0:
168,233,39164,2,0,B|186:215|181:194|181:194|162:204|160:229,1,86.25,10|0,2:2|2:0,2:0:0:0:
206,118,39344,5,2,2:2:0:0:
188,42,39525,1,2,2:2:0:0:
308,107,39705,6,0,P|349:95|386:73,1,86.25,10|0,2:1|2:0,2:0:0:0:
488,129,39886,2,0,B|472:145|474:166|474:166|456:150|432:153,1,86.25,2|0,1:2|2:0,2:0:0:0:
464,25,40067,6,0,P|405:139|369:264,1,258.75,2|0,2:2|2:0,2:0:0:0:
299,358,40428,6,0,P|261:327|216:306,1,97.75,2|0,3:2|2:0,2:0:0:0:
190,228,40608,1,8,2:2:0:0:
190,228,40699,6,0,P|95:254|7:294,1,195.5,2|0,3:2|2:0,2:0:0:0:
132,353,40969,6,0,P|177:335|218:307,1,97.75,2|0,3:2|2:0,2:0:0:0:
268,238,41150,2,0,P|293:212|282:246,1,97.75,10|0,2:1|2:0,2:0:0:0:
91,104,41511,6,0,B|73:144|28:146|0:120|-11:87|13:49|50:12|91:5|157:34,1,293.25,6|0,1:2|2:0,2:0:0:0:
245,25,41872,6,0,P|278:60|324:75,2,97.75,2|2|10,2:2|2:2|2:2,2:0:0:0:
21,233,42234,2,0,B|74:254|124:209|104:196|151:161|208:180,1,207,6|2,1:2|2:2,2:0:0:0:
342,189,42595,6,0,B|326:173|328:152|328:152|310:168|286:165,1,86.25,10|2,2:1|2:2,2:0:0:0:
284,246,42775,1,2,1:2:0:0:
65,334,42956,6,0,P|57:218|48:158,1,172.5,10|0,2:2|2:0,2:0:0:0:
144,46,43317,6,0,B|109:59|92:92|92:92|191:34|306:55,1,293.25,6|0,1:2|2:0,2:0:0:0:
432,52,43678,6,0,B|450:34|445:13|445:13|426:23|424:48,1,86.25,10|2,2:2|2:2,2:0:0:0:
396,118,43859,1,2,1:2:0:0:
496,230,44039,6,0,P|455:230|414:244,1,86.25,10|0,2:1|2:0,2:0:0:0:
337,228,44220,2,0,P|306:256|288:296,1,86.25,10|0,2:2|2:0,2:0:0:0:
382,350,44401,6,0,P|337:318|287:295,1,109.25,2|0,1:2|2:0,2:0:0:0:
215,234,44581,2,0,P|161:242|110:262,1,109.25,2|0,2:2|2:0,2:0:0:0:
11,373,44762,5,2,2:2:0:0:
11,373,44852,1,2,2:2:0:0:
11,373,44942,2,0,P|28:332|43:261,1,86.25,10|0,2:2|2:0,2:0:0:0:
6,132,45123,5,2,2:2:0:0:
30,163,45213,1,2,2:2:0:0:
22,192,45303,6,0,B|88:207|94:151|160:165,1,143.75,2|0,3:2|2:0,2:0:0:0:
215,234,45484,2,0,P|245:219|265:192,1,69,10|0,2:1|2:0,2:0:0:0:
298,86,45665,1,2,2:2:0:0:
394,205,45845,6,0,B|401:222|420:235|420:235|322:239|273:158|273:158|293:164|315:160,1,258.75,2|0,1:2|2:0,2:0:0:0:
467,170,46206,6,0,P|247:142|60:109,1,402.5,4|0,1:0|2:0,2:0:0:0:
30,45,46929,2,0,P|24:14|43:39,1,86.25,8|0,2:1|2:0,2:0:0:0:
16,358,47290,6,0,P|49:331|90:318,1,86.25,2|0,2:2|2:0,2:0:0:0:
162,352,47470,1,2,1:2:0:0:
162,352,49096,6,0,P|188:310|203:264,1,97.75,6|0,3:2|2:0,2:0:0:0:
270,208,49276,2,0,P|259:160|237:116,1,97.75,2|0,3:2|2:0,2:0:0:0:
54,101,49457,6,0,B|37:81|16:83|16:83|24:103|49:108,1,86.25,10|0,2:2|2:0,2:0:0:0:
123,139,49637,2,0,B|178:152|183:105|238:117,1,120.75,2|2,1:2|2:2,2:0:0:0:
410,84,49818,2,0,P|326:64|248:27,1,172.5,10|2,2:1|2:2,2:0:0:0:
485,186,50179,5,2,1:2:0:0:
485,186,50360,1,2,2:2:0:0:
380,322,50540,6,0,P|346:294|306:279,1,86.25,2|0,2:2|2:0,2:0:0:0:
247,335,50721,2,0,P|204:339|165:357,1,86.25,10|0,2:2|2:0,2:0:0:0:
160,230,50901,5,2,2:0:0:0:
170,225,50992,2,0,B|216:248|258:228|248:212|293:187|332:208,1,172.5,2|2,2:2|2:2,2:0:0:0:
207,108,51263,5,10,2:1:0:0:
197,113,51353,2,0,B|151:90|109:110|119:126|74:151|35:130,1,172.5,2|2,2:2|2:2,2:0:0:0:
131,34,51624,6,0,P|151:178|167:329,1,293.25,2|0,2:2|2:0,2:0:0:0:
289,362,51985,6,0,P|329:334|375:318,1,97.75,2|0,3:2|2:0,2:0:0:0:
479,290,52166,1,10,2:2:0:0:
479,290,52256,6,0,P|382:273|295:231,1,195.5,0|0,3:0|2:0,2:0:0:0:
170,199,52527,6,0,P|216:183|256:155,1,97.75,2|0,3:2|2:0,2:0:0:0:
349,169,52707,2,0,P|362:135|335:159,1,97.75,10|0,2:1|2:0,2:0:0:0:
199,360,53068,6,0,B|237:381|274:355|281:318|270:285|228:269|176:261|139:280|104:343,1,293.25,6|0,1:2|2:0,2:0:0:0:
7,242,53430,6,0,P|54:235|90:202,1,97.75,2|0,2:2|2:0,2:0:0:0:
83,166,53610,1,10,2:2:0:0:
83,166,53700,1,2,2:2:0:0:
64,90,53791,6,0,B|119:77|124:124|179:112,1,120.75,6|0,1:2|2:0,2:0:0:0:
246,157,53971,2,0,P|277:127|316:110,1,86.25,2|0,2:2|2:0,2:0:0:0:
377,57,54152,6,0,B|361:41|363:20|363:20|345:36|321:33,1,86.25,10|0,2:1|2:0,2:0:0:0:
389,130,54333,1,2,1:2:0:0:
396,268,54513,6,0,B|414:250|435:255|435:255|425:273|400:276,1,86.25,10|0,2:2|2:0,2:0:0:0:
330,308,54694,1,0,2:0:0:0:
496,374,54874,6,0,P|372:295|243:224,1,293.25,4|0,1:2|2:0,2:0:0:0:
103,245,55235,6,0,B|99:227|112:212|112:212|130:220|133:238,1,69,8|0,2:2|2:0,2:0:0:0:
133,319,55416,1,0,1:0:0:0:
243,224,55597,6,0,P|285:215|325:201,1,86.25,8|0,2:1|2:0,2:0:0:0:
406,207,55777,2,0,P|429:170|448:132,1,86.25,8|0,2:2|2:0,2:0:0:0:
484,60,55958,2,0,B|438:37|396:57|406:73|361:98|322:77,1,172.5,0|0,1:0|2:0,2:0:0:0:
88,30,56319,5,2,2:2:0:0:
47,99,56500,2,0,B|29:117|34:138|34:138|52:128|55:103,1,86.25,10|0,2:2|2:0,2:0:0:0:
149,192,56680,5,2,2:2:0:0:
149,192,56861,1,2,3:2:0:0:
10,287,57041,5,10,2:1:0:0:
28,363,57222,1,2,2:2:0:0:
157,368,57402,6,0,P|325:295|504:253,1,368,2|2,1:2|2:2,2:0:0:0:
476,46,69321,6,0,B|491:54|506:38|505:11|472:15|433:23|411:45|404:75,1,143.75,4|0,1:2|2:0,2:0:0:0:
338,112,69501,2,0,P|343:139|359:169,1,57.5,8|0,2:2|2:0,2:0:0:0:
466,301,69682,5,2,2:2:0:0:
457,285,69772,1,2,2:2:0:0:
441,281,69863,1,2,2:2:0:0:
485,221,70043,6,0,P|429:236|375:256,1,115,10|0,2:1|2:0,2:0:0:0:
192,369,70404,1,2,2:2:0:0:
178,294,70585,6,0,P|234:321|248:259,1,143.75,0|0,1:0|2:0,2:0:0:0:
280,187,70765,6,0,B|235:173|199:191|208:205|172:223|127:209,1,161,2|10,2:2|2:2,2:0:0:0:
6,32,71127,2,0,B|51:18|87:36|78:50|114:68|159:54,1,161,2|2,2:2|2:2,2:0:0:0:
387,154,71488,6,0,P|401:117|397:78,1,80.5,10|0,2:1|2:0,2:0:0:0:
321,58,71668,2,0,P|306:43|288:38,3,40.25,2|0|0|0,1:2|2:0|2:0|2:0,2:0:0:0:
259,79,71849,6,0,P|265:133|279:186,1,109.25,2|0,1:2|2:0,2:0:0:0:
244,257,72030,2,0,P|287:290|334:318,1,109.25,0|0,1:0|2:0,2:0:0:0:
494,314,72210,6,0,P|454:296|411:288,1,86.25,2|0,3:2|2:0,2:0:0:0:
334,318,72391,2,0,P|293:333|257:358,1,86.25,0|0,3:0|2:0,2:0:0:0:
63,338,72571,6,0,B|37:342|30:363|30:363|51:365|66:345,1,86.25,8|0,2:2|2:0,2:0:0:0:
127,299,72752,2,0,P|121:252|117:146,1,109.25,0|0,1:0|2:0,2:0:0:0:
193,167,72932,6,0,P|196:235|207:304,1,138,10|10,2:1|2:2,2:0:0:0:
8,187,73294,2,0,B|59:212|106:190|95:172|144:144|192:166,1,195.5,2|2,1:2|2:2,2:0:0:0:
442,221,73655,5,2,2:0:0:0:
479,157,73835,2,0,B|497:139|492:118|492:118|473:128|471:153,1,86.25,10|0,2:2|2:0,2:0:0:0:
494,314,74016,5,2,2:2:0:0:
494,314,74196,1,2,2:2:0:0:
361,347,74377,6,0,B|345:331|347:310|347:310|329:326|305:323,1,86.25,10|0,2:1|2:0,2:0:0:0:
177,326,74558,2,0,B|228:301|276:323|265:341|313:369|362:347,1,195.5,2|2,1:2|2:2,2:0:0:0:
461,132,74919,2,0,B|458:148|465:166|465:166|458:148|443:136,1,69,8|0,2:2|2:0,2:0:0:0:
368,161,75099,6,0,P|413:143|461:132,1,97.75,2|0,3:2|2:0,2:0:0:0:
501,63,75280,1,8,2:2:0:0:
501,63,75370,6,0,P|403:55|307:36,1,195.5,0|0,3:0|2:0,2:0:0:0:
185,167,75641,6,0,P|226:140|264:109,1,97.75,0|0,3:0|2:0,2:0:0:0:
230,29,75822,2,0,P|194:24|224:43,1,97.75,8|0,2:1|2:0,2:0:0:0:
162,281,76183,6,0,B|181:289|205:284|205:284|134:362|35:337|35:337|55:327|68:309,1,276,6|0,1:2|2:0,2:0:0:0:
84,192,76725,1,8,2:2:0:0:
162,102,76905,2,0,B|181:94|205:99|205:99|134:21|35:46|35:46|55:56|68:75,1,276,6|2,1:2|2:2,2:0:0:0:
67,74,77989,6,0,P|210:46|356:30,1,293.25,6|0,1:2|2:0,2:0:0:0:
449,27,78350,6,0,B|475:23|489:39|489:39|469:48|448:35,1,86.25,8|0,2:2|2:0,2:0:0:0:
356,30,78530,2,0,B|300:39|314:84|258:95,1,120.75,2|0,1:2|2:0,2:0:0:0:
208,154,78711,6,0,P|170:168|147:135,1,86.25,10|0,2:1|2:0,2:0:0:0:
291,170,78892,1,10,2:2:0:0:
342,305,79072,6,0,B|390:282|428:300|419:319|466:340|506:319,2,172.5,2|2|2,1:2|2:2|2:2,2:0:0:0:
218,316,79614,2,0,B|234:332|234:355|234:355|250:337|274:340,1,86.25,8|0,2:2|2:0,2:0:0:0:
378,371,79795,5,2,2:2:0:0:
471,203,79975,2,0,P|428:194|390:175,1,86.25,2|0,3:2|2:0,2:0:0:0:
402,99,80156,1,10,2:1:0:0:
402,99,80878,6,0,B|347:86|342:133|287:121,1,120.75,6|0,1:2|2:0,2:0:0:0:
226,58,81059,2,0,P|192:61|169:85,1,69,8|0,2:2|2:0,2:0:0:0:
81,196,81239,5,2,2:2:0:0:
65,186,81329,1,2,2:2:0:0:
62,169,81420,1,2,2:2:0:0:
11,245,81600,6,0,P|77:232|165:221,1,138,10|0,2:1|2:0,2:0:0:0:
389,302,81961,1,2,2:2:0:0:
314,361,82142,6,0,B|306:317|328:290|342:302|369:269|363:231,1,143.75,2|0,1:2|2:0,2:0:0:0:
387,162,82323,6,0,B|416:169|431:198|431:198|489:163|474:115,1,161,2|10,2:2|2:2,2:0:0:0:
214,100,82684,2,0,B|184:107|169:136|169:136|111:101|126:53,1,161,2|2,2:2|2:2,2:0:0:0:
287,232,83045,6,0,P|270:195|238:172,1,80.5,10|0,2:1|2:0,2:0:0:0:
172,213,83226,2,0,P|152:214|134:223,3,40.25,2|0|0|0,1:2|2:0|2:0|2:0,2:0:0:0:
117,257,83406,6,0,P|164:282|218:291,1,109.25,2|0,1:2|2:0,2:0:0:0:
287,232,83587,2,0,P|339:216|383:184,1,109.25,0|0,1:0|2:0,2:0:0:0:
500,333,83767,6,0,P|495:288|484:243,1,86.25,2|0,3:2|2:0,2:0:0:0:
499,171,83948,2,0,P|463:142|424:119,1,86.25,0|0,3:0|2:0,2:0:0:0:
307,58,84128,6,0,B|328:43|327:22|327:22|307:28|301:54,1,86.25,8|0,2:2|2:0,2:0:0:0:
267,124,84309,2,0,P|277:170|290:275,1,109.25,0|0,1:0|2:0,2:0:0:0:
212,261,84490,6,0,P|203:193|186:125,1,138,10|2,2:1|2:2,2:0:0:0:
396,281,84851,2,0,B|345:306|298:284|309:266|260:238|212:260,1,195.5,2|2,1:2|2:2,2:0:0:0:
17,368,85212,6,0,P|41:333|54:291,1,86.25,2|0,2:2|2:0,2:0:0:0:
29,217,85393,2,0,B|24:192|4:184|4:184|1:205|21:221,1,86.25,8|0,2:2|2:0,2:0:0:0:
106,110,85573,5,2,2:2:0:0:
106,110,85754,1,2,2:2:0:0:
248,57,85934,6,0,B|232:41|234:20|234:20|216:36|192:33,1,86.25,10|0,2:1|2:0,2:0:0:0:
64,36,86115,2,0,B|115:11|163:33|152:51|200:79|249:57,1,195.5,2|2,1:2|2:2,2:0:0:0:
493,199,86476,6,0,B|496:181|482:166|482:166|464:175|462:193,1,69,10|0,2:2|2:0,2:0:0:0:
445,274,86657,6,0,P|400:254|353:239,1,97.75,2|0,3:2|2:0,2:0:0:0:
273,254,86837,1,8,2:2:0:0:
273,254,86927,6,0,P|349:192|414:119,1,195.5,0|0,3:0|2:0,2:0:0:0:
235,141,87198,6,0,P|211:183|193:229,1,97.75,2|0,3:2|2:0,2:0:0:0:
207,307,87379,2,0,P|214:342|191:314,1,97.75,10|0,2:1|2:0,2:0:0:0:
64,36,87740,6,0,B|23:30|0:65|6:100|26:125|69:125|117:115|143:85|153:18,1,276,6|2,1:2|2:2,2:0:0:0:
290,247,88462,6,0,B|235:239|196:279|214:293|176:339|113:326,1,207,6|0,1:2|2:0,2:0:0:0:
46,366,88824,2,0,P|24:339|13:306,1,69,10|0,2:1|2:0,2:0:0:0:
134,246,89004,1,2,1:2:0:0:
307,344,89185,6,0,B|281:340|272:321|272:321|293:316|310:335,1,86.25,10|0,2:2|2:0,2:0:0:0:
376,371,89365,1,2,2:2:0:0:
490,220,89546,6,0,P|366:173|230:133,1,258.75,6|0,1:2|2:0,2:0:0:0:
209,69,89907,2,0,B|193:48|200:28|200:28|218:39|217:65,1,86.25,10|0,2:2|2:0,2:0:0:0:
377,136,90088,1,2,1:2:0:0:
377,136,90178,1,2,2:2:0:0:
377,136,90268,6,0,P|347:167|312:192,1,86.25,2|0,2:2|2:0,2:0:0:0:
251,246,90449,2,0,P|208:236|170:217,1,86.25,10|0,2:2|2:0,2:0:0:0:
23,169,90629,2,0,B|72:195|120:170|108:152|154:120|208:150,1,195.5,0|0,1:2|2:0,2:0:0:0:
483,298,90991,6,0,P|419:325|358:356,2,138,2|2|2,2:2|2:2|2:2,2:0:0:0:
53,330,91713,6,0,P|85:286|104:235,1,109.25,2|0,2:2|2:0,2:0:0:0:
163,172,91893,2,0,P|155:118|132:68,1,109.25,2|0,2:2|2:0,2:0:0:0:
226,36,92074,6,0,P|261:60|302:74,1,86.25,2|0,2:2|2:0,2:0:0:0:
367,126,92255,2,0,P|409:117|448:99,1,86.25,2|0,2:2|2:0,2:0:0:0:
512,29,92435,6,0,P|351:125|157:288,1,402.5,6|0,1:2|2:0,2:0:0:0:
177,341,93158,2,0,P|187:370|190:339,1,86.25,8|0,2:1|2:0,2:0:0:0:
