osu file format v14

[General]
AudioFilename: audio.mp3
AudioLeadIn: 0
PreviewTime: 11490
Countdown: 0
SampleSet: Soft
StackLeniency: 0.5
Mode: 0
LetterboxInBreaks: 0
WidescreenStoryboard: 1

[Editor]
Bookmarks: 11535,23093,34650,46208,57766,69323,80881,93341
DistanceSpacing: 1.4
BeatDivisor: 8
GridSize: 4
TimelineZoom: 2.2

[Metadata]
Title:bright
TitleUnicode:bright
Artist:passchooo
ArtistUnicode:passchooo
Creator:Chompy
Version:ascended's hard
Source:
Tags:mappers guild mpg featured artist fa english pop hiphop hip hop hyperpop rap trap pass passchoo draf2k mental baredex wafer goopert kami no kotoba ascended -ascended- -_ascended_-
BeatmapID:4199698
BeatmapSetID:1558557

[Difficulty]
HPDrainRate:4.5
CircleSize:3.7
OverallDifficulty:6
ApproachRate:7.5
SliderMultiplier:1.4
SliderTickRate:1

[Events]
//Background and Video events
0,0,"bright.jpg",0,0
//Break Periods
2,57963,68496
//Storyboard Layer 0 (Background)
//Storyboard Layer 1 (Fail)
//Storyboard Layer 2 (Pass)
//Storyboard Layer 3 (Foreground)
//Storyboard Layer 4 (Overlay)
//Storyboard Sound Samples

[TimingPoints]
-22,361.162944681876,4,2,0,70,1,0
11535,-100,4,2,0,70,0,0

[Colours]
Combo1 : 248,241,156
Combo2 : 187,223,159
Combo3 : 221,172,119

[HitObjects]
498,319,11535,5,4,1:2:0:0:
410,361,11715,1,8,2:2:0:0:
336,300,11896,1,2,2:0:0:0:
336,300,11986,1,2,2:0:0:0:
336,300,12076,1,2,2:0:0:0:
241,325,12257,2,0,P|202:316|159:311,1,70,10|0,0:1|2:0,2:0:0:0:
71,338,12618,2,0,P|80:299|85:256,1,70,2|0,2:0|1:0,0:0:0:0:
4,215,12979,5,2,2:0:0:0:
4,215,13160,1,10,0:2:0:0:
51,137,13341,2,0,P|46:117|44:96,2,35,2|0|2,2:0|0:0|2:0,2:0:0:0:
133,194,13702,2,0,P|172:185|215:180,1,70,10|2,2:1|1:2,2:0:0:0:
238,221,13973,1,0,1:0:0:0:
238,221,14063,2,0,P|272:225|306:233,1,70,2|0,1:2|1:0,2:0:0:0:
378,303,14424,5,2,3:2:0:0:
378,303,14605,1,0,3:0:0:0:
470,282,14785,2,0,P|474:247|482:213,1,70,8|0,2:2|1:0,2:0:0:0:
505,116,15146,2,0,P|470:111|436:103,1,70,10|10,2:1|2:2,2:0:0:0:
348,129,15508,2,0,P|313:133|279:141,1,70,2|0,1:2|2:0,2:0:0:0:
235,52,15869,5,2,2:2:0:0:
235,52,16049,1,10,2:2:0:0:
168,125,16230,2,0,P|175:159|179:193,1,70,2|2,2:2|2:2,0:0:0:0:
265,245,16591,2,0,P|257:279|253:313,1,70,10|2,2:1|3:2,2:0:0:0:
165,368,16952,2,0,P|161:333|153:299,1,70,2|8,2:2|2:2,0:0:0:0:
85,243,17313,6,0,B|53:255|53:255|27:226,1,70,2|8,3:2|2:2,2:0:0:0:
0,187,17584,2,0,B|-12:155|-12:155|16:129,1,70,0|0,3:0|2:0,2:0:0:0:
62,119,17855,1,0,3:0:0:0:
140,164,18036,1,8,2:1:0:0:
281,321,18397,2,0,B|352:307|328:262|415:249,1,140,6|0,1:2|2:0,2:0:0:0:
292,72,19119,2,0,P|284:106|280:140,1,70,6|0,1:2|0:0,2:0:0:0:
262,232,19480,1,2,2:2:0:0:
262,232,20203,6,0,P|192:240|124:255,1,140,6|8,1:2|2:2,2:0:0:0:
39,304,20744,1,2,1:2:0:0:
39,304,20925,2,0,P|31:269|27:235,1,70,10|2,2:1|2:2,2:0:0:0:
102,175,21286,2,0,P|105:140|113:106,1,70,2|2,1:2|2:2,2:0:0:0:
27,70,21647,2,0,P|70:20|147:15,1,140,2|2,2:2|2:2,0:0:0:0:
223,73,22189,1,2,3:2:0:0:
223,73,22370,1,10,2:1:0:0:
419,21,23092,6,0,P|411:55|408:89,1,70,6|8,1:2|2:2,2:0:0:0:
457,175,23453,2,0,P|474:171|491:169,2,35,2|2|2,2:2|2:2|2:2,0:0:0:0:
375,208,23814,2,0,B|295:198|305:242|224:231,1,140,10|2,2:1|2:2,2:0:0:0:
160,185,24356,5,2,1:2:0:0:
160,185,24537,2,0,P|125:193|91:197,1,70,2|10,2:2|2:2,2:0:0:0:
39,275,24898,2,0,P|47:310|51:344,1,70,2|2,2:2|2:2,2:0:0:0:
134,379,25259,1,10,2:1:0:0:
218,328,25439,1,2,1:2:0:0:
218,328,25530,1,0,1:0:0:0:
218,328,25620,2,0,P|252:332|286:339,1,70,2|2,1:2|1:2,2:0:0:0:
381,356,25981,5,2,3:2:0:0:
381,356,26162,1,0,3:0:0:0:
464,298,26342,1,8,2:2:0:0:
306,172,26704,2,0,P|271:180|237:184,1,70,10|2,2:1|2:2,2:0:0:0:
158,230,27065,2,0,P|123:222|89:218,1,70,2|2,1:2|2:2,2:0:0:0:
25,153,27426,6,0,P|46:86|119:78,1,140,2|2,2:2|2:2,2:0:0:0:
190,21,27968,2,0,P|197:55|201:89,1,70,2|10,2:2|2:1,0:0:0:0:
294,109,28329,1,2,1:2:0:0:
294,109,28509,2,0,P|301:74|305:40,1,70,2|10,2:2|2:2,0:0:0:0:
398,37,28871,6,0,B|422:9|422:9|452:21,1,70,2|8,3:2|2:2,2:0:0:0:
490,53,29141,2,0,B|517:77|517:77|505:107,1,70,0|0,3:0|2:0,2:0:0:0:
483,152,29412,1,2,3:2:0:0:
385,131,29593,2,0,P|392:165|396:199,1,70,10|0,2:1|0:0,2:0:0:0:
477,256,29954,2,0,P|469:290|465:324,1,70,6|0,1:2|0:0,2:0:0:0:
381,360,30315,6,0,P|347:305|268:300,1,140,2|6,2:2|1:2,0:0:0:0:
194,338,30857,1,0,0:0:0:0:
194,338,31038,2,0,P|159:330|125:326,1,70,10|2,2:1|1:2,2:0:0:0:
62,253,31399,2,0,P|69:218|73:184,1,70,10|2,2:2|2:2,2:0:0:0:
151,134,31760,6,0,B|226:125|217:170|285:164,1,140,6|10,1:2|2:2,2:0:0:0:
362,218,32302,1,2,1:2:0:0:
362,218,32482,2,0,P|396:210|430:206,1,70,10|2,2:1|2:2,2:0:0:0:
494,133,32843,2,0,P|486:98|482:64,1,70,0|0,1:0|2:0,2:0:0:0:
400,10,33204,5,2,2:2:0:0:
400,10,33385,1,10,2:2:0:0:
340,82,33566,2,0,P|305:74|271:70,1,70,2|0,2:2|1:0,0:0:0:0:
183,50,33927,1,2,2:2:0:0:
10,152,34288,1,2,3:2:0:0:
125,286,34649,5,6,1:2:0:0:
125,286,34830,2,0,B|130:173|91:204|102:74,1,210,8|8,0:2|2:1,0:0:0:0:
258,208,35733,2,0,P|292:200|326:196,1,70,2|0,2:2|1:0,2:0:0:0:
409,139,36094,2,0,P|416:173|420:207,1,70,2|10,2:2|2:2,2:0:0:0:
505,235,36455,6,0,P|489:303|481:372,1,140,2|10,2:2|2:1,0:0:0:0:
391,320,36997,1,2,1:2:0:0:
391,320,37087,1,0,1:0:0:0:
391,320,37177,2,0,P|356:324|322:331,1,70,2|0,1:2|1:0,2:0:0:0:
228,364,37538,5,2,3:2:0:0:
228,364,37719,1,2,3:2:0:0:
160,286,37900,2,0,P|142:288|125:291,2,35,10|0|2,2:2|2:0|1:2,2:0:0:0:
254,261,38261,2,0,P|258:226|265:192,1,70,10|10,2:1|0:2,0:0:0:0:
219,115,38622,1,2,1:2:0:0:
33,207,38983,6,0,P|29:172|22:138,1,70,2|10,2:2|2:2,0:0:0:0:
78,64,39344,2,0,P|113:60|147:53,1,70,2|2,2:2|2:2,0:0:0:0:
219,115,39705,2,0,P|253:107|288:103,1,70,10|2,2:1|1:2,2:0:0:0:
354,40,40067,1,2,2:2:0:0:
266,195,40428,6,0,P|273:229|277:264,1,70,2|8,3:2|2:2,2:0:0:0:
286,312,40699,2,0,P|320:305|355:301,1,70,2|0,3:2|2:0,2:0:0:0:
389,335,40969,1,2,3:2:0:0:
467,279,41150,2,0,P|499:216|479:142,1,140,10|6,2:1|1:2,2:0:0:0:
328,30,41872,6,0,P|294:37|259:41,1,70,2|10,2:2|2:2,2:0:0:0:
181,100,42234,2,0,P|164:96|146:94,2,35,6|2|2,1:2|0:2|0:2,2:0:0:0:
266,150,42595,1,10,2:1:0:0:
266,150,42685,2,0,P|259:184|255:219,1,70,2|0,2:2|0:0,0:0:0:0:
329,271,42956,2,0,P|261:257|200:288,1,140,10|6,2:2|1:2,2:0:0:0:
135,355,43498,5,0,0:0:0:0:
48,325,43678,1,10,2:2:0:0:
48,325,43769,2,0,P|44:290|36:255,1,70,2|0,2:2|0:0,0:0:0:0:
1,222,44039,2,0,P|4:187|12:152,1,70,10|10,2:1|2:2,2:0:0:0:
88,95,44401,2,0,P|122:102|157:106,1,70,2|2,1:2|2:2,2:0:0:0:
237,165,44762,5,2,2:2:0:0:
237,165,44942,1,10,2:2:0:0:
304,92,45123,2,0,P|302:74|298:56,2,35,2|2|2,2:2|2:2|3:2,0:0:0:0:
380,141,45484,2,0,P|414:137|449:129,1,70,10|2,2:1|2:2,2:0:0:0:
495,51,45845,1,2,1:2:0:0:
489,234,46206,6,0,B|411:215|417:263|333:243,1,140,4|2,1:0|0:2,2:0:0:0:
305,230,46658,1,2,0:2:0:0:
305,230,46748,1,2,0:2:0:0:
228,288,46929,2,0,P|235:322|239:357,1,70,8|0,2:1|0:0,2:0:0:0:
325,328,47290,1,2,2:2:0:0:
405,368,47470,1,2,1:2:0:0:
145,340,49096,5,6,3:2:0:0:
145,340,49276,1,2,3:2:0:0:
54,375,49457,2,0,P|36:378|19:380,2,35,10|0|2,2:2|2:0|1:2,2:0:0:0:
29,287,49818,2,0,P|36:252|40:217,1,70,10|2,2:1|2:2,2:0:0:0:
122,160,50179,2,0,P|125:194|133:229,1,70,2|2,1:2|2:2,0:0:0:0:
213,271,50540,5,2,2:2:0:0:
213,271,50721,2,0,P|247:263|281:260,2,70,10|2|0,2:2|2:0|0:0,2:0:0:0:
215,175,51263,2,0,P|222:140|225:106,1,70,10|0,2:1|0:0,0:0:0:0:
261,89,51534,2,0,P|314:118|319:172,1,105,2|0,2:2|0:0,0:0:0:0:
395,219,51985,6,0,P|429:212|464:208,1,70,2|10,3:2|2:2,2:0:0:0:
512,199,52256,2,0,P|505:165|501:130,1,70,0|0,3:0|2:0,2:0:0:0:
495,95,52526,1,2,3:2:0:0:
405,86,52707,2,0,P|412:52|416:17,2,70,10|0|6,2:1|0:0|1:2,2:0:0:0:
252,215,53430,6,0,P|218:208|183:204,1,70,2|10,2:2|2:2,2:0:0:0:
135,175,53700,1,2,2:2:0:0:
135,175,53791,2,0,P|101:182|66:186,1,70,6|2,1:2|2:2,2:0:0:0:
9,267,54152,2,0,P|16:301|20:336,1,70,10|2,2:1|1:2,2:0:0:0:
105,375,54513,1,10,2:2:0:0:
287,310,54874,6,0,B|358:295|351:333|431:322,1,140,4|8,1:2|2:2,2:0:0:0:
471,236,55416,1,0,1:0:0:0:
471,236,55597,2,0,P|436:232|401:224,1,70,8|8,2:1|2:2,2:0:0:0:
312,214,55958,1,0,1:0:0:0:
132,338,56319,6,0,P|135:303|143:268,1,70,2|10,2:2|2:2,0:0:0:0:
69,212,56680,2,0,P|65:177|57:142,1,70,2|2,2:2|3:2,0:0:0:0:
123,76,57041,1,10,2:1:0:0:
123,76,57222,1,2,2:2:0:0:
212,112,57402,2,0,P|256:104|297:18,1,140,2|0,1:2|0:0,2:0:0:0:
0,0,69321,5,4,1:2:0:0:
73,56,69501,1,8,2:2:0:0:
19,132,69682,1,2,2:2:0:0:
19,132,69772,1,2,2:2:0:0:
19,132,69862,1,2,2:2:0:0:
90,188,70043,2,0,P|129:179|172:174,1,70,10|0,2:1|2:0,2:0:0:0:
235,220,70404,2,0,P|274:229|317:234,1,70,2|0,2:2|1:0,0:0:0:0:
384,176,70765,5,2,2:2:0:0:
469,211,70946,1,10,2:2:0:0:
478,310,71127,2,0,P|498:305|519:303,2,35,2|0|2,2:2|0:0|2:2,2:0:0:0:
398,371,71488,2,0,P|359:362|316:357,1,70,10|2,2:1|1:2,2:0:0:0:
292,333,71759,1,0,1:0:0:0:
292,333,71849,2,0,P|257:341|223:345,1,70,2|0,1:2|1:0,2:0:0:0:
134,303,72210,5,2,3:2:0:0:
134,303,72391,1,0,3:0:0:0:
48,363,72571,2,0,P|40:328|36:294,1,70,8|0,2:2|1:0,2:0:0:0:
86,211,72932,2,0,P|121:206|155:198,1,70,10|10,2:1|2:2,2:0:0:0:
247,245,73294,2,0,P|281:237|315:233,1,70,2|2,1:2|2:2,2:0:0:0:
408,265,73655,5,2,2:0:0:0:
464,186,73835,1,10,2:2:0:0:
397,124,74016,2,0,P|363:117|329:113,1,70,2|2,2:2|2:2,0:0:0:0:
230,131,74377,2,0,P|234:96|242:62,1,70,10|2,2:1|1:2,2:0:0:0:
160,12,74738,2,0,P|125:19|91:23,1,70,2|8,2:2|2:2,0:0:0:0:
24,90,75099,6,0,P|19:126|51:156,1,70,2|8,3:2|2:2,2:0:0:0:
57,196,75370,2,0,P|93:201|123:169,1,70,0|0,3:0|2:0,2:0:0:0:
141,138,75641,1,0,3:0:0:0:
207,206,75822,2,0,P|199:240|195:274,1,70,8|0,2:1|0:0,2:0:0:0:
182,371,76183,2,0,P|122:354|109:276,1,140,6|0,1:2|2:0,2:0:0:0:
296,175,76905,1,6,1:2:0:0:
296,175,77086,1,0,0:0:0:0:
246,100,77266,1,2,2:2:0:0:
284,287,77989,6,0,P|354:295|393:239,1,140,6|8,1:2|2:2,2:0:0:0:
495,264,78530,1,2,1:2:0:0:
495,264,78711,2,0,P|487:229|483:195,1,70,10|10,2:1|2:2,2:0:0:0:
511,96,79072,2,0,P|476:103|442:106,1,70,2|2,1:2|2:2,2:0:0:0:
425,17,79433,2,0,P|349:52|343:117,1,140,2|2,2:2|2:2,0:0:0:0:
318,190,79975,1,2,3:2:0:0:
232,163,80156,1,10,2:1:0:0:
117,366,80878,6,0,P|113:331|105:297,1,70,6|8,1:2|2:2,2:0:0:0:
28,240,81239,1,2,2:2:0:0:
28,240,81329,1,2,2:2:0:0:
28,240,81420,1,2,2:2:0:0:
94,167,81600,2,0,P|148:177|182:260,1,140,10|2,2:1|2:2,2:0:0:0:
252,307,82142,1,2,1:2:0:0:
318,241,82323,6,0,P|352:236|386:229,1,70,2|10,2:2|2:2,2:0:0:0:
432,142,82684,2,0,P|397:134|363:130,1,70,2|2,2:2|2:2,2:0:0:0:
272,155,83045,1,10,2:1:0:0:
213,82,83225,1,2,1:2:0:0:
213,82,83316,1,0,2:0:0:0:
213,82,83406,2,0,P|179:86|145:93,1,70,2|0,1:2|1:0,2:0:0:0:
84,174,83767,5,2,3:2:0:0:
16,115,83948,1,0,3:0:0:0:
66,34,84128,1,8,2:2:0:0:
185,179,84490,2,0,P|177:214|173:248,1,70,10|2,2:1|2:2,2:0:0:0:
80,262,84851,2,0,P|88:297|92:331,1,70,2|2,1:2|2:2,2:0:0:0:
182,368,85212,2,0,B|252:377|252:334|317:343,1,140,2|2,2:2|2:2,2:0:0:0:
407,369,85754,2,0,P|414:335|418:301,1,70,2|10,2:2|2:1,0:0:0:0:
424,202,86115,1,2,1:2:0:0:
343,242,86295,2,0,P|308:249|274:253,1,70,2|10,2:2|2:2,0:0:0:0:
181,200,86657,6,0,P|176:164|208:134,1,70,2|8,3:2|2:2,2:0:0:0:
214,94,86928,2,0,P|250:89|280:121,1,70,0|0,3:0|2:0,2:0:0:0:
298,152,87199,1,2,3:2:0:0:
386,109,87379,2,0,P|390:74|397:39,1,70,10|0,2:1|0:0,2:0:0:0:
489,85,87740,2,0,P|497:119|501:153,1,70,6|0,1:2|0:0,2:0:0:0:
511,254,88101,6,0,B|445:244|441:286|375:278,1,140,2|6,2:2|1:2,0:0:0:0:
373,368,88643,1,0,0:0:0:0:
290,323,88824,2,0,P|255:315|221:311,1,70,10|2,2:1|1:2,2:0:0:0:
137,369,89185,2,0,P|130:334|126:300,1,70,10|2,2:2|2:2,2:0:0:0:
32,274,89546,2,0,P|72:220|141:204,1,140,6|10,1:2|2:2,2:0:0:0:
234,224,90088,1,2,1:2:0:0:
245,135,90268,2,0,P|253:101|257:67,1,70,2|10,2:2|2:2,2:0:0:0:
156,88,90629,2,0,P|89:71|66:1,1,140,0|2,1:2|2:2,2:0:0:0:
346,141,91713,2,0,P|354:175|358:209,2,70,2|10|0,2:2|2:2|2:0,2:0:0:0:
374,335,92435,5,6,1:2:0:0:
294,384,92616,2,0,B|498:339|303:390|513:343,1,210,8|8,0:2|2:1,0:0:0:0:
