osu file format v14

[General]
AudioFilename: audio.ogg
AudioLeadIn: 0
PreviewTime: 55956
Countdown: 0
SampleSet: Normal
StackLeniency: 0.7
Mode: 1
LetterboxInBreaks: 0
WidescreenStoryboard: 0

[Editor]
Bookmarks: 14508,25730,36951,45368,67809,79030,87446,98668,104280,109889,121113,129527,140750,151970,171609,182831,194053,202469,213690,224912,233328,238937,250160,258574,274576,285799,297019,308242,319462,327880,330685,339101,350323,353128
DistanceSpacing: 1.5
BeatDivisor: 4
GridSize: 32
TimelineZoom: 1.51197

[Metadata]
Title:secret garden
TitleUnicode:secret garden
Artist:paraoka feat. haru*nya
ArtistUnicode:paraoka feat. haru*nya
Creator:paz08
Version:vague memories
Source:
Tags:psycho-function psycho function original soundtrack 麹町養蚕館 koujimachi yousankan silly walker japanese rock j-rock jrock
BeatmapID:3661785
BeatmapSetID:1787345

[Difficulty]
HPDrainRate:6
CircleSize:2
OverallDifficulty:6
ApproachRate:10
SliderMultiplier:1.4
SliderTickRate:1

[Events]
//Background and Video events
0,0,"sashimin.jpg",0,-70
//Break Periods
2,269151,273741
//Storyboard Layer 0 (Background)
//Storyboard Layer 1 (Fail)
//Storyboard Layer 2 (Pass)
//Storyboard Layer 3 (Foreground)
//Storyboard Layer 4 (Overlay)
//Storyboard Sound Samples

[TimingPoints]
487,350.6721216,4,1,0,70,1,0
487,-111.1111111,4,1,0,70,0,0
13624,-112.942825,4,1,0,70,0,0
13799,-113.86732,4,1,0,70,0,0
13974,-114.799385,4,1,0,70,0,0
14150,-115.74446,4,1,0,70,0,0
14500,-117.647064,4,1,0,70,0,0
15026,-125,4,1,0,60,0,0
25722,-117.6470588,4,1,0,65,0,0
34138,-117.647064,4,1,0,65,0,0
34489,-117.42234,4,1,0,66,0,0
34839,-116.39147,4,1,0,67,0,0
35190,-114.24679,4,1,0,69,0,0
35365,-112.7183,4,1,0,69,0,0
35541,-110.869286,4,1,0,70,0,0
35716,-108.729485,4,1,0,70,0,0
36067,-103.607506,4,1,0,70,0,0
36417,-97.58499,4,1,0,70,0,0
36593,-94.29828,4,1,0,70,0,0
36768,-89.28571429,4,1,0,80,0,0
36943,-100,4,1,0,80,0,0
45009,-98.389854,4,1,0,80,0,0
45097,-97.59001,4,1,0,80,0,0
45184,-96.80565,4,1,0,80,0,0
45272,-96.01868,4,1,0,80,0,0
45360,-95.2381,4,1,0,80,0,0
50970,-90.90909,4,1,0,80,0,0
53600,-90.12285,4,1,0,80,0,0
53688,-89.730064,4,1,0,80,0,0
53776,-89.338974,4,1,0,80,0,0
53951,-88.56632,4,1,0,80,0,0
54126,-87.80033,4,1,0,80,0,0
54302,-87.036674,4,1,0,80,0,0
54389,-86.66164,4,1,0,80,0,0
54477,-86.28393,4,1,0,80,0,0
54652,-85.53768,4,1,0,80,0,0
54828,-84.793686,4,1,0,80,0,0
55003,-84.06035,4,1,0,80,0,0
55091,-83.69398,4,1,0,80,0,0
55178,-66.66666667,4,1,0,80,0,0
55880,-333.3333333,4,1,0,60,0,0
55967,-281.4738716,4,1,0,62,0,0
56055,-236.0591232,4,1,0,65,0,0
56143,-197.1313466,4,1,0,68,0,0
56230,-164.3721242,4,1,0,70,0,0
56318,-136.3522154,4,1,0,72,0,0
56406,-112.8152086,4,1,0,75,0,0
56493,-93.34216917,4,1,0,77,0,0
56594,-50,4,1,0,90,0,1
56932,-86.95652174,4,1,0,90,0,1
67101,-100,4,1,0,80,0,1
67189,-96.9958,4,1,0,82,0,1
67277,-94.08186,4,1,0,83,0,1
67364,-91.2871,4,1,0,85,0,1
67452,-88.544655,4,1,0,87,0,1
67540,-85.8846,4,1,0,88,0,1
67627,-83.333336,4,1,0,90,0,1
67803,-86.95652174,4,1,0,90,0,1
71485,-85.727,4,1,0,90,0,1
71660,-84.52169,4,1,0,90,0,1
71835,-83.333336,4,1,0,90,0,1
72011,-84.55529,4,1,0,90,0,1
72186,-85.78808,4,1,0,90,0,1
72361,-87.03883,4,1,0,90,0,1
72537,-88.315125,4,1,0,90,0,1
72887,-90.90909,4,1,0,90,0,1
73063,-88.90521,4,1,0,90,0,1
73238,-80,4,1,0,90,0,1
73413,-86.95652174,4,1,0,90,0,1
74641,-80,4,1,0,90,0,1
74816,-86.95652174,4,1,0,90,0,1
74991,-90.90909,4,1,0,90,0,1
75079,-88.91085,4,1,0,90,0,1
75167,-86.95652,4,1,0,90,0,1
75342,-80,4,1,0,90,0,1
75693,-100,4,1,0,90,0,1
75780,-97.71487,4,1,0,90,0,1
75868,-95.45657,4,1,0,90,0,1
76043,-91.11958,4,1,0,90,0,1
76219,-83.33333333,4,1,0,90,0,1
77621,-83.98561,4,1,0,89,0,1
77709,-84.65057,4,1,0,89,0,1
77884,-85.98864,4,1,0,88,0,1
77972,-86.669464,4,1,0,87,0,1
78147,-88.03943,4,1,0,86,0,1
78235,-88.736496,4,1,0,85,0,1
78323,-89.43907,4,1,0,85,0,1
78410,-90.13913,4,1,0,84,0,1
78498,-90.85282,4,1,0,84,0,1
78586,-91.57215,4,1,0,83,0,1
78673,-92.288925,4,1,0,82,0,1
78761,-93.01962,4,1,0,82,0,1
78849,-93.7561,4,1,0,81,0,1
78936,-94.48996,4,1,0,81,0,1
79037,-95.2381,4,1,0,80,0,0
79287,-100,4,1,0,80,0,0
85161,-99.9596,4,1,0,80,0,0
85248,-99.86533,4,1,0,80,0,0
85336,-99.68047,4,1,0,80,0,0
85511,-98.93274,4,1,0,80,0,0
85687,-97.49973,4,1,0,80,0,0
85862,-86.95652174,4,1,0,80,0,0
86037,-100,4,1,0,80,0,0
86213,-86.95652174,4,1,0,80,0,0
86914,-90.04405,4,1,0,78,0,0
87002,-91.6378,4,1,0,76,0,0
87090,-93.25978,4,1,0,75,0,0
87265,-96.5711,4,1,0,72,0,0
87440,-100,4,1,0,70,0,0
87616,-111.1111111,4,1,0,70,0,0
92350,-105.540886,4,1,0,70,0,0
92466,-103.7621,4,1,0,70,0,0
92583,-101.99835,4,1,0,70,0,0
92700,-100.26459,4,1,0,70,0,0
92817,-98.56027,4,1,0,70,0,0
92934,-96.884964,4,1,0,70,0,0
93051,-95.2381,4,1,0,70,0,0
93226,-111.1111111,4,1,0,70,0,0
97785,-111.0415,4,1,0,71,0,0
97873,-110.91855,4,1,0,71,0,0
97960,-110.7184,4,1,0,72,0,0
98136,-110.03052,4,1,0,73,0,0
98311,-108.9179,4,1,0,73,0,0
98486,-107.33799,4,1,0,74,0,0
98662,-100,4,1,0,75,0,0
109357,-101.288734,4,1,0,75,0,0
109445,-101.943054,4,1,0,75,0,0
109533,-102.60159,4,1,0,75,0,0
109620,-103.25682,4,1,0,75,0,0
109708,-103.92387,4,1,0,75,0,0
109796,-104.5952,4,1,0,75,0,0
109883,-86.95652174,4,1,0,75,0,0
110059,-95.2381,4,1,0,75,0,0
111111,-86.95652174,4,1,0,75,0,0
111286,-95.2381,4,1,0,75,0,0
112689,-86.95652174,4,1,0,75,0,0
112864,-95.2381,4,1,0,75,0,0
113916,-86.95652174,4,1,0,75,0,0
114091,-95.2381,4,1,0,75,0,0
115319,-86.95652174,4,1,0,75,0,0
115494,-95.2381,4,1,0,75,0,0
116371,-93.76713,4,1,0,75,0,0
116458,-93.04843,4,1,0,75,0,0
116546,-92.327065,4,1,0,75,0,0
116721,-90.90909,4,1,0,75,0,0
116897,-93.10757,4,1,0,75,0,0
117072,-95.34626,4,1,0,75,0,0
117247,-97.63877,4,1,0,75,0,0
117423,-100,4,1,0,75,0,0
117773,-95.33978,4,1,0,77,0,0
117861,-96.48735,4,1,0,78,0,0
117949,-97.64872,4,1,0,79,0,0
118036,-98.810646,4,1,0,79,0,0
118124,-86.95652,4,1,0,80,0,0
118299,-95.2381,4,1,0,80,0,0
118475,-95.16762,4,1,0,80,0,0
118650,-94.84357,4,1,0,80,0,0
118825,-94.161255,4,1,0,80,0,0
118913,-93.66123,4,1,0,80,0,0
119001,-93.04849,4,1,0,80,0,0
119176,-91.482735,4,1,0,80,0,0
119351,-89.45126,4,1,0,80,0,0
119527,-80,4,1,0,80,0,0
119702,-95.2381,4,1,0,80,0,0
119877,-95.18829,4,1,0,80,0,0
120053,-94.954994,4,1,0,80,0,0
120228,-94.46383,4,1,0,80,0,0
120316,-94.1026,4,1,0,80,0,0
120403,-93.663994,4,1,0,80,0,0
120579,-92.51612,4,1,0,80,0,0
120754,-91.01791,4,1,0,80,0,0
120842,-90.12957,4,1,0,80,0,0
120929,-89.16419,4,1,0,80,0,0
121017,-88.10191,4,1,0,80,0,0
121105,-80,4,1,0,80,0,0
121280,-100,4,1,0,80,0,0
121368,-96.55667,4,1,0,80,0,0
121455,-93.26905,4,1,0,80,0,0
121543,-90.057495,4,1,0,80,0,0
121631,-74.07408,4,1,0,80,0,0
121981,-62.13438,4,1,0,80,0,0
122332,-52.093025,4,1,0,80,0,0
122507,-95.23809524,4,1,0,80,0,0
122683,-43.67442,4,1,0,80,0,0
122871,350.6721216,15,1,0,80,1,8
122871,-37.59398496,15,1,0,80,0,0
123033,-22.22222222,15,1,0,79,0,0
123209,-100,15,1,0,78,0,0
123384,-100,15,1,0,77,0,0
123559,-100,15,1,0,76,0,0
123735,-100,15,1,0,74,0,0
123910,-100,15,1,0,73,0,0
124085,-100,15,1,0,72,0,0
124261,-100,15,1,0,71,0,0
124436,-100,15,1,0,70,0,0
124611,-100,15,1,0,69,0,0
124787,-100,15,1,0,68,0,0
124962,-100,15,1,0,67,0,0
125137,-100,15,1,0,66,0,0
125313,-100,15,1,0,64,0,0
125488,-100,15,1,0,63,0,0
125663,-100,15,1,0,62,0,0
125839,-100,15,1,0,61,0,0
126014,-100,15,1,0,60,0,0
126189,-100,15,1,0,59,0,0
126365,-100,15,1,0,58,0,0
126540,-100,15,1,0,57,0,0
126715,-100,15,1,0,56,0,0
126891,-100,15,1,0,54,0,0
127066,-100,15,1,0,53,0,0
127241,-100,15,1,0,52,0,0
127417,-100,15,1,0,51,0,0
127592,-100,15,1,0,50,0,0
128131,350.6721216,4,1,0,50,1,8
128131,-142.85716,4,1,0,50,0,0
128293,-134.1698,4,1,0,55,0,0
128381,-130.00299,4,1,0,58,0,0
128468,-125.96557,4,1,0,60,0,0
128556,-122.09733,4,1,0,62,0,0
128644,-118.30545,4,1,0,65,0,0
128731,-114.63132,4,1,0,68,0,0
128819,-111.11112,4,1,0,70,0,0
129170,-121.716125,4,1,0,68,0,0
129345,-127.40891,4,1,0,66,0,0
129533,350.6721216,4,1,0,65,1,8
129534,350.6721216,4,1,0,65,1,0
129534,-133.33333,4,1,0,65,0,0
140742,-117.6470588,4,1,0,70,0,0
149158,-117.647064,4,1,0,70,0,0
149509,-117.5583,4,1,0,70,0,0
149860,-116.94065,4,1,0,70,0,0
150210,-115.303024,4,1,0,70,0,0
150385,-113.962105,4,1,0,70,0,0
150473,-113.154175,4,1,0,70,0,0
150561,-112.23481,4,1,0,70,0,0
150736,-110.07992,4,1,0,70,0,0
151087,-104.54398,4,1,0,70,0,0
151438,-97.47403,4,1,0,70,0,0
151613,-93.49207,4,1,0,70,0,0
151788,-89.28571,4,1,0,80,0,0
151964,-100,4,1,0,80,0,0
159854,-99.30316,4,1,0,80,0,0
159941,-98.61118,4,1,0,80,0,0
160029,-97.931816,4,1,0,80,0,0
160117,-97.24939,4,1,0,80,0,0
160204,-96.57173,4,1,0,80,0,0
160292,-95.9064,4,1,0,80,0,0
160380,-95.2381,4,1,0,80,0,0
165640,-93.76713,4,1,0,80,0,0
165727,-93.04019,4,1,0,80,0,0
165815,-92.327065,4,1,0,80,0,0
165903,-91.611275,4,1,0,80,0,0
165990,-90.90909,4,1,0,80,0,0
168620,-90.12285,4,1,0,80,0,0
168708,-89.730064,4,1,0,80,0,0
168796,-89.338974,4,1,0,80,0,0
168971,-88.56632,4,1,0,80,0,0
169146,-87.80033,4,1,0,80,0,0
169322,-87.036674,4,1,0,80,0,0
169409,-86.66164,4,1,0,80,0,0
169497,-86.28393,4,1,0,80,0,0
169672,-85.53768,4,1,0,80,0,0
169848,-84.793686,4,1,0,80,0,0
170023,-84.06035,4,1,0,80,0,0
170111,-83.69398,4,1,0,80,0,0
170198,-66.66666667,4,1,0,80,0,0
171075,-333.3333333,4,1,0,60,0,0
171100,-335.67307,4,1,0,61,0,0
171122,-287.68033,4,1,0,62,0,0
171144,-246.54933,4,1,0,63,0,0
171166,-211.29904,4,1,0,63,0,0
171188,-181.08864,4,1,0,64,0,0
171210,-155.19757,4,1,0,65,0,0
171232,-133.00824,4,1,0,66,0,0
171254,-113.99143,4,1,0,67,0,0
171276,-97.69356,4,1,0,68,0,0
171297,-84.3151,4,1,0,68,0,0
171319,-72.260185,4,1,0,69,0,0
171341,-61.928814,4,1,0,70,0,0
171363,-53.074562,4,1,0,71,0,0
171385,-45.486256,4,1,0,72,0,0
171407,-38.982872,4,1,0,73,0,0
171429,-33.409317,4,1,0,73,0,0
171451,-28.63263,4,1,0,74,0,0
171473,-24.538887,4,1,0,75,0,0
171495,-21.030453,4,1,0,76,0,0
171517,-18.02363,4,1,0,77,0,0
171539,-15.446709,4,1,0,78,0,0
171560,-13.3313875,4,1,0,78,0,0
171582,-11.425339,4,1,0,79,0,0
171614,-50,4,1,0,90,0,1
171952,-86.95652174,4,1,0,90,0,1
182121,-100,4,1,0,80,0,1
182209,-96.9958,4,1,0,82,0,1
182297,-94.08186,4,1,0,83,0,1
182384,-91.2871,4,1,0,85,0,1
182472,-88.544655,4,1,0,87,0,1
182560,-85.8846,4,1,0,88,0,1
182647,-83.333336,4,1,0,90,0,1
182823,-86.95652174,4,1,0,90,0,1
186505,-85.727,4,1,0,90,0,1
186592,-85.125656,4,1,0,90,0,1
186680,-84.52169,4,1,0,90,0,1
186855,-83.333336,4,1,0,90,0,1
187031,-84.55529,4,1,0,90,0,1
187206,-85.78808,4,1,0,90,0,1
187381,-87.03883,4,1,0,90,0,1
187557,-88.315125,4,1,0,90,0,1
187907,-90.90909,4,1,0,90,0,1
188083,-88.90521,4,1,0,90,0,1
188258,-80,4,1,0,90,0,1
188433,-86.95652174,4,1,0,90,0,1
189661,-80,4,1,0,90,0,1
189836,-86.95652174,4,1,0,90,0,1
190011,-90.90909,4,1,0,90,0,1
190099,-88.91085,4,1,0,90,0,1
190187,-86.95652,4,1,0,90,0,1
190362,-80,4,1,0,90,0,1
190713,-100,4,1,0,90,0,1
190888,-95.45657,4,1,0,90,0,1
191063,-91.11958,4,1,0,90,0,1
191151,-89.01372,4,1,0,90,0,1
191239,-83.33333333,4,1,0,90,0,1
192641,-83.9927,4,1,0,90,0,1
192729,-84.64968,4,1,0,90,0,1
192817,-85.31946,4,1,0,90,0,1
192904,-85.99453,4,1,0,90,0,1
192992,-86.667175,4,1,0,90,0,1
193167,-88.04407,4,1,0,90,0,1
193255,-88.73275,4,1,0,90,0,1
193343,-89.43483,4,1,0,90,0,1
193430,-90.14246,4,1,0,90,0,1
193518,-90.85568,4,1,0,90,0,1
193606,-91.56637,4,1,0,90,0,1
193693,-92.29086,4,1,0,90,0,1
193781,-93.021095,4,1,0,90,0,1
193869,-93.7487,4,1,0,90,0,1
193957,-94.49046,4,1,0,90,0,1
194057,-95.2381,4,1,0,80,0,0
194307,-100,4,1,0,80,0,0
200182,-99.9596,4,1,0,80,0,0
200269,-99.86533,4,1,0,80,0,0
200357,-99.68047,4,1,0,80,0,0
200532,-98.93274,4,1,0,80,0,0
200707,-97.49973,4,1,0,80,0,0
200882,-86.95652174,4,1,0,80,0,0
201058,-100,4,1,0,80,0,0
201233,-86.95652174,4,1,0,80,0,0
201934,-88.95395,4,1,0,80,0,0
202022,-89.96397,4,1,0,80,0,0
202110,-90.99725,4,1,0,80,0,0
202197,-92.0424,4,1,0,80,0,0
202285,-93.08749,4,1,0,80,0,0
202373,-94.15665,4,1,0,80,0,0
202460,-95.2381,4,1,0,80,0,0
202636,-100,4,1,0,80,0,0
207896,-97.58322,4,1,0,80,0,0
207983,-96.396835,4,1,0,80,0,0
208071,-95.2381,4,1,0,80,0,0
212455,-95.1371,4,1,0,80,0,0
212542,-94.962906,4,1,0,80,0,0
212630,-94.67355,4,1,0,80,0,0
212805,-93.702034,4,1,0,80,0,0
212893,-92.99384,4,1,0,80,0,0
212980,-92.13038,4,1,0,80,0,0
213068,-91.121765,4,1,0,80,0,0
213156,-89.945435,4,1,0,80,0,0
213243,-88.615555,4,1,0,80,0,0
213331,-87.155846,4,1,0,80,0,0
213390,-86.08803,4,1,0,80,0,0
213448,-84.98036,4,1,0,80,0,0
213506,-83.798096,4,1,0,80,0,0
213594,-81.9606,4,1,0,80,0,0
213682,-74.07407407,4,1,0,80,0,0
214032,-100,4,1,0,80,0,0
214208,-74.07407407,4,1,0,80,0,0
214558,-100,4,1,0,80,0,0
214734,-74.07407407,4,1,0,80,0,0
215084,-100,4,1,0,80,0,0
215260,-74.07407407,4,1,0,80,0,0
215611,-100,4,1,0,80,0,0
215786,-74.07407407,4,1,0,80,0,0
216838,-100,4,1,0,80,0,0
217013,-74.07407407,4,1,0,80,0,0
217364,-100,4,1,0,80,0,0
217539,-74.07407407,4,1,0,80,0,0
217890,-100,4,1,0,80,0,0
218065,-74.07407407,4,1,0,80,0,0
218416,-100,4,1,0,80,0,0
218591,-74.07407407,4,1,0,80,0,0
218767,-95.23162614,4,1,0,80,0,0
218942,-74.07407407,4,1,0,80,0,0
219117,-90.90909091,4,1,0,80,0,0
219293,-74.07407407,4,1,0,80,0,0
219468,-86.95652,4,1,0,80,0,0
219556,-88.92214,4,1,0,80,0,0
219643,-90.90909,4,1,0,80,0,0
219819,-74.07407407,4,1,0,80,0,0
219994,-86.95652,4,1,0,80,0,0
220082,-91.0268,4,1,0,80,0,0
220169,-95.2381,4,1,0,80,0,0
220345,-74.07407407,4,1,0,80,0,0
220520,-86.95652,4,1,0,80,0,0
220608,-88.92214,4,1,0,80,0,0
220695,-90.90909,4,1,0,80,0,0
220871,-74.07407407,4,1,0,80,0,0
221046,-86.95652,4,1,0,80,0,0
221134,-91.0268,4,1,0,80,0,0
221221,-95.23809,4,1,0,80,0,0
221397,-74.07407407,4,1,0,80,0,0
221572,-90.90909091,4,1,0,80,0,0
221747,-74.07407407,4,1,0,80,0,0
221923,-90.90909091,4,1,0,80,0,0
222098,-74.07407407,4,1,0,80,0,0
222273,-86.95652,4,1,0,80,0,0
222361,-88.92214,4,1,0,80,0,0
222449,-90.90909,4,1,0,80,0,0
222624,-74.07407407,4,1,0,80,0,0
222799,-86.95652,4,1,0,80,0,0
222887,-91.0268,4,1,0,80,0,0
222975,-95.2381,4,1,0,80,0,0
223150,-74.07407407,4,1,0,80,0,0
223325,-86.95652,4,1,0,80,0,0
223413,-88.92214,4,1,0,80,0,0
223501,-90.90909,4,1,0,80,0,0
223676,-74.07407407,4,1,0,80,0,0
223851,-86.95652,4,1,0,80,0,0
223939,-91.0268,4,1,0,80,0,0
224027,-95.2381,4,1,0,80,0,0
224202,-74.07407407,4,1,0,80,0,0
224553,-71.42857143,4,1,0,80,0,0
224903,-66.66666667,4,1,0,80,0,0
225166,-86.95652174,4,1,0,80,0,0
225254,-88.88888889,4,1,0,80,0,0
225429,-66.66666667,4,1,0,80,0,0
225692,-90.90909091,4,1,0,80,0,0
225780,-93.24009324,4,1,0,80,0,0
225955,-66.66666667,4,1,0,80,0,0
226218,-86.95652174,4,1,0,80,0,0
226306,-88.88888889,4,1,0,80,0,0
226481,-66.66666667,4,1,0,80,0,0
226744,-90.90909091,4,1,0,80,0,0
226832,-93.24009324,4,1,0,80,0,0
227007,-66.66666667,4,1,0,80,0,0
227183,-90.90909091,4,1,0,80,0,0
227270,-95.37222,4,1,0,80,0,0
227358,-66.66666667,4,1,0,80,0,0
227533,-90.90909091,4,1,0,80,0,0
227709,-66.66666667,4,1,0,80,0,0
227972,-86.95652174,4,1,0,80,0,0
228059,-88.88888889,4,1,0,80,0,0
228235,-66.66666667,4,1,0,80,0,0
228498,-90.90909091,4,1,0,80,0,0
228585,-93.24009324,4,1,0,80,0,0
228761,-66.66666667,4,1,0,80,0,0
229024,-86.95652174,4,1,0,80,0,0
229111,-88.88888889,4,1,0,80,0,0
229287,-66.66666667,4,1,0,80,0,0
229550,-90.90909091,4,1,0,80,0,0
229637,-93.24009324,4,1,0,80,0,0
229813,-66.66666667,4,1,0,80,0,0
229988,-90.90909091,4,1,0,80,0,0
230163,-66.66666667,4,1,0,80,0,0
230339,-86.95652174,4,1,0,80,0,0
230514,-57.14285714,4,1,0,80,0,0
230777,-86.95652,4,1,0,80,0,0
230865,-91.11959,4,1,0,80,0,0
230952,-95.43121,4,1,0,80,0,0
231040,-57.14285714,4,1,0,80,0,0
231303,-86.95652,4,1,0,80,0,0
231391,-91.11959,4,1,0,80,0,0
231478,-95.43121,4,1,0,80,0,0
231566,-57.14285714,4,1,0,80,0,0
231741,-100,4,1,0,80,0,0
231917,-95.23809524,4,1,0,80,0,0
232004,-90.90909091,4,1,0,80,0,0
232092,-57.14285714,4,1,0,80,0,0
232267,-86.95652,4,1,0,80,0,0
232355,-90.057495,4,1,0,80,0,0
232443,-93.26905,4,1,0,80,0,0
232530,-96.55668,4,1,0,80,0,0
232618,-57.14285714,4,1,0,80,0,0
232793,-86.95652,4,1,0,80,0,0
232881,-93.25048,4,1,0,80,0,0
232969,-57.14285714,4,1,0,80,0,0
233144,-86.95652174,4,1,0,80,0,0
233332,350.6721216,7,1,0,80,1,8
233333,350.6721216,12,1,0,80,1,0
233333,-40,7,1,0,80,0,0
233495,-33.333332,12,1,0,80,0,0
233671,-33.333332,12,1,0,79,0,0
234021,-33.333332,12,1,0,78,0,0
234197,-33.333332,12,1,0,77,0,0
234547,-33.333332,12,1,0,76,0,0
234723,-33.333332,12,1,0,75,0,0
235073,-33.333332,12,1,0,74,0,0
235249,-33.333332,12,1,0,73,0,0
235599,-33.333332,12,1,0,72,0,0
235775,-33.333332,12,1,0,71,0,0
236138,350.6721216,12,1,0,70,1,0
236138,-66.666664,12,1,0,70,0,0
236300,-50,12,1,0,80,0,0
236476,-50,12,1,0,78,0,0
236651,-50,12,1,0,76,0,0
236826,-50,12,1,0,74,0,0
237002,-50,12,1,0,72,0,0
237177,-50,12,1,0,70,0,0
237352,-50,12,1,0,68,0,0
237528,-50,12,1,0,66,0,0
237703,-50,12,1,0,64,0,0
237878,-50,12,1,0,62,0,0
238054,-50,12,1,0,60,0,0
238229,-50,12,1,0,58,0,0
238404,-50,12,1,0,56,0,0
238580,-50,12,1,0,54,0,0
238755,-50,12,1,0,52,0,0
238944,350.6721216,4,1,0,50,1,0
238944,-142.8571429,4,1,0,50,0,0
239645,-142.85715,4,1,0,47,0,0
239821,-142.85715,4,1,0,43,0,0
239996,-142.85715,4,1,0,40,0,0
240171,-142.85715,4,1,0,37,0,0
240347,-142.85715,4,1,0,33,0,0
240509,-142.85715,4,1,0,30,0,0
240772,-142.8571429,4,1,0,50,0,0
244379,-142.85715,4,1,0,48,0,0
244555,-142.85715,4,1,0,46,0,0
244730,-142.85715,4,1,0,43,0,0
244906,-142.85715,4,1,0,41,0,0
245081,-142.85715,4,1,0,39,0,0
245256,-142.85715,4,1,0,37,0,0
245432,-142.85715,4,1,0,34,0,0
245607,-142.85715,4,1,0,32,0,0
245769,-142.85715,4,1,0,30,0,0
246382,-142.8571429,4,1,0,50,0,0
247184,-142.85715,4,1,0,47,0,0
247361,-142.85715,4,1,0,43,0,0
247536,-142.85715,4,1,0,40,0,0
247711,-142.85715,4,1,0,37,0,0
247887,-142.85715,4,1,0,33,0,0
248062,-142.85715,4,1,0,30,0,0
248237,-142.85715,4,1,0,26,0,0
248413,-142.85715,4,1,0,23,0,0
248574,-142.85715,4,1,0,20,0,0
249626,-138.17348,4,1,0,50,0,0
249801,-133.64336,4,1,0,50,0,0
249977,-129.23714,4,1,0,50,0,0
250152,-125,4,1,0,60,0,0
258568,-117.6470588,4,1,0,70,0,0
264179,-105.2631579,4,1,0,70,0,0
266984,-100,4,1,0,70,0,0
267160,-90.60133,4,1,0,71,0,0
267335,-82.13206,4,1,0,72,0,0
267510,-74.45448,4,1,0,73,0,0
267686,-67.45675,4,1,0,74,0,0
267861,-61.151,4,1,0,74,0,0
268036,-55.434704,4,1,0,75,0,0
268212,-50.224583,4,1,0,76,0,0
268400,350.6721216,4,1,0,77,1,8
268400,-45.529663,4,1,0,77,0,8
268562,-41.273624,4,1,0,78,0,8
268737,-37.41543,4,1,0,79,0,8
268951,350.6721216,16,1,0,80,1,0
268951,-25,16,1,0,80,0,0
269113,-1000,16,1,0,5,0,0
274110,-144.927536231884,16,1,0,5,0,0
274191,350.6721216,4,1,0,5,1,8
274191,-333.3333333,4,1,0,5,0,0
274454,-384.6153846,4,1,0,90,0,0
274563,350.6721216,4,1,0,90,1,1
274563,-33.33333333,4,1,0,90,0,1
274900,-86.95652174,4,1,0,90,0,1
285070,-100,4,1,0,80,0,1
285157,-96.9958,4,1,0,82,0,1
285245,-94.08186,4,1,0,83,0,1
285333,-91.2871,4,1,0,85,0,1
285420,-88.544655,4,1,0,87,0,1
285508,-85.8846,4,1,0,88,0,1
285596,-83.333336,4,1,0,90,0,1
285772,-86.95652174,4,1,0,90,0,1
289453,-85.727,4,1,0,90,0,1
289628,-84.52169,4,1,0,90,0,1
289803,-83.333336,4,1,0,90,0,1
289979,-84.55529,4,1,0,90,0,1
290154,-85.78808,4,1,0,90,0,1
290329,-87.03883,4,1,0,90,0,1
290505,-88.315125,4,1,0,90,0,1
290855,-90.90909,4,1,0,90,0,1
291031,-88.90521,4,1,0,90,0,1
291206,-80,4,1,0,90,0,1
291381,-86.95652174,4,1,0,90,0,1
292609,-80,4,1,0,90,0,1
292784,-86.95652174,4,1,0,90,0,1
292959,-90.90909,4,1,0,90,0,1
293047,-88.91085,4,1,0,90,0,1
293135,-86.95652,4,1,0,90,0,1
293310,-80,4,1,0,90,0,1
293661,-100,4,1,0,90,0,1
293748,-97.71487,4,1,0,90,0,1
293836,-95.45657,4,1,0,90,0,1
294012,-91.09537,4,1,0,90,0,1
294099,-89.01372,4,1,0,90,0,1
294187,-83.33333333,4,1,0,90,0,1
294713,-83.3144,4,1,0,89,0,1
294801,-83.26909,4,1,0,89,0,1
294888,-83.18206,4,1,0,88,0,1
294976,-83.03739,4,1,0,88,0,1
295064,-82.82209,4,1,0,87,0,1
295151,-82.52702,4,1,0,87,0,1
295239,-82.13329,4,1,0,86,0,1
295327,-81.63266,4,1,0,86,0,1
295414,-81.02314,4,1,0,85,0,1
295502,-80.282776,4,1,0,85,0,1
295590,-79.411766,4,1,0,84,0,1
295677,-78.41842,4,1,0,84,0,1
295765,-77.27827,4,1,0,83,0,1
295853,-76.00282,4,1,0,83,0,1
295940,-74.612045,4,1,0,82,0,1
296028,-73.0796,4,1,0,82,0,1
296116,-71.42858,4,1,0,81,0,1
296291,-62.5,4,1,0,80,0,1
296993,-86.95652,4,1,0,80,0,1
297080,-90.97951,4,1,0,80,0,1
297168,-95.2381,4,1,0,80,0,1
297343,-62.5,4,1,0,90,0,1
297519,-86.95652174,4,1,0,90,0,1
307337,-100,4,1,0,80,0,1
307425,-97.74041,4,1,0,81,0,1
307513,-95.531876,4,1,0,83,0,1
307600,-93.39749,4,1,0,84,0,1
307688,-91.2871,4,1,0,85,0,1
307776,-89.22438,4,1,0,86,0,1
307863,-87.23093,4,1,0,87,0,1
307951,-85.259865,4,1,0,89,0,1
308039,-83.333336,4,1,0,90,0,1
308214,-86.95652174,4,1,0,90,0,1
311721,-86.42773,4,1,0,90,0,1
311808,-85.9081,4,1,0,90,0,1
311896,-85.38567,4,1,0,90,0,1
311984,-84.86643,4,1,0,90,0,1
312071,-84.35618,4,1,0,90,0,1
312247,-83.333336,4,1,0,90,0,1
312422,-84.55529,4,1,0,90,0,1
312597,-85.78808,4,1,0,90,0,1
312772,-87.03883,4,1,0,90,0,1
312948,-88.315125,4,1,0,90,0,1
313298,-90.90909,4,1,0,90,0,1
313474,-88.90521,4,1,0,90,0,1
313649,-80,4,1,0,90,0,1
313824,-86.95652174,4,1,0,90,0,1
315052,-80,4,1,0,90,0,1
315227,-86.95652174,4,1,0,90,0,1
315402,-90.90909,4,1,0,90,0,1
315490,-88.91085,4,1,0,90,0,1
315578,-86.95652,4,1,0,90,0,1
315753,-80,4,1,0,90,0,1
316104,-100,4,1,0,90,0,1
316279,-95.45657,4,1,0,90,0,1
316454,-91.11958,4,1,0,90,0,1
316542,-89.01372,4,1,0,90,0,1
316630,-83.33333333,4,1,0,90,0,1
318033,-83.9927,4,1,0,89,0,1
318091,-84.43012,4,1,0,89,0,1
318150,-84.877426,4,1,0,89,0,1
318208,-85.31946,4,1,0,88,0,1
318296,-85.99453,4,1,0,88,0,1
318384,-86.67494,4,1,0,87,0,1
318471,-87.352905,4,1,0,86,0,1
318559,-88.04407,4,1,0,86,0,1
318647,-88.7407,4,1,0,85,0,1
318734,-89.43483,4,1,0,85,0,1
318793,-89.908646,4,1,0,84,0,1
318851,-90.376884,4,1,0,84,0,1
318910,-90.85568,4,1,0,84,0,1
318997,-91.56637,4,1,0,83,0,1
319085,-92.29086,4,1,0,82,0,1
319173,-93.021095,4,1,0,82,0,1
319260,-93.7487,4,1,0,81,0,1
319348,-94.49046,4,1,0,81,0,1
319449,-95.2381,4,1,0,80,0,0
319699,-100,4,1,0,80,0,0
327676,-97.59679,4,1,0,80,0,0
327764,-96.41023,4,1,0,80,0,0
327852,-86.95652174,4,1,0,80,0,0
328027,-95.23809524,4,1,0,80,0,0
328378,-97.59679,4,1,0,80,0,0
328465,-98.784225,4,1,0,80,0,0
328553,-86.95652174,4,1,0,80,0,0
328728,-100,4,1,0,80,0,0
329079,-97.59679,4,1,0,80,0,0
329167,-96.41023,4,1,0,80,0,0
329254,-86.95652174,4,1,0,80,0,0
329430,-95.2381,4,1,0,80,0,0
329605,-95.26443,4,1,0,80,0,0
329780,-95.44909,4,1,0,80,0,0
329956,-95.95807,4,1,0,80,0,0
330131,-96.96006,4,1,0,80,0,0
330219,-97.712425,4,1,0,80,0,0
330306,-98.65725,4,1,0,80,0,0
330482,-101.3197,4,1,0,80,0,0
330657,-90.90909091,4,1,0,80,0,0
330920,-100,4,1,0,80,0,0
336794,-99.9596,4,1,0,80,0,0
336881,-99.86533,4,1,0,80,0,0
336969,-99.68047,4,1,0,80,0,0
337144,-98.93274,4,1,0,80,0,0
337320,-97.49973,4,1,0,80,0,0
337495,-86.95652174,4,1,0,80,0,0
337670,-100,4,1,0,80,0,0
337846,-86.95652174,4,1,0,80,0,0
338547,-90.04405,4,1,0,78,0,0
338635,-91.6378,4,1,0,76,0,0
338722,-93.24118,4,1,0,75,0,0
338810,-94.89155,4,1,0,74,0,0
338898,-96.5711,4,1,0,72,0,0
338986,-98.280396,4,1,0,71,0,0
339073,-100,4,1,0,70,0,0
339249,-111.1111111,4,1,0,70,0,0
343983,-105.540886,4,1,0,70,0,0
344099,-103.7621,4,1,0,70,0,0
344216,-101.99835,4,1,0,70,0,0
344333,-100.26459,4,1,0,70,0,0
344450,-98.56027,4,1,0,70,0,0
344567,-96.884964,4,1,0,70,0,0
344684,-95.2381,4,1,0,70,0,0
344859,-111.1111111,4,1,0,70,0,0
349418,-107.46328,4,1,0,72,0,0
349506,-105.67445,4,1,0,73,0,0
349593,-103.93521,4,1,0,73,0,0
349681,-102.20509,4,1,0,74,0,0
349769,-100.50379,4,1,0,75,0,0
349856,-98.84964,4,1,0,76,0,0
349944,-97.2042,4,1,0,77,0,0
350032,-95.58613,4,1,0,78,0,0
350119,-94.012924,4,1,0,78,0,0
350207,-92.44799,4,1,0,79,0,0
350295,-86.95652174,4,1,0,80,0,0
350470,-95.2381,4,1,0,80,0,0
350558,-95.91021,4,1,0,80,0,0
350645,-96.57933,4,1,0,80,0,0
350821,-90.90909091,4,1,0,80,0,0
350996,-99.326645,4,1,0,80,0,0
351171,-100.72546,4,1,0,80,0,0
351347,-86.95652174,4,1,0,80,0,0
351522,-103.59071,4,1,0,80,0,0
351697,-105.04958,4,1,0,80,0,0
351873,-90.90909091,4,1,0,80,0,0
352048,-108.03784,4,1,0,80,0,0
352223,-109.55933,4,1,0,80,0,0
352399,-83.333336,4,1,0,80,0,0
352749,-93.64298,4,1,0,80,0,0
353113,350.6721216,28,1,0,80,1,0
353113,-76.9230769230769,28,1,0,80,0,0
353275,-71.4285714285714,28,1,0,79,0,0
353451,-81.68057,28,1,0,79,0,0
353626,-84.16136,28,1,0,78,0,0
353801,-86.71748,28,1,0,77,0,0
353977,-89.36652,28,1,0,76,0,0
354152,-92.08074,28,1,0,76,0,0
354327,-94.87739,28,1,0,75,0,0
354503,-97.77572,28,1,0,74,0,0
354678,-100.74532,28,1,0,73,0,0
354853,-103.80513,28,1,0,73,0,0
355029,-106.976166,28,1,0,72,0,0
355204,-110.22523,28,1,0,71,0,0
355379,-113.57295,28,1,0,71,0,0
355555,-117.042366,28,1,0,70,0,0
355730,-120.597145,28,1,0,69,0,0
355906,-124.28114,28,1,0,68,0,0
356081,-128.05577,28,1,0,68,0,0
356256,-131.94507,28,1,0,67,0,0
356432,-135.9757,28,1,0,66,0,0
356607,-140.10553,28,1,0,65,0,0
356782,-144.36076,28,1,0,65,0,0
356958,-148.77068,28,1,0,64,0,0
357133,-153.28911,28,1,0,63,0,0
357308,-157.9448,28,1,0,63,0,0
357484,-162.76967,28,1,0,62,0,0
357659,-167.71327,28,1,0,61,0,0
357834,-172.807,28,1,0,60,0,0
358010,-178.08588,28,1,0,60,0,0
358185,-183.49467,28,1,0,59,0,0
358360,-189.06773,28,1,0,58,0,0
358536,-194.84337,28,1,0,57,0,0
358711,-200.76111,28,1,0,57,0,0
358886,-206.85857,28,1,0,56,0,0
359062,-213.17766,28,1,0,55,0,0
359237,-219.65225,28,1,0,55,0,0
359412,-226.32347,28,1,0,54,0,0
359588,-233.23718,28,1,0,53,0,0
359763,-240.32101,28,1,0,52,0,0
359938,-247.61996,28,1,0,52,0,0
360114,-255.18423,28,1,0,51,0,0
360289,-262.93466,28,1,0,50,0,0
360464,-270.9204,28,1,0,49,0,0
360640,-279.19644,28,1,0,49,0,0
360815,-287.67615,28,1,0,48,0,0
360990,-296.4134,28,1,0,47,0,0
361166,-305.4682,28,1,0,47,0,0
361341,-314.74576,28,1,0,46,0,0
361517,-324.36063,28,1,0,45,0,0
361692,-334.21204,28,1,0,44,0,0
361867,-344.3626,28,1,0,44,0,0
362043,-354.8822,28,1,0,43,0,0
362218,-365.6606,28,1,0,42,0,0
362393,-376.76633,28,1,0,41,0,0
362569,-388.2758,28,1,0,41,0,0
362743,-400,28,1,0,40,0,0

[HitObjects]
256,192,487,5,8,0:0:0:0:
256,192,837,1,0,0:0:0:0:
256,192,1013,1,8,0:0:0:0:
256,192,1188,1,8,0:0:0:0:
256,192,1363,1,8,0:0:0:0:
256,192,1539,1,0,0:0:0:0:
256,192,1714,1,8,0:0:0:0:
256,192,2065,1,0,0:0:0:0:
256,192,2240,1,0,0:0:0:0:
256,192,2415,1,0,0:0:0:0:
256,192,2591,1,8,0:0:0:0:
256,192,2766,1,8,0:0:0:0:
256,192,2941,1,0,0:0:0:0:
256,192,3117,1,8,0:0:0:0:
256,192,3467,1,0,0:0:0:0:
256,192,3643,1,0,0:0:0:0:
256,192,3818,1,8,0:0:0:0:
256,192,3993,1,8,0:0:0:0:
256,192,4169,1,0,0:0:0:0:
256,192,4344,1,8,0:0:0:0:
256,192,4519,1,0,0:0:0:0:
256,192,4870,1,8,0:0:0:0:
256,192,5045,1,0,0:0:0:0:
256,192,5221,1,0,0:0:0:0:
256,192,5396,1,8,0:0:0:0:
256,192,5571,1,0,0:0:0:0:
256,192,5922,1,8,0:0:0:0:
256,192,6273,1,0,0:0:0:0:
256,192,6448,1,8,0:0:0:0:
256,192,6623,1,0,0:0:0:0:
256,192,6799,1,8,0:0:0:0:
256,192,6974,1,0,0:0:0:0:
256,192,7149,1,0,0:0:0:0:
256,192,7325,1,8,0:0:0:0:
256,192,7675,1,0,0:0:0:0:
256,192,7851,1,0,0:0:0:0:
256,192,8026,1,8,0:0:0:0:
256,192,8377,1,0,0:0:0:0:
256,192,8552,1,8,0:0:0:0:
256,192,8727,1,0,0:0:0:0:
256,192,9078,1,0,0:0:0:0:
256,192,9253,1,8,0:0:0:0:
256,192,9429,1,8,0:0:0:0:
256,192,9604,1,0,0:0:0:0:
256,192,9779,1,0,0:0:0:0:
256,192,9955,1,8,0:0:0:0:
256,192,10305,1,0,0:0:0:0:
256,192,10481,1,8,0:0:0:0:
256,192,10831,1,8,0:0:0:0:
256,192,11007,1,0,0:0:0:0:
256,192,11182,1,8,0:0:0:0:
256,192,11357,1,8,0:0:0:0:
256,192,11533,1,0,0:0:0:0:
256,192,11708,1,8,0:0:0:0:
256,192,12234,1,0,0:0:0:0:
256,192,12760,1,8,0:0:0:0:
256,192,13111,1,8,0:0:0:0:
256,192,13286,1,0,0:0:0:0:
256,192,13637,1,8,0:0:0:0:
256,192,13812,1,8,0:0:0:0:
256,192,13987,1,0,0:0:0:0:
256,192,14163,1,0,0:0:0:0:
256,192,14513,1,12,0:0:0:0:
256,192,15039,1,0,0:0:0:0:
256,192,15215,1,8,0:0:0:0:
256,192,15390,1,0,0:0:0:0:
256,192,15565,1,8,0:0:0:0:
256,192,15741,1,0,0:0:0:0:
256,192,16091,1,0,0:0:0:0:
256,192,16267,1,0,0:0:0:0:
256,192,16617,1,8,0:0:0:0:
256,192,16968,1,0,0:0:0:0:
256,192,17143,1,0,0:0:0:0:
256,192,17319,1,8,0:0:0:0:
256,192,17669,1,0,0:0:0:0:
256,192,17845,1,8,0:0:0:0:
256,192,18195,1,0,0:0:0:0:
256,192,18371,1,0,0:0:0:0:
256,192,18546,1,8,0:0:0:0:
256,192,19072,1,0,0:0:0:0:
256,192,19247,1,8,0:0:0:0:
256,192,19423,1,8,0:0:0:0:
256,192,19598,1,8,0:0:0:0:
256,192,19773,1,0,0:0:0:0:
256,192,20124,1,8,0:0:0:0:
256,192,20475,1,0,0:0:0:0:
256,192,20650,1,0,0:0:0:0:
256,192,20825,1,8,0:0:0:0:
256,192,21176,1,0,0:0:0:0:
256,192,21351,1,0,0:0:0:0:
256,192,21527,1,8,0:0:0:0:
256,192,21702,1,8,0:0:0:0:
256,192,21877,1,0,0:0:0:0:
256,192,22053,1,8,0:0:0:0:
256,192,22754,1,0,0:0:0:0:
256,192,22930,1,8,0:0:0:0:
256,192,23280,1,0,0:0:0:0:
256,192,23456,1,8,0:0:0:0:
256,192,23806,1,8,0:0:0:0:
256,192,24157,1,0,0:0:0:0:
256,192,24858,1,8,0:0:0:0:
256,192,24946,1,8,0:0:0:0:
256,192,25034,1,8,0:0:0:0:
256,192,25384,1,0,0:0:0:0:
256,192,25735,1,12,0:0:0:0:
256,192,26086,1,0,0:0:0:0:
256,192,26436,1,8,0:0:0:0:
256,192,26612,1,8,0:0:0:0:
256,192,26787,1,0,0:0:0:0:
256,192,26962,1,8,0:0:0:0:
256,192,27138,1,0,0:0:0:0:
256,192,27313,1,0,0:0:0:0:
256,192,27664,1,0,0:0:0:0:
256,192,27839,1,8,0:0:0:0:
256,192,28190,1,0,0:0:0:0:
256,192,28365,1,8,0:0:0:0:
256,192,28540,1,0,0:0:0:0:
256,192,28891,1,0,0:0:0:0:
256,192,29066,1,8,0:0:0:0:
256,192,29242,1,8,0:0:0:0:
256,192,29417,1,0,0:0:0:0:
256,192,29768,1,8,0:0:0:0:
256,192,29943,1,0,0:0:0:0:
256,192,30294,1,0,0:0:0:0:
256,192,30469,1,0,0:0:0:0:
256,192,30644,1,8,0:0:0:0:
256,192,30995,1,0,0:0:0:0:
256,192,31346,1,8,0:0:0:0:
256,192,31521,1,0,0:0:0:0:
256,192,31696,1,0,0:0:0:0:
256,192,32047,1,8,0:0:0:0:
256,192,32222,1,0,0:0:0:0:
256,192,32573,1,8,0:0:0:0:
256,192,32748,1,0,0:0:0:0:
256,192,32924,1,8,0:0:0:0:
256,192,33099,1,0,0:0:0:0:
256,192,33274,1,0,0:0:0:0:
256,192,33450,1,8,0:0:0:0:
256,192,33976,1,8,0:0:0:0:
256,192,34151,1,0,0:0:0:0:
256,192,34502,1,0,0:0:0:0:
256,192,34852,1,8,0:0:0:0:
256,192,35203,1,8,0:0:0:0:
256,192,35378,1,0,0:0:0:0:
256,192,35554,1,8,0:0:0:0:
256,192,35729,1,0,0:0:0:0:
256,192,36080,1,8,0:0:0:0:
256,192,36430,1,0,0:0:0:0:
256,192,36606,1,8,0:0:0:0:
256,192,36781,1,12,0:0:0:0:
256,192,37132,1,0,0:0:0:0:
256,192,37307,1,8,0:0:0:0:
256,192,37482,1,8,0:0:0:0:
256,192,37658,1,0,0:0:0:0:
256,192,37833,1,0,0:0:0:0:
256,192,37921,1,0,0:0:0:0:
256,192,38008,1,8,0:0:0:0:
256,192,38184,1,8,0:0:0:0:
256,192,38359,1,0,0:0:0:0:
256,192,38447,1,8,0:0:0:0:
256,192,38534,1,0,0:0:0:0:
256,192,38622,1,0,0:0:0:0:
256,192,38710,1,8,0:0:0:0:
256,192,38885,1,8,0:0:0:0:
256,192,39060,1,0,0:0:0:0:
256,192,39236,1,8,0:0:0:0:
256,192,39323,1,8,0:0:0:0:
256,192,39411,1,0,0:0:0:0:
256,192,39586,1,0,0:0:0:0:
256,192,39762,1,8,0:0:0:0:
256,192,40112,1,8,0:0:0:0:
256,192,40288,1,0,0:0:0:0:
256,192,40375,1,8,0:0:0:0:
256,192,40463,1,0,0:0:0:0:
256,192,40638,1,0,0:0:0:0:
256,192,40814,1,8,0:0:0:0:
256,192,40989,1,8,0:0:0:0:
256,192,41077,1,8,0:0:0:0:
256,192,41164,1,0,0:0:0:0:
256,192,41340,1,0,0:0:0:0:
256,192,41515,1,8,0:0:0:0:
256,192,41690,1,0,0:0:0:0:
256,192,41866,1,8,0:0:0:0:
256,192,41953,1,8,0:0:0:0:
256,192,42041,1,0,0:0:0:0:
256,192,42129,1,0,0:0:0:0:
256,192,42216,1,8,0:0:0:0:
256,192,42392,1,0,0:0:0:0:
256,192,42479,1,0,0:0:0:0:
256,192,42567,1,12,0:0:0:0:
256,192,42918,1,8,0:0:0:0:
256,192,43093,1,8,0:0:0:0:
256,192,43181,1,8,0:0:0:0:
256,192,43268,1,0,0:0:0:0:
256,192,43444,1,0,0:0:0:0:
256,192,43619,1,8,0:0:0:0:
256,192,43795,1,0,0:0:0:0:
256,192,43882,1,8,0:0:0:0:
256,192,43970,1,0,0:0:0:0:
256,192,44145,1,8,0:0:0:0:
256,192,44321,1,8,0:0:0:0:
256,192,44496,1,4,0:0:0:0:
256,192,44847,1,8,0:0:0:0:
256,192,45022,1,0,0:0:0:0:
256,192,45110,1,8,0:0:0:0:
256,192,45197,1,0,0:0:0:0:
256,192,45285,1,0,0:0:0:0:
256,192,45373,1,12,0:0:0:0:
256,192,45548,1,0,0:0:0:0:
256,192,45723,1,8,0:0:0:0:
256,192,45899,1,0,0:0:0:0:
256,192,45986,1,0,0:0:0:0:
256,192,46074,1,8,0:0:0:0:
256,192,46162,1,8,0:0:0:0:
256,192,46249,1,0,0:0:0:0:
256,192,46425,1,8,0:0:0:0:
256,192,46600,1,0,0:0:0:0:
256,192,46688,1,0,0:0:0:0:
256,192,46775,1,0,0:0:0:0:
256,192,46951,1,0,0:0:0:0:
256,192,47126,1,8,0:0:0:0:
256,192,47301,1,0,0:0:0:0:
256,192,47389,1,0,0:0:0:0:
256,192,47477,1,8,0:0:0:0:
256,192,47652,1,0,0:0:0:0:
256,192,47827,1,8,0:0:0:0:
256,192,48003,1,0,0:0:0:0:
256,192,48090,1,8,0:0:0:0:
256,192,48178,1,0,0:0:0:0:
256,192,48353,1,0,0:0:0:0:
256,192,48529,1,8,0:0:0:0:
256,192,48616,1,8,0:0:0:0:
256,192,48704,1,0,0:0:0:0:
256,192,48792,1,0,0:0:0:0:
256,192,48879,1,8,0:0:0:0:
256,192,49055,1,0,0:0:0:0:
256,192,49230,1,8,0:0:0:0:
256,192,49318,1,0,0:0:0:0:
256,192,49405,1,8,0:0:0:0:
256,192,49493,1,0,0:0:0:0:
256,192,49581,1,8,0:0:0:0:
256,192,49756,1,0,0:0:0:0:
256,192,49931,1,8,0:0:0:0:
256,192,50107,1,0,0:0:0:0:
256,192,50194,1,0,0:0:0:0:
256,192,50282,1,8,0:0:0:0:
256,192,50457,1,0,0:0:0:0:
256,192,50633,1,8,0:0:0:0:
256,192,50808,1,0,0:0:0:0:
256,192,50983,1,12,0:0:0:0:
256,192,51159,1,0,0:0:0:0:
256,192,51334,1,0,0:0:0:0:
256,192,51509,1,8,0:0:0:0:
256,192,51597,1,8,0:0:0:0:
256,192,51685,1,0,0:0:0:0:
256,192,51772,1,8,0:0:0:0:
256,192,51860,1,0,0:0:0:0:
256,192,51948,1,0,0:0:0:0:
256,192,52035,1,8,0:0:0:0:
256,192,52211,1,0,0:0:0:0:
256,192,52298,1,0,0:0:0:0:
256,192,52386,1,8,0:0:0:0:
256,192,52561,1,0,0:0:0:0:
256,192,52737,1,8,0:0:0:0:
256,192,52824,1,0,0:0:0:0:
256,192,52912,1,0,0:0:0:0:
256,192,53000,1,0,0:0:0:0:
256,192,53087,1,8,0:0:0:0:
256,192,53175,1,8,0:0:0:0:
256,192,53263,1,0,0:0:0:0:
256,192,53350,1,0,0:0:0:0:
256,192,53438,1,8,0:0:0:0:
256,192,53613,1,0,0:0:0:0:
256,192,53701,1,0,0:0:0:0:
256,192,53789,1,0,0:0:0:0:
256,192,53964,1,0,0:0:0:0:
256,192,54139,1,8,0:0:0:0:
256,192,54315,1,0,0:0:0:0:
256,192,54402,1,0,0:0:0:0:
256,192,54490,1,0,0:0:0:0:
256,192,54665,1,0,0:0:0:0:
256,192,54841,1,8,0:0:0:0:
256,192,55016,1,8,0:0:0:0:
256,192,55104,1,8,0:0:0:0:
256,192,55191,1,4,0:0:0:0:
256,192,55367,1,12,0:0:0:0:
256,192,55542,1,12,0:0:0:0:
256,192,55717,1,4,0:0:0:0:
256,192,55893,1,8,0:0:0:0:
256,192,55980,1,8,0:0:0:0:
256,192,56068,1,8,0:0:0:0:
256,192,56156,1,8,0:0:0:0:
256,192,56243,1,8,0:0:0:0:
256,192,56331,1,8,0:0:0:0:
256,192,56419,1,8,0:0:0:0:
256,192,56506,1,8,0:0:0:0:
256,192,56594,1,4,0:0:0:0:
256,192,56945,1,8,0:0:0:0:
256,192,57120,1,0,0:0:0:0:
256,192,57208,1,0,0:0:0:0:
256,192,57295,1,8,0:0:0:0:
256,192,57471,1,8,0:0:0:0:
256,192,57646,1,0,0:0:0:0:
256,192,57821,1,12,0:0:0:0:
256,192,58172,1,0,0:0:0:0:
256,192,58347,1,8,0:0:0:0:
256,192,58523,1,0,0:0:0:0:
256,192,58610,1,0,0:0:0:0:
256,192,58698,1,0,0:0:0:0:
256,192,58873,1,0,0:0:0:0:
256,192,59049,1,8,0:0:0:0:
256,192,59136,1,0,0:0:0:0:
256,192,59224,1,8,0:0:0:0:
256,192,59312,1,8,0:0:0:0:
256,192,59399,1,4,0:0:0:0:
256,192,59662,1,0,0:0:0:0:
256,192,59750,1,8,0:0:0:0:
256,192,59925,1,8,0:0:0:0:
256,192,60013,1,8,0:0:0:0:
256,192,60101,1,0,0:0:0:0:
256,192,60276,1,0,0:0:0:0:
256,192,60451,1,8,0:0:0:0:
256,192,60627,1,4,0:0:0:0:
256,192,60977,1,0,0:0:0:0:
256,192,61065,1,0,0:0:0:0:
256,192,61153,1,8,0:0:0:0:
256,192,61328,1,8,0:0:0:0:
256,192,61503,1,0,0:0:0:0:
256,192,61679,1,8,0:0:0:0:
256,192,61766,1,0,0:0:0:0:
256,192,61854,1,8,0:0:0:0:
256,192,61942,1,8,0:0:0:0:
256,192,62029,1,0,0:0:0:0:
256,192,62117,1,0,0:0:0:0:
256,192,62205,1,12,0:0:0:0:
256,192,62380,1,0,0:0:0:0:
256,192,62555,1,8,0:0:0:0:
256,192,62731,1,8,0:0:0:0:
256,192,62818,1,0,0:0:0:0:
256,192,62906,1,8,0:0:0:0:
256,192,63081,1,8,0:0:0:0:
256,192,63257,1,0,0:0:0:0:
256,192,63432,1,12,0:0:0:0:
256,192,63783,1,0,0:0:0:0:
256,192,63958,1,8,0:0:0:0:
256,192,64133,1,0,0:0:0:0:
256,192,64221,1,8,0:0:0:0:
256,192,64309,1,8,0:0:0:0:
256,192,64396,1,8,0:0:0:0:
256,192,64484,1,0,0:0:0:0:
256,192,64572,1,0,0:0:0:0:
256,192,64659,1,8,0:0:0:0:
256,192,64835,1,0,0:0:0:0:
256,192,64923,1,0,0:0:0:0:
256,192,65010,1,12,0:0:0:0:
256,192,65186,1,0,0:0:0:0:
256,192,65361,1,8,0:0:0:0:
256,192,65536,1,8,0:0:0:0:
256,192,65624,1,8,0:0:0:0:
256,192,65712,1,0,0:0:0:0:
256,192,65887,1,0,0:0:0:0:
256,192,66062,1,8,0:0:0:0:
256,192,66238,1,0,0:0:0:0:
256,192,66325,1,0,0:0:0:0:
256,192,66413,1,8,0:0:0:0:
256,192,66588,1,0,0:0:0:0:
256,192,66764,1,8,0:0:0:0:
256,192,66939,1,0,0:0:0:0:
256,192,67114,1,8,0:0:0:0:
256,192,67202,1,8,0:0:0:0:
256,192,67290,1,0,0:0:0:0:
256,192,67377,1,8,0:0:0:0:
256,192,67465,1,0,0:0:0:0:
256,192,67553,1,0,0:0:0:0:
256,192,67640,1,12,0:0:0:0:
256,192,67991,1,0,0:0:0:0:
256,192,68166,1,8,0:0:0:0:
256,192,68342,1,8,0:0:0:0:
256,192,68429,1,8,0:0:0:0:
256,192,68517,1,0,0:0:0:0:
256,192,68692,1,0,0:0:0:0:
256,192,68868,1,8,0:0:0:0:
256,192,69043,1,12,0:0:0:0:
256,192,69394,1,0,0:0:0:0:
256,192,69569,1,8,0:0:0:0:
256,192,69657,1,8,0:0:0:0:
256,192,69744,1,8,0:0:0:0:
256,192,69832,1,0,0:0:0:0:
256,192,69920,1,8,0:0:0:0:
256,192,70095,1,0,0:0:0:0:
256,192,70183,1,0,0:0:0:0:
256,192,70270,1,8,0:0:0:0:
256,192,70446,1,8,0:0:0:0:
256,192,70621,1,4,0:0:0:0:
256,192,70796,1,0,0:0:0:0:
256,192,70884,1,0,0:0:0:0:
256,192,70972,1,8,0:0:0:0:
256,192,71147,1,0,0:0:0:0:
256,192,71235,1,0,0:0:0:0:
256,192,71322,1,0,0:0:0:0:
256,192,71498,1,8,0:0:0:0:
256,192,71673,1,8,0:0:0:0:
256,192,71848,1,0,0:0:0:0:
256,192,72199,1,0,0:0:0:0:
256,192,72374,1,8,0:0:0:0:
256,192,72550,1,0,0:0:0:0:
256,192,72900,1,0,0:0:0:0:
256,192,73076,1,8,0:0:0:0:
256,192,73251,1,4,0:0:0:0:
256,192,73602,1,0,0:0:0:0:
256,192,73777,1,8,0:0:0:0:
256,192,73952,1,0,0:0:0:0:
256,192,74040,1,0,0:0:0:0:
256,192,74128,1,8,0:0:0:0:
256,192,74303,1,0,0:0:0:0:
256,192,74478,1,8,0:0:0:0:
256,192,74654,1,12,0:0:0:0:
256,192,75004,1,8,0:0:0:0:
256,192,75092,1,8,0:0:0:0:
256,192,75180,1,8,0:0:0:0:
256,192,75355,1,4,0:0:0:0:
256,192,75706,1,0,0:0:0:0:
256,192,75793,1,0,0:0:0:0:
256,192,75881,1,8,0:0:0:0:
256,192,76056,1,0,0:0:0:0:
256,192,76232,1,12,0:0:0:0:
256,192,76407,1,8,0:0:0:0:
256,192,76495,1,8,0:0:0:0:
256,192,76582,1,0,0:0:0:0:
256,192,76758,1,8,0:0:0:0:
256,192,76933,1,0,0:0:0:0:
256,192,77021,1,8,0:0:0:0:
256,192,77108,1,8,0:0:0:0:
256,192,77284,1,0,0:0:0:0:
256,192,77459,1,8,0:0:0:0:
256,192,77547,1,8,0:0:0:0:
256,192,77634,1,0,0:0:0:0:
256,192,77722,1,0,0:0:0:0:
256,192,77897,1,0,0:0:0:0:
256,192,77985,1,8,0:0:0:0:
256,192,78160,1,0,0:0:0:0:
256,192,78248,1,0,0:0:0:0:
256,192,78336,1,8,0:0:0:0:
256,192,78423,1,8,0:0:0:0:
256,192,78511,1,8,0:0:0:0:
256,192,78599,1,0,0:0:0:0:
256,192,78686,1,8,0:0:0:0:
256,192,78774,1,0,0:0:0:0:
256,192,78862,1,8,0:0:0:0:
256,192,78949,1,8,0:0:0:0:
256,192,79037,1,4,0:0:0:0:
256,192,79300,1,0,0:0:0:0:
256,192,79388,1,8,0:0:0:0:
256,192,79563,1,0,0:0:0:0:
256,192,79738,1,8,0:0:0:0:
256,192,79914,1,0,0:0:0:0:
256,192,80001,1,0,0:0:0:0:
256,192,80089,1,8,0:0:0:0:
256,192,80264,1,0,0:0:0:0:
256,192,80615,1,0,0:0:0:0:
256,192,80790,1,8,0:0:0:0:
256,192,80966,1,0,0:0:0:0:
256,192,81053,1,0,0:0:0:0:
256,192,81141,1,0,0:0:0:0:
256,192,81316,1,0,0:0:0:0:
256,192,81492,1,8,0:0:0:0:
256,192,81842,1,0,0:0:0:0:
256,192,82018,1,0,0:0:0:0:
256,192,82193,1,8,0:0:0:0:
256,192,82368,1,8,0:0:0:0:
256,192,82456,1,8,0:0:0:0:
256,192,82544,1,0,0:0:0:0:
256,192,82719,1,0,0:0:0:0:
256,192,82894,1,8,0:0:0:0:
256,192,83070,1,0,0:0:0:0:
256,192,83420,1,0,0:0:0:0:
256,192,83508,1,0,0:0:0:0:
256,192,83596,1,8,0:0:0:0:
256,192,83771,1,8,0:0:0:0:
256,192,83946,1,0,0:0:0:0:
256,192,84122,1,0,0:0:0:0:
256,192,84297,1,8,0:0:0:0:
256,192,84472,1,8,0:0:0:0:
256,192,84560,1,8,0:0:0:0:
256,192,84648,1,4,0:0:0:0:
256,192,84823,1,0,0:0:0:0:
256,192,84998,1,8,0:0:0:0:
256,192,85174,1,0,0:0:0:0:
256,192,85261,1,0,0:0:0:0:
256,192,85349,1,8,0:0:0:0:
256,192,85524,1,0,0:0:0:0:
256,192,85700,1,0,0:0:0:0:
256,192,85875,1,12,0:0:0:0:
256,192,86226,1,4,0:0:0:0:
256,192,86577,1,12,0:0:0:0:
256,192,86927,1,8,0:0:0:0:
256,192,87015,1,0,0:0:0:0:
256,192,87103,1,0,0:0:0:0:
256,192,87278,1,0,0:0:0:0:
256,192,87453,1,12,0:0:0:0:
256,192,87629,1,0,0:0:0:0:
256,192,87804,1,0,0:0:0:0:
256,192,88155,1,8,0:0:0:0:
256,192,88856,1,0,0:0:0:0:
256,192,89031,1,0,0:0:0:0:
256,192,89207,1,0,0:0:0:0:
256,192,89557,1,8,0:0:0:0:
256,192,90259,1,8,0:0:0:0:
256,192,90434,1,0,0:0:0:0:
256,192,90609,1,0,0:0:0:0:
256,192,90785,1,0,0:0:0:0:
256,192,90960,1,8,0:0:0:0:
256,192,91311,1,8,0:0:0:0:
256,192,91661,1,8,0:0:0:0:
256,192,91837,1,0,0:0:0:0:
256,192,92012,1,0,0:0:0:0:
256,192,92363,1,8,0:0:0:0:
256,192,92479,1,8,0:0:0:0:
256,192,92596,1,0,0:0:0:0:
256,192,92713,1,8,0:0:0:0:
256,192,92830,1,0,0:0:0:0:
256,192,92947,1,0,0:0:0:0:
256,192,93064,1,12,0:0:0:0:
256,192,93239,1,0,0:0:0:0:
256,192,93415,1,0,0:0:0:0:
256,192,93765,1,8,0:0:0:0:
256,192,94467,1,0,0:0:0:0:
256,192,94642,1,0,0:0:0:0:
256,192,94817,1,0,0:0:0:0:
256,192,95168,1,8,0:0:0:0:
256,192,95869,1,8,0:0:0:0:
256,192,96045,1,8,0:0:0:0:
256,192,96220,1,0,0:0:0:0:
256,192,96395,1,0,0:0:0:0:
256,192,96483,1,0,0:0:0:0:
256,192,96571,1,8,0:0:0:0:
256,192,96921,1,8,0:0:0:0:
256,192,97272,1,8,0:0:0:0:
256,192,97447,1,0,0:0:0:0:
256,192,97623,1,0,0:0:0:0:
256,192,97798,1,8,0:0:0:0:
256,192,97886,1,8,0:0:0:0:
256,192,97973,1,0,0:0:0:0:
256,192,98149,1,0,0:0:0:0:
256,192,98324,1,8,0:0:0:0:
256,192,98499,1,8,0:0:0:0:
256,192,98675,1,4,0:0:0:0:
256,192,98850,1,0,0:0:0:0:
256,192,99025,1,8,0:0:0:0:
256,192,99201,1,0,0:0:0:0:
256,192,99288,1,0,0:0:0:0:
256,192,99376,1,8,0:0:0:0:
256,192,99551,1,0,0:0:0:0:
256,192,99727,1,8,0:0:0:0:
256,192,99902,1,8,0:0:0:0:
256,192,100253,1,0,0:0:0:0:
256,192,100428,1,8,0:0:0:0:
256,192,100603,1,8,0:0:0:0:
256,192,100779,1,0,0:0:0:0:
256,192,100866,1,8,0:0:0:0:
256,192,100954,1,0,0:0:0:0:
256,192,101042,1,0,0:0:0:0:
256,192,101129,1,8,0:0:0:0:
256,192,101305,1,8,0:0:0:0:
256,192,101480,1,0,0:0:0:0:
256,192,101831,1,8,0:0:0:0:
256,192,102006,1,0,0:0:0:0:
256,192,102094,1,0,0:0:0:0:
256,192,102181,1,8,0:0:0:0:
256,192,102357,1,0,0:0:0:0:
256,192,102532,1,8,0:0:0:0:
256,192,102707,1,8,0:0:0:0:
256,192,103058,1,0,0:0:0:0:
256,192,103233,1,8,0:0:0:0:
256,192,103409,1,8,0:0:0:0:
256,192,103496,1,0,0:0:0:0:
256,192,103584,1,0,0:0:0:0:
256,192,103759,1,0,0:0:0:0:
256,192,103935,1,8,0:0:0:0:
256,192,104198,1,0,0:0:0:0:
256,192,104285,1,12,0:0:0:0:
256,192,104461,1,0,0:0:0:0:
256,192,104548,1,0,0:0:0:0:
256,192,104636,1,8,0:0:0:0:
256,192,104811,1,0,0:0:0:0:
256,192,104987,1,8,0:0:0:0:
256,192,105162,1,0,0:0:0:0:
256,192,105337,1,8,0:0:0:0:
256,192,105513,1,0,0:0:0:0:
256,192,105600,1,8,0:0:0:0:
256,192,105688,1,0,0:0:0:0:
256,192,105863,1,8,0:0:0:0:
256,192,105951,1,0,0:0:0:0:
256,192,106039,1,8,0:0:0:0:
256,192,106214,1,0,0:0:0:0:
256,192,106565,1,0,0:0:0:0:
256,192,106740,1,8,0:0:0:0:
256,192,106915,1,8,0:0:0:0:
256,192,107003,1,0,0:0:0:0:
256,192,107091,1,0,0:0:0:0:
256,192,107266,1,0,0:0:0:0:
256,192,107441,1,8,0:0:0:0:
256,192,107617,1,0,0:0:0:0:
256,192,107705,1,0,0:0:0:0:
256,192,107792,1,8,0:0:0:0:
256,192,107968,1,0,0:0:0:0:
256,192,108143,1,8,0:0:0:0:
256,192,108318,1,0,0:0:0:0:
256,192,108494,1,8,0:0:0:0:
256,192,108581,1,8,0:0:0:0:
256,192,108669,1,0,0:0:0:0:
256,192,108757,1,0,0:0:0:0:
256,192,108844,1,8,0:0:0:0:
256,192,109020,1,8,0:0:0:0:
256,192,109107,1,0,0:0:0:0:
256,192,109195,1,8,0:0:0:0:
256,192,109370,1,8,0:0:0:0:
256,192,109458,1,8,0:0:0:0:
256,192,109546,1,0,0:0:0:0:
256,192,109633,1,8,0:0:0:0:
256,192,109721,1,0,0:0:0:0:
256,192,109809,1,0,0:0:0:0:
256,192,109896,1,12,0:0:0:0:
256,192,110072,1,0,0:0:0:0:
256,192,110159,1,0,0:0:0:0:
256,192,110247,1,8,0:0:0:0:
256,192,110422,1,0,0:0:0:0:
256,192,110598,1,8,0:0:0:0:
256,192,110685,1,8,0:0:0:0:
256,192,110773,1,0,0:0:0:0:
256,192,110861,1,0,0:0:0:0:
256,192,110948,1,8,0:0:0:0:
256,192,111124,1,4,0:0:0:0:
256,192,111474,1,0,0:0:0:0:
256,192,111650,1,8,0:0:0:0:
256,192,111825,1,8,0:0:0:0:
256,192,111913,1,0,0:0:0:0:
256,192,112000,1,8,0:0:0:0:
256,192,112176,1,0,0:0:0:0:
256,192,112351,1,8,0:0:0:0:
256,192,112526,1,0,0:0:0:0:
256,192,112702,1,12,0:0:0:0:
256,192,112877,1,0,0:0:0:0:
256,192,112965,1,0,0:0:0:0:
256,192,113052,1,8,0:0:0:0:
256,192,113228,1,0,0:0:0:0:
256,192,113403,1,8,0:0:0:0:
256,192,113491,1,0,0:0:0:0:
256,192,113578,1,8,0:0:0:0:
256,192,113666,1,8,0:0:0:0:
256,192,113754,1,0,0:0:0:0:
256,192,113929,1,12,0:0:0:0:
256,192,114280,1,0,0:0:0:0:
256,192,114455,1,8,0:0:0:0:
256,192,114630,1,0,0:0:0:0:
256,192,114806,1,8,0:0:0:0:
256,192,114893,1,8,0:0:0:0:
256,192,114981,1,0,0:0:0:0:
256,192,115069,1,0,0:0:0:0:
256,192,115156,1,8,0:0:0:0:
256,192,115332,1,4,0:0:0:0:
256,192,115682,1,0,0:0:0:0:
256,192,115858,1,8,0:0:0:0:
256,192,116033,1,0,0:0:0:0:
256,192,116121,1,0,0:0:0:0:
256,192,116208,1,0,0:0:0:0:
256,192,116384,1,8,0:0:0:0:
256,192,116471,1,0,0:0:0:0:
256,192,116559,1,8,0:0:0:0:
256,192,116734,1,0,0:0:0:0:
256,192,117085,1,0,0:0:0:0:
256,192,117260,1,8,0:0:0:0:
256,192,117436,1,0,0:0:0:0:
256,192,117786,1,0,0:0:0:0:
256,192,117874,1,0,0:0:0:0:
256,192,117962,1,0,0:0:0:0:
256,192,118049,1,0,0:0:0:0:
256,192,118137,1,12,0:0:0:0:
256,192,118488,1,0,0:0:0:0:
256,192,118663,1,8,0:0:0:0:
256,192,118838,1,0,0:0:0:0:
256,192,118926,1,0,0:0:0:0:
256,192,119014,1,8,0:0:0:0:
256,192,119189,1,0,0:0:0:0:
256,192,119364,1,8,0:0:0:0:
256,192,119540,1,4,0:0:0:0:
256,192,119890,1,0,0:0:0:0:
256,192,120066,1,8,0:0:0:0:
256,192,120241,1,0,0:0:0:0:
256,192,120329,1,0,0:0:0:0:
256,192,120416,1,8,0:0:0:0:
256,192,120592,1,0,0:0:0:0:
256,192,120767,1,8,0:0:0:0:
256,192,120855,1,8,0:0:0:0:
256,192,120942,1,8,0:0:0:0:
256,192,121030,1,8,0:0:0:0:
256,192,121118,1,4,0:0:0:0:
256,192,121293,1,8,0:0:0:0:
256,192,121381,1,8,0:0:0:0:
256,192,121468,1,0,0:0:0:0:
256,192,121556,1,0,0:0:0:0:
256,192,121644,1,12,0:0:0:0:
256,192,121994,1,4,0:0:0:0:
256,192,122345,1,12,0:0:0:0:
256,192,122696,1,0,0:0:0:0:
256,192,122871,1,12,0:0:0:0:
256,192,123046,8,0,127605,0:0:0:0:
256,192,128306,5,0,0:0:0:0:
256,192,128394,1,0,0:0:0:0:
256,192,128481,1,0,0:0:0:0:
256,192,128569,1,0,0:0:0:0:
256,192,128657,1,0,0:0:0:0:
256,192,128744,1,0,0:0:0:0:
256,192,128832,1,8,0:0:0:0:
256,192,129183,1,8,0:0:0:0:
256,192,129358,1,0,0:0:0:0:
256,192,129534,1,0,0:0:0:0:
256,192,130060,1,0,0:0:0:0:
256,192,130235,1,8,0:0:0:0:
256,192,130410,1,0,0:0:0:0:
256,192,130586,1,0,0:0:0:0:
256,192,130761,1,8,0:0:0:0:
256,192,131112,1,8,0:0:0:0:
256,192,131287,1,0,0:0:0:0:
256,192,131638,1,8,0:0:0:0:
256,192,131988,1,0,0:0:0:0:
256,192,132164,1,8,0:0:0:0:
256,192,132339,1,0,0:0:0:0:
256,192,132690,1,8,0:0:0:0:
256,192,132865,1,0,0:0:0:0:
256,192,133040,1,8,0:0:0:0:
256,192,133216,1,8,0:0:0:0:
256,192,133566,1,0,0:0:0:0:
256,192,133917,1,8,0:0:0:0:
256,192,134092,1,0,0:0:0:0:
256,192,134268,1,0,0:0:0:0:
256,192,134443,1,8,0:0:0:0:
256,192,134794,1,0,0:0:0:0:
256,192,134969,1,0,0:0:0:0:
256,192,135144,1,8,0:0:0:0:
256,192,135495,1,0,0:0:0:0:
256,192,135846,1,8,0:0:0:0:
256,192,136372,1,0,0:0:0:0:
256,192,136547,1,8,0:0:0:0:
256,192,136722,1,0,0:0:0:0:
256,192,136898,1,0,0:0:0:0:
256,192,137073,1,0,0:0:0:0:
256,192,137248,1,8,0:0:0:0:
256,192,137599,1,0,0:0:0:0:
256,192,137774,1,8,0:0:0:0:
256,192,137950,1,0,0:0:0:0:
256,192,138300,1,8,0:0:0:0:
256,192,138476,1,0,0:0:0:0:
256,192,138651,1,8,0:0:0:0:
256,192,138826,1,0,0:0:0:0:
256,192,139177,1,0,0:0:0:0:
256,192,139352,1,0,0:0:0:0:
256,192,139528,1,8,0:0:0:0:
256,192,139703,1,0,0:0:0:0:
256,192,140054,1,8,0:0:0:0:
256,192,140229,1,0,0:0:0:0:
256,192,140404,1,0,0:0:0:0:
256,192,140755,1,12,0:0:0:0:
256,192,140930,1,0,0:0:0:0:
256,192,141106,1,0,0:0:0:0:
256,192,141281,1,0,0:0:0:0:
256,192,141456,1,8,0:0:0:0:
256,192,141807,1,0,0:0:0:0:
256,192,141982,1,8,0:0:0:0:
256,192,142158,1,0,0:0:0:0:
256,192,142333,1,8,0:0:0:0:
256,192,142508,1,0,0:0:0:0:
256,192,142859,1,8,0:0:0:0:
256,192,143210,1,0,0:0:0:0:
256,192,143385,1,8,0:0:0:0:
256,192,143560,1,0,0:0:0:0:
256,192,143911,1,0,0:0:0:0:
256,192,144086,1,8,0:0:0:0:
256,192,144262,1,8,0:0:0:0:
256,192,144437,1,0,0:0:0:0:
256,192,144788,1,8,0:0:0:0:
256,192,144963,1,0,0:0:0:0:
256,192,145314,1,0,0:0:0:0:
256,192,145489,1,0,0:0:0:0:
256,192,145664,1,8,0:0:0:0:
256,192,145840,1,0,0:0:0:0:
256,192,146015,1,8,0:0:0:0:
256,192,146366,1,0,0:0:0:0:
256,192,146541,1,8,0:0:0:0:
256,192,146716,1,0,0:0:0:0:
256,192,146892,1,0,0:0:0:0:
256,192,147067,1,8,0:0:0:0:
256,192,147593,1,8,0:0:0:0:
256,192,147768,1,0,0:0:0:0:
256,192,147944,1,8,0:0:0:0:
256,192,148119,1,0,0:0:0:0:
256,192,148294,1,0,0:0:0:0:
256,192,148470,1,8,0:0:0:0:
256,192,148820,1,0,0:0:0:0:
256,192,148996,1,8,0:0:0:0:
256,192,149171,1,0,0:0:0:0:
256,192,149522,1,0,0:0:0:0:
256,192,149872,1,8,0:0:0:0:
256,192,150223,1,8,0:0:0:0:
256,192,150398,1,0,0:0:0:0:
256,192,150486,1,8,0:0:0:0:
256,192,150574,1,8,0:0:0:0:
256,192,150749,1,0,0:0:0:0:
256,192,151100,1,8,0:0:0:0:
256,192,151451,1,0,0:0:0:0:
256,192,151626,1,8,0:0:0:0:
256,192,151801,1,12,0:0:0:0:
256,192,152152,1,0,0:0:0:0:
256,192,152327,1,8,0:0:0:0:
256,192,152503,1,8,0:0:0:0:
256,192,152678,1,0,0:0:0:0:
256,192,152853,1,0,0:0:0:0:
256,192,152941,1,0,0:0:0:0:
256,192,153029,1,8,0:0:0:0:
256,192,153204,1,8,0:0:0:0:
256,192,153379,1,0,0:0:0:0:
256,192,153467,1,8,0:0:0:0:
256,192,153555,1,0,0:0:0:0:
256,192,153642,1,0,0:0:0:0:
256,192,153730,1,8,0:0:0:0:
256,192,153905,1,8,0:0:0:0:
256,192,154081,1,0,0:0:0:0:
256,192,154256,1,8,0:0:0:0:
256,192,154344,1,0,0:0:0:0:
256,192,154431,1,8,0:0:0:0:
256,192,154607,1,0,0:0:0:0:
256,192,154782,1,8,0:0:0:0:
256,192,155133,1,8,0:0:0:0:
256,192,155308,1,0,0:0:0:0:
256,192,155396,1,0,0:0:0:0:
256,192,155483,1,8,0:0:0:0:
256,192,155659,1,0,0:0:0:0:
256,192,155834,1,8,0:0:0:0:
256,192,156009,1,8,0:0:0:0:
256,192,156097,1,8,0:0:0:0:
256,192,156185,1,0,0:0:0:0:
256,192,156360,1,0,0:0:0:0:
256,192,156535,1,8,0:0:0:0:
256,192,156711,1,0,0:0:0:0:
256,192,156886,1,8,0:0:0:0:
256,192,156974,1,8,0:0:0:0:
256,192,157061,1,0,0:0:0:0:
256,192,157149,1,0,0:0:0:0:
256,192,157237,1,8,0:0:0:0:
256,192,157412,1,8,0:0:0:0:
256,192,157500,1,8,0:0:0:0:
256,192,157587,1,4,0:0:0:0:
256,192,157938,1,8,0:0:0:0:
256,192,158113,1,0,0:0:0:0:
256,192,158201,1,0,0:0:0:0:
256,192,158289,1,8,0:0:0:0:
256,192,158464,1,0,0:0:0:0:
256,192,158639,1,8,0:0:0:0:
256,192,158815,1,0,0:0:0:0:
256,192,158902,1,8,0:0:0:0:
256,192,158990,1,0,0:0:0:0:
256,192,159165,1,8,0:0:0:0:
256,192,159341,1,8,0:0:0:0:
256,192,159516,1,4,0:0:0:0:
256,192,159867,1,8,0:0:0:0:
256,192,159954,1,8,0:0:0:0:
256,192,160042,1,0,0:0:0:0:
256,192,160130,1,0,0:0:0:0:
256,192,160217,1,0,0:0:0:0:
256,192,160305,1,0,0:0:0:0:
256,192,160393,1,12,0:0:0:0:
256,192,160568,1,0,0:0:0:0:
256,192,160743,1,8,0:0:0:0:
256,192,160831,1,0,0:0:0:0:
256,192,160919,1,0,0:0:0:0:
256,192,161006,1,0,0:0:0:0:
256,192,161094,1,8,0:0:0:0:
256,192,161182,1,8,0:0:0:0:
256,192,161269,1,0,0:0:0:0:
256,192,161445,1,8,0:0:0:0:
256,192,161620,1,0,0:0:0:0:
256,192,161708,1,0,0:0:0:0:
256,192,161795,1,0,0:0:0:0:
256,192,161971,1,0,0:0:0:0:
256,192,162146,1,8,0:0:0:0:
256,192,162321,1,0,0:0:0:0:
256,192,162409,1,8,0:0:0:0:
256,192,162497,1,8,0:0:0:0:
256,192,162584,1,8,0:0:0:0:
256,192,162672,1,0,0:0:0:0:
256,192,162760,1,0,0:0:0:0:
256,192,162847,1,8,0:0:0:0:
256,192,163023,1,0,0:0:0:0:
256,192,163110,1,8,0:0:0:0:
256,192,163198,1,0,0:0:0:0:
256,192,163373,1,0,0:0:0:0:
256,192,163549,1,8,0:0:0:0:
256,192,163636,1,8,0:0:0:0:
256,192,163724,1,0,0:0:0:0:
256,192,163812,1,0,0:0:0:0:
256,192,163899,1,8,0:0:0:0:
256,192,164075,1,0,0:0:0:0:
256,192,164250,1,8,0:0:0:0:
256,192,164338,1,8,0:0:0:0:
256,192,164425,1,0,0:0:0:0:
256,192,164513,1,0,0:0:0:0:
256,192,164601,1,0,0:0:0:0:
256,192,164776,1,8,0:0:0:0:
256,192,164951,1,8,0:0:0:0:
256,192,165127,1,0,0:0:0:0:
256,192,165214,1,0,0:0:0:0:
256,192,165302,1,8,0:0:0:0:
256,192,165477,1,0,0:0:0:0:
256,192,165653,1,8,0:0:0:0:
256,192,165740,1,8,0:0:0:0:
256,192,165828,1,0,0:0:0:0:
256,192,165916,1,0,0:0:0:0:
256,192,166003,1,12,0:0:0:0:
256,192,166179,1,0,0:0:0:0:
256,192,166266,1,0,0:0:0:0:
256,192,166354,1,8,0:0:0:0:
256,192,166529,1,8,0:0:0:0:
256,192,166705,1,0,0:0:0:0:
256,192,166792,1,8,0:0:0:0:
256,192,166880,1,0,0:0:0:0:
256,192,166968,1,0,0:0:0:0:
256,192,167055,1,8,0:0:0:0:
256,192,167231,1,0,0:0:0:0:
256,192,167318,1,0,0:0:0:0:
256,192,167406,1,8,0:0:0:0:
256,192,167581,1,0,0:0:0:0:
256,192,167669,1,0,0:0:0:0:
256,192,167757,1,8,0:0:0:0:
256,192,167844,1,8,0:0:0:0:
256,192,167932,1,8,0:0:0:0:
256,192,168020,1,0,0:0:0:0:
256,192,168107,1,8,0:0:0:0:
256,192,168283,1,0,0:0:0:0:
256,192,168458,1,8,0:0:0:0:
256,192,168633,1,0,0:0:0:0:
256,192,168721,1,0,0:0:0:0:
256,192,168809,1,8,0:0:0:0:
256,192,168984,1,0,0:0:0:0:
256,192,169159,1,8,0:0:0:0:
256,192,169335,1,8,0:0:0:0:
256,192,169422,1,0,0:0:0:0:
256,192,169510,1,0,0:0:0:0:
256,192,169685,1,8,0:0:0:0:
256,192,169861,1,8,0:0:0:0:
256,192,170036,1,0,0:0:0:0:
256,192,170124,1,0,0:0:0:0:
256,192,170211,1,12,0:0:0:0:
256,192,170387,1,12,0:0:0:0:
256,192,170562,1,4,0:0:0:0:
256,192,170737,1,12,0:0:0:0:
256,192,171088,8,4,171439,0:0:0:0:
256,192,171614,5,4,0:0:0:0:
256,192,171965,1,8,0:0:0:0:
256,192,172140,1,0,0:0:0:0:
256,192,172228,1,0,0:0:0:0:
256,192,172315,1,8,0:0:0:0:
256,192,172491,1,8,0:0:0:0:
256,192,172666,1,0,0:0:0:0:
256,192,172842,1,12,0:0:0:0:
256,192,173192,1,0,0:0:0:0:
256,192,173368,1,8,0:0:0:0:
256,192,173543,1,0,0:0:0:0:
256,192,173631,1,0,0:0:0:0:
256,192,173718,1,0,0:0:0:0:
256,192,173894,1,0,0:0:0:0:
256,192,174069,1,8,0:0:0:0:
256,192,174157,1,0,0:0:0:0:
256,192,174244,1,8,0:0:0:0:
256,192,174332,1,8,0:0:0:0:
256,192,174420,1,4,0:0:0:0:
256,192,174595,1,0,0:0:0:0:
256,192,174770,1,8,0:0:0:0:
256,192,174946,1,0,0:0:0:0:
256,192,175033,1,8,0:0:0:0:
256,192,175121,1,8,0:0:0:0:
256,192,175209,1,8,0:0:0:0:
256,192,175296,1,0,0:0:0:0:
256,192,175472,1,8,0:0:0:0:
256,192,175647,1,0,0:0:0:0:
256,192,175735,1,0,0:0:0:0:
256,192,175822,1,8,0:0:0:0:
256,192,175998,1,0,0:0:0:0:
256,192,176173,1,8,0:0:0:0:
256,192,176348,1,8,0:0:0:0:
256,192,176524,1,0,0:0:0:0:
256,192,176699,1,8,0:0:0:0:
256,192,176787,1,0,0:0:0:0:
256,192,176874,1,8,0:0:0:0:
256,192,176962,1,8,0:0:0:0:
256,192,177050,1,0,0:0:0:0:
256,192,177137,1,0,0:0:0:0:
256,192,177225,1,12,0:0:0:0:
256,192,177400,1,0,0:0:0:0:
256,192,177576,1,8,0:0:0:0:
256,192,177751,1,8,0:0:0:0:
256,192,177839,1,0,0:0:0:0:
256,192,177926,1,8,0:0:0:0:
256,192,178102,1,8,0:0:0:0:
256,192,178277,1,0,0:0:0:0:
256,192,178452,1,12,0:0:0:0:
256,192,178803,1,0,0:0:0:0:
256,192,178978,1,8,0:0:0:0:
256,192,179154,1,8,0:0:0:0:
256,192,179241,1,8,0:0:0:0:
256,192,179329,1,0,0:0:0:0:
256,192,179417,1,0,0:0:0:0:
256,192,179504,1,0,0:0:0:0:
256,192,179592,1,0,0:0:0:0:
256,192,179680,1,8,0:0:0:0:
256,192,179855,1,0,0:0:0:0:
256,192,179943,1,0,0:0:0:0:
256,192,180030,1,12,0:0:0:0:
256,192,180206,1,0,0:0:0:0:
256,192,180381,1,8,0:0:0:0:
256,192,180556,1,0,0:0:0:0:
256,192,180644,1,0,0:0:0:0:
256,192,180732,1,8,0:0:0:0:
256,192,180907,1,0,0:0:0:0:
256,192,181082,1,8,0:0:0:0:
256,192,181258,1,8,0:0:0:0:
256,192,181345,1,8,0:0:0:0:
256,192,181433,1,0,0:0:0:0:
256,192,181608,1,0,0:0:0:0:
256,192,181784,1,8,0:0:0:0:
256,192,181959,1,0,0:0:0:0:
256,192,182134,1,8,0:0:0:0:
256,192,182222,1,8,0:0:0:0:
256,192,182310,1,0,0:0:0:0:
256,192,182397,1,8,0:0:0:0:
256,192,182485,1,0,0:0:0:0:
256,192,182573,1,0,0:0:0:0:
256,192,182660,1,12,0:0:0:0:
256,192,183011,1,0,0:0:0:0:
256,192,183186,1,8,0:0:0:0:
256,192,183362,1,8,0:0:0:0:
256,192,183449,1,8,0:0:0:0:
256,192,183537,1,0,0:0:0:0:
256,192,183712,1,0,0:0:0:0:
256,192,183888,1,8,0:0:0:0:
256,192,184063,1,12,0:0:0:0:
256,192,184414,1,0,0:0:0:0:
256,192,184589,1,8,0:0:0:0:
256,192,184677,1,8,0:0:0:0:
256,192,184764,1,0,0:0:0:0:
256,192,184852,1,0,0:0:0:0:
256,192,184940,1,8,0:0:0:0:
256,192,185115,1,0,0:0:0:0:
256,192,185203,1,0,0:0:0:0:
256,192,185290,1,8,0:0:0:0:
256,192,185466,1,8,0:0:0:0:
256,192,185641,1,4,0:0:0:0:
256,192,185816,1,0,0:0:0:0:
256,192,185992,1,8,0:0:0:0:
256,192,186079,1,0,0:0:0:0:
256,192,186167,1,8,0:0:0:0:
256,192,186255,1,8,0:0:0:0:
256,192,186342,1,0,0:0:0:0:
256,192,186518,1,8,0:0:0:0:
256,192,186605,1,0,0:0:0:0:
256,192,186693,1,8,0:0:0:0:
256,192,186868,1,0,0:0:0:0:
256,192,187219,1,0,0:0:0:0:
256,192,187394,1,8,0:0:0:0:
256,192,187570,1,0,0:0:0:0:
256,192,187920,1,0,0:0:0:0:
256,192,188096,1,8,0:0:0:0:
256,192,188271,1,4,0:0:0:0:
256,192,188622,1,0,0:0:0:0:
256,192,188797,1,8,0:0:0:0:
256,192,188972,1,0,0:0:0:0:
256,192,189060,1,0,0:0:0:0:
256,192,189148,1,8,0:0:0:0:
256,192,189323,1,0,0:0:0:0:
256,192,189498,1,8,0:0:0:0:
256,192,189674,1,12,0:0:0:0:
256,192,190024,1,8,0:0:0:0:
256,192,190112,1,8,0:0:0:0:
256,192,190200,1,8,0:0:0:0:
256,192,190375,1,4,0:0:0:0:
256,192,190726,1,0,0:0:0:0:
256,192,190901,1,8,0:0:0:0:
256,192,191076,1,0,0:0:0:0:
256,192,191164,1,0,0:0:0:0:
256,192,191252,1,12,0:0:0:0:
256,192,191427,1,8,0:0:0:0:
256,192,191515,1,8,0:0:0:0:
256,192,191602,1,0,0:0:0:0:
256,192,191778,1,0,0:0:0:0:
256,192,191865,1,8,0:0:0:0:
256,192,191953,1,8,0:0:0:0:
256,192,192041,1,8,0:0:0:0:
256,192,192128,1,0,0:0:0:0:
256,192,192216,1,0,0:0:0:0:
256,192,192304,1,8,0:0:0:0:
256,192,192479,1,8,0:0:0:0:
256,192,192567,1,8,0:0:0:0:
256,192,192654,1,0,0:0:0:0:
256,192,192742,1,0,0:0:0:0:
256,192,192830,1,8,0:0:0:0:
256,192,192917,1,0,0:0:0:0:
256,192,193005,1,8,0:0:0:0:
256,192,193180,1,0,0:0:0:0:
256,192,193268,1,0,0:0:0:0:
256,192,193356,1,8,0:0:0:0:
256,192,193443,1,8,0:0:0:0:
256,192,193531,1,8,0:0:0:0:
256,192,193619,1,0,0:0:0:0:
256,192,193706,1,8,0:0:0:0:
256,192,193794,1,0,0:0:0:0:
256,192,193882,1,8,0:0:0:0:
256,192,193970,1,8,0:0:0:0:
256,192,194057,1,4,0:0:0:0:
256,192,194320,1,0,0:0:0:0:
256,192,194408,1,8,0:0:0:0:
256,192,194583,1,0,0:0:0:0:
256,192,194759,1,8,0:0:0:0:
256,192,194934,1,0,0:0:0:0:
256,192,195022,1,0,0:0:0:0:
256,192,195109,1,8,0:0:0:0:
256,192,195285,1,0,0:0:0:0:
256,192,195635,1,0,0:0:0:0:
256,192,195811,1,8,0:0:0:0:
256,192,195986,1,0,0:0:0:0:
256,192,196074,1,0,0:0:0:0:
256,192,196161,1,0,0:0:0:0:
256,192,196337,1,0,0:0:0:0:
256,192,196512,1,8,0:0:0:0:
256,192,196863,1,0,0:0:0:0:
256,192,197038,1,0,0:0:0:0:
256,192,197213,1,8,0:0:0:0:
256,192,197389,1,8,0:0:0:0:
256,192,197476,1,8,0:0:0:0:
256,192,197564,1,0,0:0:0:0:
256,192,197739,1,0,0:0:0:0:
256,192,197915,1,8,0:0:0:0:
256,192,198090,1,0,0:0:0:0:
256,192,198441,1,0,0:0:0:0:
256,192,198528,1,0,0:0:0:0:
256,192,198616,1,8,0:0:0:0:
256,192,198791,1,8,0:0:0:0:
256,192,198967,1,0,0:0:0:0:
256,192,199142,1,0,0:0:0:0:
256,192,199317,1,8,0:0:0:0:
256,192,199493,1,8,0:0:0:0:
256,192,199580,1,8,0:0:0:0:
256,192,199668,1,4,0:0:0:0:
256,192,199843,1,0,0:0:0:0:
256,192,200019,1,8,0:0:0:0:
256,192,200194,1,0,0:0:0:0:
256,192,200282,1,0,0:0:0:0:
256,192,200369,1,8,0:0:0:0:
256,192,200545,1,0,0:0:0:0:
256,192,200720,1,0,0:0:0:0:
256,192,200895,1,12,0:0:0:0:
256,192,201246,1,4,0:0:0:0:
256,192,201597,1,12,0:0:0:0:
256,192,201947,1,8,0:0:0:0:
256,192,202035,1,0,0:0:0:0:
256,192,202123,1,8,0:0:0:0:
256,192,202210,1,0,0:0:0:0:
256,192,202298,1,8,0:0:0:0:
256,192,202386,1,8,0:0:0:0:
256,192,202473,1,4,0:0:0:0:
256,192,202649,1,0,0:0:0:0:
256,192,202824,1,8,0:0:0:0:
256,192,202999,1,0,0:0:0:0:
256,192,203175,1,0,0:0:0:0:
256,192,203350,1,0,0:0:0:0:
256,192,203525,1,8,0:0:0:0:
256,192,203701,1,0,0:0:0:0:
256,192,203876,1,8,0:0:0:0:
256,192,204051,1,0,0:0:0:0:
256,192,204227,1,8,0:0:0:0:
256,192,204402,1,8,0:0:0:0:
256,192,204577,1,0,0:0:0:0:
256,192,204753,1,0,0:0:0:0:
256,192,204928,1,8,0:0:0:0:
256,192,205103,1,0,0:0:0:0:
256,192,205279,1,0,0:0:0:0:
256,192,205454,1,0,0:0:0:0:
256,192,205629,1,8,0:0:0:0:
256,192,205805,1,0,0:0:0:0:
256,192,205980,1,0,0:0:0:0:
256,192,206155,1,0,0:0:0:0:
256,192,206331,1,8,0:0:0:0:
256,192,206506,1,0,0:0:0:0:
256,192,206681,1,8,0:0:0:0:
256,192,206857,1,0,0:0:0:0:
256,192,207032,1,8,0:0:0:0:
256,192,207207,1,8,0:0:0:0:
256,192,207383,1,0,0:0:0:0:
256,192,207558,1,8,0:0:0:0:
256,192,207733,1,0,0:0:0:0:
256,192,207909,1,8,0:0:0:0:
256,192,207996,1,8,0:0:0:0:
256,192,208084,1,4,0:0:0:0:
256,192,208259,1,0,0:0:0:0:
256,192,208435,1,8,0:0:0:0:
256,192,208610,1,0,0:0:0:0:
256,192,208698,1,0,0:0:0:0:
256,192,208785,1,8,0:0:0:0:
256,192,208961,1,0,0:0:0:0:
256,192,209136,1,8,0:0:0:0:
256,192,209311,1,0,0:0:0:0:
256,192,209399,1,0,0:0:0:0:
256,192,209487,1,8,0:0:0:0:
256,192,209662,1,0,0:0:0:0:
256,192,209837,1,8,0:0:0:0:
256,192,210013,1,0,0:0:0:0:
256,192,210100,1,0,0:0:0:0:
256,192,210188,1,8,0:0:0:0:
256,192,210276,1,0,0:0:0:0:
256,192,210363,1,8,0:0:0:0:
256,192,210451,1,8,0:0:0:0:
256,192,210539,1,0,0:0:0:0:
256,192,210714,1,0,0:0:0:0:
256,192,210802,1,0,0:0:0:0:
256,192,210889,1,12,0:0:0:0:
256,192,211065,1,0,0:0:0:0:
256,192,211152,1,0,0:0:0:0:
256,192,211240,1,8,0:0:0:0:
256,192,211415,1,0,0:0:0:0:
256,192,211503,1,0,0:0:0:0:
256,192,211591,1,8,0:0:0:0:
256,192,211766,1,0,0:0:0:0:
256,192,211854,1,0,0:0:0:0:
256,192,211941,1,8,0:0:0:0:
256,192,212117,1,8,0:0:0:0:
256,192,212204,1,8,0:0:0:0:
256,192,212292,1,0,0:0:0:0:
256,192,212467,1,8,0:0:0:0:
256,192,212555,1,0,0:0:0:0:
256,192,212643,1,8,0:0:0:0:
256,192,212818,1,8,0:0:0:0:
256,192,212906,1,8,0:0:0:0:
256,192,212993,1,0,0:0:0:0:
256,192,213081,1,8,0:0:0:0:
256,192,213169,1,0,0:0:0:0:
256,192,213256,1,0,0:0:0:0:
256,192,213344,1,8,0:0:0:0:
256,192,213403,1,0,0:0:0:0:
256,192,213461,1,0,0:0:0:0:
256,192,213519,1,8,0:0:0:0:
256,192,213607,1,8,0:0:0:0:
256,192,213695,1,4,0:0:0:0:
256,192,214045,1,8,0:0:0:0:
256,192,214221,1,4,0:0:0:0:
256,192,214571,1,8,0:0:0:0:
256,192,214747,1,4,0:0:0:0:
256,192,215097,1,8,0:0:0:0:
256,192,215273,1,4,0:0:0:0:
256,192,215624,1,8,0:0:0:0:
256,192,215799,1,4,0:0:0:0:
256,192,216150,1,12,0:0:0:0:
256,192,216500,1,4,0:0:0:0:
256,192,216851,1,8,0:0:0:0:
256,192,217026,1,4,0:0:0:0:
256,192,217377,1,8,0:0:0:0:
256,192,217552,1,4,0:0:0:0:
256,192,217903,1,8,0:0:0:0:
256,192,218078,1,4,0:0:0:0:
256,192,218429,1,8,0:0:0:0:
256,192,218604,1,4,0:0:0:0:
256,192,218780,1,8,0:0:0:0:
256,192,218955,1,12,0:0:0:0:
256,192,219130,1,0,0:0:0:0:
256,192,219306,1,4,0:0:0:0:
256,192,219481,1,8,0:0:0:0:
256,192,219569,1,8,0:0:0:0:
256,192,219656,1,0,0:0:0:0:
256,192,219832,1,12,0:0:0:0:
256,192,220007,1,0,0:0:0:0:
256,192,220095,1,0,0:0:0:0:
256,192,220182,1,8,0:0:0:0:
256,192,220358,1,4,0:0:0:0:
256,192,220533,1,8,0:0:0:0:
256,192,220621,1,8,0:0:0:0:
256,192,220708,1,0,0:0:0:0:
256,192,220884,1,12,0:0:0:0:
256,192,221059,1,0,0:0:0:0:
256,192,221147,1,0,0:0:0:0:
256,192,221234,1,8,0:0:0:0:
256,192,221410,1,4,0:0:0:0:
256,192,221585,1,0,0:0:0:0:
256,192,221760,1,12,0:0:0:0:
256,192,221936,1,8,0:0:0:0:
256,192,222111,1,4,0:0:0:0:
256,192,222286,1,8,0:0:0:0:
256,192,222374,1,8,0:0:0:0:
256,192,222462,1,0,0:0:0:0:
256,192,222637,1,12,0:0:0:0:
256,192,222812,1,0,0:0:0:0:
256,192,222900,1,0,0:0:0:0:
256,192,222988,1,8,0:0:0:0:
256,192,223163,1,4,0:0:0:0:
256,192,223338,1,8,0:0:0:0:
256,192,223426,1,8,0:0:0:0:
256,192,223514,1,0,0:0:0:0:
256,192,223689,1,12,0:0:0:0:
256,192,223864,1,0,0:0:0:0:
256,192,223952,1,0,0:0:0:0:
256,192,224040,1,8,0:0:0:0:
256,192,224215,1,4,0:0:0:0:
256,192,224566,1,4,0:0:0:0:
256,192,224916,1,12,0:0:0:0:
256,192,225179,1,8,0:0:0:0:
256,192,225267,1,0,0:0:0:0:
256,192,225442,1,12,0:0:0:0:
256,192,225705,1,8,0:0:0:0:
256,192,225793,1,8,0:0:0:0:
256,192,225968,1,4,0:0:0:0:
256,192,226231,1,8,0:0:0:0:
256,192,226319,1,0,0:0:0:0:
256,192,226494,1,12,0:0:0:0:
256,192,226757,1,8,0:0:0:0:
256,192,226845,1,8,0:0:0:0:
256,192,227020,1,4,0:0:0:0:
256,192,227196,1,0,0:0:0:0:
256,192,227283,1,0,0:0:0:0:
256,192,227371,1,12,0:0:0:0:
256,192,227546,1,8,0:0:0:0:
256,192,227722,1,4,0:0:0:0:
256,192,227985,1,8,0:0:0:0:
256,192,228072,1,0,0:0:0:0:
256,192,228248,1,12,0:0:0:0:
256,192,228511,1,8,0:0:0:0:
256,192,228598,1,8,0:0:0:0:
256,192,228774,1,4,0:0:0:0:
256,192,229037,1,8,0:0:0:0:
256,192,229124,1,0,0:0:0:0:
256,192,229300,1,12,0:0:0:0:
256,192,229563,1,8,0:0:0:0:
256,192,229650,1,8,0:0:0:0:
256,192,229826,1,4,0:0:0:0:
256,192,230001,1,8,0:0:0:0:
256,192,230176,1,4,0:0:0:0:
256,192,230352,1,8,0:0:0:0:
256,192,230527,1,12,0:0:0:0:
256,192,230790,1,8,0:0:0:0:
256,192,230878,1,8,0:0:0:0:
256,192,230965,1,8,0:0:0:0:
256,192,231053,1,4,0:0:0:0:
256,192,231316,1,0,0:0:0:0:
256,192,231404,1,0,0:0:0:0:
256,192,231491,1,0,0:0:0:0:
256,192,231579,1,12,0:0:0:0:
256,192,231754,1,0,0:0:0:0:
256,192,231930,1,0,0:0:0:0:
256,192,232017,1,0,0:0:0:0:
256,192,232105,1,12,0:0:0:0:
256,192,232280,1,8,0:0:0:0:
256,192,232368,1,8,0:0:0:0:
256,192,232456,1,8,0:0:0:0:
256,192,232543,1,8,0:0:0:0:
256,192,232631,1,4,0:0:0:0:
256,192,232806,1,8,0:0:0:0:
256,192,232894,1,8,0:0:0:0:
256,192,232982,1,4,0:0:0:0:
256,192,233157,1,0,0:0:0:0:
256,192,233333,1,12,0:0:0:0:
256,192,233508,8,0,235787,0:0:0:0:
256,192,236138,5,4,0:0:0:0:
256,192,236313,8,0,238592,0:0:0:0:
256,192,238944,5,0,0:0:0:0:
256,192,239470,1,8,0:0:0:0:
256,192,239645,2,0,L|320:192|320:192,5,48.9999985046387
256,192,240872,1,8,0:0:0:0:
256,192,241048,1,0,0:0:0:0:
256,192,241223,1,0,0:0:0:0:
256,192,241398,1,8,0:0:0:0:
256,192,241574,1,8,0:0:0:0:
256,192,241749,1,0,0:0:0:0:
256,192,242100,1,8,0:0:0:0:
256,192,242275,1,0,0:0:0:0:
256,192,242626,1,8,0:0:0:0:
256,192,242976,1,0,0:0:0:0:
256,192,243327,1,8,0:0:0:0:
256,192,243502,1,0,0:0:0:0:
256,192,243678,1,0,0:0:0:0:
256,192,244028,1,8,0:0:0:0:
256,192,244204,1,8,0:0:0:0:
256,192,244379,2,0,L|320:192|320:192,8,48.9999985046387
256,192,246483,1,8,0:0:0:0:
256,192,246658,1,0,0:0:0:0:
256,192,246834,1,8,0:0:0:0:
256,192,247009,1,8,0:0:0:0:
256,192,247184,2,0,L|320:192|320:192,8,48.9999985046387
256,192,249639,1,0,0:0:0:0:
256,192,249814,1,8,0:0:0:0:
256,192,249990,1,8,0:0:0:0:
256,192,250165,1,0,0:0:0:0:
256,192,250516,1,0,0:0:0:0:
256,192,250691,1,8,0:0:0:0:
256,192,251042,1,8,0:0:0:0:
256,192,251217,1,8,0:0:0:0:
256,192,251392,1,0,0:0:0:0:
256,192,251743,1,8,0:0:0:0:
256,192,251918,1,0,0:0:0:0:
256,192,252094,1,8,0:0:0:0:
256,192,252269,1,8,0:0:0:0:
256,192,252620,1,0,0:0:0:0:
256,192,252970,1,8,0:0:0:0:
256,192,253146,1,8,0:0:0:0:
256,192,253321,1,0,0:0:0:0:
256,192,253496,1,0,0:0:0:0:
256,192,253847,1,8,0:0:0:0:
256,192,254022,1,0,0:0:0:0:
256,192,254198,1,8,0:0:0:0:
256,192,254548,1,0,0:0:0:0:
256,192,254724,1,0,0:0:0:0:
256,192,254899,1,8,0:0:0:0:
256,192,255250,1,0,0:0:0:0:
256,192,255425,1,8,0:0:0:0:
256,192,255600,1,8,0:0:0:0:
256,192,255776,1,0,0:0:0:0:
256,192,255951,1,0,0:0:0:0:
256,192,256126,1,8,0:0:0:0:
256,192,256302,1,0,0:0:0:0:
256,192,256652,1,0,0:0:0:0:
256,192,256828,1,8,0:0:0:0:
256,192,257003,1,8,0:0:0:0:
256,192,257178,1,0,0:0:0:0:
256,192,257529,1,0,0:0:0:0:
256,192,257704,1,8,0:0:0:0:
256,192,257880,1,0,0:0:0:0:
256,192,258055,1,8,0:0:0:0:
256,192,258143,1,8,0:0:0:0:
256,192,258230,1,8,0:0:0:0:
256,192,258581,1,4,0:0:0:0:
256,192,258932,1,0,0:0:0:0:
256,192,259282,1,8,0:0:0:0:
256,192,259633,1,0,0:0:0:0:
256,192,259984,1,8,0:0:0:0:
256,192,260159,1,0,0:0:0:0:
256,192,260334,1,0,0:0:0:0:
256,192,260685,1,8,0:0:0:0:
256,192,261036,1,0,0:0:0:0:
256,192,261387,1,0,0:0:0:0:
256,192,261913,1,0,0:0:0:0:
256,192,262088,1,8,0:0:0:0:
256,192,262439,1,0,0:0:0:0:
256,192,262614,1,8,0:0:0:0:
256,192,262789,1,8,0:0:0:0:
256,192,262965,1,0,0:0:0:0:
256,192,263140,1,0,0:0:0:0:
256,192,263491,1,8,0:0:0:0:
256,192,263841,1,0,0:0:0:0:
256,192,264192,1,4,0:0:0:0:
256,192,264543,1,8,0:0:0:0:
256,192,264893,1,0,0:0:0:0:
256,192,265069,1,0,0:0:0:0:
256,192,265244,1,8,0:0:0:0:
256,192,265595,1,0,0:0:0:0:
256,192,265770,1,0,0:0:0:0:
256,192,265945,1,8,0:0:0:0:
256,192,266121,1,0,0:0:0:0:
256,192,266471,1,0,0:0:0:0:
256,192,266647,1,8,0:0:0:0:
256,192,266997,1,4,0:0:0:0:
256,192,267173,1,8,0:0:0:0:
256,192,267348,1,0,0:0:0:0:
256,192,267523,1,0,0:0:0:0:
256,192,267699,1,8,0:0:0:0:
256,192,267874,1,8,0:0:0:0:
256,192,268049,1,8,0:0:0:0:
256,192,268225,1,8,0:0:0:0:
256,192,268400,1,8,0:0:0:0:
256,192,268575,1,8,0:0:0:0:
256,192,268750,1,8,0:0:0:0:
256,192,268951,1,4,0:0:0:0:
256,192,274191,5,0,0:0:0:0:
256,192,274563,1,12,0:0:0:0:
256,192,274913,1,8,0:0:0:0:
256,192,275089,1,0,0:0:0:0:
256,192,275176,1,0,0:0:0:0:
256,192,275264,1,8,0:0:0:0:
256,192,275439,1,8,0:0:0:0:
256,192,275615,1,0,0:0:0:0:
256,192,275790,1,12,0:0:0:0:
256,192,276141,1,0,0:0:0:0:
256,192,276316,1,8,0:0:0:0:
256,192,276491,1,0,0:0:0:0:
256,192,276579,1,0,0:0:0:0:
256,192,276667,1,8,0:0:0:0:
256,192,276754,1,8,0:0:0:0:
256,192,276842,1,0,0:0:0:0:
256,192,276930,1,0,0:0:0:0:
256,192,277017,1,8,0:0:0:0:
256,192,277105,1,0,0:0:0:0:
256,192,277193,1,8,0:0:0:0:
256,192,277280,1,8,0:0:0:0:
256,192,277368,1,4,0:0:0:0:
256,192,277631,1,0,0:0:0:0:
256,192,277719,1,8,0:0:0:0:
256,192,277894,1,8,0:0:0:0:
256,192,277982,1,8,0:0:0:0:
256,192,278069,1,0,0:0:0:0:
256,192,278245,1,0,0:0:0:0:
256,192,278420,1,8,0:0:0:0:
256,192,278595,1,4,0:0:0:0:
256,192,278946,1,0,0:0:0:0:
256,192,279034,1,0,0:0:0:0:
256,192,279121,1,8,0:0:0:0:
256,192,279297,1,8,0:0:0:0:
256,192,279472,1,0,0:0:0:0:
256,192,279647,1,8,0:0:0:0:
256,192,279735,1,0,0:0:0:0:
256,192,279823,1,8,0:0:0:0:
256,192,279910,1,8,0:0:0:0:
256,192,279998,1,0,0:0:0:0:
256,192,280086,1,0,0:0:0:0:
256,192,280173,1,12,0:0:0:0:
256,192,280349,1,0,0:0:0:0:
256,192,280524,1,8,0:0:0:0:
256,192,280699,1,8,0:0:0:0:
256,192,280787,1,0,0:0:0:0:
256,192,280875,1,8,0:0:0:0:
256,192,281050,1,8,0:0:0:0:
256,192,281225,1,0,0:0:0:0:
256,192,281401,1,12,0:0:0:0:
256,192,281751,1,0,0:0:0:0:
256,192,281927,1,8,0:0:0:0:
256,192,282102,1,0,0:0:0:0:
256,192,282190,1,8,0:0:0:0:
256,192,282277,1,8,0:0:0:0:
256,192,282365,1,8,0:0:0:0:
256,192,282453,1,0,0:0:0:0:
256,192,282540,1,0,0:0:0:0:
256,192,282628,1,8,0:0:0:0:
256,192,282716,1,8,0:0:0:0:
256,192,282803,1,0,0:0:0:0:
256,192,282891,1,0,0:0:0:0:
256,192,282979,1,12,0:0:0:0:
256,192,283154,1,0,0:0:0:0:
256,192,283329,1,8,0:0:0:0:
256,192,283505,1,8,0:0:0:0:
256,192,283592,1,8,0:0:0:0:
256,192,283680,1,0,0:0:0:0:
256,192,283855,1,0,0:0:0:0:
256,192,284031,1,8,0:0:0:0:
256,192,284206,1,0,0:0:0:0:
256,192,284294,1,0,0:0:0:0:
256,192,284381,1,8,0:0:0:0:
256,192,284557,1,0,0:0:0:0:
256,192,284732,1,8,0:0:0:0:
256,192,284907,1,0,0:0:0:0:
256,192,285083,1,8,0:0:0:0:
256,192,285170,1,8,0:0:0:0:
256,192,285258,1,0,0:0:0:0:
256,192,285346,1,8,0:0:0:0:
256,192,285433,1,0,0:0:0:0:
256,192,285521,1,0,0:0:0:0:
256,192,285609,1,12,0:0:0:0:
256,192,285959,1,0,0:0:0:0:
256,192,286135,1,8,0:0:0:0:
256,192,286310,1,8,0:0:0:0:
256,192,286398,1,8,0:0:0:0:
256,192,286485,1,0,0:0:0:0:
256,192,286661,1,0,0:0:0:0:
256,192,286748,1,8,0:0:0:0:
256,192,286836,1,0,0:0:0:0:
256,192,286924,1,0,0:0:0:0:
256,192,287011,1,12,0:0:0:0:
256,192,287362,1,0,0:0:0:0:
256,192,287537,1,8,0:0:0:0:
256,192,287625,1,8,0:0:0:0:
256,192,287713,1,8,0:0:0:0:
256,192,287800,1,0,0:0:0:0:
256,192,287888,1,8,0:0:0:0:
256,192,287976,1,8,0:0:0:0:
256,192,288063,1,0,0:0:0:0:
256,192,288151,1,0,0:0:0:0:
256,192,288239,1,8,0:0:0:0:
256,192,288414,1,8,0:0:0:0:
256,192,288589,1,4,0:0:0:0:
256,192,288765,1,0,0:0:0:0:
256,192,288940,1,8,0:0:0:0:
256,192,289028,1,0,0:0:0:0:
256,192,289115,1,8,0:0:0:0:
256,192,289203,1,8,0:0:0:0:
256,192,289291,1,0,0:0:0:0:
256,192,289466,1,8,0:0:0:0:
256,192,289641,1,8,0:0:0:0:
256,192,289817,1,0,0:0:0:0:
256,192,290167,1,0,0:0:0:0:
256,192,290343,1,8,0:0:0:0:
256,192,290518,1,0,0:0:0:0:
256,192,290869,1,0,0:0:0:0:
256,192,291044,1,8,0:0:0:0:
256,192,291219,1,4,0:0:0:0:
256,192,291570,1,0,0:0:0:0:
256,192,291745,1,8,0:0:0:0:
256,192,291921,1,0,0:0:0:0:
256,192,292008,1,0,0:0:0:0:
256,192,292096,1,8,0:0:0:0:
256,192,292271,1,0,0:0:0:0:
256,192,292447,1,8,0:0:0:0:
256,192,292622,1,12,0:0:0:0:
256,192,292973,1,8,0:0:0:0:
256,192,293060,1,8,0:0:0:0:
256,192,293148,1,8,0:0:0:0:
256,192,293323,1,4,0:0:0:0:
256,192,293674,1,0,0:0:0:0:
256,192,293762,1,0,0:0:0:0:
256,192,293849,1,8,0:0:0:0:
256,192,294025,1,0,0:0:0:0:
256,192,294112,1,0,0:0:0:0:
256,192,294200,1,12,0:0:0:0:
256,192,294375,1,8,0:0:0:0:
256,192,294463,1,8,0:0:0:0:
256,192,294551,1,0,0:0:0:0:
256,192,294726,1,8,0:0:0:0:
256,192,294814,1,0,0:0:0:0:
256,192,294901,1,8,0:0:0:0:
256,192,294989,1,8,0:0:0:0:
256,192,295077,1,0,0:0:0:0:
256,192,295164,1,0,0:0:0:0:
256,192,295252,1,8,0:0:0:0:
256,192,295340,1,0,0:0:0:0:
256,192,295427,1,8,0:0:0:0:
256,192,295515,1,8,0:0:0:0:
256,192,295603,1,0,0:0:0:0:
256,192,295690,1,8,0:0:0:0:
256,192,295778,1,8,0:0:0:0:
256,192,295866,1,8,0:0:0:0:
256,192,295953,1,0,0:0:0:0:
256,192,296041,1,8,0:0:0:0:
256,192,296129,1,0,0:0:0:0:
256,192,296304,1,12,0:0:0:0:
256,192,296655,1,4,0:0:0:0:
256,192,297006,1,8,0:0:0:0:
256,192,297093,1,0,0:0:0:0:
256,192,297181,1,0,0:0:0:0:
256,192,297356,1,12,0:0:0:0:
256,192,297532,1,0,0:0:0:0:
256,192,297619,1,8,0:0:0:0:
256,192,297707,1,8,0:0:0:0:
256,192,297795,1,8,0:0:0:0:
256,192,297882,1,0,0:0:0:0:
256,192,297970,1,0,0:0:0:0:
256,192,298058,1,8,0:0:0:0:
256,192,298233,1,12,0:0:0:0:
256,192,298584,1,0,0:0:0:0:
256,192,298759,1,8,0:0:0:0:
256,192,298934,1,0,0:0:0:0:
256,192,299022,1,8,0:0:0:0:
256,192,299110,1,0,0:0:0:0:
256,192,299197,1,0,0:0:0:0:
256,192,299285,1,8,0:0:0:0:
256,192,299373,1,0,0:0:0:0:
256,192,299460,1,8,0:0:0:0:
256,192,299548,1,0,0:0:0:0:
256,192,299636,1,8,0:0:0:0:
256,192,299723,1,8,0:0:0:0:
256,192,299811,1,4,0:0:0:0:
256,192,299986,1,0,0:0:0:0:
256,192,300162,1,8,0:0:0:0:
256,192,300337,1,0,0:0:0:0:
256,192,300425,1,8,0:0:0:0:
256,192,300512,1,8,0:0:0:0:
256,192,300600,1,8,0:0:0:0:
256,192,300688,1,0,0:0:0:0:
256,192,300863,1,8,0:0:0:0:
256,192,301038,1,0,0:0:0:0:
256,192,301126,1,0,0:0:0:0:
256,192,301214,1,8,0:0:0:0:
256,192,301301,1,8,0:0:0:0:
256,192,301389,1,0,0:0:0:0:
256,192,301564,1,8,0:0:0:0:
256,192,301740,1,8,0:0:0:0:
256,192,301827,1,0,0:0:0:0:
256,192,301915,1,0,0:0:0:0:
256,192,302090,1,8,0:0:0:0:
256,192,302178,1,0,0:0:0:0:
256,192,302266,1,8,0:0:0:0:
256,192,302353,1,8,0:0:0:0:
256,192,302441,1,0,0:0:0:0:
256,192,302529,1,0,0:0:0:0:
256,192,302616,1,12,0:0:0:0:
256,192,302792,1,0,0:0:0:0:
256,192,302967,1,8,0:0:0:0:
256,192,303142,1,8,0:0:0:0:
256,192,303230,1,0,0:0:0:0:
256,192,303318,1,8,0:0:0:0:
256,192,303493,1,8,0:0:0:0:
256,192,303668,1,0,0:0:0:0:
256,192,303844,1,12,0:0:0:0:
256,192,304194,1,0,0:0:0:0:
256,192,304370,1,8,0:0:0:0:
256,192,304545,1,8,0:0:0:0:
256,192,304633,1,8,0:0:0:0:
256,192,304720,1,0,0:0:0:0:
256,192,304808,1,0,0:0:0:0:
256,192,304896,1,8,0:0:0:0:
256,192,304983,1,0,0:0:0:0:
256,192,305071,1,8,0:0:0:0:
256,192,305246,1,8,0:0:0:0:
256,192,305334,1,8,0:0:0:0:
256,192,305422,1,4,0:0:0:0:
256,192,305597,1,0,0:0:0:0:
256,192,305772,1,8,0:0:0:0:
256,192,305948,1,0,0:0:0:0:
256,192,306035,1,0,0:0:0:0:
256,192,306123,1,8,0:0:0:0:
256,192,306298,1,0,0:0:0:0:
256,192,306474,1,8,0:0:0:0:
256,192,306649,1,8,0:0:0:0:
256,192,306737,1,8,0:0:0:0:
256,192,306824,1,0,0:0:0:0:
256,192,307000,1,0,0:0:0:0:
256,192,307175,1,8,0:0:0:0:
256,192,307350,1,0,0:0:0:0:
256,192,307438,1,0,0:0:0:0:
256,192,307526,1,8,0:0:0:0:
256,192,307613,1,8,0:0:0:0:
256,192,307701,1,0,0:0:0:0:
256,192,307789,1,8,0:0:0:0:
256,192,307876,1,0,0:0:0:0:
256,192,307964,1,0,0:0:0:0:
256,192,308052,1,12,0:0:0:0:
256,192,308402,1,0,0:0:0:0:
256,192,308578,1,8,0:0:0:0:
256,192,308753,1,8,0:0:0:0:
256,192,308841,1,8,0:0:0:0:
256,192,308928,1,0,0:0:0:0:
256,192,309104,1,0,0:0:0:0:
256,192,309279,1,8,0:0:0:0:
256,192,309454,1,12,0:0:0:0:
256,192,309805,1,0,0:0:0:0:
256,192,309980,1,8,0:0:0:0:
256,192,310068,1,0,0:0:0:0:
256,192,310156,1,0,0:0:0:0:
256,192,310243,1,0,0:0:0:0:
256,192,310331,1,8,0:0:0:0:
256,192,310419,1,8,0:0:0:0:
256,192,310506,1,0,0:0:0:0:
256,192,310594,1,0,0:0:0:0:
256,192,310682,1,8,0:0:0:0:
256,192,310857,1,0,0:0:0:0:
256,192,311032,1,12,0:0:0:0:
256,192,311208,1,0,0:0:0:0:
256,192,311383,1,8,0:0:0:0:
256,192,311471,1,0,0:0:0:0:
256,192,311558,1,8,0:0:0:0:
256,192,311646,1,8,0:0:0:0:
256,192,311734,1,0,0:0:0:0:
256,192,311821,1,0,0:0:0:0:
256,192,311909,1,8,0:0:0:0:
256,192,311997,1,0,0:0:0:0:
256,192,312084,1,8,0:0:0:0:
256,192,312260,1,0,0:0:0:0:
256,192,312610,1,0,0:0:0:0:
256,192,312786,1,8,0:0:0:0:
256,192,312961,1,0,0:0:0:0:
256,192,313312,1,0,0:0:0:0:
256,192,313487,1,8,0:0:0:0:
256,192,313662,1,4,0:0:0:0:
256,192,314013,1,0,0:0:0:0:
256,192,314188,1,8,0:0:0:0:
256,192,314364,1,0,0:0:0:0:
256,192,314451,1,0,0:0:0:0:
256,192,314539,1,8,0:0:0:0:
256,192,314714,1,0,0:0:0:0:
256,192,314890,1,8,0:0:0:0:
256,192,315065,1,12,0:0:0:0:
256,192,315416,1,8,0:0:0:0:
256,192,315503,1,8,0:0:0:0:
256,192,315591,1,8,0:0:0:0:
256,192,315766,1,4,0:0:0:0:
256,192,316117,1,0,0:0:0:0:
256,192,316292,1,8,0:0:0:0:
256,192,316468,1,0,0:0:0:0:
256,192,316555,1,0,0:0:0:0:
256,192,316643,1,12,0:0:0:0:
256,192,316818,1,0,0:0:0:0:
256,192,316906,1,8,0:0:0:0:
256,192,316994,1,8,0:0:0:0:
256,192,317081,1,8,0:0:0:0:
256,192,317169,1,0,0:0:0:0:
256,192,317257,1,8,0:0:0:0:
256,192,317344,1,0,0:0:0:0:
256,192,317432,1,0,0:0:0:0:
256,192,317520,1,8,0:0:0:0:
256,192,317608,1,0,0:0:0:0:
256,192,317695,1,8,0:0:0:0:
256,192,317783,1,0,0:0:0:0:
256,192,317871,1,8,0:0:0:0:
256,192,317958,1,8,0:0:0:0:
256,192,318046,1,0,0:0:0:0:
256,192,318104,1,0,0:0:0:0:
256,192,318163,1,0,0:0:0:0:
256,192,318221,1,8,0:0:0:0:
256,192,318309,1,0,0:0:0:0:
256,192,318397,1,8,0:0:0:0:
256,192,318484,1,8,0:0:0:0:
256,192,318572,1,0,0:0:0:0:
256,192,318660,1,0,0:0:0:0:
256,192,318747,1,8,0:0:0:0:
256,192,318806,1,0,0:0:0:0:
256,192,318864,1,0,0:0:0:0:
256,192,318923,1,8,0:0:0:0:
256,192,319010,1,8,0:0:0:0:
256,192,319098,1,0,0:0:0:0:
256,192,319186,1,0,0:0:0:0:
256,192,319273,1,8,0:0:0:0:
256,192,319361,1,8,0:0:0:0:
256,192,319449,1,4,0:0:0:0:
256,192,319712,1,0,0:0:0:0:
256,192,319799,1,8,0:0:0:0:
256,192,319975,1,0,0:0:0:0:
256,192,320150,1,8,0:0:0:0:
256,192,320325,1,0,0:0:0:0:
256,192,320413,1,0,0:0:0:0:
256,192,320501,1,8,0:0:0:0:
256,192,320676,1,0,0:0:0:0:
256,192,321027,1,0,0:0:0:0:
256,192,321202,1,8,0:0:0:0:
256,192,321377,1,0,0:0:0:0:
256,192,321465,1,0,0:0:0:0:
256,192,321553,1,0,0:0:0:0:
256,192,321728,1,0,0:0:0:0:
256,192,321903,1,8,0:0:0:0:
256,192,322254,1,0,0:0:0:0:
256,192,322429,1,0,0:0:0:0:
256,192,322605,1,8,0:0:0:0:
256,192,322780,1,8,0:0:0:0:
256,192,322868,1,8,0:0:0:0:
256,192,322955,1,0,0:0:0:0:
256,192,323131,1,0,0:0:0:0:
256,192,323306,1,8,0:0:0:0:
256,192,323481,1,0,0:0:0:0:
256,192,323832,1,0,0:0:0:0:
256,192,323920,1,0,0:0:0:0:
256,192,324007,1,8,0:0:0:0:
256,192,324183,1,8,0:0:0:0:
256,192,324358,1,0,0:0:0:0:
256,192,324533,1,0,0:0:0:0:
256,192,324709,1,8,0:0:0:0:
256,192,324884,1,8,0:0:0:0:
256,192,324972,1,8,0:0:0:0:
256,192,325059,1,4,0:0:0:0:
256,192,325235,1,0,0:0:0:0:
256,192,325410,1,8,0:0:0:0:
256,192,325585,1,0,0:0:0:0:
256,192,325673,1,0,0:0:0:0:
256,192,325761,1,8,0:0:0:0:
256,192,325936,1,0,0:0:0:0:
256,192,326111,1,8,0:0:0:0:
256,192,326287,1,0,0:0:0:0:
256,192,326637,1,0,0:0:0:0:
256,192,326813,1,8,0:0:0:0:
256,192,326988,1,0,0:0:0:0:
256,192,327076,1,0,0:0:0:0:
256,192,327163,1,0,0:0:0:0:
256,192,327339,1,0,0:0:0:0:
256,192,327514,1,8,0:0:0:0:
256,192,327689,1,0,0:0:0:0:
256,192,327777,1,0,0:0:0:0:
256,192,327865,1,12,0:0:0:0:
256,192,328040,1,0,0:0:0:0:
256,192,328215,1,8,0:0:0:0:
256,192,328391,1,8,0:0:0:0:
256,192,328478,1,8,0:0:0:0:
256,192,328566,1,4,0:0:0:0:
256,192,328741,1,0,0:0:0:0:
256,192,328917,1,8,0:0:0:0:
256,192,329092,1,0,0:0:0:0:
256,192,329180,1,0,0:0:0:0:
256,192,329267,1,12,0:0:0:0:
256,192,329443,1,0,0:0:0:0:
256,192,329618,1,8,0:0:0:0:
256,192,329793,1,0,0:0:0:0:
256,192,329969,1,8,0:0:0:0:
256,192,330144,1,8,0:0:0:0:
256,192,330232,1,0,0:0:0:0:
256,192,330319,1,0,0:0:0:0:
256,192,330495,1,0,0:0:0:0:
256,192,330670,1,12,0:0:0:0:
256,192,330933,1,0,0:0:0:0:
256,192,331021,1,8,0:0:0:0:
256,192,331196,1,0,0:0:0:0:
256,192,331371,1,8,0:0:0:0:
256,192,331547,1,0,0:0:0:0:
256,192,331634,1,0,0:0:0:0:
256,192,331722,1,8,0:0:0:0:
256,192,331897,1,0,0:0:0:0:
256,192,332248,1,0,0:0:0:0:
256,192,332423,1,8,0:0:0:0:
256,192,332599,1,0,0:0:0:0:
256,192,332686,1,0,0:0:0:0:
256,192,332774,1,0,0:0:0:0:
256,192,332949,1,0,0:0:0:0:
256,192,333125,1,8,0:0:0:0:
256,192,333475,1,0,0:0:0:0:
256,192,333651,1,0,0:0:0:0:
256,192,333826,1,8,0:0:0:0:
256,192,334001,1,8,0:0:0:0:
256,192,334089,1,8,0:0:0:0:
256,192,334177,1,0,0:0:0:0:
256,192,334352,1,0,0:0:0:0:
256,192,334527,1,8,0:0:0:0:
256,192,334703,1,0,0:0:0:0:
256,192,335053,1,0,0:0:0:0:
256,192,335141,1,0,0:0:0:0:
256,192,335229,1,8,0:0:0:0:
256,192,335404,1,8,0:0:0:0:
256,192,335579,1,0,0:0:0:0:
256,192,335755,1,0,0:0:0:0:
256,192,335930,1,8,0:0:0:0:
256,192,336105,1,8,0:0:0:0:
256,192,336193,1,8,0:0:0:0:
256,192,336281,1,4,0:0:0:0:
256,192,336456,1,0,0:0:0:0:
256,192,336631,1,8,0:0:0:0:
256,192,336807,1,0,0:0:0:0:
256,192,336894,1,0,0:0:0:0:
256,192,336982,1,8,0:0:0:0:
256,192,337157,1,0,0:0:0:0:
256,192,337333,1,0,0:0:0:0:
256,192,337508,1,12,0:0:0:0:
256,192,337859,1,4,0:0:0:0:
256,192,338209,1,12,0:0:0:0:
256,192,338560,1,8,0:0:0:0:
256,192,338648,1,8,0:0:0:0:
256,192,338735,1,0,0:0:0:0:
256,192,338823,1,0,0:0:0:0:
256,192,338911,1,0,0:0:0:0:
256,192,338999,1,0,0:0:0:0:
256,192,339086,1,12,0:0:0:0:
256,192,339262,1,0,0:0:0:0:
256,192,339437,1,0,0:0:0:0:
256,192,339788,1,8,0:0:0:0:
256,192,340489,1,0,0:0:0:0:
256,192,340664,1,0,0:0:0:0:
256,192,340840,1,0,0:0:0:0:
256,192,341190,1,8,0:0:0:0:
256,192,341892,1,8,0:0:0:0:
256,192,342067,1,0,0:0:0:0:
256,192,342242,1,0,0:0:0:0:
256,192,342418,1,0,0:0:0:0:
256,192,342593,1,8,0:0:0:0:
256,192,342944,1,8,0:0:0:0:
256,192,343294,1,8,0:0:0:0:
256,192,343470,1,0,0:0:0:0:
256,192,343645,1,0,0:0:0:0:
256,192,343996,1,8,0:0:0:0:
256,192,344112,1,8,0:0:0:0:
256,192,344229,1,0,0:0:0:0:
256,192,344346,1,8,0:0:0:0:
256,192,344463,1,0,0:0:0:0:
256,192,344580,1,0,0:0:0:0:
256,192,344697,1,12,0:0:0:0:
256,192,344872,1,0,0:0:0:0:
256,192,345048,1,0,0:0:0:0:
256,192,345398,1,8,0:0:0:0:
256,192,346100,1,0,0:0:0:0:
256,192,346275,1,0,0:0:0:0:
256,192,346450,1,0,0:0:0:0:
256,192,346801,1,8,0:0:0:0:
256,192,347502,1,8,0:0:0:0:
256,192,347678,1,8,0:0:0:0:
256,192,347853,1,0,0:0:0:0:
256,192,348028,1,0,0:0:0:0:
256,192,348116,1,0,0:0:0:0:
256,192,348204,1,8,0:0:0:0:
256,192,348554,1,8,0:0:0:0:
256,192,348905,1,8,0:0:0:0:
256,192,349080,1,0,0:0:0:0:
256,192,349256,1,8,0:0:0:0:
256,192,349431,1,0,0:0:0:0:
256,192,349519,1,0,0:0:0:0:
256,192,349606,1,8,0:0:0:0:
256,192,349694,1,0,0:0:0:0:
256,192,349782,1,8,0:0:0:0:
256,192,349869,1,0,0:0:0:0:
256,192,349957,1,8,0:0:0:0:
256,192,350045,1,8,0:0:0:0:
256,192,350132,1,0,0:0:0:0:
256,192,350220,1,0,0:0:0:0:
256,192,350308,1,12,0:0:0:0:
256,192,350483,1,0,0:0:0:0:
256,192,350571,1,0,0:0:0:0:
256,192,350658,1,8,0:0:0:0:
256,192,350834,1,4,0:0:0:0:
256,192,351009,1,8,0:0:0:0:
256,192,351184,1,0,0:0:0:0:
256,192,351360,1,12,0:0:0:0:
256,192,351535,1,0,0:0:0:0:
256,192,351710,1,8,0:0:0:0:
256,192,351886,1,4,0:0:0:0:
256,192,352061,1,8,0:0:0:0:
256,192,352236,1,8,0:0:0:0:
256,192,352412,1,4,0:0:0:0:
256,192,352762,1,4,0:0:0:0:
256,192,353113,1,12,0:0:0:0:
256,192,353288,12,0,362756,0:0:0:0:
