osu file format v14

[General]
AudioFilename: audio.mp3
AudioLeadIn: 0
PreviewTime: 54359
Countdown: 0
SampleSet: Soft
StackLeniency: 0.7
Mode: 3
LetterboxInBreaks: 0
SpecialStyle: 0
WidescreenStoryboard: 1

[Editor]
DistanceSpacing: 0.5
BeatDivisor: 4
GridSize: 32
TimelineZoom: 2.2

[Metadata]
Title:Rampage
TitleUnicode:ランペイジ
Artist:paraoka feat. haru*nya
ArtistUnicode:paraoka feat. haru*nya
Creator:Umo-
Version:kaythen's 9K MX
Source:
Tags:cheering happy koujimachi yousankan 麹町養蚕館 マテリアル kaythen
BeatmapID:2297185
BeatmapSetID:644295

[Difficulty]
HPDrainRate:7.7
CircleSize:9
OverallDifficulty:7.7
ApproachRate:5
SliderMultiplier:1.4
SliderTickRate:1

[Events]
//Background and Video events
0,0,"backgrnd.jpg",0,0
//Break Periods
//Storyboard Layer 0 (Background)
//Storyboard Layer 1 (Fail)
//Storyboard Layer 2 (Pass)
//Storyboard Layer 3 (Foreground)
//Storyboard Layer 4 (Overlay)
//Storyboard Sound Samples

[TimingPoints]
1762,389.61038961039,4,2,0,30,1,0
53190,-71.4285714285714,4,2,0,30,0,0
53385,-166.666666666667,4,2,0,30,0,0
53580,-71.4285714285714,4,2,0,30,0,0
53774,-166.666666666667,4,2,0,30,0,0
53969,-71.4285714285714,4,2,0,30,0,0
54164,-166.666666666667,4,2,0,30,0,0
54359,-71.4285714285714,4,2,0,30,0,0
54554,-166.666666666667,4,2,0,30,0,0
54749,-100,4,2,0,30,0,1
66826,-100,4,2,0,30,0,0
67216,-100,4,2,0,30,0,1
70333,-100,4,2,0,30,0,0

[HitObjects]
28,192,1372,5,0,0:0:0:0:
85,192,1469,1,0,0:0:0:0:
142,192,1567,1,0,0:0:0:0:
199,192,1664,1,0,0:0:0:0:
256,192,1762,1,0,0:0:0:0:
369,192,1762,1,0,0:0:0:0:
483,192,1762,1,0,0:0:0:0:
85,192,1762,1,0,0:0:0:0:
199,192,1956,1,0,0:0:0:0:
28,192,2151,1,0,0:0:0:0:
312,192,2151,1,0,0:0:0:0:
85,192,2346,1,0,0:0:0:0:
369,192,2346,1,0,0:0:0:0:
256,192,2346,1,0,0:0:0:0:
312,192,2541,1,0,0:0:0:0:
199,192,2541,1,0,0:0:0:0:
142,192,2736,1,0,0:0:0:0:
85,192,2930,1,0,0:0:0:0:
256,192,2930,1,0,0:0:0:0:
369,192,2930,1,0,0:0:0:0:
199,192,3125,1,0,0:0:0:0:
426,192,3320,1,0,0:0:0:0:
312,192,3320,1,0,0:0:0:0:
142,192,3320,1,0,0:0:0:0:
199,192,3515,1,0,0:0:0:0:
28,192,3710,1,0,0:0:0:0:
256,192,3710,1,0,0:0:0:0:
142,192,3904,1,0,0:0:0:0:
312,192,3904,1,0,0:0:0:0:
426,192,3904,1,0,0:0:0:0:
256,192,4099,1,0,0:0:0:0:
85,192,4099,1,0,0:0:0:0:
199,192,4294,1,0,0:0:0:0:
142,192,4489,1,0,0:0:0:0:
312,192,4489,1,0,0:0:0:0:
426,192,4489,1,0,0:0:0:0:
28,192,4684,1,0,0:0:0:0:
483,192,4878,1,0,0:0:0:0:
199,192,4878,1,0,0:0:0:0:
312,192,4878,1,0,0:0:0:0:
369,192,5073,1,0,0:0:0:0:
85,192,5268,1,0,0:0:0:0:
256,192,5268,1,0,0:0:0:0:
199,192,5463,1,0,0:0:0:0:
312,192,5463,1,0,0:0:0:0:
483,192,5463,1,0,0:0:0:0:
28,192,5658,1,0,0:0:0:0:
256,192,5658,1,0,0:0:0:0:
142,192,5852,1,0,0:0:0:0:
483,192,6047,1,0,0:0:0:0:
312,192,6047,1,0,0:0:0:0:
199,192,6047,1,0,0:0:0:0:
85,192,6242,1,0,0:0:0:0:
483,192,6437,1,0,0:0:0:0:
369,192,6437,1,0,0:0:0:0:
256,192,6437,1,0,0:0:0:0:
142,192,6632,1,0,0:0:0:0:
28,192,6826,1,0,0:0:0:0:
312,192,6826,1,0,0:0:0:0:
256,192,7021,1,0,0:0:0:0:
369,192,7021,1,0,0:0:0:0:
483,192,7021,1,0,0:0:0:0:
142,192,7216,1,0,0:0:0:0:
28,192,7216,1,0,0:0:0:0:
483,192,7411,1,0,0:0:0:0:
28,192,7411,1,0,0:0:0:0:
256,192,7411,1,0,0:0:0:0:
142,192,7508,1,0,0:0:0:0:
369,192,7508,1,0,0:0:0:0:
28,192,7606,1,0,0:0:0:0:
483,192,7606,1,0,0:0:0:0:
85,192,7703,1,0,0:0:0:0:
426,192,7703,1,0,0:0:0:0:
369,192,7800,1,0,0:0:0:0:
142,192,7800,1,0,0:0:0:0:
199,192,7898,1,0,0:0:0:0:
312,192,7898,1,0,0:0:0:0:
28,192,7995,1,0,0:0:0:0:
256,192,7995,1,0,0:0:0:0:
483,192,7995,1,0,0:0:0:0:
85,192,7995,1,0,0:0:0:0:
312,192,8190,1,0,0:0:0:0:
369,192,8385,1,0,0:0:0:0:
199,192,8385,1,0,0:0:0:0:
256,192,8580,1,0,0:0:0:0:
85,192,8580,1,0,0:0:0:0:
28,192,8580,1,0,0:0:0:0:
369,192,8774,1,0,0:0:0:0:
199,192,8774,1,0,0:0:0:0:
312,192,8969,1,0,0:0:0:0:
28,192,9164,1,0,0:0:0:0:
85,192,9164,1,0,0:0:0:0:
256,192,9164,1,0,0:0:0:0:
483,192,9359,1,0,0:0:0:0:
199,192,9554,1,0,0:0:0:0:
369,192,9554,1,0,0:0:0:0:
142,192,9554,1,0,0:0:0:0:
256,192,9749,1,0,0:0:0:0:
28,192,9943,1,0,0:0:0:0:
483,192,9943,1,0,0:0:0:0:
369,192,10138,1,0,0:0:0:0:
199,192,10138,1,0,0:0:0:0:
142,192,10138,1,0,0:0:0:0:
256,192,10333,1,0,0:0:0:0:
483,192,10333,1,0,0:0:0:0:
312,192,10528,1,0,0:0:0:0:
369,192,10723,1,0,0:0:0:0:
199,192,10723,1,0,0:0:0:0:
142,192,10723,1,0,0:0:0:0:
256,192,10917,1,0,0:0:0:0:
312,192,11112,1,0,0:0:0:0:
426,192,11112,1,0,0:0:0:0:
142,192,11112,1,0,0:0:0:0:
199,192,11307,1,0,0:0:0:0:
28,192,11502,1,0,0:0:0:0:
256,192,11502,1,0,0:0:0:0:
312,192,11697,1,0,0:0:0:0:
426,192,11697,1,0,0:0:0:0:
142,192,11697,1,0,0:0:0:0:
256,192,11891,1,0,0:0:0:0:
28,192,11891,1,0,0:0:0:0:
199,192,12086,1,0,0:0:0:0:
426,192,12281,1,0,0:0:0:0:
312,192,12281,1,0,0:0:0:0:
142,192,12281,1,0,0:0:0:0:
85,192,12476,1,0,0:0:0:0:
369,192,12476,1,0,0:0:0:0:
312,192,12573,1,0,0:0:0:0:
483,192,12671,1,0,0:0:0:0:
142,192,12671,1,0,0:0:0:0:
28,192,12671,1,0,0:0:0:0:
256,192,12671,1,0,0:0:0:0:
369,192,12768,1,0,0:0:0:0:
199,192,12865,1,0,0:0:0:0:
28,192,12865,1,0,0:0:0:0:
483,192,12963,1,0,0:0:0:0:
312,192,13060,1,0,0:0:0:0:
142,192,13060,1,0,0:0:0:0:
369,192,13255,1,0,0:0:0:0:
28,192,13255,1,0,0:0:0:0:
426,192,13352,1,0,0:0:0:0:
85,192,13352,1,0,0:0:0:0:
483,192,13450,1,0,0:0:0:0:
142,192,13450,1,0,0:0:0:0:
85,192,13645,1,0,0:0:0:0:
312,192,13645,1,0,0:0:0:0:
142,192,13742,1,0,0:0:0:0:
369,192,13742,1,0,0:0:0:0:
199,192,13839,1,0,0:0:0:0:
426,192,13839,1,0,0:0:0:0:
483,192,13937,1,0,0:0:0:0:
256,192,13937,1,0,0:0:0:0:
199,192,14034,1,0,0:0:0:0:
426,192,14034,1,0,0:0:0:0:
142,192,14132,1,0,0:0:0:0:
369,192,14132,1,0,0:0:0:0:
28,192,14229,1,0,0:0:0:0:
312,192,14229,1,0,0:0:0:0:
85,192,14229,1,0,0:0:0:0:
483,192,14229,1,0,0:0:0:0:
199,192,14424,1,0,0:0:0:0:
312,192,14424,1,0,0:0:0:0:
28,192,14619,1,0,0:0:0:0:
142,192,14619,1,0,0:0:0:0:
312,192,14619,1,0,0:0:0:0:
369,192,14716,1,0,0:0:0:0:
483,192,14813,1,0,0:0:0:0:
199,192,14813,1,0,0:0:0:0:
426,192,14911,1,0,0:0:0:0:
28,192,15008,1,0,0:0:0:0:
142,192,15008,1,0,0:0:0:0:
256,192,15008,1,0,0:0:0:0:
426,192,15106,1,0,0:0:0:0:
312,192,15203,1,0,0:0:0:0:
85,192,15203,1,0,0:0:0:0:
28,192,15398,1,0,0:0:0:0:
256,192,15398,1,0,0:0:0:0:
142,192,15398,1,0,0:0:0:0:
369,192,15495,1,0,0:0:0:0:
199,192,15593,1,0,0:0:0:0:
426,192,15690,1,0,0:0:0:0:
256,192,15787,1,0,0:0:0:0:
85,192,15787,1,0,0:0:0:0:
426,192,15885,1,0,0:0:0:0:
312,192,15982,1,0,0:0:0:0:
199,192,15982,1,0,0:0:0:0:
256,192,16080,1,0,0:0:0:0:
426,192,16177,1,0,0:0:0:0:
85,192,16177,1,0,0:0:0:0:
142,192,16177,1,0,0:0:0:0:
483,192,16274,1,0,0:0:0:0:
199,192,16372,1,0,0:0:0:0:
369,192,16469,128,0,17151:0:0:0:0:
142,192,16567,1,0,0:0:0:0:
256,192,16567,1,0,0:0:0:0:
28,192,16567,1,0,0:0:0:0:
199,192,16762,1,0,0:0:0:0:
312,192,16859,1,0,0:0:0:0:
142,192,16956,1,0,0:0:0:0:
28,192,16956,1,0,0:0:0:0:
256,192,16956,1,0,0:0:0:0:
199,192,17151,1,0,0:0:0:0:
369,192,17249,1,0,0:0:0:0:
85,192,17346,1,0,0:0:0:0:
312,192,17346,1,0,0:0:0:0:
199,192,17346,1,0,0:0:0:0:
369,192,17443,1,0,0:0:0:0:
426,192,17541,1,0,0:0:0:0:
142,192,17541,1,0,0:0:0:0:
312,192,17638,1,0,0:0:0:0:
199,192,17736,1,0,0:0:0:0:
85,192,17736,1,0,0:0:0:0:
483,192,17833,1,0,0:0:0:0:
256,192,17930,1,0,0:0:0:0:
426,192,18028,1,0,0:0:0:0:
142,192,18125,1,0,0:0:0:0:
28,192,18125,1,0,0:0:0:0:
369,192,18223,1,0,0:0:0:0:
483,192,18320,128,0,18710:0:0:0:0:
199,192,18320,1,0,0:0:0:0:
312,192,18417,1,0,0:0:0:0:
28,192,18515,1,0,0:0:0:0:
142,192,18515,1,0,0:0:0:0:
256,192,18710,1,0,0:0:0:0:
369,192,18807,1,0,0:0:0:0:
256,192,18904,1,0,0:0:0:0:
28,192,18904,1,0,0:0:0:0:
483,192,18904,1,0,0:0:0:0:
85,192,19002,1,0,0:0:0:0:
312,192,19002,1,0,0:0:0:0:
142,192,19099,1,0,0:0:0:0:
369,192,19099,1,0,0:0:0:0:
199,192,19197,1,0,0:0:0:0:
426,192,19197,1,0,0:0:0:0:
483,192,19294,1,0,0:0:0:0:
256,192,19294,1,0,0:0:0:0:
28,192,19294,1,0,0:0:0:0:
199,192,19391,1,0,0:0:0:0:
426,192,19391,1,0,0:0:0:0:
142,192,19489,1,0,0:0:0:0:
369,192,19489,1,0,0:0:0:0:
85,192,19586,1,0,0:0:0:0:
312,192,19586,1,0,0:0:0:0:
28,192,19684,1,0,0:0:0:0:
256,192,19684,1,0,0:0:0:0:
483,192,19684,1,0,0:0:0:0:
85,192,19781,1,0,0:0:0:0:
426,192,19781,1,0,0:0:0:0:
142,192,19878,1,0,0:0:0:0:
369,192,19878,1,0,0:0:0:0:
199,192,19976,1,0,0:0:0:0:
312,192,19976,1,0,0:0:0:0:
256,192,20073,1,0,0:0:0:0:
85,192,20073,1,0,0:0:0:0:
426,192,20073,1,0,0:0:0:0:
199,192,20171,1,0,0:0:0:0:
312,192,20171,1,0,0:0:0:0:
142,192,20268,1,0,0:0:0:0:
369,192,20268,1,0,0:0:0:0:
85,192,20365,1,0,0:0:0:0:
426,192,20365,1,0,0:0:0:0:
28,192,20463,1,0,0:0:0:0:
483,192,20463,1,0,0:0:0:0:
256,192,20463,1,0,0:0:0:0:
312,192,20560,1,0,0:0:0:0:
369,192,20658,1,0,0:0:0:0:
142,192,20658,1,0,0:0:0:0:
426,192,20755,1,0,0:0:0:0:
28,192,20852,1,0,0:0:0:0:
199,192,20852,1,0,0:0:0:0:
426,192,20950,1,0,0:0:0:0:
256,192,21047,1,0,0:0:0:0:
369,192,21145,1,0,0:0:0:0:
85,192,21242,1,0,0:0:0:0:
199,192,21242,1,0,0:0:0:0:
369,192,21339,1,0,0:0:0:0:
256,192,21437,128,0,21826:0:0:0:0:
142,192,21437,1,0,0:0:0:0:
483,192,21632,1,0,0:0:0:0:
28,192,21632,1,0,0:0:0:0:
369,192,21632,1,0,0:0:0:0:
85,192,21826,1,0,0:0:0:0:
369,192,21924,1,0,0:0:0:0:
142,192,22021,1,0,0:0:0:0:
256,192,22021,1,0,0:0:0:0:
312,192,22119,1,0,0:0:0:0:
369,192,22216,1,0,0:0:0:0:
85,192,22216,1,0,0:0:0:0:
312,192,22313,1,0,0:0:0:0:
369,192,22411,1,0,0:0:0:0:
28,192,22411,1,0,0:0:0:0:
199,192,22411,1,0,0:0:0:0:
483,192,22508,1,0,0:0:0:0:
256,192,22606,1,0,0:0:0:0:
483,192,22703,128,0,23385:0:0:0:0:
28,192,22800,1,0,0:0:0:0:
85,192,22800,1,0,0:0:0:0:
199,192,22800,1,0,0:0:0:0:
256,192,22995,1,0,0:0:0:0:
369,192,23093,1,0,0:0:0:0:
85,192,23190,1,0,0:0:0:0:
199,192,23190,1,0,0:0:0:0:
142,192,23190,1,0,0:0:0:0:
199,192,23385,1,0,0:0:0:0:
312,192,23482,1,0,0:0:0:0:
142,192,23580,1,0,0:0:0:0:
28,192,23580,1,0,0:0:0:0:
426,192,23580,1,0,0:0:0:0:
426,192,23677,1,0,0:0:0:0:
199,192,23774,1,0,0:0:0:0:
426,192,23872,1,0,0:0:0:0:
85,192,23969,1,0,0:0:0:0:
256,192,23969,1,0,0:0:0:0:
426,192,24067,1,0,0:0:0:0:
199,192,24164,1,0,0:0:0:0:
312,192,24262,1,0,0:0:0:0:
28,192,24359,1,0,0:0:0:0:
142,192,24359,1,0,0:0:0:0:
369,192,24359,1,0,0:0:0:0:
369,192,24456,1,0,0:0:0:0:
142,192,24554,1,0,0:0:0:0:
199,192,24554,1,0,0:0:0:0:
312,192,24651,1,0,0:0:0:0:
369,192,24651,1,0,0:0:0:0:
256,192,24749,1,0,0:0:0:0:
28,192,24749,1,0,0:0:0:0:
142,192,24749,1,0,0:0:0:0:
483,192,24846,1,0,0:0:0:0:
369,192,24846,1,0,0:0:0:0:
199,192,24943,1,0,0:0:0:0:
85,192,24943,1,0,0:0:0:0:
312,192,25041,1,0,0:0:0:0:
426,192,25041,1,0,0:0:0:0:
142,192,25138,1,0,0:0:0:0:
199,192,25138,1,0,0:0:0:0:
85,192,25138,1,0,0:0:0:0:
426,192,25236,1,0,0:0:0:0:
483,192,25236,1,0,0:0:0:0:
85,192,25333,1,0,0:0:0:0:
142,192,25333,1,0,0:0:0:0:
369,192,25430,1,0,0:0:0:0:
426,192,25430,1,0,0:0:0:0:
28,192,25528,1,0,0:0:0:0:
256,192,25528,1,0,0:0:0:0:
142,192,25528,1,0,0:0:0:0:
369,192,25723,1,0,0:0:0:0:
312,192,25723,1,0,0:0:0:0:
426,192,25723,1,0,0:0:0:0:
28,192,25820,1,0,0:0:0:0:
85,192,25820,1,0,0:0:0:0:
426,192,25917,1,0,0:0:0:0:
369,192,25917,1,0,0:0:0:0:
142,192,26015,1,0,0:0:0:0:
85,192,26015,1,0,0:0:0:0:
369,192,26112,1,0,0:0:0:0:
256,192,26112,1,0,0:0:0:0:
483,192,26112,1,0,0:0:0:0:
483,192,26307,1,0,0:0:0:0:
28,192,26307,1,0,0:0:0:0:
256,192,26307,1,0,0:0:0:0:
312,192,26502,1,0,0:0:0:0:
199,192,26502,1,0,0:0:0:0:
28,192,26697,1,0,0:0:0:0:
483,192,26697,1,0,0:0:0:0:
142,192,26697,1,0,0:0:0:0:
369,192,26697,1,0,0:0:0:0:
199,192,26891,1,0,0:0:0:0:
312,192,26891,1,0,0:0:0:0:
369,192,26989,1,0,0:0:0:0:
199,192,27086,1,0,0:0:0:0:
426,192,27086,1,0,0:0:0:0:
199,192,27281,1,0,0:0:0:0:
256,192,27281,1,0,0:0:0:0:
142,192,27476,1,0,0:0:0:0:
312,192,27476,1,0,0:0:0:0:
85,192,27476,1,0,0:0:0:0:
142,192,27671,1,0,0:0:0:0:
369,192,27671,1,0,0:0:0:0:
142,192,27865,1,0,0:0:0:0:
426,192,27865,1,0,0:0:0:0:
142,192,28060,1,0,0:0:0:0:
483,192,28060,128,0,28255:0:0:0:0:
85,192,28255,1,0,0:0:0:0:
256,192,28255,1,0,0:0:0:0:
85,192,28450,1,0,0:0:0:0:
312,192,28450,1,0,0:0:0:0:
85,192,28645,1,0,0:0:0:0:
369,192,28645,1,0,0:0:0:0:
85,192,28839,1,0,0:0:0:0:
312,192,28839,1,0,0:0:0:0:
28,192,29034,1,0,0:0:0:0:
256,192,29034,1,0,0:0:0:0:
483,192,29034,128,0,29424:0:0:0:0:
28,192,29229,1,0,0:0:0:0:
28,192,29424,1,0,0:0:0:0:
369,192,29424,128,0,29813:0:0:0:0:
256,192,29424,1,0,0:0:0:0:
28,192,29619,1,0,0:0:0:0:
199,192,29813,1,0,0:0:0:0:
142,192,29813,1,0,0:0:0:0:
199,192,30008,1,0,0:0:0:0:
369,192,30008,1,0,0:0:0:0:
199,192,30203,1,0,0:0:0:0:
369,192,30203,1,0,0:0:0:0:
199,192,30398,1,0,0:0:0:0:
312,192,30398,1,0,0:0:0:0:
142,192,30593,1,0,0:0:0:0:
256,192,30593,1,0,0:0:0:0:
142,192,30787,1,0,0:0:0:0:
312,192,30787,1,0,0:0:0:0:
142,192,30982,1,0,0:0:0:0:
369,192,30982,1,0,0:0:0:0:
142,192,31177,1,0,0:0:0:0:
426,192,31177,128,0,31372:0:0:0:0:
28,192,31372,1,0,0:0:0:0:
256,192,31372,1,0,0:0:0:0:
28,192,31567,1,0,0:0:0:0:
312,192,31567,1,0,0:0:0:0:
28,192,31762,1,0,0:0:0:0:
369,192,31762,1,0,0:0:0:0:
28,192,31956,1,0,0:0:0:0:
312,192,31956,1,0,0:0:0:0:
142,192,32151,1,0,0:0:0:0:
426,192,32151,128,0,32541:0:0:0:0:
256,192,32151,1,0,0:0:0:0:
199,192,32346,1,0,0:0:0:0:
312,192,32443,1,0,0:0:0:0:
483,192,32541,128,0,32930:0:0:0:0:
28,192,32541,1,0,0:0:0:0:
142,192,32541,1,0,0:0:0:0:
256,192,32638,1,0,0:0:0:0:
369,192,32736,1,0,0:0:0:0:
312,192,32736,1,0,0:0:0:0:
85,192,32833,1,0,0:0:0:0:
199,192,32930,1,0,0:0:0:0:
312,192,32930,1,0,0:0:0:0:
199,192,33125,1,0,0:0:0:0:
312,192,33125,1,0,0:0:0:0:
426,192,33223,1,0,0:0:0:0:
199,192,33320,1,0,0:0:0:0:
312,192,33320,1,0,0:0:0:0:
199,192,33515,1,0,0:0:0:0:
369,192,33515,1,0,0:0:0:0:
142,192,33710,1,0,0:0:0:0:
256,192,33710,1,0,0:0:0:0:
142,192,33904,1,0,0:0:0:0:
369,192,33904,1,0,0:0:0:0:
142,192,34099,1,0,0:0:0:0:
483,192,34099,1,0,0:0:0:0:
142,192,34294,1,0,0:0:0:0:
369,192,34294,128,0,34489:0:0:0:0:
85,192,34489,1,0,0:0:0:0:
256,192,34489,1,0,0:0:0:0:
85,192,34684,1,0,0:0:0:0:
312,192,34684,1,0,0:0:0:0:
85,192,34878,1,0,0:0:0:0:
369,192,34878,1,0,0:0:0:0:
85,192,35073,1,0,0:0:0:0:
369,192,35073,1,0,0:0:0:0:
28,192,35268,1,0,0:0:0:0:
426,192,35268,128,0,35658:0:0:0:0:
256,192,35268,1,0,0:0:0:0:
28,192,35463,1,0,0:0:0:0:
28,192,35658,1,0,0:0:0:0:
483,192,35658,128,0,36047:0:0:0:0:
256,192,35658,1,0,0:0:0:0:
28,192,35852,1,0,0:0:0:0:
199,192,36047,1,0,0:0:0:0:
312,192,36047,1,0,0:0:0:0:
199,192,36242,1,0,0:0:0:0:
369,192,36242,128,0,36437:0:0:0:0:
199,192,36437,1,0,0:0:0:0:
199,192,36632,1,0,0:0:0:0:
312,192,36632,1,0,0:0:0:0:
142,192,36826,1,0,0:0:0:0:
483,192,36826,1,0,0:0:0:0:
142,192,37021,1,0,0:0:0:0:
369,192,37021,1,0,0:0:0:0:
142,192,37216,1,0,0:0:0:0:
256,192,37216,1,0,0:0:0:0:
483,192,37411,128,0,37995:0:0:0:0:
142,192,37411,1,0,0:0:0:0:
28,192,37606,1,0,0:0:0:0:
256,192,37606,1,0,0:0:0:0:
28,192,37800,1,0,0:0:0:0:
28,192,37995,1,0,0:0:0:0:
426,192,37995,128,0,38385:0:0:0:0:
142,192,38190,1,0,0:0:0:0:
199,192,38287,1,0,0:0:0:0:
369,192,38385,128,0,38774:0:0:0:0:
85,192,38385,1,0,0:0:0:0:
256,192,38385,1,0,0:0:0:0:
142,192,38482,1,0,0:0:0:0:
199,192,38580,1,0,0:0:0:0:
28,192,38580,1,0,0:0:0:0:
142,192,38774,128,0,39164:0:0:0:0:
312,192,38774,1,0,0:0:0:0:
483,192,38774,1,0,0:0:0:0:
369,192,38872,1,0,0:0:0:0:
426,192,38969,1,0,0:0:0:0:
256,192,38969,1,0,0:0:0:0:
483,192,39164,1,0,0:0:0:0:
369,192,39164,1,0,0:0:0:0:
199,192,39359,1,0,0:0:0:0:
256,192,39456,1,0,0:0:0:0:
142,192,39554,1,0,0:0:0:0:
312,192,39554,1,0,0:0:0:0:
199,192,39749,1,0,0:0:0:0:
369,192,39846,1,0,0:0:0:0:
312,192,39943,1,0,0:0:0:0:
85,192,39943,1,0,0:0:0:0:
142,192,40138,1,0,0:0:0:0:
369,192,40138,1,0,0:0:0:0:
256,192,40236,1,0,0:0:0:0:
199,192,40333,1,0,0:0:0:0:
426,192,40333,1,0,0:0:0:0:
312,192,40528,1,0,0:0:0:0:
85,192,40528,1,0,0:0:0:0:
426,192,40625,1,0,0:0:0:0:
256,192,40723,1,0,0:0:0:0:
142,192,40723,1,0,0:0:0:0:
369,192,40917,1,0,0:0:0:0:
483,192,41015,1,0,0:0:0:0:
28,192,41112,1,0,0:0:0:0:
142,192,41112,1,0,0:0:0:0:
199,192,41307,1,0,0:0:0:0:
426,192,41307,1,0,0:0:0:0:
85,192,41404,1,0,0:0:0:0:
312,192,41404,1,0,0:0:0:0:
426,192,41502,1,0,0:0:0:0:
199,192,41502,1,0,0:0:0:0:
426,192,41697,1,0,0:0:0:0:
142,192,41697,1,0,0:0:0:0:
199,192,41794,1,0,0:0:0:0:
369,192,41891,1,0,0:0:0:0:
85,192,41891,1,0,0:0:0:0:
369,192,42086,1,0,0:0:0:0:
199,192,42086,1,0,0:0:0:0:
256,192,42184,1,0,0:0:0:0:
142,192,42281,1,0,0:0:0:0:
28,192,42281,1,0,0:0:0:0:
199,192,42476,1,0,0:0:0:0:
312,192,42573,1,0,0:0:0:0:
85,192,42671,1,0,0:0:0:0:
256,192,42671,1,0,0:0:0:0:
142,192,42865,1,0,0:0:0:0:
369,192,42865,1,0,0:0:0:0:
256,192,42963,1,0,0:0:0:0:
142,192,43060,1,0,0:0:0:0:
369,192,43060,1,0,0:0:0:0:
142,192,43255,1,0,0:0:0:0:
369,192,43255,1,0,0:0:0:0:
312,192,43352,1,0,0:0:0:0:
28,192,43450,1,0,0:0:0:0:
256,192,43450,1,0,0:0:0:0:
199,192,43645,1,0,0:0:0:0:
426,192,43645,1,0,0:0:0:0:
28,192,43839,1,0,0:0:0:0:
142,192,43839,1,0,0:0:0:0:
256,192,44034,1,0,0:0:0:0:
312,192,44132,1,0,0:0:0:0:
85,192,44229,1,0,0:0:0:0:
199,192,44229,1,0,0:0:0:0:
142,192,44424,1,0,0:0:0:0:
369,192,44424,1,0,0:0:0:0:
199,192,44521,1,0,0:0:0:0:
426,192,44521,1,0,0:0:0:0:
256,192,44619,1,0,0:0:0:0:
483,192,44619,1,0,0:0:0:0:
28,192,44619,1,0,0:0:0:0:
28,192,44813,1,0,0:0:0:0:
369,192,44813,1,0,0:0:0:0:
426,192,44911,1,0,0:0:0:0:
142,192,45008,1,0,0:0:0:0:
312,192,45008,1,0,0:0:0:0:
142,192,45203,1,0,0:0:0:0:
426,192,45203,1,0,0:0:0:0:
483,192,45300,1,0,0:0:0:0:
369,192,45398,1,0,0:0:0:0:
85,192,45398,1,0,0:0:0:0:
199,192,45593,1,0,0:0:0:0:
369,192,45690,1,0,0:0:0:0:
256,192,45787,1,0,0:0:0:0:
142,192,45787,1,0,0:0:0:0:
426,192,45982,1,0,0:0:0:0:
199,192,45982,1,0,0:0:0:0:
312,192,46080,1,0,0:0:0:0:
256,192,46177,1,0,0:0:0:0:
483,192,46177,1,0,0:0:0:0:
426,192,46372,1,0,0:0:0:0:
199,192,46372,1,0,0:0:0:0:
85,192,46469,1,0,0:0:0:0:
369,192,46567,1,0,0:0:0:0:
142,192,46567,1,0,0:0:0:0:
256,192,46762,1,0,0:0:0:0:
483,192,46762,1,0,0:0:0:0:
28,192,46956,1,0,0:0:0:0:
142,192,46956,1,0,0:0:0:0:
256,192,47151,1,0,0:0:0:0:
312,192,47249,1,0,0:0:0:0:
142,192,47346,1,0,0:0:0:0:
369,192,47346,1,0,0:0:0:0:
85,192,47541,1,0,0:0:0:0:
199,192,47638,1,0,0:0:0:0:
28,192,47736,1,0,0:0:0:0:
256,192,47736,1,0,0:0:0:0:
85,192,47930,1,0,0:0:0:0:
312,192,47930,1,0,0:0:0:0:
256,192,48028,1,0,0:0:0:0:
199,192,48125,1,0,0:0:0:0:
426,192,48125,1,0,0:0:0:0:
312,192,48223,1,0,0:0:0:0:
142,192,48320,1,0,0:0:0:0:
369,192,48320,1,0,0:0:0:0:
199,192,48417,1,0,0:0:0:0:
256,192,48515,1,0,0:0:0:0:
483,192,48515,1,0,0:0:0:0:
426,192,48515,1,0,0:0:0:0:
369,192,48515,1,0,0:0:0:0:
199,192,48710,1,0,0:0:0:0:
312,192,48807,1,0,0:0:0:0:
28,192,48904,1,0,0:0:0:0:
142,192,48904,1,0,0:0:0:0:
256,192,49099,1,0,0:0:0:0:
142,192,49197,1,0,0:0:0:0:
426,192,49294,1,0,0:0:0:0:
369,192,49294,1,0,0:0:0:0:
312,192,49294,1,0,0:0:0:0:
256,192,49489,1,0,0:0:0:0:
369,192,49586,1,0,0:0:0:0:
199,192,49684,1,0,0:0:0:0:
85,192,49684,1,0,0:0:0:0:
426,192,49878,1,0,0:0:0:0:
142,192,49976,1,0,0:0:0:0:
369,192,50073,1,0,0:0:0:0:
312,192,50073,1,0,0:0:0:0:
256,192,50073,1,0,0:0:0:0:
85,192,50268,1,0,0:0:0:0:
256,192,50365,1,0,0:0:0:0:
369,192,50463,1,0,0:0:0:0:
142,192,50463,1,0,0:0:0:0:
426,192,50658,1,0,0:0:0:0:
199,192,50658,1,0,0:0:0:0:
85,192,50755,1,0,0:0:0:0:
256,192,50852,1,0,0:0:0:0:
142,192,50852,1,0,0:0:0:0:
369,192,50852,1,0,0:0:0:0:
199,192,50852,1,0,0:0:0:0:
85,192,51047,1,0,0:0:0:0:
312,192,51047,1,0,0:0:0:0:
256,192,51145,1,0,0:0:0:0:
199,192,51242,1,0,0:0:0:0:
426,192,51242,1,0,0:0:0:0:
142,192,51437,1,0,0:0:0:0:
369,192,51437,1,0,0:0:0:0:
312,192,51534,1,0,0:0:0:0:
256,192,51632,1,0,0:0:0:0:
483,192,51632,1,0,0:0:0:0:
85,192,51632,1,0,0:0:0:0:
369,192,51826,1,0,0:0:0:0:
256,192,51924,1,0,0:0:0:0:
426,192,52021,1,0,0:0:0:0:
142,192,52021,1,0,0:0:0:0:
85,192,52216,1,0,0:0:0:0:
256,192,52313,1,0,0:0:0:0:
369,192,52411,1,0,0:0:0:0:
142,192,52411,1,0,0:0:0:0:
199,192,52508,1,0,0:0:0:0:
256,192,52606,1,0,0:0:0:0:
312,192,52703,1,0,0:0:0:0:
369,192,52800,1,0,0:0:0:0:
85,192,52800,1,0,0:0:0:0:
483,192,52800,1,0,0:0:0:0:
142,192,52898,1,0,0:0:0:0:
199,192,52995,1,0,0:0:0:0:
312,192,52995,1,0,0:0:0:0:
426,192,52995,1,0,0:0:0:0:
369,192,53190,1,0,0:0:0:0:
483,192,53190,1,0,0:0:0:0:
256,192,53190,1,0,0:0:0:0:
142,192,53190,1,0,0:0:0:0:
85,192,53580,1,0,0:0:0:0:
199,192,53580,1,0,0:0:0:0:
312,192,53580,1,0,0:0:0:0:
426,192,53580,1,0,0:0:0:0:
28,192,53969,1,0,0:0:0:0:
142,192,53969,1,0,0:0:0:0:
256,192,53969,1,0,0:0:0:0:
369,192,53969,1,0,0:0:0:0:
28,192,54359,1,0,0:0:0:0:
483,192,54359,1,0,0:0:0:0:
199,192,54359,1,0,0:0:0:0:
312,192,54359,1,0,0:0:0:0:
426,192,54749,1,0,0:0:0:0:
85,192,54749,1,0,0:0:0:0:
199,192,54749,1,0,0:0:0:0:
312,192,54749,1,0,0:0:0:0:
369,192,54846,1,0,0:0:0:0:
426,192,54943,1,0,0:0:0:0:
142,192,54943,1,0,0:0:0:0:
312,192,55041,1,0,0:0:0:0:
426,192,55138,1,0,0:0:0:0:
28,192,55138,1,0,0:0:0:0:
199,192,55138,1,0,0:0:0:0:
256,192,55236,1,0,0:0:0:0:
142,192,55333,1,0,0:0:0:0:
312,192,55430,1,0,0:0:0:0:
426,192,55528,1,0,0:0:0:0:
199,192,55528,1,0,0:0:0:0:
85,192,55528,1,0,0:0:0:0:
256,192,55625,1,0,0:0:0:0:
369,192,55723,1,0,0:0:0:0:
28,192,55723,1,0,0:0:0:0:
483,192,55820,1,0,0:0:0:0:
199,192,55917,1,0,0:0:0:0:
142,192,55917,1,0,0:0:0:0:
426,192,56112,1,0,0:0:0:0:
85,192,56112,1,0,0:0:0:0:
369,192,56210,1,0,0:0:0:0:
312,192,56307,1,0,0:0:0:0:
28,192,56307,1,0,0:0:0:0:
256,192,56307,1,0,0:0:0:0:
369,192,56404,1,0,0:0:0:0:
312,192,56502,1,0,0:0:0:0:
142,192,56502,1,0,0:0:0:0:
426,192,56599,1,0,0:0:0:0:
28,192,56697,1,0,0:0:0:0:
256,192,56697,1,0,0:0:0:0:
369,192,56794,1,0,0:0:0:0:
483,192,56891,1,0,0:0:0:0:
142,192,56891,1,0,0:0:0:0:
312,192,56989,1,0,0:0:0:0:
426,192,57086,1,0,0:0:0:0:
199,192,57086,1,0,0:0:0:0:
28,192,57086,1,0,0:0:0:0:
256,192,57184,1,0,0:0:0:0:
142,192,57281,1,0,0:0:0:0:
369,192,57378,1,0,0:0:0:0:
28,192,57476,1,0,0:0:0:0:
256,192,57476,1,0,0:0:0:0:
142,192,57671,1,0,0:0:0:0:
256,192,57768,1,0,0:0:0:0:
369,192,57865,1,0,0:0:0:0:
28,192,57865,1,0,0:0:0:0:
142,192,57865,1,0,0:0:0:0:
312,192,57963,1,0,0:0:0:0:
426,192,58060,1,0,0:0:0:0:
85,192,58060,1,0,0:0:0:0:
312,192,58158,1,0,0:0:0:0:
369,192,58255,1,0,0:0:0:0:
199,192,58255,1,0,0:0:0:0:
142,192,58255,1,0,0:0:0:0:
312,192,58352,1,0,0:0:0:0:
426,192,58450,1,0,0:0:0:0:
28,192,58450,1,0,0:0:0:0:
312,192,58547,1,0,0:0:0:0:
369,192,58645,1,0,0:0:0:0:
85,192,58645,1,0,0:0:0:0:
199,192,58645,1,0,0:0:0:0:
256,192,58742,1,0,0:0:0:0:
369,192,58839,1,0,0:0:0:0:
142,192,58839,1,0,0:0:0:0:
483,192,58937,1,0,0:0:0:0:
256,192,59034,1,0,0:0:0:0:
28,192,59034,1,0,0:0:0:0:
426,192,59229,1,0,0:0:0:0:
142,192,59229,1,0,0:0:0:0:
369,192,59424,1,0,0:0:0:0:
199,192,59424,1,0,0:0:0:0:
28,192,59424,1,0,0:0:0:0:
369,192,59619,1,0,0:0:0:0:
142,192,59619,1,0,0:0:0:0:
312,192,59716,1,0,0:0:0:0:
426,192,59813,1,0,0:0:0:0:
85,192,59813,1,0,0:0:0:0:
256,192,59813,1,0,0:0:0:0:
369,192,60008,1,0,0:0:0:0:
28,192,60008,1,0,0:0:0:0:
312,192,60106,1,0,0:0:0:0:
426,192,60203,1,0,0:0:0:0:
256,192,60203,1,0,0:0:0:0:
142,192,60203,1,0,0:0:0:0:
483,192,60398,1,0,0:0:0:0:
28,192,60398,1,0,0:0:0:0:
369,192,60495,1,0,0:0:0:0:
483,192,60593,1,0,0:0:0:0:
199,192,60593,1,0,0:0:0:0:
85,192,60593,1,0,0:0:0:0:
312,192,60690,1,0,0:0:0:0:
199,192,60787,1,0,0:0:0:0:
312,192,60885,1,0,0:0:0:0:
142,192,60982,1,0,0:0:0:0:
28,192,60982,1,0,0:0:0:0:
256,192,60982,1,0,0:0:0:0:
426,192,60982,1,0,0:0:0:0:
312,192,61080,1,0,0:0:0:0:
483,192,61177,1,0,0:0:0:0:
199,192,61177,1,0,0:0:0:0:
312,192,61274,1,0,0:0:0:0:
426,192,61372,1,0,0:0:0:0:
28,192,61372,1,0,0:0:0:0:
142,192,61372,1,0,0:0:0:0:
312,192,61469,1,0,0:0:0:0:
483,192,61567,1,0,0:0:0:0:
256,192,61567,1,0,0:0:0:0:
312,192,61762,1,0,0:0:0:0:
142,192,61762,1,0,0:0:0:0:
28,192,61762,1,0,0:0:0:0:
369,192,61859,1,0,0:0:0:0:
199,192,61956,1,0,0:0:0:0:
483,192,62054,1,0,0:0:0:0:
426,192,62151,1,0,0:0:0:0:
85,192,62151,1,0,0:0:0:0:
256,192,62151,1,0,0:0:0:0:
369,192,62346,1,0,0:0:0:0:
142,192,62346,1,0,0:0:0:0:
312,192,62443,1,0,0:0:0:0:
256,192,62541,1,0,0:0:0:0:
28,192,62541,1,0,0:0:0:0:
369,192,62638,1,0,0:0:0:0:
312,192,62736,1,0,0:0:0:0:
142,192,62736,1,0,0:0:0:0:
369,192,62833,1,0,0:0:0:0:
256,192,62930,1,0,0:0:0:0:
28,192,62930,1,0,0:0:0:0:
369,192,63028,1,0,0:0:0:0:
312,192,63125,1,0,0:0:0:0:
142,192,63125,1,0,0:0:0:0:
369,192,63223,1,0,0:0:0:0:
426,192,63320,1,0,0:0:0:0:
28,192,63320,1,0,0:0:0:0:
256,192,63320,1,0,0:0:0:0:
369,192,63417,1,0,0:0:0:0:
312,192,63515,1,0,0:0:0:0:
142,192,63515,1,0,0:0:0:0:
483,192,63612,1,0,0:0:0:0:
256,192,63710,1,0,0:0:0:0:
28,192,63710,1,0,0:0:0:0:
199,192,63904,1,0,0:0:0:0:
312,192,63904,1,0,0:0:0:0:
369,192,64002,1,0,0:0:0:0:
426,192,64099,1,0,0:0:0:0:
28,192,64099,1,0,0:0:0:0:
256,192,64099,1,0,0:0:0:0:
312,192,64294,1,0,0:0:0:0:
142,192,64294,1,0,0:0:0:0:
426,192,64391,1,0,0:0:0:0:
256,192,64489,1,0,0:0:0:0:
85,192,64489,1,0,0:0:0:0:
369,192,64586,1,0,0:0:0:0:
199,192,64684,1,0,0:0:0:0:
256,192,64781,1,0,0:0:0:0:
28,192,64878,1,0,0:0:0:0:
142,192,64878,1,0,0:0:0:0:
256,192,65073,1,0,0:0:0:0:
199,192,65268,1,0,0:0:0:0:
85,192,65268,1,0,0:0:0:0:
312,192,65268,1,0,0:0:0:0:
256,192,65365,1,0,0:0:0:0:
426,192,65463,1,0,0:0:0:0:
28,192,65463,1,0,0:0:0:0:
142,192,65463,1,0,0:0:0:0:
256,192,65560,1,0,0:0:0:0:
369,192,65658,1,0,0:0:0:0:
199,192,65658,1,0,0:0:0:0:
85,192,65658,1,0,0:0:0:0:
426,192,65852,1,0,0:0:0:0:
142,192,65852,1,0,0:0:0:0:
483,192,65950,1,0,0:0:0:0:
28,192,66047,1,0,0:0:0:0:
256,192,66047,1,0,0:0:0:0:
369,192,66145,1,0,0:0:0:0:
142,192,66242,1,0,0:0:0:0:
483,192,66339,1,0,0:0:0:0:
256,192,66437,1,0,0:0:0:0:
85,192,66437,1,0,0:0:0:0:
426,192,66534,1,0,0:0:0:0:
199,192,66632,1,0,0:0:0:0:
483,192,66826,1,0,0:0:0:0:
28,192,66826,1,0,0:0:0:0:
142,192,66826,1,0,0:0:0:0:
369,192,66924,1,0,0:0:0:0:
256,192,67021,1,0,0:0:0:0:
426,192,67021,1,0,0:0:0:0:
85,192,67021,1,0,0:0:0:0:
142,192,67119,1,0,0:0:0:0:
483,192,67216,1,0,0:0:0:0:
199,192,67216,1,0,0:0:0:0:
312,192,67216,1,0,0:0:0:0:
28,192,67216,1,0,0:0:0:0:
426,192,67313,1,0,0:0:0:0:
85,192,67313,1,0,0:0:0:0:
369,192,67411,1,0,0:0:0:0:
142,192,67411,1,0,0:0:0:0:
312,192,67508,1,0,0:0:0:0:
199,192,67508,1,0,0:0:0:0:
256,192,67606,1,0,0:0:0:0:
483,192,67606,1,0,0:0:0:0:
28,192,67606,1,0,0:0:0:0:
85,192,67800,1,0,0:0:0:0:
483,192,67800,1,0,0:0:0:0:
256,192,67800,1,0,0:0:0:0:
28,192,67800,1,0,0:0:0:0:
199,192,67898,1,0,0:0:0:0:
426,192,67898,1,0,0:0:0:0:
142,192,67995,1,0,0:0:0:0:
369,192,67995,1,0,0:0:0:0:
85,192,68093,1,0,0:0:0:0:
312,192,68093,1,0,0:0:0:0:
483,192,68190,1,0,0:0:0:0:
256,192,68190,1,0,0:0:0:0:
28,192,68190,1,0,0:0:0:0:
199,192,68385,1,0,0:0:0:0:
28,192,68385,1,0,0:0:0:0:
483,192,68385,1,0,0:0:0:0:
312,192,68385,1,0,0:0:0:0:
85,192,68482,1,0,0:0:0:0:
426,192,68482,1,0,0:0:0:0:
369,192,68580,1,0,0:0:0:0:
142,192,68580,1,0,0:0:0:0:
312,192,68677,1,0,0:0:0:0:
199,192,68677,1,0,0:0:0:0:
256,192,68774,1,0,0:0:0:0:
28,192,68774,1,0,0:0:0:0:
483,192,68774,1,0,0:0:0:0:
483,192,68969,1,0,0:0:0:0:
426,192,68969,1,0,0:0:0:0:
256,192,68969,1,0,0:0:0:0:
28,192,68969,1,0,0:0:0:0:
85,192,69067,1,0,0:0:0:0:
312,192,69067,1,0,0:0:0:0:
142,192,69164,1,0,0:0:0:0:
369,192,69164,1,0,0:0:0:0:
199,192,69262,1,0,0:0:0:0:
426,192,69262,1,0,0:0:0:0:
483,192,69359,1,0,0:0:0:0:
256,192,69359,1,0,0:0:0:0:
28,192,69359,1,0,0:0:0:0:
199,192,69554,1,0,0:0:0:0:
483,192,69554,1,0,0:0:0:0:
28,192,69554,1,0,0:0:0:0:
312,192,69554,1,0,0:0:0:0:
85,192,69651,1,0,0:0:0:0:
426,192,69651,1,0,0:0:0:0:
142,192,69749,1,0,0:0:0:0:
369,192,69749,1,0,0:0:0:0:
312,192,69846,1,0,0:0:0:0:
199,192,69846,1,0,0:0:0:0:
256,192,69943,1,0,0:0:0:0:
85,192,69943,1,0,0:0:0:0:
426,192,69943,1,0,0:0:0:0:
199,192,70041,1,0,0:0:0:0:
312,192,70041,1,0,0:0:0:0:
142,192,70138,1,0,0:0:0:0:
369,192,70138,1,0,0:0:0:0:
85,192,70236,1,0,0:0:0:0:
426,192,70236,1,0,0:0:0:0:
483,192,70333,1,0,0:0:0:0:
28,192,70333,1,0,0:0:0:0:
312,192,70333,1,0,0:0:0:0:
199,192,70333,1,0,0:0:0:0:
