osu file format v14

[General]
AudioFilename: audio.mp3
AudioLeadIn: 0
PreviewTime: 54359
Countdown: 0
SampleSet: Soft
StackLeniency: 0.7
Mode: 3
LetterboxInBreaks: 0
SpecialStyle: 0
WidescreenStoryboard: 1

[Editor]
DistanceSpacing: 0.5
BeatDivisor: 4
GridSize: 32
TimelineZoom: 0.8999999

[Metadata]
Title:Rampage
TitleUnicode:ランペイジ
Artist:paraoka feat. haru*nya
ArtistUnicode:paraoka feat. haru*nya
Creator:Umo-
Version:9K EZ
Source:
Tags:cheering happy koujimachi yousankan 麹町養蚕館 マテリアル kaythen
BeatmapID:2276023
BeatmapSetID:644295

[Difficulty]
HPDrainRate:8
CircleSize:9
OverallDifficulty:8
ApproachRate:5
SliderMultiplier:1.4
SliderTickRate:1

[Events]
//Background and Video events
0,0,"backgrnd.jpg",0,0
//Break Periods
//Storyboard Layer 0 (Background)
//Storyboard Layer 1 (Fail)
//Storyboard Layer 2 (Pass)
//Storyboard Layer 3 (Foreground)
//Storyboard Layer 4 (Overlay)
//Storyboard Sound Samples

[TimingPoints]
1762,389.61038961039,4,2,0,30,1,0
54749,-100,4,2,0,30,0,1
66826,-100,4,2,0,30,0,0
67216,-100,4,2,0,30,0,1
70333,-100,4,2,0,30,0,0

[HitObjects]
312,192,1372,128,0,1762:0:0:0:0:
256,192,1762,1,0,0:0:0:0:
32,192,1762,1,0,0:0:0:0:
160,192,2151,1,0,0:0:0:0:
288,192,2541,1,0,0:0:0:0:
352,192,2930,1,0,0:0:0:0:
28,192,3320,1,0,0:0:0:0:
224,192,3320,1,0,0:0:0:0:
480,192,3710,1,0,0:0:0:0:
426,192,4099,1,0,0:0:0:0:
160,192,4489,1,0,0:0:0:0:
85,192,4878,1,0,0:0:0:0:
369,192,4878,1,0,0:0:0:0:
312,192,5268,1,0,0:0:0:0:
224,192,5658,1,0,0:0:0:0:
96,192,6047,1,0,0:0:0:0:
426,192,6437,1,0,0:0:0:0:
224,192,6437,1,0,0:0:0:0:
256,192,6826,1,0,0:0:0:0:
160,192,7216,1,0,0:0:0:0:
288,192,7606,1,0,0:0:0:0:
369,192,7800,1,0,0:0:0:0:
426,192,7995,1,0,0:0:0:0:
32,192,7995,1,0,0:0:0:0:
483,192,8385,1,0,0:0:0:0:
288,192,8774,1,0,0:0:0:0:
160,192,9164,1,0,0:0:0:0:
256,192,9554,1,0,0:0:0:0:
224,192,9554,1,0,0:0:0:0:
416,192,9943,1,0,0:0:0:0:
480,192,10333,1,0,0:0:0:0:
369,192,10723,1,0,0:0:0:0:
28,192,11112,1,0,0:0:0:0:
256,192,11112,1,0,0:0:0:0:
85,192,11502,1,0,0:0:0:0:
142,192,11891,1,0,0:0:0:0:
426,192,12281,1,0,0:0:0:0:
199,192,12476,1,0,0:0:0:0:
32,192,12671,1,0,0:0:0:0:
256,192,12671,1,0,0:0:0:0:
352,192,12865,1,0,0:0:0:0:
288,192,13060,1,0,0:0:0:0:
160,192,13255,128,0,13839:0:0:0:0:
288,192,13839,128,0,14229:0:0:0:0:
32,192,14229,1,0,0:0:0:0:
256,192,14229,1,0,0:0:0:0:
483,192,14619,1,0,0:0:0:0:
426,192,15008,1,0,0:0:0:0:
369,192,15398,1,0,0:0:0:0:
312,192,15787,1,0,0:0:0:0:
199,192,15787,1,0,0:0:0:0:
256,192,16177,1,0,0:0:0:0:
416,192,16567,128,0,17346:0:0:0:0:
160,192,16956,1,0,0:0:0:0:
288,192,17346,1,0,0:0:0:0:
28,192,17346,1,0,0:0:0:0:
85,192,17736,1,0,0:0:0:0:
142,192,18125,1,0,0:0:0:0:
199,192,18515,1,0,0:0:0:0:
416,192,18904,128,0,19294:0:0:0:0:
256,192,18904,1,0,0:0:0:0:
352,192,19294,128,0,19684:0:0:0:0:
288,192,19684,128,0,20073:0:0:0:0:
256,192,20073,128,0,20463:0:0:0:0:
224,192,20463,1,0,0:0:0:0:
28,192,20463,1,0,0:0:0:0:
352,192,20852,1,0,0:0:0:0:
160,192,21242,1,0,0:0:0:0:
199,192,21632,1,0,0:0:0:0:
96,192,22021,1,0,0:0:0:0:
352,192,22021,1,0,0:0:0:0:
160,192,22411,1,0,0:0:0:0:
426,192,22800,128,0,23580:0:0:0:0:
199,192,23190,1,0,0:0:0:0:
256,192,23385,1,0,0:0:0:0:
142,192,23580,1,0,0:0:0:0:
312,192,23580,1,0,0:0:0:0:
96,192,23969,1,0,0:0:0:0:
224,192,24359,1,0,0:0:0:0:
288,192,24554,1,0,0:0:0:0:
160,192,24749,1,0,0:0:0:0:
416,192,25138,1,0,0:0:0:0:
352,192,25138,1,0,0:0:0:0:
160,192,25723,1,0,0:0:0:0:
85,192,25723,1,0,0:0:0:0:
288,192,26307,1,0,0:0:0:0:
224,192,26502,1,0,0:0:0:0:
32,192,26697,1,0,0:0:0:0:
480,192,26697,1,0,0:0:0:0:
256,192,27086,1,0,0:0:0:0:
160,192,27476,1,0,0:0:0:0:
85,192,27865,1,0,0:0:0:0:
369,192,28255,1,0,0:0:0:0:
426,192,28645,1,0,0:0:0:0:
480,192,29034,1,0,0:0:0:0:
288,192,29424,1,0,0:0:0:0:
256,192,29813,1,0,0:0:0:0:
28,192,30203,1,0,0:0:0:0:
199,192,30593,1,0,0:0:0:0:
352,192,30982,1,0,0:0:0:0:
142,192,31372,1,0,0:0:0:0:
480,192,31762,1,0,0:0:0:0:
85,192,32151,1,0,0:0:0:0:
224,192,32541,1,0,0:0:0:0:
256,192,32736,1,0,0:0:0:0:
312,192,32930,1,0,0:0:0:0:
369,192,33320,1,0,0:0:0:0:
160,192,33710,1,0,0:0:0:0:
96,192,34099,1,0,0:0:0:0:
224,192,34489,1,0,0:0:0:0:
352,192,34878,1,0,0:0:0:0:
480,192,35268,1,0,0:0:0:0:
416,192,35658,1,0,0:0:0:0:
256,192,36047,1,0,0:0:0:0:
96,192,36437,1,0,0:0:0:0:
416,192,36826,1,0,0:0:0:0:
96,192,37216,1,0,0:0:0:0:
288,192,37411,1,0,0:0:0:0:
416,192,37606,1,0,0:0:0:0:
224,192,37995,1,0,0:0:0:0:
142,192,38385,128,0,38774:0:0:0:0:
369,192,38774,128,0,39164:0:0:0:0:
32,192,39164,1,0,0:0:0:0:
256,192,39164,1,0,0:0:0:0:
224,192,39554,1,0,0:0:0:0:
426,192,39943,1,0,0:0:0:0:
142,192,39943,1,0,0:0:0:0:
85,192,40333,1,0,0:0:0:0:
288,192,40723,1,0,0:0:0:0:
483,192,40723,1,0,0:0:0:0:
199,192,41112,1,0,0:0:0:0:
256,192,41502,1,0,0:0:0:0:
416,192,41891,1,0,0:0:0:0:
28,192,42086,1,0,0:0:0:0:
352,192,42281,1,0,0:0:0:0:
96,192,42281,1,0,0:0:0:0:
288,192,42671,1,0,0:0:0:0:
416,192,43060,1,0,0:0:0:0:
256,192,43060,1,0,0:0:0:0:
199,192,43450,1,0,0:0:0:0:
352,192,43839,1,0,0:0:0:0:
142,192,43839,1,0,0:0:0:0:
416,192,44229,1,0,0:0:0:0:
480,192,44619,1,0,0:0:0:0:
256,192,44619,1,0,0:0:0:0:
28,192,45008,1,0,0:0:0:0:
96,192,45203,1,0,0:0:0:0:
142,192,45398,1,0,0:0:0:0:
369,192,45398,1,0,0:0:0:0:
256,192,45787,1,0,0:0:0:0:
288,192,46177,1,0,0:0:0:0:
480,192,46177,1,0,0:0:0:0:
96,192,46567,1,0,0:0:0:0:
160,192,46956,1,0,0:0:0:0:
224,192,46956,1,0,0:0:0:0:
416,192,47346,1,0,0:0:0:0:
288,192,47736,1,0,0:0:0:0:
352,192,47736,1,0,0:0:0:0:
224,192,48125,128,0,48515:0:0:0:0:
32,192,48515,1,0,0:0:0:0:
480,192,48515,1,0,0:0:0:0:
96,192,48904,1,0,0:0:0:0:
416,192,49294,1,0,0:0:0:0:
160,192,49294,1,0,0:0:0:0:
352,192,49684,1,0,0:0:0:0:
288,192,50073,1,0,0:0:0:0:
160,192,50073,1,0,0:0:0:0:
224,192,50463,1,0,0:0:0:0:
256,192,50852,1,0,0:0:0:0:
426,192,50852,1,0,0:0:0:0:
369,192,51242,1,0,0:0:0:0:
96,192,51632,1,0,0:0:0:0:
312,192,51632,1,0,0:0:0:0:
160,192,52021,1,0,0:0:0:0:
288,192,52411,128,0,53190:0:0:0:0:
96,192,52800,1,0,0:0:0:0:
160,192,53190,1,0,0:0:0:0:
224,192,53190,1,0,0:0:0:0:
352,192,53580,1,0,0:0:0:0:
288,192,53580,1,0,0:0:0:0:
160,192,53969,1,0,0:0:0:0:
224,192,53969,1,0,0:0:0:0:
288,192,54359,1,0,0:0:0:0:
426,192,54359,1,0,0:0:0:0:
256,192,54749,1,0,0:0:0:0:
32,192,54749,1,0,0:0:0:0:
224,192,55138,1,0,0:0:0:0:
416,192,55528,1,0,0:0:0:0:
160,192,55917,1,0,0:0:0:0:
480,192,56307,1,0,0:0:0:0:
288,192,56307,1,0,0:0:0:0:
224,192,56697,1,0,0:0:0:0:
256,192,57086,1,0,0:0:0:0:
160,192,57476,1,0,0:0:0:0:
32,192,57865,1,0,0:0:0:0:
288,192,57865,1,0,0:0:0:0:
224,192,58255,1,0,0:0:0:0:
480,192,58645,1,0,0:0:0:0:
416,192,59034,1,0,0:0:0:0:
96,192,59424,1,0,0:0:0:0:
352,192,59424,1,0,0:0:0:0:
224,192,59813,1,0,0:0:0:0:
288,192,60203,1,0,0:0:0:0:
96,192,60203,1,0,0:0:0:0:
480,192,60593,128,0,60982:0:0:0:0:
312,192,60982,1,0,0:0:0:0:
224,192,60982,1,0,0:0:0:0:
160,192,61372,1,0,0:0:0:0:
352,192,61762,1,0,0:0:0:0:
256,192,62151,1,0,0:0:0:0:
416,192,62541,1,0,0:0:0:0:
160,192,62541,1,0,0:0:0:0:
224,192,62930,1,0,0:0:0:0:
288,192,63320,1,0,0:0:0:0:
480,192,63710,1,0,0:0:0:0:
28,192,64099,1,0,0:0:0:0:
85,192,64099,1,0,0:0:0:0:
224,192,64489,1,0,0:0:0:0:
416,192,64878,1,0,0:0:0:0:
288,192,65268,128,0,65658:0:0:0:0:
96,192,65658,1,0,0:0:0:0:
224,192,65658,1,0,0:0:0:0:
256,192,66047,1,0,0:0:0:0:
288,192,66437,1,0,0:0:0:0:
142,192,66826,1,0,0:0:0:0:
369,192,67216,1,0,0:0:0:0:
416,192,67216,1,0,0:0:0:0:
224,192,67800,1,0,0:0:0:0:
160,192,67800,1,0,0:0:0:0:
288,192,68385,1,0,0:0:0:0:
483,192,68385,1,0,0:0:0:0:
224,192,68969,1,0,0:0:0:0:
28,192,68969,1,0,0:0:0:0:
312,192,69554,1,0,0:0:0:0:
369,192,69554,1,0,0:0:0:0:
256,192,69749,128,0,70333:0:0:0:0:
480,192,70333,1,0,0:0:0:0:
32,192,70333,1,0,0:0:0:0:
