osu file format v14

[General]
AudioFilename: audio.mp3
AudioLeadIn: 0
PreviewTime: 54415
Countdown: 1
SampleSet: Soft
StackLeniency: 0.7
Mode: 0
LetterboxInBreaks: 0
WidescreenStoryboard: 1

[Editor]
Bookmarks: 1687,14156,27093,54656
DistanceSpacing: 0.8
BeatDivisor: 4
GridSize: 32
TimelineZoom: 3.099999

[Metadata]
Title:Rampage
TitleUnicode:ランペイジ
Artist:paraoka feat. haru*nya
ArtistUnicode:paraoka feat. haru*nya
Creator:Timu
Version:Extra
Source:
Tags:Kyshiro fast challenge funny voice cheering happy Koujimachi Yousankan 麹町養蚕館 マテリアル Damnae antprincess
BeatmapID:1763455
BeatmapSetID:842822

[Difficulty]
HPDrainRate:4
CircleSize:3
OverallDifficulty:6
ApproachRate:9
SliderMultiplier:1.7
SliderTickRate:1

[Events]
//Background and Video events
0,0,"5897177-hatsune-miku-wallpaper.jpg",0,0
//Break Periods
//Storyboard Layer 0 (Background)
//Storyboard Layer 1 (Fail)
//Storyboard Layer 2 (Pass)
//Storyboard Layer 3 (Foreground)
//Storyboard Layer 4 (Overlay)
//Storyboard Sound Samples

[TimingPoints]
1366,389.61038961039,4,2,0,100,1,0
1366,-200,4,2,0,100,0,0
1755,-66.6666666666667,4,2,0,100,0,0
54375,-58.8235294117647,4,2,0,100,0,0
64093,-399.999999999997,4,2,0,100,0,0
69836,-100,4,2,0,100,0,0

[HitObjects]
214,180,1366,6,0,P|199:125|168:104,1,85
354,150,1951,1,2,0:0:0:0:
394,188,2048,1,8,0:0:0:0:
413,244,2145,1,2,0:0:0:0:
175,252,2340,1,8,0:0:0:0:
239,129,2535,1,2,0:0:0:0:
313,237,2730,1,8,0:0:0:0:
113,157,2925,5,2,0:0:0:0:
147,112,3022,1,8,0:0:0:0:
165,58,3119,1,2,0:0:0:0:
266,330,3314,2,0,P|178:348|131:333,1,127.500004863739,8|2,0:0|0:0,0:0:0:0:
110,316,3606,1,8,0:0:0:0:
72,276,3704,1,2,0:0:0:0:
228,57,3899,1,8,0:0:0:0:
320,192,4093,1,0,0:0:0:0:
192,288,4288,1,8,0:0:0:0:
96,160,4483,1,2,0:0:0:0:
205,82,4678,5,8,0:0:0:0:
228,57,4775,1,2,0:0:0:0:
256,48,4873,1,8,0:0:0:0:
289,49,5067,2,0,P|348:85|359:166,1,127.500004863739,2|8,0:0|0:0,0:0:0:0:
346,235,5457,1,2,0:0:0:0:
105,300,5652,1,8,0:0:0:0:
275,146,5847,1,2,0:0:0:0:
315,324,6042,1,8,0:0:0:0:
194,49,6236,5,2,0:0:0:0:
194,49,6334,1,8,0:0:0:0:
194,49,6431,1,2,0:0:0:0:
299,54,6626,2,0,P|363:78|399:133,1,127.500004863739,8|2,0:0|0:0,0:0:0:0:
396,124,7015,1,8,0:0:0:0:
367,235,7405,1,2,0:0:0:0:
314,273,7502,1,2,0:0:0:0:
261,228,7600,1,2,0:0:0:0:
196,209,7697,1,2,0:0:0:0:
114,88,7990,6,0,P|184:40|224:36,1,127.500004863739,8|2,0:0|0:0,0:0:0:0:
224,36,8379,1,0,0:0:0:0:
330,113,8574,1,2,0:0:0:0:
191,170,8769,1,0,0:0:0:0:
141,177,8866,1,0,0:0:0:0:
88,162,8964,1,0,0:0:0:0:
89,274,9158,2,0,P|176:323|226:310,1,127.500004863739
198,320,9548,1,0,0:0:0:0:
324,207,9743,5,0,0:0:0:0:
146,192,9938,1,0,0:0:0:0:
245,105,10132,1,0,0:0:0:0:
177,303,10327,1,0,0:0:0:0:
210,341,10425,1,0,0:0:0:0:
249,337,10522,1,0,0:0:0:0:
332,207,10717,5,0,0:0:0:0:
228,201,10912,1,0,0:0:0:0:
341,118,11106,1,0,0:0:0:0:
283,292,11301,1,0,0:0:0:0:
215,116,11496,1,0,0:0:0:0:
160,284,11691,1,0,0:0:0:0:
381,166,11886,5,0,0:0:0:0:
382,119,11983,1,0,0:0:0:0:
362,74,12080,1,0,0:0:0:0:
282,23,12275,2,0,P|207:20|178:38,1,63.7500024318696
103,113,12567,5,0,0:0:0:0:
95,179,12665,1,0,0:0:0:0:
162,295,12860,1,0,0:0:0:0:
222,316,12957,1,0,0:0:0:0:
290,126,13054,6,0,L|216:231,1,127.500004863739
421,109,13444,1,0,0:0:0:0:
405,54,13541,1,0,0:0:0:0:
368,27,13639,1,0,0:0:0:0:
328,23,13736,5,0,0:0:0:0:
297,39,13834,1,0,0:0:0:0:
286,68,13931,1,0,0:0:0:0:
297,102,14028,1,0,0:0:0:0:
323,120,14126,1,0,0:0:0:0:
197,314,14223,5,0,0:0:0:0:
148,304,14320,1,0,0:0:0:0:
111,272,14417,1,0,0:0:0:0:
102,227,14515,1,0,0:0:0:0:
109,174,14612,2,0,P|144:128|200:122,1,63.7500024318696
210,96,14807,2,0,P|272:70|283:42,1,63.7500024318696
294,64,15002,1,0,0:0:0:0:
330,29,15100,1,0,0:0:0:0:
387,21,15197,1,0,0:0:0:0:
440,52,15295,1,0,0:0:0:0:
447,113,15392,1,0,0:0:0:0:
411,164,15490,1,0,0:0:0:0:
347,188,15587,1,0,0:0:0:0:
287,181,15684,5,0,0:0:0:0:
226,187,15782,1,0,0:0:0:0:
167,207,15879,2,0,P|135:212|72:176,1,63.7500024318696
56,166,16073,2,0,P|49:102|76:66,1,63.7500024318696
69,92,16268,1,0,0:0:0:0:
96,32,16366,1,0,0:0:0:0:
164,9,16464,1,0,0:0:0:0:
231,19,16561,1,0,0:0:0:0:
282,64,16658,1,0,0:0:0:0:
307,126,16756,5,0,0:0:0:0:
316,181,16853,1,0,0:0:0:0:
354,224,16951,1,0,0:0:0:0:
422,229,17048,1,0,0:0:0:0:
488,195,17145,1,0,0:0:0:0:
494,122,17243,1,0,0:0:0:0:
394,57,17340,5,0,0:0:0:0:
330,84,17437,1,0,0:0:0:0:
267,117,17535,1,0,0:0:0:0:
299,201,17632,1,0,0:0:0:0:
231,256,17730,1,0,0:0:0:0:
138,191,17925,2,0,P|198:173|160:207,1,127.500004863739
177,67,18217,1,0,0:0:0:0:
233,48,18314,1,0,0:0:0:0:
296,61,18412,1,0,0:0:0:0:
338,103,18509,1,0,0:0:0:0:
352,160,18606,1,0,0:0:0:0:
332,221,18704,1,0,0:0:0:0:
282,262,18801,1,0,0:0:0:0:
218,263,18899,1,0,0:0:0:0:
179,229,18996,5,0,0:0:0:0:
181,187,19093,1,0,0:0:0:0:
220,169,19191,1,0,0:0:0:0:
243,187,19288,1,0,0:0:0:0:
243,216,19386,1,0,0:0:0:0:
223,219,19483,1,0,0:0:0:0:
211,207,19580,1,0,0:0:0:0:
223,194,19678,1,0,0:0:0:0:
237,181,19775,1,0,0:0:0:0:
234,156,19873,1,0,0:0:0:0:
213,160,19970,1,0,0:0:0:0:
181,155,20067,1,0,0:0:0:0:
151,126,20165,1,0,0:0:0:0:
250,83,20456,6,0,P|320:70|358:88,1,63.7500024318696
361,100,20652,1,0,0:0:0:0:
380,156,20749,1,0,0:0:0:0:
352,204,20847,1,0,0:0:0:0:
295,217,20944,1,0,0:0:0:0:
241,196,21041,1,0,0:0:0:0:
205,153,21139,1,0,0:0:0:0:
151,138,21236,1,0,0:0:0:0:
98,150,21334,1,0,0:0:0:0:
58,191,21431,1,0,0:0:0:0:
58,251,21528,1,0,0:0:0:0:
96,292,21626,1,0,0:0:0:0:
148,308,21723,6,0,P|219:285|246:233,1,127.500004863739
239,197,22015,1,0,0:0:0:0:
216,143,22113,1,0,0:0:0:0:
175,100,22210,1,0,0:0:0:0:
238,64,22308,1,0,0:0:0:0:
228,0,22405,1,0,0:0:0:0:
293,27,22503,1,0,0:0:0:0:
348,27,22600,1,0,0:0:0:0:
394,66,22697,1,0,0:0:0:0:
407,115,22795,1,0,2:0:0:0:
381,172,22892,1,0,2:0:0:0:
322,183,22990,1,0,2:0:0:0:
269,157,23087,1,0,2:0:0:0:
230,105,23184,1,0,2:0:0:0:
171,88,23282,1,0,2:0:0:0:
110,117,23379,5,0,0:0:0:0:
92,180,23477,2,0,P|112:261|132:285,1,63.7500024318696
133,279,23671,1,0,0:0:0:0:
184,303,23769,1,0,0:0:0:0:
244,292,23866,1,0,0:0:0:0:
291,258,23964,1,0,0:0:0:0:
312,200,24061,1,0,0:0:0:0:
301,141,24158,1,0,0:0:0:0:
274,88,24256,1,0,0:0:0:0:
233,46,24353,2,0,P|167:30|156:31,1,63.7500024318696
122,44,24548,5,0,0:0:0:0:
83,88,24645,2,0,P|75:157|86:174,1,63.7500024318696
87,198,24840,1,0,0:0:0:0:
130,242,24938,2,0,P|184:270|228:262,1,63.7500024318696
327,86,25132,5,0,0:0:0:0:
327,86,25230,1,0,0:0:0:0:
327,86,25327,1,0,0:0:0:0:
327,86,25425,1,0,0:0:0:0:
327,86,25522,1,0,0:0:0:0:
150,122,25716,1,0,0:0:0:0:
150,122,25813,1,0,0:0:0:0:
150,122,25911,1,0,0:0:0:0:
150,122,26009,1,0,0:0:0:0:
150,122,26106,1,0,0:0:0:0:
91,271,26301,6,0,B|159:304|224:283|261:243|249:197|182:189|171:234|188:274|213:271|221:262,1,191.250007295609
237,268,26691,1,0,0:0:0:0:
311,317,26788,1,0,0:0:0:0:
401,323,26886,1,0,0:0:0:0:
385,133,27080,1,0,0:0:0:0:
219,172,27275,1,0,0:0:0:0:
358,48,27470,1,0,0:0:0:0:
305,243,27665,1,0,0:0:0:0:
220,47,27860,1,0,0:0:0:0:
384,194,28054,1,0,0:0:0:0:
176,163,28249,1,0,0:0:0:0:
350,88,28444,1,0,0:0:0:0:
246,235,28639,1,0,0:0:0:0:
241,65,28834,5,0,0:0:0:0:
343,279,29028,1,0,0:0:0:0:
144,133,29223,1,0,0:0:0:0:
372,189,29418,1,0,0:0:0:0:
220,198,29613,1,0,0:0:0:0:
304,92,29808,1,0,0:0:0:0:
158,305,30003,5,0,0:0:0:0:
92,283,30100,1,0,0:0:0:0:
60,227,30197,1,0,0:0:0:0:
260,109,30391,1,0,0:0:0:0:
330,116,30489,1,0,0:0:0:0:
385,157,30586,1,0,0:0:0:0:
231,258,30782,5,0,0:0:0:0:
315,172,30977,1,0,0:0:0:0:
148,172,31171,1,0,0:0:0:0:
318,270,31366,1,0,0:0:0:0:
265,127,31561,1,0,0:0:0:0:
168,294,31756,1,0,0:0:0:0:
171,122,31951,1,0,0:0:0:0:
271,288,32145,1,0,0:0:0:0:
111,225,32340,1,0,0:0:0:0:
111,225,32438,1,0,0:0:0:0:
111,225,32535,1,0,0:0:0:0:
111,225,32632,1,0,0:0:0:0:
111,225,32730,1,0,0:0:0:0:
251,180,32925,5,0,0:0:0:0:
166,114,33119,1,0,0:0:0:0:
347,101,33314,1,0,0:0:0:0:
199,232,33509,1,0,0:0:0:0:
287,192,33704,1,0,0:0:0:0:
166,114,33899,1,0,0:0:0:0:
267,257,34093,1,0,0:0:0:0:
266,122,34288,1,0,0:0:0:0:
139,210,34483,1,0,0:0:0:0:
343,232,34678,1,0,0:0:0:0:
164,74,34873,1,0,0:0:0:0:
313,306,35067,5,0,0:0:0:0:
341,153,35262,1,0,0:0:0:0:
157,272,35457,1,0,0:0:0:0:
359,355,35652,1,0,0:0:0:0:
259,102,35847,1,0,0:0:0:0:
233,180,36041,1,0,0:0:0:0:
233,180,36139,1,0,0:0:0:0:
233,180,36236,1,0,0:0:0:0:
320,125,36431,1,0,0:0:0:0:
99,189,36626,1,0,0:0:0:0:
200,289,36821,1,0,0:0:0:0:
268,216,37015,5,0,0:0:0:0:
171,189,37210,1,0,0:0:0:0:
236,134,37405,1,0,0:0:0:0:
236,300,37600,1,0,0:0:0:0:
124,127,37795,1,0,0:0:0:0:
249,204,37990,1,0,0:0:0:0:
228,95,38184,1,0,0:0:0:0:
228,95,38282,1,0,0:0:0:0:
228,95,38379,1,0,0:0:0:0:
228,95,38477,1,0,0:0:0:0:
228,95,38574,1,0,0:0:0:0:
240,210,38769,1,0,0:0:0:0:
322,145,38964,6,0,P|352:203|331:250,1,63.7500024318696
286,291,39158,1,0,0:0:0:0:
170,222,39353,1,0,0:0:0:0:
275,172,39547,1,0,0:0:0:0:
223,323,39742,1,0,0:0:0:0:
177,155,39937,1,0,0:0:0:0:
308,268,40132,1,0,0:0:0:0:
297,103,40327,1,0,0:0:0:0:
178,284,40522,1,0,0:0:0:0:
229,82,40717,5,0,0:0:0:0:
303,303,40912,1,0,0:0:0:0:
150,150,41106,1,0,0:0:0:0:
374,155,41301,1,0,0:0:0:0:
187,292,41496,1,0,0:0:0:0:
196,52,41691,1,0,0:0:0:0:
380,267,41886,1,0,0:0:0:0:
74,156,42080,1,0,0:0:0:0:
291,71,42275,2,0,P|266:146|185:203,1,127.500004863739
152,64,42665,5,0,0:0:0:0:
302,313,42860,1,0,0:0:0:0:
289,103,43054,1,0,0:0:0:0:
132,240,43249,1,0,0:0:0:0:
380,198,43444,1,0,0:0:0:0:
108,127,43639,1,0,0:0:0:0:
256,302,43834,1,0,0:0:0:0:
254,58,44028,1,0,0:0:0:0:
99,232,44223,1,0,0:0:0:0:
409,302,44418,1,0,0:0:0:0:
409,302,44515,1,0,0:0:0:0:
409,302,44613,1,0,0:0:0:0:
378,191,44808,5,0,0:0:0:0:
335,121,44905,1,0,0:0:0:0:
272,72,45003,1,0,0:0:0:0:
123,94,45197,1,0,0:0:0:0:
60,184,45295,1,0,0:0:0:0:
90,284,45392,1,0,0:0:0:0:
233,232,45587,5,0,0:0:0:0:
126,119,45782,1,0,0:0:0:0:
350,80,45977,1,0,0:0:0:0:
190,293,46171,1,0,0:0:0:0:
443,222,46366,1,0,0:0:0:0:
154,122,46561,1,0,0:0:0:0:
302,315,46756,1,0,0:0:0:0:
268,67,46951,1,0,0:0:0:0:
213,223,47145,1,0,0:0:0:0:
367,150,47340,1,0,0:0:0:0:
160,137,47535,5,0,0:0:0:0:
293,223,47730,1,0,0:0:0:0:
265,112,47925,1,0,0:0:0:0:
168,263,48119,1,0,0:0:0:0:
336,262,48314,1,0,0:0:0:0:
181,138,48509,1,0,0:0:0:0:
329,75,48704,1,0,0:0:0:0:
231,287,48899,1,0,0:0:0:0:
125,96,49093,5,0,0:0:0:0:
385,174,49288,1,0,0:0:0:0:
92,230,49483,1,0,0:0:0:0:
325,52,49678,1,0,0:0:0:0:
298,329,49873,1,0,0:0:0:0:
156,76,50067,1,0,0:0:0:0:
394,307,50262,1,0,0:0:0:0:
116,221,50457,1,0,0:0:0:0:
390,102,50652,1,0,0:0:0:0:
196,136,50847,1,0,0:0:0:0:
366,193,51041,1,0,0:0:0:0:
221,273,51236,5,0,0:0:0:0:
349,185,51431,1,0,0:0:0:0:
212,69,51626,1,0,0:0:0:0:
337,278,51821,1,0,0:0:0:0:
419,40,52015,1,0,0:0:0:0:
197,288,52210,1,0,0:0:0:0:
120,92,52405,1,0,0:0:0:0:
406,295,52600,1,0,0:0:0:0:
320,7,52794,1,0,0:0:0:0:
103,318,52989,1,0,0:0:0:0:
175,8,53184,1,0,0:0:0:0:
185,174,53574,5,0,0:0:0:0:
312,63,53964,2,0,P|244:50|92:146,1,255.000009727478
362,273,54547,2,0,P|259:210|237:133,1,144.500002756119
352,30,54938,6,0,B|390:58|390:58|379:104,1,72.2500013780594
390,162,55132,1,0,0:0:0:0:
450,239,55230,1,0,0:0:0:0:
502,177,55327,1,0,0:0:0:0:
447,243,55425,1,0,0:0:0:0:
383,302,55522,1,0,0:0:0:0:
297,264,55619,6,0,B|272:246|272:246|259:206,1,72.2500013780594
215,312,55814,1,0,0:0:0:0:
126,274,55912,1,0,0:0:0:0:
194,216,56009,1,0,0:0:0:0:
126,274,56106,1,0,0:0:0:0:
228,100,56203,2,0,B|174:131|174:131|180:159,1,72.2500013780594
122,267,56399,1,0,0:0:0:0:
80,186,56496,1,0,0:0:0:0:
97,99,56593,1,0,0:0:0:0:
161,36,56691,1,0,0:0:0:0:
186,59,56788,5,0,0:0:0:0:
219,66,56885,1,0,0:0:0:0:
177,140,56983,1,0,0:0:0:0:
271,140,57080,1,0,0:0:0:0:
304,55,57178,1,0,0:0:0:0:
381,123,57275,1,0,0:0:0:0:
336,211,57373,1,0,0:0:0:0:
229,223,57470,2,0,P|152:220|229:226,1,216.750004134178
247,177,57860,1,0,0:0:0:0:
234,93,57957,1,0,0:0:0:0:
326,74,58054,6,0,L|409:64,1,72.2500013780594
224,96,58249,1,0,0:0:0:0:
160,96,58347,1,0,0:0:0:0:
87,104,58444,1,0,0:0:0:0:
313,167,58541,1,0,0:0:0:0:
255,203,58639,1,0,0:0:0:0:
259,172,58736,1,0,0:0:0:0:
201,199,58834,1,0,0:0:0:0:
206,243,58931,1,0,0:0:0:0:
258,233,59028,1,0,0:0:0:0:
382,237,59126,5,0,0:0:0:0:
374,173,59223,1,0,0:0:0:0:
370,108,59321,1,0,0:0:0:0:
374,173,59418,1,0,0:0:0:0:
187,108,59613,1,0,0:0:0:0:
187,108,59710,1,0,0:0:0:0:
187,108,59808,1,0,0:0:0:0:
380,246,60003,1,0,0:0:0:0:
374,173,60101,1,0,0:0:0:0:
370,108,60198,1,0,0:0:0:0:
363,60,60392,5,0,0:0:0:0:
374,173,60489,1,0,0:0:0:0:
384,286,60587,1,0,0:0:0:0:
288,284,60684,5,0,0:0:0:0:
196,288,60781,1,0,0:0:0:0:
112,288,60879,1,0,0:0:0:0:
306,106,60976,2,0,B|262:139|262:139|286:179,1,72.2500013780594
34,159,61171,6,0,B|77:131|77:131|122:141,1,72.2500013780594
176,154,61365,1,0,0:0:0:0:
220,224,61463,1,0,0:0:0:0:
288,176,61560,1,0,0:0:0:0:
360,120,61657,1,0,0:0:0:0:
396,20,61755,1,0,0:0:0:0:
440,96,61852,1,0,0:0:0:0:
488,172,61950,1,0,0:0:0:0:
215,217,62047,6,0,B|228:244|228:244|268:255,1,72.2500013780594
223,343,62243,1,0,0:0:0:0:
150,334,62340,1,0,0:0:0:0:
84,305,62438,1,0,0:0:0:0:
126,249,62535,1,0,0:0:0:0:
162,187,62632,1,0,0:0:0:0:
96,160,62730,1,0,0:0:0:0:
132,97,62827,1,0,0:0:0:0:
196,121,62925,5,0,0:0:0:0:
266,147,63022,1,0,0:0:0:0:
334,173,63119,1,0,0:0:0:0:
360,108,63217,1,0,0:0:0:0:
425,134,63314,1,0,0:0:0:0:
452,66,63411,1,0,0:0:0:0:
402,124,63508,1,0,0:0:0:0:
422,192,63606,1,0,0:0:0:0:
311,214,63703,5,0,0:0:0:0:
219,148,63801,1,0,0:0:0:0:
128,115,63898,1,0,0:0:0:0:
57,175,63995,1,0,0:0:0:0:
117,244,64093,2,0,P|132:249|142:236,1,31.875
249,83,64482,2,0,L|227:83,1,21.25
67,163,64775,5,0,0:0:0:0:
108,240,64873,1,0,0:0:0:0:
193,274,64970,1,0,0:0:0:0:
283,241,65067,1,0,0:0:0:0:
310,163,65165,1,0,0:0:0:0:
281,62,65262,1,0,0:0:0:0:
310,163,65457,1,0,0:0:0:0:
310,163,65554,1,0,0:0:0:0:
310,163,65652,1,0,0:0:0:0:
394,167,65749,5,0,0:0:0:0:
392,94,65847,1,0,0:0:0:0:
325,62,65944,1,0,0:0:0:0:
250,73,66041,1,0,0:0:0:0:
194,120,66139,1,0,0:0:0:0:
121,128,66236,1,0,0:0:0:0:
57,163,66334,1,0,0:0:0:0:
47,234,66431,1,0,0:0:0:0:
85,295,66528,1,0,0:0:0:0:
155,300,66626,1,0,0:0:0:0:
211,257,66723,1,0,0:0:0:0:
276,235,66821,5,0,0:0:0:0:
341,262,66918,1,0,0:0:0:0:
409,242,67015,1,0,0:0:0:0:
377,113,67210,5,0,0:0:0:0:
377,113,67307,1,0,0:0:0:0:
377,113,67405,1,0,0:0:0:0:
377,113,67502,1,0,0:0:0:0:
377,113,67600,1,0,0:0:0:0:
261,72,67795,5,0,0:0:0:0:
261,72,67893,1,0,0:0:0:0:
261,72,67990,1,0,0:0:0:0:
261,72,68087,1,0,0:0:0:0:
261,72,68185,1,0,0:0:0:0:
106,137,68379,5,0,0:0:0:0:
106,137,68477,1,0,0:0:0:0:
106,137,68574,1,0,0:0:0:0:
106,137,68671,1,0,0:0:0:0:
106,137,68768,1,0,0:0:0:0:
215,281,68963,5,0,0:0:0:0:
271,333,69060,1,0,0:0:0:0:
265,222,69158,1,0,0:0:0:0:
336,228,69256,1,0,0:0:0:0:
346,161,69353,1,0,0:0:0:0:
305,130,69451,1,0,0:0:0:0:
305,130,69547,1,0,0:0:0:0:
305,130,69645,1,0,0:0:0:0:
305,130,69742,1,0,0:0:0:0:
305,130,69840,1,0,0:0:0:0:
305,130,69937,2,0,P|216:162|122:124,1,170
