osu file format v14

[General]
AudioFilename: audio.mp3
AudioLeadIn: 0
PreviewTime: 54359
Countdown: 0
SampleSet: Soft
StackLeniency: 0.7
Mode: 2
LetterboxInBreaks: 0
WidescreenStoryboard: 0

[Editor]
DistanceSpacing: 1.4
BeatDivisor: 4
GridSize: 8
TimelineZoom: 1

[Metadata]
Title:Rampage
TitleUnicode:ランペイジ
Artist:paraoka feat. haru*nya
ArtistUnicode:paraoka feat. haru*nya
Creator:MBomb
Version:Overdose
Source:
Tags:magic bomb
BeatmapID:1831267
BeatmapSetID:876222

[Difficulty]
HPDrainRate:6
CircleSize:4.5
OverallDifficulty:9.4
ApproachRate:9.4
SliderMultiplier:2
SliderTickRate:2

[Events]
//Background and Video events
0,0,"rampage.jpg",0,0
//Break Periods
//Storyboard Layer 0 (Background)
//Storyboard Layer 1 (Fail)
//Storyboard Layer 2 (Pass)
//Storyboard Layer 3 (Foreground)
//Storyboard Sound Samples

[TimingPoints]
1762,389.61038961039,4,2,0,60,1,0
54749,-100,4,2,0,60,0,1
70333,-100,4,2,0,60,0,0

[Colours]
Combo1 : 255,0,0
Combo2 : 255,255,0
Combo3 : 0,255,255
Combo4 : 255,0,255

[HitObjects]
352,192,1372,6,0,P|420:182|464:104,1,150
232,192,1762,6,0,P|178:179|160:120,1,100
224,192,2054,1,0,0:0:0:0:
344,192,2151,2,0,L|400:192,1,50
184,192,2346,2,0,L|112:192,1,50
344,192,2541,1,0,0:0:0:0:
387,175,2638,1,0,0:0:0:0:
387,175,2735,1,0,0:0:0:0:
344,192,2833,1,0,0:0:0:0:
136,192,2930,1,0,0:0:0:0:
72,192,3028,1,0,0:0:0:0:
136,192,3125,1,0,0:0:0:0:
200,192,3223,1,0,0:0:0:0:
400,192,3320,6,0,P|456:144|456:120,1,100
392,192,3612,1,0,0:0:0:0:
272,192,3710,2,0,L|216:192,1,50
424,192,3904,2,0,L|488:192,1,50
248,192,4099,1,0,0:0:0:0:
200,192,4197,1,0,0:0:0:0:
200,192,4294,1,0,0:0:0:0:
248,192,4391,1,0,0:0:0:0:
488,192,4489,1,0,0:0:0:0:
466,147,4586,1,0,0:0:0:0:
426,119,4683,1,0,0:0:0:0:
376,115,4781,1,0,0:0:0:0:
152,192,4878,6,0,P|120:152|152:136,1,100
216,192,5171,1,0,0:0:0:0:
336,192,5268,2,0,L|296:160,1,50
80,192,5463,2,0,L|24:192,1,50
216,192,5658,1,0,0:0:0:0:
262,186,5755,1,0,0:0:0:0:
288,152,5852,1,0,0:0:0:0:
262,186,5950,1,0,0:0:0:0:
30,192,6047,1,0,0:0:0:0:
42,144,6144,1,0,0:0:0:0:
78,111,6241,1,0,0:0:0:0:
127,103,6339,1,0,0:0:0:0:
376,192,6437,6,0,L|488:192,1,100
408,192,6729,1,0,0:0:0:0:
288,192,6826,2,0,L|248:152,1,50
456,192,7021,2,0,L|392:192,1,50
208,192,7216,2,0,L|152:192,1,50
328,192,7411,1,0,0:0:0:0:
176,192,7508,1,0,0:0:0:0:
24,192,7606,2,0,L|8:144,2,50
328,192,7995,6,0,P|400:152|408:136,1,100
344,192,8287,1,0,0:0:0:0:
224,192,8385,2,0,L|224:128,1,50
400,192,8580,2,0,L|464:192,1,50
256,192,8774,1,0,0:0:0:0:
208,192,8872,1,0,0:0:0:0:
256,192,8969,1,0,0:0:0:0:
304,192,9067,1,0,0:0:0:0:
120,192,9164,1,0,0:0:0:0:
64,192,9262,1,0,0:0:0:0:
120,192,9359,1,0,0:0:0:0:
176,192,9457,1,0,0:0:0:0:
352,192,9554,6,0,P|392:160|368:128,1,100
312,192,9846,1,0,0:0:0:0:
432,192,9943,2,0,L|464:152,1,50
256,192,10138,2,0,L|184:192,1,50
432,192,10333,1,0,0:0:0:0:
488,192,10430,1,0,0:0:0:0:
488,192,10528,1,0,0:0:0:0:
432,192,10625,1,0,0:0:0:0:
224,192,10723,1,0,0:0:0:0:
280,192,10820,1,0,0:0:0:0:
336,192,10917,1,0,0:0:0:0:
392,192,11015,1,0,0:0:0:0:
184,192,11112,6,0,P|126:184|112:144,1,100
176,192,11404,1,0,0:0:0:0:
296,192,11502,2,0,L|240:192,1,50
32,192,11697,2,0,L|88:192,1,50
312,192,11891,1,0,0:0:0:0:
368,192,11989,1,0,0:0:0:0:
392,192,12086,1,0,0:0:0:0:
368,192,12184,1,0,0:0:0:0:
120,192,12281,2,0,L|56:192,1,50
224,192,12476,1,0,0:0:0:0:
376,192,12573,1,0,0:0:0:0:
200,192,12671,5,0,0:0:0:0:
416,192,12768,2,0,L|472:192,1,50
272,192,12963,1,0,0:0:0:0:
466,192,13060,2,0,L|408:192,1,50
304,192,13255,2,0,L|296:136,1,50
496,192,13450,2,0,L|440:192,1,50
184,192,13645,2,0,L|248:192,1,50
496,192,13839,1,0,0:0:0:0:
491,143,13936,1,0,0:0:0:0:
458,106,14033,1,0,0:0:0:0:
410,96,14131,1,0,0:0:0:0:
112,192,14229,6,0,P|80:152|112:136,1,100
288,192,14619,2,0,L|352:192,1,50
216,192,14813,1,0,0:0:0:0:
32,192,14911,2,0,L|96:192,1,50
208,192,15106,1,0,0:0:0:0:
384,192,15203,2,0,P|416:160|384:128,1,100
328,192,15495,1,0,0:0:0:0:
168,192,15690,6,0,P|104:176|88:144,1,100
152,192,15982,1,0,0:0:0:0:
328,192,16177,1,0,0:0:0:0:
152,192,16274,2,0,L|144:136,1,50
376,192,16469,2,0,L|432:192,1,50
152,192,16762,2,0,L|256:192,2,100
424,192,17346,6,0,L|480:192,2,50
304,192,17638,2,0,L|248:192,1,50
424,192,17833,1,0,0:0:0:0:
254,192,18028,2,0,L|366:192,1,100
152,192,18320,2,0,P|88:184|72:152,1,100
136,192,18612,1,0,0:0:0:0:
312,192,18807,1,0,0:0:0:0:
120,192,18904,5,0,0:0:0:0:
72,192,19002,1,0,0:0:0:0:
72,192,19099,1,0,0:0:0:0:
120,192,19197,1,0,0:0:0:0:
320,192,19294,1,0,0:0:0:0:
376,192,19391,1,0,0:0:0:0:
376,192,19489,1,0,0:0:0:0:
320,192,19586,1,0,0:0:0:0:
88,192,19684,1,0,0:0:0:0:
120,192,19781,1,0,0:0:0:0:
168,192,19878,1,0,0:0:0:0:
224,192,19976,1,0,0:0:0:0:
456,192,20073,2,0,L|496:160,3,50
240,192,20463,6,0,P|192:160|168:112,1,100
368,192,20755,2,0,L|392:144,1,50
144,192,20950,1,0,0:0:0:0:
304,192,21145,2,0,L|328:144,1,50
208,192,21339,1,0,0:0:0:0:
24,192,21437,2,0,L|128:192,2,100
224,192,21924,6,0,P|280:160|288:128,1,100
168,192,22216,2,0,L|112:192,2,50
336,192,22508,1,0,0:0:0:0:
24,192,22703,2,0,L|80:192,1,50
376,192,22995,2,0,L|256:192,2,100
80,192,23580,6,0,L|24:192,1,50
200,192,23872,1,0,0:0:0:0:
30,192,24067,2,0,L|86:192,1,50
136,192,24262,1,0,0:0:0:0:
328,192,24359,2,0,L|376:160,1,50
184,192,24554,1,0,0:0:0:0:
360,192,24749,1,0,0:0:0:0:
408,192,24846,1,0,0:0:0:0:
408,192,24943,1,0,0:0:0:0:
360,192,25041,1,0,0:0:0:0:
160,192,25138,6,0,L|96:192,3,50
328,192,25528,1,0,0:0:0:0:
72,192,25723,2,0,L|8:192,3,50
232,192,26112,1,0,0:0:0:0:
496,192,26307,2,0,L|384:192,1,100
96,192,26697,5,0,0:0:0:0:
208,192,26891,2,0,L|264:192,2,50
112,192,27281,1,0,0:0:0:0:
280,192,27476,2,0,L|384:192,2,100
104,192,28060,6,0,L|208:192,1,100
312,192,28450,2,0,L|208:192,2,100
136,192,29034,2,0,L|248:192,1,100
56,192,29424,2,0,L|168:192,1,100
424,192,29813,5,0,0:0:0:0:
312,192,30008,1,0,0:0:0:0:
416,192,30203,1,0,0:0:0:0:
312,192,30398,1,0,0:0:0:0:
120,192,30593,2,0,L|224:192,1,100
408,192,30982,1,0,0:0:0:0:
220,192,31177,6,0,L|116:192,1,100
232,192,31567,2,0,L|336:192,2,100
424,192,32151,2,0,L|304:192,1,100
256,192,32443,1,0,0:0:0:0:
80,192,32541,2,0,L|24:192,2,50
368,192,32930,5,0,0:0:0:0:
256,192,33125,2,0,L|200:192,2,50
344,192,33515,1,0,0:0:0:0:
160,192,33710,2,0,P|104:176|88:136,1,100
280,192,34099,1,0,0:0:0:0:
464,192,34294,6,0,L|352:192,1,100
176,192,34684,1,0,0:0:0:0:
364,192,34878,1,0,0:0:0:0:
176,192,35073,1,0,0:0:0:0:
464,192,35268,2,0,L|352:192,1,100
48,192,35658,2,0,L|160:192,1,100
400,192,36047,5,0,0:0:0:0:
224,192,36242,2,0,L|344:192,1,100
208,192,36632,1,0,0:0:0:0:
400,192,36826,2,0,L|296:192,2,100
112,192,37411,6,0,P|40:160|112:120,1,200
384,192,37995,2,0,L|488:192,1,100
416,192,38287,1,0,0:0:0:0:
208,192,38385,2,0,L|152:192,2,50
496,192,38774,1,0,0:0:0:0:
472,192,38872,1,0,0:0:0:0:
416,192,38969,1,0,0:0:0:0:
112,192,39164,6,0,L|320:192,1,200
200,192,39749,1,0,0:0:0:0:
480,192,39943,2,0,L|376:192,1,100
200,192,40333,1,0,0:0:0:0:
464,192,40528,6,0,P|496:128|336:48,1,300
152,192,41307,2,0,L|80:192,2,50
280,192,41697,1,0,0:0:0:0:
232,192,41794,1,0,0:0:0:0:
184,192,41891,1,0,0:0:0:0:
368,192,42086,1,0,0:0:0:0:
52,192,42281,6,0,P|72:136|136:128,2,100
160,192,42865,1,0,0:0:0:0:
336,192,43060,1,0,0:0:0:0:
232,192,43255,1,0,0:0:0:0:
128,192,43450,1,0,0:0:0:0:
416,192,43645,6,0,L|96:192,1,300
240,192,44424,2,0,L|280:144,1,50
72,192,44619,1,0,0:0:0:0:
200,192,44813,2,0,L|264:192,2,50
16,192,45203,1,0,0:0:0:0:
368,192,45398,6,0,L|488:192,2,100
256,192,45982,1,0,0:0:0:0:
440,192,46177,2,0,L|312:192,2,100
152,192,46762,6,0,L|376:192,1,200
176,192,47346,2,0,L|72:192,1,100
256,192,47736,1,0,0:0:0:0:
160,192,47930,1,0,0:0:0:0:
64,192,48125,2,0,L|120:192,1,50
240,192,48320,2,0,L|272:144,1,50
56,192,48515,6,0,P|24:176|56:136,1,100
120,192,48807,1,0,0:0:0:0:
240,192,48904,1,0,0:0:0:0:
136,192,49099,2,0,L|200:192,1,50
384,192,49294,2,0,P|416:176|384:136,1,100
320,192,49586,1,0,0:0:0:0:
200,192,49683,1,0,0:0:0:0:
304,192,49878,2,0,L|240:192,1,50
64,192,50073,6,0,P|104:152|152:144,1,100
208,192,50365,1,0,0:0:0:0:
328,192,50463,1,0,0:0:0:0:
144,192,50658,1,0,0:0:0:0:
440,192,50852,2,0,L|320:192,2,100
144,192,51437,2,0,L|88:192,1,50
320,192,51632,6,0,P|392:168|400:120,1,100
336,192,51924,1,0,0:0:0:0:
216,192,52021,1,0,0:0:0:0:
336,192,52216,2,0,L|376:144,1,50
160,192,52411,1,0,0:0:0:0:
104,192,52508,1,0,0:0:0:0:
104,192,52606,1,0,0:0:0:0:
160,192,52703,1,0,0:0:0:0:
376,192,52800,2,0,L|440:192,1,50
184,192,52995,2,0,L|120:192,1,50
424,192,53190,6,0,L|424:80,1,100
48,192,53580,2,0,L|48:80,1,100
424,192,53969,2,0,L|424:80,1,100
48,192,54359,2,0,L|160:192,1,100
464,192,54749,5,0,0:0:0:0:
408,192,54846,1,0,0:0:0:0:
408,192,54943,1,0,0:0:0:0:
464,192,55041,1,0,0:0:0:0:
344,192,55138,2,0,L|296:160,1,50
424,192,55333,2,0,L|472:160,1,50
240,192,55528,2,0,L|176:192,2,50
408,192,55820,2,0,P|440:152|408:144,1,100
360,192,56112,1,0,0:0:0:0:
296,192,56210,1,0,0:0:0:0:
96,192,56307,6,0,L|32:192,2,50
216,192,56599,2,0,L|256:160,1,50
192,192,56794,2,0,L|152:160,2,50
376,192,57086,2,0,L|408:136,1,50
200,192,57281,1,0,0:0:0:0:
376,192,57378,1,0,0:0:0:0:
440,192,57476,2,0,L|440:136,1,50
320,192,57671,2,0,L|320:128,1,50
80,192,57865,5,0,0:0:0:0:
136,192,57962,1,0,0:0:0:0:
136,192,58059,1,0,0:0:0:0:
80,192,58157,1,0,0:0:0:0:
200,192,58254,2,0,L|248:160,1,50
120,192,58449,2,0,L|72:160,1,50
264,192,58645,1,0,0:0:0:0:
208,192,58742,1,0,0:0:0:0:
152,192,58839,1,0,0:0:0:0:
368,192,58937,2,0,L|256:192,1,100
152,192,59229,2,0,L|120:144,1,50
344,192,59424,6,0,L|384:144,1,50
256,192,59619,2,0,L|216:144,1,50
496,192,59813,2,0,L|432:192,1,50
168,192,60008,2,0,L|128:144,1,50
312,192,60203,2,0,L|352:144,1,50
16,192,60397,2,0,L|80:192,1,50
312,192,60593,1,0,0:0:0:0:
368,192,60690,1,0,0:0:0:0:
368,192,60787,1,0,0:0:0:0:
312,192,60885,1,0,0:0:0:0:
88,192,60982,5,0,0:0:0:0:
144,192,61080,1,0,0:0:0:0:
88,192,61177,1,0,0:0:0:0:
144,192,61275,1,0,0:0:0:0:
262,192,61372,2,0,L|304:160,1,50
176,192,61567,2,0,L|134:160,1,50
344,192,61762,1,0,0:0:0:0:
391,180,61859,1,0,0:0:0:0:
424,143,61956,1,0,0:0:0:0:
262,192,62054,1,0,0:0:0:0:
104,192,62151,1,0,0:0:0:0:
224,192,62346,2,0,L|240:144,1,50
48,192,62541,6,0,L|48:136,1,50
104,192,62736,2,0,L|104:136,1,50
224,192,62930,2,0,L|224:136,1,50
168,192,63125,2,0,L|168:136,1,50
328,192,63320,2,0,L|384:192,1,50
216,192,63515,1,0,0:0:0:0:
384,192,63612,1,0,0:0:0:0:
464,192,63710,1,0,0:0:0:0:
288,192,63904,2,0,L|216:192,1,50
428,192,64099,6,0,L|316:192,1,100
152,192,64391,1,0,0:0:0:0:
328,192,64489,2,0,L|272:192,1,50
224,192,64684,1,0,0:0:0:0:
48,192,64781,1,0,0:0:0:0:
224,192,64878,1,0,0:0:0:0:
496,192,65073,2,0,L|424:192,1,50
256,192,65268,2,0,L|216:152,1,50
392,192,65463,2,0,L|432:152,1,50
208,192,65658,6,0,L|312:192,1,100
496,192,65950,1,0,0:0:0:0:
308,192,66047,1,0,0:0:0:0:
128,192,66145,2,0,L|64:192,1,50
264,192,66339,1,0,0:0:0:0:
456,192,66437,1,0,0:0:0:0:
184,192,66632,1,0,0:0:0:0:
456,192,66826,2,0,L|456:136,1,50
328,192,67021,2,0,L|328:136,1,50
112,192,67216,5,0,0:0:0:0:
216,192,67313,1,0,0:0:0:0:
112,192,67411,1,0,0:0:0:0:
216,192,67508,1,0,0:0:0:0:
16,192,67606,1,0,0:0:0:0:
400,192,67800,1,0,0:0:0:0:
296,192,67897,1,0,0:0:0:0:
400,192,67995,1,0,0:0:0:0:
296,192,68092,1,0,0:0:0:0:
496,192,68190,1,0,0:0:0:0:
96,192,68385,5,0,0:0:0:0:
200,192,68482,1,0,0:0:0:0:
304,192,68580,1,0,0:0:0:0:
408,192,68677,1,0,0:0:0:0:
16,192,68775,1,0,0:0:0:0:
416,192,68969,1,0,0:0:0:0:
312,192,69066,1,0,0:0:0:0:
208,192,69164,1,0,0:0:0:0:
104,192,69261,1,0,0:0:0:0:
496,192,69359,1,0,0:0:0:0:
16,192,69554,6,0,L|16:136,1,50
400,192,69749,1,0,0:0:0:0:
464,192,69846,1,0,0:0:0:0:
480,192,69943,1,0,0:0:0:0:
464,192,70041,1,0,0:0:0:0:
400,192,70138,1,0,0:0:0:0:
16,192,70333,1,0,0:0:0:0:
