osu file format v14

[General]
AudioFilename: audio.mp3
AudioLeadIn: 0
PreviewTime: 54359
Countdown: 0
SampleSet: None
StackLeniency: 0.7
Mode: 2
LetterboxInBreaks: 0
WidescreenStoryboard: 0

[Editor]
DistanceSpacing: 1.4
BeatDivisor: 4
GridSize: 8
TimelineZoom: 1

[Metadata]
Title:Rampage
TitleUnicode:ランペイジ
Artist:paraoka feat. haru*nya
ArtistUnicode:paraoka feat. haru*nya
Creator:MBomb
Version:Cup
Source:
Tags:magic bomb
BeatmapID:1831313
BeatmapSetID:876222

[Difficulty]
HPDrainRate:3
CircleSize:2
OverallDifficulty:6
ApproachRate:6
SliderMultiplier:1.2
SliderTickRate:1

[Events]
//Background and Video events
0,0,"rampage.jpg",0,0
//Break Periods
//Storyboard Layer 0 (Background)
//Storyboard Layer 1 (Fail)
//Storyboard Layer 2 (Pass)
//Storyboard Layer 3 (Foreground)
//Storyboard Sound Samples

[TimingPoints]
1762,389.61038961039,4,2,0,60,1,0
54749,-100,4,2,0,60,0,1
70333,-100,4,2,0,60,0,0

[Colours]
Combo1 : 255,0,0
Combo2 : 255,255,0
Combo3 : 0,255,255
Combo4 : 255,0,255

[HitObjects]
72,192,1762,6,0,L|280:192,2,180
224,192,3320,2,0,L|404:192,2,180
56,192,4878,6,0,L|240:192,2,180
240,192,6437,1,0,0:0:0:0:
448,192,7021,1,0,0:0:0:0:
256,192,7411,2,0,L|184:192,1,60
376,192,7995,6,0,P|480:152|496:88,2,180
224,192,9554,2,0,P|120:152|104:88,2,180
392,192,11112,6,0,L|192:192,2,180
200,192,12671,2,0,L|104:192,2,90
304,192,13450,2,0,L|368:192,2,60
120,192,14229,6,0,P|80:160|128:120,1,120
264,192,15008,2,0,L|144:192,1,120
304,192,15787,6,0,L|432:192,1,120
272,192,16567,1,0,0:0:0:0:
344,192,16762,1,0,0:0:0:0:
416,192,16956,1,0,0:0:0:0:
224,192,17346,6,0,L|352:192,1,120
496,192,18125,2,0,L|376:192,1,120
200,192,18904,5,0,0:0:0:0:
320,192,19294,1,0,0:0:0:0:
176,192,19684,1,0,0:0:0:0:
344,192,20073,1,0,0:0:0:0:
160,192,20463,6,0,P|72:160|56:136,1,120
208,192,21242,2,0,L|336:192,1,120
488,192,22021,6,0,L|360:192,1,120
200,192,22800,1,0,0:0:0:0:
48,192,23190,1,0,0:0:0:0:
232,192,23580,6,0,L|104:192,1,120
280,192,24359,1,0,0:0:0:0:
208,192,24554,1,0,0:0:0:0:
136,192,24749,1,0,0:0:0:0:
328,192,25138,6,0,L|400:192,1,60
272,192,25528,1,0,0:0:0:0:
184,192,25723,2,0,L|112:192,1,60
240,192,26113,1,0,0:0:0:0:
352,192,26307,1,0,0:0:0:0:
160,192,26697,5,0,0:0:0:0:
304,192,27086,1,0,0:0:0:0:
144,192,27476,2,0,L|272:192,1,120
368,192,28060,6,0,P|408:152|368:120,1,120
296,192,28645,1,0,0:0:0:0:
104,192,29034,2,0,L|232:192,1,120
384,192,29813,5,0,0:0:0:0:
240,192,30203,1,0,0:0:0:0:
400,192,30593,2,0,P|448:176|480:112,1,120
368,192,31177,6,0,L|240:192,1,120
320,192,31762,1,0,0:0:0:0:
488,192,32151,1,0,0:0:0:0:
320,192,32541,1,0,0:0:0:0:
152,192,32930,5,0,0:0:0:0:
304,192,33320,1,0,0:0:0:0:
448,192,33710,2,0,L|304:192,1,120
224,192,34294,6,0,P|176:160|224:120,1,120
280,192,34878,1,0,0:0:0:0:
104,192,35268,1,0,0:0:0:0:
288,192,35658,1,0,0:0:0:0:
112,192,36047,5,0,0:0:0:0:
232,192,36437,1,0,0:0:0:0:
72,192,36826,2,0,L|192:192,1,120
304,192,37411,6,0,P|376:168|312:112,1,180
144,192,38385,2,0,L|24:192,1,120
208,192,39164,5,0,0:0:0:0:
448,192,39943,2,0,L|248:192,1,180
16,192,41307,2,0,L|96:192,1,60
208,192,41891,1,0,0:0:0:0:
384,192,42281,5,0,0:0:0:0:
144,192,43060,2,0,L|336:192,1,180
24,192,44424,1,0,0:0:0:0:
120,192,44619,2,0,L|248:192,1,120
56,192,45398,5,0,0:0:0:0:
328,192,46177,2,0,L|136:192,1,180
360,192,47346,1,0,0:0:0:0:
200,192,47736,2,0,L|384:192,1,180
296,192,48515,5,0,0:0:0:0:
32,192,49294,1,0,0:0:0:0:
280,192,50073,1,0,0:0:0:0:
48,192,50852,1,0,0:0:0:0:
256,192,51632,12,0,52800,0:0:0:0:
192,192,53190,5,0,0:0:0:0:
360,192,53580,1,0,0:0:0:0:
192,192,53969,1,0,0:0:0:0:
376,192,54359,2,0,L|448:192,1,60
328,192,54749,6,0,P|251:172|232:128,1,120
416,192,55528,2,0,L|320:192,1,90
224,192,56112,1,0,0:0:0:0:
326,192,56307,6,0,L|440:192,2,90
216,192,57086,2,0,L|136:192,2,60
400,192,57865,6,0,L|272:192,1,120
120,192,58645,2,0,L|224:192,1,90
312,192,59229,1,0,0:0:0:0:
224,192,59424,6,0,L|152:192,1,60
272,192,59813,1,0,0:0:0:0:
360,192,60008,2,0,L|432:192,1,60
312,192,60397,1,0,0:0:0:0:
216,192,60593,1,0,0:0:0:0:
400,192,60982,6,0,L|280:192,1,120
112,192,61762,2,0,L|240:192,1,120
160,192,62346,1,0,0:0:0:0:
64,192,62541,6,0,L|192:192,1,120
360,192,63320,2,0,L|488:192,1,120
400,192,63904,1,0,0:0:0:0:
304,192,64099,5,0,0:0:0:0:
448,192,64489,1,0,0:0:0:0:
304,192,64878,1,0,0:0:0:0:
448,192,65268,1,0,0:0:0:0:
272,192,65658,1,0,0:0:0:0:
128,192,66048,1,0,0:0:0:0:
272,192,66437,1,0,0:0:0:0:
88,192,66827,1,0,0:0:0:0:
280,192,67216,6,0,L|352:192,1,60
224,192,67606,1,0,0:0:0:0:
136,192,67801,2,0,L|64:192,1,60
192,192,68191,1,0,0:0:0:0:
288,192,68385,6,0,L|208:192,1,60
120,192,68774,1,0,0:0:0:0:
24,192,68969,2,0,L|96:192,1,60
184,192,69359,1,0,0:0:0:0:
272,192,69554,5,0,0:0:0:0:
160,192,69749,2,0,P|120:152|160:128,1,120
272,192,70333,1,0,0:0:0:0:
