osu file format v14

[General]
AudioFilename: audio.mp3
AudioLeadIn: 0
PreviewTime: 54262
Countdown: 0
SampleSet: Soft
StackLeniency: 0.7
Mode: 0
LetterboxInBreaks: 0
EpilepsyWarning: 1
WidescreenStoryboard: 1

[Editor]
Bookmarks: 12879,25347
DistanceSpacing: 1.4
BeatDivisor: 8
GridSize: 4
TimelineZoom: 2.299999

[Metadata]
Title:Rampage
TitleUnicode:ランペイジ
Artist:paraoka feat. haru*nya
ArtistUnicode:paraoka feat. haru*nya
Creator:Irreversible
Version:Kyversible's Extra
Source:
Tags:Kyshiro fast challenge funny voice cheering happy Koujimachi Yousankan 麹町養蚕館 マテリアル Damnae antprincess
BeatmapID:1075593
BeatmapSetID:505170

[Difficulty]
HPDrainRate:6
CircleSize:5
OverallDifficulty:8.5
ApproachRate:9.2
SliderMultiplier:2.26000000000001
SliderTickRate:1

[Events]
//Background and Video events
0,0,"cute-smile-anime-headphones-girl-vocaloid-backgrounds.jpg",0,0
//Break Periods
2,14429,26127
//Storyboard Layer 0 (Background)
//Storyboard Layer 1 (Fail)
//Storyboard Layer 2 (Pass)
//Storyboard Layer 3 (Foreground)
//Storyboard Sound Samples

[TimingPoints]
1762,389.61038961039,4,2,0,50,1,0
26697,-133.333333333333,4,2,0,50,0,0
39164,-116.279069767442,4,2,0,50,0,0
53190,-200,4,2,0,50,0,0
53482,-200,4,2,0,5,0,0
53580,-133.333333333333,4,2,0,50,0,0
53872,-133.333333333333,4,2,0,5,0,0
53969,-100,4,2,0,50,0,0
54262,-100,4,2,0,5,0,0
54359,-133.333333333333,4,2,0,50,0,0
54749,-100,4,2,0,50,0,1
59424,-76.9230769230769,4,2,0,50,0,1
60593,-100,4,2,0,50,0,1
67216,-74.0740740740741,4,2,0,50,0,1
69749,-111.111111111111,4,2,0,50,0,1
69943,-142.857142857143,4,2,0,50,0,1
70138,-200,4,2,0,50,0,1
70333,-100,4,2,0,50,0,0

[Colours]
Combo1 : 164,164,255
Combo2 : 128,255,255
Combo3 : 230,53,234
Combo4 : 255,255,125

[HitObjects]
44,128,1762,6,0,P|108:120|156:152,1,113,6|2,1:0|0:0,0:0:0:0:
84,199,2054,1,0,0:0:0:0:
170,222,2151,2,0,L|234:212,1,56.5000000000002,0|0,1:0|0:0,0:0:0:0:
300,160,2346,2,0,B|370:179|370:179|419:171,1,113,2|0,1:0|1:0,0:0:0:0:
376,95,2638,5,0,0:0:0:0:
467,107,2736,2,0,P|492:146|495:170,1,56.5000000000002,2|2,0:0|0:0,0:0:0:0:
431,285,2930,2,0,P|440:258|458:236,1,56.5000000000002,2|0,1:0|0:0,0:0:0:0:
495,348,3125,1,0,0:0:0:0:
409,378,3223,1,0,0:0:0:0:
342,317,3320,6,0,P|271:311|231:328,1,113,2|2,1:0|0:0,0:0:0:0:
157,376,3612,1,2,0:0:0:0:
90,313,3710,2,0,L|80:245,1,56.5000000000002,0|0,1:0|0:0,0:0:0:0:
185,160,3904,2,0,L|169:282,1,113,2|2,1:0|1:0,0:0:0:0:
81,167,4197,5,0,0:0:0:0:
126,85,4294,2,0,P|170:65|197:65,1,56.5000000000002,4|0,1:2|0:0,0:0:0:0:
264,106,4489,2,0,P|330:111|396:89,1,113,2|2,1:0|1:0,0:0:0:0:
439,44,4781,1,0,0:0:0:0:
494,113,4878,6,0,B|477:193|477:193|491:235,1,113,2|2,1:0|0:0,0:0:0:0:
403,250,5171,1,2,0:0:0:0:
474,305,5268,2,0,L|465:371,1,56.5000000000002,0|0,1:0|0:0,0:0:0:0:
403,250,5463,2,0,P|339:238|279:256,1,113,2|0,1:0|1:0,0:0:0:0:
222,303,5755,5,0,0:0:0:0:
306,333,5852,2,0,L|365:326,1,56.5000000000002,2|2,0:0|0:0,0:0:0:0:
222,303,6047,2,0,L|198:357,1,56.5000000000002,2|0,1:0|0:0,0:0:0:0:
293,248,6242,2,0,L|257:200,1,56.5000000000002,0|0,0:0|0:0,0:0:0:0:
336,165,6437,6,0,P|401:166|456:138,1,113,2|2,1:0|0:0,0:0:0:0:
491,76,6729,1,2,0:0:0:0:
420,30,6826,2,0,L|352:22,1,56.5000000000002,0|0,1:0|0:0,0:0:0:0:
292,69,7021,2,0,L|166:78,1,113,2|0,1:0|1:0,0:0:0:0:
105,34,7313,5,2,1:0:0:0:
51,99,7411,2,0,P|46:148|54:170,1,56.5000000000002,0|2,1:0|1:0,0:0:0:0:
152,272,7606,1,6,1:0:0:0:
227,247,7703,1,0,0:0:0:0:
227,168,7800,1,2,1:0:0:0:
152,144,7898,1,0,0:0:0:0:
105,208,7995,6,0,L|113:331,1,113,6|2,1:0|0:0,0:0:0:0:
177,367,8287,1,2,0:0:0:0:
242,321,8385,2,0,P|282:315|313:320,1,56.5000000000002,0|0,1:0|0:0,0:0:0:0:
404,251,8580,2,0,P|327:251|289:232,1,113,2|0,1:0|1:0,0:0:0:0:
275,159,8872,5,0,0:0:0:0:
347,114,8969,2,0,L|361:187,1,56.5000000000002,0|0,0:0|0:0,0:0:0:0:
437,116,9164,2,0,L|447:60,1,56.5000000000002,2|0,1:0|0:0,0:0:0:0:
378,20,9359,1,0,0:0:0:0:
306,52,9456,1,0,0:0:0:0:
232,22,9554,6,0,P|177:39|116:31,1,113,2|2,1:0|0:0,0:0:0:0:
56,77,9846,1,2,0:0:0:0:
113,130,9943,2,0,L|181:124,1,56.5000000000002,0|0,1:0|0:0,0:0:0:0:
288,186,10138,2,0,P|229:182|170:214,1,113,2|0,1:0|1:0,0:0:0:0:
229,267,10430,5,0,0:0:0:0:
308,263,10528,2,0,P|348:241|360:220,1,56.5000000000002,0|0,0:0|0:0,0:0:0:0:
424,158,10723,2,0,P|443:178|469:187,1,56.5000000000002,2|0,1:0|0:0,0:0:0:0:
497,52,10917,2,0,L|487:112,1,56.5000000000002,2|0,1:0|0:0,0:0:0:0:
426,250,11112,6,0,L|443:375,1,113,2|2,1:0|0:0,0:0:0:0:
364,339,11404,1,2,0:0:0:0:
291,372,11502,2,0,P|251:364|227:350,1,56.5000000000002,0|0,1:0|0:0,0:0:0:0:
167,293,11697,2,0,P|244:284|282:263,1,113,2|0,1:0|1:0,0:0:0:0:
309,196,11989,5,0,0:0:0:0:
246,148,12086,2,0,P|234:178|234:217,1,56.5000000000002,0|0,0:0|0:0,0:0:0:0:
327,120,12281,2,0,P|324:91|313:66,1,56.5000000000002,2|0,1:0|0:0,0:0:0:0:
219,21,12476,1,2,1:0:0:0:
146,52,12573,1,0,1:0:0:0:
72,81,12671,6,0,L|60:141,1,56.5000000000002,4|2,1:2|1:0,0:0:0:0:
136,174,12865,1,0,0:0:0:0:
155,188,12963,2,0,L|143:248,1,56.5000000000002,0|2,0:0|1:0,0:0:0:0:
225,282,13158,1,0,0:0:0:0:
244,296,13256,2,0,L|232:356,1,56.5000000000002,0|0,1:0|0:0,0:0:0:0:
365,262,13450,6,0,P|368:222|364:199,1,56.5000000000002,0|0,1:0|0:0,0:0:0:0:
237,148,13645,2,0,P|270:170|292:178,1,56.5000000000002,2|0,1:0|0:0,0:0:0:0:
403,93,13839,2,0,P|366:110|348:125,1,56.5000000000002,0|2,1:0|1:0,0:0:0:0:
296,245,14034,5,0,0:0:0:0:
427,163,14132,1,0,1:0:0:0:
283,92,14229,1,6,1:0:0:0:
64,328,26697,6,0,L|156:324,1,84.7500032329564,4|2,1:0|0:0,0:0:0:0:
246,344,26989,1,0,0:0:0:0:
254,336,27086,2,0,L|346:332,1,84.7500032329564,4|2,1:3|0:0,0:0:0:0:
448,192,27476,5,0,1:3:0:0:
440,112,27671,1,2,0:0:0:0:
432,32,27865,1,4,1:3:0:0:
256,128,28060,6,0,B|128:135|128:135|168:111,1,169.500006465913,2|0,1:0|3:0,0:0:0:0:
214,67,28547,1,0,0:0:0:0:
228,91,28645,2,0,P|216:159|192:175,1,84.7500032329564,0|2,1:3|0:0,0:0:0:0:
118,162,28937,1,0,0:0:0:0:
104,138,29035,2,0,P|116:70|140:54,1,84.7500032329564,4|2,1:3|0:0,0:0:0:0:
169,116,29326,1,0,0:0:0:0:
169,116,29424,1,2,1:0:0:0:
88,296,29619,1,2,0:0:0:0:
88,296,29716,1,0,0:0:0:0:
88,296,29813,5,4,1:2:0:0:
256,344,30008,2,0,L|340:336,2,84.7500032329564,2|4|2,0:0|1:3|0:0,0:0:0:0:
396,276,30593,1,0,1:0:0:0:
348,192,30787,1,2,0:0:0:0:
396,108,30982,1,4,1:3:0:0:
256,36,31177,6,0,P|176:24|148:100,1,169.500006465913,4|0,3:0|1:0,0:0:0:0:
64,192,31762,1,0,1:0:0:0:
209,78,31956,1,2,1:0:0:0:
396,108,32151,1,4,1:3:0:0:
251,222,32346,5,0,1:0:0:0:
248,211,32444,1,0,1:0:0:0:
245,199,32541,1,2,1:0:0:0:
242,187,32638,1,0,1:0:0:0:
239,175,32736,1,4,1:3:0:0:
116,276,32930,5,4,1:2:0:0:
336,352,33125,1,2,0:0:0:0:
354,350,33223,1,0,0:0:0:0:
372,348,33320,1,4,1:3:0:0:
424,244,33515,1,2,0:0:0:0:
350,146,33710,5,0,1:0:0:0:
301,286,33904,1,2,0:0:0:0:
161,237,34099,1,4,1:3:0:0:
210,97,34294,6,0,P|188:36|92:48,1,169.500006465913,2|2,1:0|1:0,0:0:0:0:
150,87,34781,1,0,0:0:0:0:
150,87,34878,1,4,1:3:0:0:
380,60,35073,5,2,1:0:0:0:
380,60,35171,1,0,0:0:0:0:
380,60,35268,1,2,1:0:0:0:
407,295,35463,5,2,0:0:0:0:
407,295,35560,1,0,0:0:0:0:
407,295,35658,1,2,1:0:0:0:
172,322,35852,5,0,1:0:0:0:
172,322,35950,1,0,0:0:0:0:
172,322,36047,1,4,1:2:0:0:
407,295,36242,6,0,B|276:284|276:284|320:320,1,169.500006465913,2|2,1:0|1:0,0:0:0:0:
464,192,36826,1,0,1:0:0:0:
407,89,37021,1,2,1:0:0:0:
305,308,37216,1,4,1:3:0:0:
156,196,37411,5,2,1:0:0:0:
176,195,37508,1,4,1:3:0:0:
193,194,37606,1,0,1:0:0:0:
356,188,37800,5,0,1:0:0:0:
336,189,37897,1,0,0:0:0:0:
319,190,37995,1,2,1:0:0:0:
138,83,38190,5,4,1:3:0:0:
162,105,38287,1,0,1:0:0:0:
182,123,38385,1,2,1:0:0:0:
373,300,38579,5,4,1:2:0:0:
349,278,38676,1,0,1:0:0:0:
329,260,38774,1,2,1:0:0:0:
148,320,38969,1,2,1:0:0:0:
280,92,39164,6,0,P|368:80|464:120,1,194.360002965699,6|4,1:0|1:3,0:0:0:0:
373,300,39749,1,2,0:0:0:0:
220,136,39943,6,0,P|208:80|232:40,2,97.1800014828496,0|2|4,1:0|0:0|1:3,0:0:0:0:
231,263,40528,2,0,B|276:241|276:241|132:249,1,194.360002965699,2|2,0:0|0:0,0:0:0:0:
280,92,41112,1,4,1:3:0:0:
376,336,41307,1,2,0:0:0:0:
376,336,41404,1,2,0:0:0:0:
376,336,41502,6,0,P|408:284|416:248,1,97.1800014828496,2|0,1:0|1:0,0:0:0:0:
464,196,41794,1,0,1:0:0:0:
464,196,41892,2,0,P|449:136|430:105,1,97.1800014828496,4|8,1:3|1:3,0:0:0:0:
376,60,42184,1,0,0:0:0:0:
376,60,42281,5,6,1:2:0:0:
260,152,42476,1,2,0:0:0:0:
260,152,42573,1,2,0:0:0:0:
260,152,42671,1,4,1:3:0:0:
80,108,42865,5,2,1:0:0:0:
276,64,43060,1,0,1:0:0:0:
80,108,43255,1,2,1:0:0:0:
168,192,43450,1,4,1:3:0:0:
56,348,43645,5,2,1:0:0:0:
256,300,43839,2,0,L|360:308,1,97.1800014828496,0|2,1:0|0:0,0:0:0:0:
424,240,44132,1,2,0:0:0:0:
424,240,44229,2,0,L|320:232,1,97.1800014828496,4|2,1:3|1:0,0:0:0:0:
168,192,44521,1,2,0:0:0:0:
168,192,44618,2,0,L|272:200,1,97.1800014828496,2|0,1:0|1:0,0:0:0:0:
336,144,44911,1,0,1:0:0:0:
348,128,45008,6,0,L|356:68,1,48.5900007414248,4|0,1:3|0:0,0:0:0:0:
276,72,45203,2,0,L|282:21,1,48.5900007414248,8|0,1:3|0:0,0:0:0:0:
144,128,45398,6,0,P|100:168|104:216,1,97.1800014828496,4|2,1:2|0:0,0:0:0:0:
122,266,45690,1,2,0:0:0:0:
122,266,45787,2,0,P|166:226|162:178,1,97.1800014828496,4|2,1:3|1:0,0:0:0:0:
52,56,46177,5,0,1:0:0:0:
256,16,46372,1,2,1:0:0:0:
256,16,46469,1,0,0:0:0:0:
256,16,46567,1,2,1:0:0:0:
424,132,46762,6,0,P|428:192|368:320,1,194.360002965699,2|0,1:0|0:0,0:0:0:0:
208,344,47346,2,0,L|80:336,1,97.1800014828496,2|0,1:0|0:0,0:0:0:0:
111,337,47638,1,0,0:0:0:0:
111,337,47736,1,2,1:0:0:0:
52,192,47930,1,2,1:0:0:0:
256,44,48125,5,0,1:0:0:0:
243,90,48222,1,0,1:0:0:0:
212,127,48319,1,2,0:0:0:0:
168,147,48417,1,2,0:0:0:0:
120,147,48514,1,4,1:2:0:0:
152,48,48710,5,0,0:0:0:0:
152,48,48807,1,0,0:0:0:0:
152,48,48904,1,4,3:0:0:0:
400,88,49099,5,0,0:0:0:0:
400,88,49196,1,0,0:0:0:0:
400,88,49293,1,4,1:2:0:0:
360,336,49489,5,0,0:0:0:0:
360,336,49586,1,0,0:0:0:0:
360,336,49683,1,4,3:0:0:0:
112,296,49878,5,0,0:0:0:0:
112,296,49975,1,0,0:0:0:0:
112,296,50072,1,4,1:2:0:0:
256,192,50268,5,0,0:0:0:0:
256,192,50365,1,0,0:0:0:0:
256,192,50463,1,4,3:0:0:0:
43,110,50658,5,2,1:0:0:0:
308,52,50852,1,4,1:3:0:0:
204,332,51047,1,2,1:0:0:0:
325,217,51242,1,2,1:0:0:0:
185,166,51437,1,2,1:0:0:0:
412,36,51632,6,0,P|432:100|424:132,1,97.1800014828496,2|2,1:0|0:0,0:0:0:0:
476,192,51924,1,2,0:0:0:0:
476,192,52021,2,0,P|445:251|417:268,1,97.1800014828496,4|2,1:3|0:0,0:0:0:0:
412,348,52313,1,2,0:0:0:0:
412,348,52411,6,0,P|348:368|316:360,1,97.1800014828496,2|2,1:0|1:0,0:0:0:0:
200,264,52703,1,0,0:0:0:0:
200,264,52800,1,2,1:0:0:0:
424,128,52995,1,0,1:0:0:0:
249,26,53190,6,0,L|236:128,1,84.7500000000004,4|0,1:0|0:0,0:0:0:0:
270,44,53580,6,0,L|253:172,1,127.125004849435,6|0,1:0|0:0,0:0:0:0:
290,61,53969,6,0,L|268:231,1,169.500000000001,6|0,1:0|0:0,0:0:0:0:
324,286,54359,5,2,1:0:0:0:
402,185,54554,1,2,1:0:0:0:
90,70,54749,6,0,L|27:61,1,56.5000000000002,2|0,1:0|0:0,0:0:0:0:
182,103,54943,2,0,L|245:94,1,56.5000000000002,2|0,1:0|0:0,0:0:0:0:
133,184,55138,2,0,P|133:230|128:258,1,56.5000000000002,0|0,1:0|0:0,0:0:0:0:
221,312,55333,2,0,P|218:283|219:255,1,56.5000000000002,0|2,1:0|1:0,0:0:0:0:
301,203,55528,6,0,L|372:197,1,56.5000000000002,0|2,0:0|1:0,0:0:0:0:
426,258,55723,1,0,1:0:0:0:
505,169,55820,2,0,P|514:99|496:49,1,113,2|0,1:0|0:0,0:0:0:0:
429,25,56112,1,2,1:0:0:0:
361,67,56210,1,0,1:0:0:0:
292,27,56307,6,0,L|223:47,1,56.5000000000002,2|0,1:0|0:0,0:0:0:0:
138,99,56502,2,0,L|207:119,1,56.5000000000002,2|0,1:0|1:0,0:0:0:0:
320,153,56697,2,0,L|251:173,1,56.5000000000002,0|2,0:0|1:0,0:0:0:0:
166,225,56892,2,0,L|235:245,1,56.5000000000002,0|2,0:0|1:0,0:0:0:0:
133,373,57086,1,0,1:0:0:0:
55,355,57184,1,0,0:0:0:0:
110,299,57281,1,2,1:0:0:0:
56,240,57378,2,0,P|44:174|56:118,1,113,0|0,1:0|0:0,0:0:0:0:
123,77,57671,2,0,P|127:110|122:137,1,56.5000000000002,4|0,1:2|0:0,0:0:0:0:
188,203,57865,5,6,1:0:0:0:
188,203,57963,1,0,0:0:0:0:
188,203,58060,1,0,1:0:0:0:
188,203,58158,1,2,1:0:0:0:
263,145,58255,5,0,0:0:0:0:
263,145,58352,1,0,0:0:0:0:
263,145,58450,1,2,1:0:0:0:
263,145,58547,1,0,1:0:0:0:
336,199,58645,6,0,L|408:186,1,56.5000000000002,0|0,0:0|0:0,0:0:0:0:
472,144,58839,1,0,0:0:0:0:
368,84,58937,2,0,P|300:74|251:47,1,113,2|2,1:0|1:0,0:0:0:0:
190,117,59229,2,0,P|158:126|119:131,1,56.5000000000002,0|0,0:0|0:0,0:0:0:0:
1,92,59424,6,0,P|33:72|71:70,1,73.4499966377263,6|0,1:0|0:0,0:0:0:0:
113,205,59619,2,0,P|81:225|44:228,1,73.4499966377263,4|0,1:2|0:0,0:0:0:0:
57,148,59814,1,2,1:0:0:0:
365,141,60008,6,0,P|402:143|434:163,1,73.4499966377263,4|0,1:2|0:0,0:0:0:0:
392,298,60203,2,0,P|354:295|322:275,1,73.4499966377263,2|0,1:0|0:0,0:0:0:0:
378,219,60398,1,4,1:2:0:0:
201,143,60593,6,0,P|185:99|185:75,1,56.5000000000002,0|0,1:0|1:0,0:0:0:0:
266,202,60787,2,0,P|261:229|249:255,1,56.5000000000002,0|0,1:0|1:0,0:0:0:0:
140,288,60982,6,0,L|71:280,1,56.5000000000002,6|0,1:0|0:0,0:0:0:0:
19,201,61177,2,0,L|88:193,1,56.5000000000002,0|2,1:0|1:0,0:0:0:0:
173,124,61372,2,0,L|104:116,1,56.5000000000002,0|0,0:0|1:0,0:0:0:0:
26,64,61567,1,2,1:0:0:0:
92,21,61664,1,0,0:0:0:0:
166,47,61762,6,0,P|204:46|231:38,1,56.5000000000002,0|0,1:0|0:0,0:0:0:0:
296,20,61956,1,0,0:0:0:0:
360,68,62054,1,2,1:0:0:0:
428,32,62151,2,0,P|468:36|502:50,1,56.5000000000002,0|0,1:0|0:0,0:0:0:0:
409,172,62346,2,0,P|413:132|427:98,1,56.5000000000002,0|0,0:0|0:0,0:0:0:0:
495,210,62541,5,2,1:0:0:0:
465,282,62638,1,0,0:0:0:0:
403,332,62736,1,0,1:0:0:0:
390,254,62833,1,2,1:0:0:0:
331,306,62930,2,0,L|267:293,1,56.5000000000002,0|2,0:0|1:0,0:0:0:0:
192,233,63125,2,0,L|256:220,1,56.5000000000002,0|0,0:0|1:0,0:0:0:0:
186,104,63320,5,2,1:0:0:0:
109,91,63417,1,0,1:0:0:0:
33,117,63515,1,0,1:0:0:0:
93,169,63612,1,2,1:0:0:0:
18,196,63710,2,0,L|28:263,1,56.5000000000002,0|0,0:0|0:0,0:0:0:0:
101,300,63904,2,0,L|109:244,1,56.5000000000002,2|2,1:0|1:0,0:0:0:0:
217,178,64099,6,0,B|294:169|294:169|346:191,1,113,6|0,1:0|0:0,0:0:0:0:
275,257,64391,2,0,B|307:270|307:270|384:261,1,113,0|0,1:0|0:0,0:0:0:0:
427,172,64684,1,0,0:0:0:0:
505,220,64781,2,0,P|510:270|502:294,1,56.5000000000002,2|0,1:0|1:0,0:0:0:0:
439,344,64976,5,0,0:0:0:0:
365,278,65073,2,0,P|396:257|420:250,1,56.5000000000002,0|0,0:0|1:0,0:0:0:0:
342,365,65268,2,0,L|221:350,1,113,2|0,1:0|1:0,0:0:0:0:
158,290,65560,1,0,0:0:0:0:
242,159,65658,6,0,B|261:236|261:236|246:275,1,113,6|0,1:0|0:0,0:0:0:0:
115,214,65950,2,0,L|173:217,1,56.5000000000002,0|2,1:0|1:0,0:0:0:0:
77,287,66145,2,0,L|19:290,1,56.5000000000002,0|0,0:0|0:0,0:0:0:0:
37,99,66339,6,0,L|41:217,1,113,2|0,1:0|0:0,0:0:0:0:
171,139,66632,2,0,P|145:128|117:124,1,56.5000000000002,2|0,1:0|0:0,0:0:0:0:
250,180,66826,2,0,P|277:175|303:165,1,56.5000000000002,4|0,1:2|0:0,0:0:0:0:
253,37,67021,2,0,L|244:95,1,56.5000000000002,0|0,0:0|0:0,0:0:0:0:
417,222,67216,6,0,P|463:216|489:197,1,76.2750002909664,0|0,1:0|1:0,0:0:0:0:
445,65,67411,2,0,P|399:71|373:90,1,76.2750002909664,0|0,1:0|1:0,0:0:0:0:
431,144,67606,1,4,1:2:0:0:
212,322,67800,6,0,P|166:316|140:297,1,76.2750002909664,0|0,1:0|1:0,0:0:0:0:
184,165,67995,2,0,P|230:171|256:190,1,76.2750002909664,0|0,1:0|1:0,0:0:0:0:
198,244,68190,1,4,1:2:0:0:
382,157,68385,5,0,1:0:0:0:
457,132,68482,1,0,1:0:0:0:
457,53,68580,1,0,1:0:0:0:
382,29,68677,1,0,1:0:0:0:
335,93,68775,1,4,1:2:0:0:
332,288,68969,5,0,1:0:0:0:
283,350,69066,1,0,1:0:0:0:
209,325,69164,1,0,1:0:0:0:
210,246,69261,1,0,1:0:0:0:
286,222,69359,1,4,1:2:0:0:
95,83,69554,5,0,1:0:0:0:
357,222,69749,1,2,1:0:0:0:
296,22,69943,1,2,1:0:0:0:
156,284,70138,1,2,1:0:0:0:
227,150,70333,5,4,1:2:0:0:
