osu file format v14

[General]
AudioFilename: audio.mp3
AudioLeadIn: 0
PreviewTime: 54262
Countdown: 0
SampleSet: Soft
StackLeniency: 0.7
Mode: 0
LetterboxInBreaks: 0
EpilepsyWarning: 1
WidescreenStoryboard: 1

[Editor]
Bookmarks: 12879,13460,25347,57875,59434
DistanceSpacing: 1.4
BeatDivisor: 8
GridSize: 4
TimelineZoom: 3.099998

[Metadata]
Title:Rampage
TitleUnicode:ランペイジ
Artist:paraoka feat. haru*nya
ArtistUnicode:paraoka feat. haru*nya
Creator:Irreversible
Version:Kawabunga!
Source:
Tags:Kyshiro fast challenge funny voice cheering happy Koujimachi Yousankan 麹町養蚕館 マテリアル Damnae antprincess
BeatmapID:1075653
BeatmapSetID:505170

[Difficulty]
HPDrainRate:5
CircleSize:7
OverallDifficulty:9.5
ApproachRate:9.5
SliderMultiplier:3.02000000000001
SliderTickRate:1

[Events]
//Background and Video events
0,0,"cute-smile-anime-headphones-girl-vocaloid-backgrounds.jpg",0,0
//Break Periods
2,14429,26172
//Storyboard Layer 0 (Background)
//Storyboard Layer 1 (Fail)
//Storyboard Layer 2 (Pass)
//Storyboard Layer 3 (Foreground)
//Storyboard Sound Samples

[TimingPoints]
1762,389.61038961039,4,2,0,60,1,0
26697,-200,4,2,0,60,0,0
39164,-149.253731343284,4,2,0,60,0,0
54749,-100,4,2,0,60,0,1
59229,-100,4,2,0,60,0,0
59424,-100,4,2,0,60,0,1
59838,-100,4,2,0,5,0,1
60008,-100,4,2,0,60,0,0
60203,-100,4,2,0,60,0,1
70333,-100,4,2,0,60,0,0

[Colours]
Combo1 : 164,164,255
Combo2 : 128,255,255
Combo3 : 230,53,234
Combo4 : 255,255,125

[HitObjects]
56,328,1762,6,0,L|216:320,1,151,6|2,1:0|0:0,0:0:0:0:
292,352,2054,1,0,0:0:0:0:
364,296,2151,2,0,P|388:236|372:152,1,151,0|2,1:0|1:0,0:0:0:0:
300,96,2443,1,0,0:0:0:0:
372,40,2541,6,0,L|460:36,1,75.5000000000001,0|0,1:0|0:0,0:0:0:0:
300,96,2736,2,0,L|212:92,1,75.5000000000001,2|2,0:0|0:0,0:0:0:0:
372,153,2930,2,0,P|389:225|364:296,1,151,2|0,1:0|0:0,0:0:0:0:
292,352,3223,1,0,0:0:0:0:
208,320,3320,6,0,L|57:327,1,151,2|2,1:0|0:0,0:0:0:0:
104,204,3612,1,2,0:0:0:0:
104,204,3710,2,0,L|254:211,1,151,0|2,1:0|1:0,0:0:0:0:
364,296,4002,1,0,0:0:0:0:
364,296,4099,6,0,P|396:308|448:300,1,75.5000000000002,2|0,1:0|0:0,0:0:0:0:
488,192,4294,2,0,P|450:188|415:201,1,75.5000000000002,4|0,1:2|0:0,0:0:0:0:
300,96,4489,2,0,P|251:149|178:135,1,151,2|2,1:0|1:0,0:0:0:0:
225,58,4781,1,0,0:0:0:0:
372,153,4878,6,0,P|389:225|364:296,1,151,2|2,1:0|0:0,0:0:0:0:
292,352,5171,1,2,0:0:0:0:
208,320,5268,2,0,L|57:327,1,151,0|2,1:0|1:0,0:0:0:0:
128,184,5560,1,0,0:0:0:0:
128,184,5658,6,0,L|123:87,1,75.5000000000001,0|0,1:0|0:0,0:0:0:0:
208,320,5852,2,0,L|212:416,1,75.5000000000001,2|2,0:0|0:0,0:0:0:0:
363,296,6047,2,0,P|350:222|321:246,1,151,2|0,1:0|0:0,0:0:0:0:
292,352,6339,1,0,0:0:0:0:
442,236,6437,6,0,P|409:184|309:184,1,151,2|2,1:0|0:0,0:0:0:0:
232,256,6729,1,2,0:0:0:0:
121,327,6826,2,0,P|182:324|232:238,1,151,0|2,1:0|1:0,0:0:0:0:
206,137,7119,1,0,0:0:0:0:
206,137,7216,1,0,1:0:0:0:
206,137,7411,6,0,L|117:141,1,75.5000000000002,0|2,1:0|1:0,0:0:0:0:
232,256,7606,1,6,1:0:0:0:
305,63,7800,1,2,1:0:0:0:
456,56,7995,6,0,L|296:64,1,151,6|2,1:0|0:0,0:0:0:0:
220,32,8287,1,0,0:0:0:0:
148,88,8385,2,0,P|124:148|140:232,1,151,0|2,1:0|1:0,0:0:0:0:
212,288,8676,1,0,0:0:0:0:
140,344,8774,6,0,L|52:348,1,75.5000000000001,0|0,1:0|0:0,0:0:0:0:
212,288,8969,2,0,L|300:292,1,75.5000000000001,2|2,0:0|0:0,0:0:0:0:
140,231,9164,2,0,P|123:159|148:88,1,151,2|0,1:0|0:0,0:0:0:0:
220,32,9456,1,0,0:0:0:0:
304,64,9554,6,0,L|455:57,1,151,2|2,1:0|0:0,0:0:0:0:
408,180,9845,1,2,0:0:0:0:
408,180,9943,2,0,L|258:173,1,151,0|2,1:0|1:0,0:0:0:0:
148,88,10235,1,0,0:0:0:0:
148,88,10333,6,0,P|116:76|64:84,1,75.5000000000002,2|0,1:0|0:0,0:0:0:0:
24,192,10528,2,0,P|62:196|97:183,1,75.5000000000002,4|0,1:2|0:0,0:0:0:0:
212,288,10723,2,0,P|261:235|334:249,1,151,2|2,1:0|1:0,0:0:0:0:
296,326,11015,1,0,0:0:0:0:
140,231,11112,6,0,P|123:159|148:88,1,151,2|2,1:0|0:0,0:0:0:0:
220,32,11404,1,2,0:0:0:0:
304,64,11502,2,0,L|455:57,1,151,0|2,1:0|1:0,0:0:0:0:
384,200,11793,1,0,0:0:0:0:
384,200,11891,6,0,L|389:297,1,75.5000000000001,0|0,1:0|0:0,0:0:0:0:
304,64,12086,2,0,L|300:-32,1,75.5000000000001
149,88,12281,2,0,P|162:162|191:138,1,151,2|2,1:0|1:0,0:0:0:0:
220,32,12573,1,0,1:0:0:0:
187,209,12671,5,4,1:2:0:0:
70,147,12768,2,0,P|114:206|187:209,1,151,2|0,1:0|0:0,0:0:0:0:
340,96,13060,2,0,P|296:37|223:35,1,151,0|2,1:0|1:0,0:0:0:0:
244,132,13352,1,2,1:0:0:0:
244,132,13450,5,0,1:0:0:0:
472,192,13645,1,2,1:0:0:0:
340,288,13839,1,2,1:0:0:0:
333,289,13888,1,0,1:0:0:0:
326,290,13937,1,2,1:0:0:0:
318,292,13986,1,0,1:0:0:0:
311,293,14034,1,0,1:0:0:0:
40,192,14229,5,6,1:0:0:0:
68,332,26697,5,4,1:0:0:0:
256,300,26891,5,2,0:0:0:0:
300,340,26989,1,0,0:0:0:0:
320,264,27086,1,4,1:3:0:0:
444,332,27281,1,2,0:0:0:0:
300,340,27476,5,0,1:3:0:0:
320,264,27671,1,2,0:0:0:0:
340,188,27865,1,4,1:3:0:0:
360,112,28060,6,0,B|380:97|380:97|248:85,1,151,2|2,1:0|1:0,0:0:0:0:
156,40,28547,1,0,0:0:0:0:
140,52,28645,2,0,P|120:84|116:132,1,75.5,4|2,1:3|0:0,0:0:0:0:
76,172,28937,1,0,0:0:0:0:
72,191,29035,2,0,P|81:228|112:264,1,75.5,2|2,1:0|0:0,0:0:0:0:
129,315,29326,1,0,0:0:0:0:
140,332,29424,2,0,P|172:352|220:356,1,75.5,2|2,1:0|0:0,0:0:0:0:
408,292,29813,5,4,1:2:0:0:
368,120,30008,5,2,0:0:0:0:
456,108,30203,1,4,1:3:0:0:
368,120,30398,1,2,0:0:0:0:
456,108,30593,5,0,1:0:0:0:
256,68,30787,1,2,0:0:0:0:
216,268,30982,1,4,1:3:0:0:
416,308,31177,6,0,B|431:328|431:328|443:196,1,151,2|2,1:0|1:0,0:0:0:0:
341,314,31664,1,0,0:0:0:0:
328,324,31762,2,0,P|291:340|244:336,1,75.5,4|2,1:3|1:0,0:0:0:0:
196,360,32054,1,0,0:0:0:0:
180,357,32152,2,0,P|142:342|112:306,1,75.5,2|0,1:0|1:0,0:0:0:0:
60,300,32443,1,0,1:0:0:0:
55,246,32541,5,2,1:0:0:0:
50,193,32638,1,0,1:0:0:0:
46,140,32735,1,4,1:3:0:0:
196,360,32930,5,4,1:2:0:0:
416,308,33125,5,2,0:0:0:0:
456,352,33223,1,0,0:0:0:0:
380,372,33320,1,4,1:3:0:0:
342,216,33515,1,2,0:0:0:0:
416,308,33710,5,0,1:0:0:0:
309,294,33904,1,2,0:0:0:0:
203,281,34099,1,4,1:3:0:0:
97,268,34294,6,0,B|112:288|112:288|124:156,1,151,2|2,1:0|1:0,0:0:0:0:
164,88,34781,1,0,0:0:0:0:
180,80,34878,2,0,P|220:92|245:115,1,75.5000000000002,4|2,1:3|1:0,0:0:0:0:
300,80,35171,1,0,0:0:0:0:
316,88,35268,2,0,P|335:124|336:163,1,75.5000000000002,2|2,1:0|0:0,0:0:0:0:
401,170,35561,1,0,0:0:0:0:
408,188,35658,2,0,P|396:228|375:255,1,75.5000000000002,2|0,1:0|1:0,0:0:0:0:
97,268,36047,5,4,1:2:0:0:
332,352,36242,6,0,P|257:356|184:340,1,151,2|2,1:0|1:0,0:0:0:0:
409,185,36826,1,0,1:0:0:0:
332,352,37021,1,2,1:0:0:0:
409,185,37216,1,4,1:3:0:0:
338,74,37411,5,2,1:0:0:0:
286,82,37508,1,4,1:3:0:0:
338,74,37606,1,0,1:0:0:0:
258,130,37800,5,0,1:0:0:0:
206,122,37898,1,0,1:0:0:0:
258,130,37995,1,2,1:0:0:0:
182,66,38190,5,4,1:3:0:0:
130,74,38287,1,0,1:0:0:0:
182,66,38385,1,2,1:0:0:0:
98,158,38579,5,4,1:2:0:0:
46,150,38676,1,0,1:0:0:0:
98,158,38774,1,2,1:0:0:0:
46,150,38872,1,8,3:0:0:0:
98,158,38969,1,2,1:0:0:0:
256,328,39164,6,0,P|280:344|328:304,1,101.169995214432,6|2,1:0|0:0,0:0:0:0:
420,192,39456,1,0,0:0:0:0:
412,180,39554,2,0,L|304:184,1,101.169995214432,4|0,1:3|0:0,0:0:0:0:
130,74,39943,5,0,1:0:0:0:
310,183,40138,1,2,0:0:0:0:
126,285,40333,1,4,1:3:0:0:
130,74,40528,1,2,0:0:0:0:
310,183,40723,6,0,P|358:199|414:199,1,101.169995214432,2|2,1:0|0:0,0:0:0:0:
368,94,41015,1,2,0:0:0:0:
355,90,41112,2,0,P|304:90|256:106,1,101.169995214432,4|2,1:3|0:0,0:0:0:0:
206,172,41404,1,2,0:0:0:0:
202,183,41502,2,0,P|154:199|98:199,1,101.169995214432,2|0,1:0|1:0,0:0:0:0:
104,132,41794,1,0,1:0:0:0:
158,89,41891,2,0,P|208:89|256:105,1,101.169995214432,4|8,1:3|1:3,0:0:0:0:
306,172,42184,1,0,0:0:0:0:
312,184,42281,5,6,1:2:0:0:
160,288,42476,1,2,0:0:0:0:
160,288,42573,1,2,0:0:0:0:
160,288,42671,1,4,1:3:0:0:
260,360,42866,5,2,1:0:0:0:
299,354,42963,1,0,0:0:0:0:
336,348,43060,2,0,L|440:336,2,101.169995214432,0|2|4,1:0|1:0|1:3,0:0:0:0:
160,288,43645,1,2,1:0:0:0:
328,192,43839,22,0,P|348:132|344:72,1,101.169995214432,0|2,1:0|0:0,0:0:0:0:
176,80,44132,1,2,0:0:0:0:
163,94,44229,2,0,P|166:144|184:192,1,101.169995214432,4|2,1:3|1:0,0:0:0:0:
256,184,44521,1,2,0:0:0:0:
328,192,44619,2,0,P|348:252|344:312,1,101.169995214432,2|0,1:0|1:0,0:0:0:0:
260,332,44911,1,0,1:0:0:0:
163,289,45008,2,0,P|166:239|184:192,1,101.169995214432,4|8,1:3|1:3,0:0:0:0:
176,80,45300,1,0,0:0:0:0:
176,80,45398,6,0,L|283:75,1,101.169995214432,4|2,1:2|0:0,0:0:0:0:
396,32,45690,1,2,0:0:0:0:
410,45,45787,1,4,1:3:0:0:
256,192,45982,5,2,1:0:0:0:
410,45,46177,2,0,L|415:152,2,101.169995214432,0|2|2,1:0|1:0|1:0,0:0:0:0:
480,192,46762,2,0,P|424:236|420:144,1,202.339990428864,2|0,1:0|0:0,0:0:0:0:
487,277,47346,2,0,P|443:293|387:281,1,101.169995214432,2|0,1:0|0:0,0:0:0:0:
390,282,47638,1,0,0:0:0:0:
390,282,47736,1,2,1:0:0:0:
220,360,47930,1,2,1:0:0:0:
64,256,48125,5,0,1:0:0:0:
53,227,48222,1,0,1:0:0:0:
48,197,48319,1,2,0:0:0:0:
48,167,48417,1,2,0:0:0:0:
54,137,48514,1,4,1:2:0:0:
242,50,48710,5,2,0:0:0:0:
275,47,48807,1,0,0:0:0:0:
308,43,48904,1,4,3:0:0:0:
420,112,49099,5,2,0:0:0:0:
408,192,49196,1,0,0:0:0:0:
420,112,49294,1,4,1:2:0:0:
230,52,49489,5,2,0:0:0:0:
263,46,49586,1,0,0:0:0:0:
295,40,49684,1,4,3:0:0:0:
426,126,49878,5,2,0:0:0:0:
407,205,49976,1,0,0:0:0:0:
426,126,50073,1,4,1:2:0:0:
218,55,50268,5,2,0:0:0:0:
250,46,50365,1,0,0:0:0:0:
282,38,50462,1,4,3:0:0:0:
376,192,50657,5,2,1:0:0:0:
92,352,50852,1,4,1:3:0:0:
172,108,51047,5,2,1:0:0:0:
172,108,51145,1,0,1:0:0:0:
172,108,51242,1,2,1:0:0:0:
332,256,51437,1,2,1:0:0:0:
188,336,51632,6,0,P|132:356|84:352,1,101.169995214432,2|2,1:0|0:0,0:0:0:0:
40,279,51924,1,2,0:0:0:0:
104,216,52021,2,0,P|163:216|207:236,1,101.169995214432,4|2,3:0|0:0,0:0:0:0:
256,288,52313,1,2,0:0:0:0:
324,324,52411,6,0,L|388:320,1,50.5849976072162,4|0,3:0|0:0,0:0:0:0:
462,188,52606,2,0,L|412:192,1,50.5849976072162,4|0,3:0|0:0,0:0:0:0:
326,97,52800,5,4,1:2:0:0:
316,147,52898,1,0,0:0:0:0:
357,174,52995,1,4,1:2:0:0:
395,141,53093,1,0,0:0:0:0:
376,95,53190,5,4,1:0:0:0:
256,192,53580,1,6,1:0:0:0:
452,352,53969,1,6,1:0:0:0:
60,320,54359,5,6,1:0:0:0:
60,320,54554,1,6,1:0:0:0:
60,320,54749,5,6,1:0:0:0:
95,271,54846,1,0,0:0:0:0:
149,248,54943,1,2,1:0:0:0:
208,254,55041,1,0,0:0:0:0:
258,287,55138,5,0,1:0:0:0:
309,308,55235,1,0,0:0:0:0:
371,303,55332,1,0,1:0:0:0:
418,268,55430,1,0,0:0:0:0:
437,215,55528,5,0,1:0:0:0:
320,136,55625,1,2,1:0:0:0:
336,251,55723,1,0,1:0:0:0:
424,96,55820,6,0,P|356:32|316:76,1,151,2|0,1:0|0:0,0:0:0:0:
244,96,56112,1,2,1:0:0:0:
156,72,56210,1,0,1:0:0:0:
76,128,56307,6,0,P|52:224|64:308,1,151,2|2,1:0|1:0,0:0:0:0:
128,200,56599,2,0,P|126:275|148:347,1,151,0|2,1:0|1:0,0:0:0:0:
224,336,56891,1,0,0:0:0:0:
320,360,56989,1,2,1:0:0:0:
396,300,57086,5,0,1:0:0:0:
404,217,57183,1,0,0:0:0:0:
413,134,57280,1,2,1:0:0:0:
422,51,57378,1,0,0:0:0:0:
488,138,57476,6,0,L|384:146,1,75.5,4|0,1:2|0:0,0:0:0:0:
296,184,57671,2,0,L|220:189,1,75.5,4|0,1:2|0:0,0:0:0:0:
48,121,57865,5,2,1:0:0:0:
196,134,57963,1,0,0:0:0:0:
37,228,58060,1,0,1:0:0:0:
185,241,58158,1,0,0:0:0:0:
48,121,58255,6,0,L|56:40,1,75.5000000000002,2|0,1:0|0:0,0:0:0:0:
185,241,58450,2,0,L|177:322,1,75.5000000000002,0|0,1:0|0:0,0:0:0:0:
37,228,58644,5,0,1:0:0:0:
104,164,58741,1,2,1:0:0:0:
196,134,58839,1,0,0:0:0:0:
292,136,58937,2,0,B|348:128|393:91|393:91|369:86|345:98,1,151,2|2,1:0|1:0,0:0:0:0:
289,222,59229,2,0,P|292:257|307:296,1,75.5000000000002
151,132,59424,5,6,1:0:0:0:
370,174,59521,1,0,0:0:0:0:
166,268,59619,1,4,1:2:0:0:
275,73,59716,1,0,0:0:0:0:
307,295,59813,2,4,P|337:313|378:310,1,75.5000000000002,2|0,1:0|0:0,1:2:0:0:
508,192,60008,5,6,1:0:0:0:
352,262,60106,1,0,0:0:0:0:
493,349,60203,2,0,L|500:272,1,75.5000000000002,6|0,1:0|0:0,0:0:0:0:
368,100,60398,2,0,L|361:177,1,75.5000000000002,6|0,1:0|0:0,0:0:0:0:
252,344,60593,5,0,1:0:0:0:
187,357,60690,1,0,1:0:0:0:
123,347,60787,1,0,1:0:0:0:
70,311,60885,1,0,1:0:0:0:
48,179,60982,5,6,1:0:0:0:
16,352,61080,1,0,0:0:0:0:
56,176,61177,1,0,1:0:0:0:
24,349,61274,1,2,1:0:0:0:
65,173,61372,6,0,P|117:205|145:201,1,75.5000000000002
204,271,61567,2,0,P|263:256|280:234,1,75.5000000000002,0|0,1:0|0:0,1:0:0:0:
356,192,61762,5,2,1:0:0:0:
449,229,61859,2,0,B|473:205|473:205|329:189,1,151,2|2,1:0|1:0,0:0:0:0:
180,284,62151,2,0,B|156:260|156:260|300:244,1,151,0|0,1:0|0:0,0:0:0:0:
388,312,62443,1,0,0:0:0:0:
248,168,62541,5,2,1:0:0:0:
234,47,62638,1,0,0:0:0:0:
249,161,62736,5,0,1:0:0:0:
252,27,62833,1,2,1:0:0:0:
253,155,62930,5,2,1:0:0:0:
275,16,63027,1,0,0:0:0:0:
257,151,63125,6,0,P|266:186|292:213,1,75.5000000000002,2|2,1:0|1:0,0:0:0:0:
469,238,63320,5,2,1:0:0:0:
329,287,63417,1,0,1:1:0:0:
356,138,63515,1,0,1:0:0:0:
268,332,63612,6,0,P|197:353|119:331,1,151,2|0,1:0|0:0,0:0:0:0:
0,248,63904,1,2,1:0:0:0:
128,216,64002,1,2,1:0:0:0:
16,116,64099,6,0,P|56:68|68:144,1,151,6|0,1:0|0:0,0:0:0:0:
226,119,64391,1,0,1:0:0:0:
154,110,64489,2,0,P|194:62|206:138,1,151,2|0,1:0|0:0,0:0:0:0:
364,113,64780,1,2,1:0:0:0:
292,104,64878,2,0,P|332:56|344:132,1,151,0|0,1:0|0:0,0:0:0:0:
501,107,65170,1,0,1:0:0:0:
429,98,65268,2,0,P|469:50|481:126,1,151,2|0,1:0|1:0,0:0:0:0:
496,268,65658,6,0,P|456:316|444:240,1,151,6|0,1:0|0:0,0:0:0:0:
286,265,65950,1,0,1:0:0:0:
358,274,66048,2,0,P|318:322|306:246,1,151,2|0,1:0|0:0,0:0:0:0:
148,271,66339,1,2,1:0:0:0:
220,280,66437,2,0,P|180:328|168:252,1,151,0|2,1:0|1:0,0:0:0:0:
11,277,66729,1,0,0:0:0:0:
83,286,66827,2,0,P|43:334|31:258,1,151,4|0,1:2|0:0,0:0:0:0:
256,34,67216,5,0,1:0:0:0:
279,105,67313,1,0,1:0:0:0:
302,177,67410,1,0,1:0:0:0:
326,249,67508,1,0,1:0:0:0:
349,321,67605,1,4,1:2:0:0:
349,321,67801,5,0,1:0:0:0:
288,277,67897,1,0,1:0:0:0:
227,233,67995,1,0,1:0:0:0:
166,188,68092,1,0,1:0:0:0:
105,144,68189,1,4,1:2:0:0:
105,144,68385,5,0,1:0:0:0:
181,144,68482,1,0,1:0:0:0:
256,144,68579,1,0,1:0:0:0:
332,144,68677,1,0,1:0:0:0:
407,144,68774,1,4,1:2:0:0:
407,144,68969,5,0,1:0:0:0:
346,189,69066,1,0,1:0:0:0:
285,233,69163,1,0,1:0:0:0:
224,278,69261,1,0,1:0:0:0:
163,322,69358,1,4,1:2:0:0:
163,322,69554,5,0,1:0:0:0:
210,178,69651,1,0,1:0:0:0:
257,35,69749,1,2,1:0:0:0:
393,271,69943,1,2,1:0:0:0:
48,352,70138,1,2,1:0:0:0:
48,352,70236,1,0,1:0:0:0:
48,352,70333,5,4,1:2:0:0:
