osu file format v14

[General]
AudioFilename: audio.mp3
AudioLeadIn: 0
PreviewTime: 54262
Countdown: 0
SampleSet: Soft
StackLeniency: 0.7
Mode: 0
LetterboxInBreaks: 0
EpilepsyWarning: 1
WidescreenStoryboard: 1

[Editor]
Bookmarks: 12879,25347
DistanceSpacing: 1.2
BeatDivisor: 4
GridSize: 4
TimelineZoom: 2.299999

[Metadata]
Title:Rampage
TitleUnicode:ランペイジ
Artist:paraoka feat. haru*nya
ArtistUnicode:paraoka feat. haru*nya
Creator:Irreversible
Version:Easy
Source:
Tags:Kyshiro fast challenge funny voice cheering happy Koujimachi Yousankan 麹町養蚕館 マテリアル Damnae antprincess
BeatmapID:1074709
BeatmapSetID:505170

[Difficulty]
HPDrainRate:2
CircleSize:3
OverallDifficulty:2
ApproachRate:2.8
SliderMultiplier:1.04000000596046
SliderTickRate:1

[Events]
//Background and Video events
0,0,"cute-smile-anime-headphones-girl-vocaloid-backgrounds.jpg",0,0
//Break Periods
2,14429,25233
//Storyboard Layer 0 (Background)
//Storyboard Layer 1 (Fail)
//Storyboard Layer 2 (Pass)
//Storyboard Layer 3 (Foreground)
//Storyboard Sound Samples

[TimingPoints]
1762,389.61038961039,4,2,0,68,1,0
26697,-149.253731343284,4,2,0,68,0,0
54749,-100,4,2,0,68,0,1
70333,-100,4,2,0,68,0,0

[Colours]
Combo1 : 164,164,255
Combo2 : 128,255,255
Combo3 : 230,53,234
Combo4 : 255,255,125

[HitObjects]
48,320,1762,6,0,P|148:304|256:312,1,208.000001192093,6|0,1:0|1:0,0:0:0:0:
348,356,2930,1,2,1:0:0:0:
432,296,3320,2,0,P|457:195|459:91,1,208.000001192093,2|2,1:0|1:0,0:0:0:0:
256,132,4878,6,0,P|230:232|228:336,2,208.000001192093,2|0|2,1:0|1:0|1:0,0:0:0:0:
60,56,7216,1,0,1:0:0:0:
256,132,7995,6,0,P|356:107|460:105,1,208.000001192093,6|0,1:0|1:0,0:0:0:0:
496,204,9164,1,2,1:0:0:0:
412,268,9554,2,0,P|308:266|207:241,1,208.000001192093,2|0,1:0|1:0,0:0:0:0:
48,108,11112,6,0,P|148:82|252:81,1,208.000001192093,2|0,1:0|1:0,0:0:0:0:
344,28,12281,1,2,1:0:0:0:
422,98,12671,2,0,B|464:196|388:196|418:302,2,208.000001192092,4|0|6,1:2|1:0|1:0,0:0:0:0:
96,340,26697,6,0,P|52:278|58:216,1,139.359994206661,4|0,1:0|1:3,0:0:0:0:
156,81,28255,2,0,L|299:63,1,139.359994206661,0|0,1:0|1:3,0:0:0:0:
448,128,29813,6,0,B|264:156|264:156|360:188,1,278.719988413322,4|0,1:2|1:0,0:0:0:0:
256,324,32151,1,2,1:0:0:0:
104,252,32930,6,0,P|65:193|73:123,1,139.359994206661,4|0,1:2|1:0,0:0:0:0:
212,32,34489,2,0,P|250:90|242:160,1,139.359994206661,0|0,1:2|1:0,0:0:0:0:
104,252,36047,1,4,1:2:0:0:
256,192,36437,12,6,39164,1:0:0:0:
112,100,40723,6,0,L|252:108,1,139.359995005364,2|2,1:0|1:0,0:0:0:0:
324,64,41891,1,4,1:3:0:0:
384,124,42281,6,0,P|388:188|340:248,1,139.359995005364,6|0,1:2|1:0,0:0:0:0:
192,312,43839,2,0,P|149:258|152:190,2,139.359995005364,0|2|4,1:0|1:0|1:2,0:0:0:0:
308,192,46177,5,0,1:0:0:0:
188,72,46956,2,0,L|112:76,2,69.6799975026818,0|2|2,1:0|1:0|1:0,0:0:0:0:
256,24,48125,1,0,1:0:0:0:
324,72,48515,5,4,1:2:0:0:
340,236,49294,1,2,0:0:0:0:
172,236,50073,5,4,1:2:0:0:
188,72,50852,1,4,1:3:0:0:
256,224,51632,5,2,1:0:0:0:
256,192,51826,12,6,53190,1:0:0:0:
48,336,54749,6,0,P|108:309|156:308,1,104.000001192093,6|0,1:0|1:0,0:0:0:0:
224,239,55528,2,0,P|289:245|331:269,1,104.000001192093,2|2,1:0|0:0,0:0:0:0:
396,340,56307,6,0,B|444:303|427:236|427:236|464:204|454:151,1,208.000001192092,2|0,1:0|1:0,0:0:0:0:
388,72,57476,1,4,1:2:0:0:
292,112,57865,6,0,L|188:116,1,104.000001192093,6|2,1:0|0:0,0:0:0:0:
83,115,58645,2,0,L|87:219,1,104.000001192093,2|2,1:0|0:0,0:0:0:0:
126,315,59424,6,0,P|170:331|206:287,1,104.000001192093,6|2,1:0|1:0,0:0:0:0:
298,339,60203,2,0,P|342:323|378:367,1,104.000001192093,2|0,1:0|1:0,0:0:0:0:
456,292,60982,6,0,P|488:192|448:96,1,208.000002384186,6|0,1:0|1:0,0:0:0:0:
360,52,62151,1,0,1:0:0:0:
264,94,62541,6,0,B|232:92|232:92|213:86|213:86|192:91|192:91|157:90,1,104.000000596046,2|2,1:0|0:0,0:0:0:0:
88,160,63320,2,0,P|84:204|112:260,1,104.000001192093,2|2,1:0|0:0,0:0:0:0:
200,308,64099,5,6,1:0:0:0:
408,284,64878,1,0,1:0:0:0:
384,76,65658,1,6,1:0:0:0:
176,100,66437,1,0,1:0:0:0:
200,308,67216,6,0,P|173:341|110:352,1,104.000001192093,0|4,1:0|1:2,0:0:0:0:
116,248,67995,2,0,P|142:214|205:203,1,104.000001192093,0|0,1:0|1:0,0:0:0:0:
292,260,68774,6,0,P|342:252|376:214,1,104.000001192093,4|0,1:2|1:0,0:0:0:0:
380,112,69554,2,0,P|329:119|295:157,2,104.000001192093,0|2|4,1:0|1:0|1:0,0:0:0:0:
