osu file format v14

[General]
AudioFilename: audio.mp3
AudioLeadIn: 0
PreviewTime: 54262
Countdown: 0
SampleSet: Soft
StackLeniency: 0.7
Mode: 0
LetterboxInBreaks: 0
EpilepsyWarning: 1
WidescreenStoryboard: 1

[Editor]
Bookmarks: 12879,25347
DistanceSpacing: 1.3
BeatDivisor: 4
GridSize: 4
TimelineZoom: 2.299999

[Metadata]
Title:Rampage
TitleUnicode:ランペイジ
Artist:paraoka feat. haru*nya
ArtistUnicode:paraoka feat. haru*nya
Creator:Irreversible
Version:Normal
Source:
Tags:Kyshiro fast challenge funny voice cheering happy Koujimachi Yousankan 麹町養蚕館 マテリアル Damnae antprincess
BeatmapID:1074825
BeatmapSetID:505170

[Difficulty]
HPDrainRate:4
CircleSize:3.5
OverallDifficulty:4
ApproachRate:4.8
SliderMultiplier:1.28000000596046
SliderTickRate:1

[Events]
//Background and Video events
0,0,"cute-smile-anime-headphones-girl-vocaloid-backgrounds.jpg",0,0
//Break Periods
2,14429,25474
//Storyboard Layer 0 (Background)
//Storyboard Layer 1 (Fail)
//Storyboard Layer 2 (Pass)
//Storyboard Layer 3 (Foreground)
//Storyboard Sound Samples

[TimingPoints]
1762,389.61038961039,4,2,0,68,1,0
26697,-200,4,2,0,68,0,0
39164,-149.253731343284,4,2,0,68,0,0
54749,-100,4,2,0,68,0,1
70333,-100,4,2,0,68,0,0

[Colours]
Combo1 : 164,164,255
Combo2 : 128,255,255
Combo3 : 230,53,234
Combo4 : 255,255,125

[HitObjects]
60,320,1762,6,0,L|196:312,1,128.000000596046,6|0,1:0|1:0,0:0:0:0:
268,336,2346,1,2,1:0:0:0:
326,277,2541,2,0,L|462:269,1,128.000000596046,0|2,1:0|1:0,0:0:0:0:
384,120,3320,6,0,L|248:128,1,128.000000596046,2|0,1:0|1:0,0:0:0:0:
180,92,3904,1,2,1:0:0:0:
112,140,4099,2,0,P|84:192|88:260,1,128.000000596046,2|2,1:0|1:0,0:0:0:0:
228,348,4878,6,0,L|420:336,1,192.000000894069,2|2,1:0|1:0,0:0:0:0:
436,256,5658,2,0,L|304:263,1,128.000000596046,0|2,1:0|1:0,0:0:0:0:
191,153,6437,6,0,P|178:110|185:70,1,64.000000298023,2|2,1:0|0:0,0:0:0:0:
248,44,6826,2,0,P|260:86|253:126,1,64.000000298023,0|2,1:0|1:0,0:0:0:0:
191,153,7216,2,0,L|48:147,1,128.000000596046,0|6,1:0|1:0,0:0:0:0:
140,296,7995,6,0,P|192:324|264:304,1,128.000000596046,6|0,1:0|1:0,0:0:0:0:
336,336,8580,1,2,1:0:0:0:
404,288,8774,2,0,P|433:217|417:166,1,128.000000596046,0|2,1:0|1:0,0:0:0:0:
288,68,9554,6,0,L|148:76,1,128.000000596046,2|0,1:0|1:0,0:0:0:0:
84,48,10138,1,2,1:0:0:0:
36,116,10333,2,0,L|44:256,1,128.000000596046,0|2,1:0|1:0,0:0:0:0:
176,348,11112,6,0,P|276:360|340:284,1,192.000000894069,2|2,1:0|1:0,0:0:0:0:
408,256,11891,2,0,P|366:221|291:232,1,128.000000596046,0|2,1:0|1:0,0:0:0:0:
216,216,12476,1,2,1:0:0:0:
144,172,12671,6,0,L|152:56,2,96.0000004470345,4|0|0,1:2|1:0|1:0,0:0:0:0:
72,216,13450,1,0,1:0:0:0:
176,348,13839,1,0,1:0:0:0:
339,294,14229,5,6,1:0:0:0:
60,332,26697,6,0,P|88:316|132:312,1,64.000000298023,4|4,1:0|1:3,0:0:0:0:
202,310,27476,2,0,P|230:326|274:330,1,64.000000298023,0|4,1:3|1:3,0:0:0:0:
340,308,28255,5,0,3:0:0:0:
420,332,28645,1,4,1:3:0:0:
448,252,29034,1,2,1:0:0:0:
368,228,29424,1,2,1:0:0:0:
308,172,29813,6,0,P|284:124|292:76,2,96.0000004470345,4|2|4,1:2|0:0|1:3,0:0:0:0:
368,112,31372,1,0,3:0:0:0:
444,80,31762,1,4,1:3:0:0:
500,144,32151,2,0,P|496:184|488:208,1,64.000000298023,2|2,1:0|1:0,0:0:0:0:
432,268,32930,6,0,P|344:256|296:256,1,128.000000596046,4|0,1:2|1:0,0:0:0:0:
232,296,34099,1,4,1:3:0:0:
152,276,34489,2,0,P|132:244|124:204,1,64.000000298023,0|4,3:0|1:3,0:0:0:0:
144,140,35268,1,2,1:0:0:0:
220,108,35658,1,2,1:0:0:0:
296,76,36047,5,4,1:2:0:0:
416,192,36826,1,0,1:0:0:0:
392,272,37216,1,4,1:3:0:0:
368,352,37606,1,0,1:0:0:0:
256,192,37800,12,6,39164,1:0:0:0:
184,192,39943,6,0,P|188:234|172:273,1,85.7599963427104,0|4,1:0|1:3,0:0:0:0:
132,304,40528,2,0,L|264:296,1,128.639994514066,2|4,0:0|1:3,0:0:0:0:
364,336,41502,2,0,L|380:252,1,85.7599963427104,2|4,1:0|1:3,0:0:0:0:
400,144,42281,6,0,B|376:100|336:104|336:104|308:120|272:108,1,128.639994514066,6|2,1:2|1:0,0:0:0:0:
240,88,43060,2,0,L|152:92,1,85.7599963427104,0|4,1:0|1:3,0:0:0:0:
56,148,43839,6,0,P|32:212|64:280,1,128.639994514066,0|2,1:0|1:0,0:0:0:0:
96,300,44619,2,0,P|156:280|214:304,1,128.639994514066,2|8,1:0|1:3,0:0:0:0:
256,268,45398,5,4,1:2:0:0:
364,292,45787,1,4,1:3:0:0:
400,184,46177,1,0,1:0:0:0:
292,152,46566,1,2,1:0:0:0:
204,84,46956,6,0,P|156:80|112:112,1,85.7599963427104,0|2,1:0|1:0,0:0:0:0:
48,180,47736,2,0,L|52:236,1,42.8799981713552,2|2,1:0|1:0,0:0:0:0:
104,244,48125,2,0,L|108:300,1,42.8799981713552,0|2,1:0|0:0,0:0:0:0:
160,300,48515,6,0,B|164:340|164:340|297:355,1,171.519992685421,4|2,1:2|0:0,0:0:0:0:
448,192,50073,2,0,B|444:152|444:152|311:137,1,171.519992685421,4|4,1:2|1:3,0:0:0:0:
216,84,51242,1,2,1:0:0:0:
152,176,51632,5,2,1:0:0:0:
256,192,51826,12,6,53190,1:0:0:0:
136,152,54749,6,0,P|120:120|124:76,1,64.000000298023,6|2,1:0|1:0,0:0:0:0:
187,37,55138,2,0,P|203:69|199:113,1,64.000000298023,0|0,1:0|1:0,0:0:0:0:
256,160,55528,6,0,P|316:180|372:168,2,96.0000004470345,0|2|2,1:0|1:0|1:0,0:0:0:0:
220,236,56307,2,0,P|248:292|296:323,2,96.0000004470345,2|0|4,1:0|1:0|3:0,0:0:0:0:
140,260,57086,2,0,P|120:320|132:376,2,96.0000004470345,0|0|4,1:0|1:0|1:2,0:0:0:0:
76,208,57865,5,6,1:0:0:0:
148,56,58255,1,0,1:0:0:0:
312,80,58645,1,0,1:0:0:0:
396,68,58839,1,4,3:3:0:0:
480,56,59034,1,4,3:3:0:0:
388,196,59424,6,0,L|397:278,2,64.000000298023,6|4|2,1:0|1:2|1:0,0:0:0:0:
312,232,60008,2,0,L|321:314,2,64.000000298023,4|2|4,1:2|1:0|1:2,0:0:0:0:
236,264,60593,2,0,L|245:346,1,64.000000298023,0|0,1:0|1:0,0:0:0:0:
164,356,60982,5,6,1:0:0:0:
84,332,61177,1,0,1:0:0:0:
24,276,61372,2,0,P|9:247|1:216,1,64.000000298023,4|2,3:0|1:0,0:0:0:0:
32,140,61762,2,0,B|52:124|52:124|172:136,1,128.000000596046,0|0,1:0|1:0,0:0:0:0:
216,80,62346,1,0,0:0:0:0:
276,140,62541,6,0,P|304:164|348:168,1,64.000000298023,2|0,1:0|1:0,0:0:0:0:
325,253,62930,2,0,P|361:250|395:221,1,64.000000298023,0|0,1:0|0:0,0:0:0:0:
440,300,63320,2,0,P|464:272|467:228,2,64.000000298023,2|0|0,1:0|1:0|1:0,0:0:0:0:
436,132,64099,5,6,1:0:0:0:
108,88,64878,1,0,1:0:0:0:
32,236,65268,1,2,1:0:0:0:
152,352,65658,5,6,1:0:0:0:
480,308,66437,2,0,P|500:252|488:184,1,128.000000596046,0|4,1:0|1:2,0:0:0:0:
372,68,67216,6,0,L|304:76,2,64.000000298023,0|0|4,1:0|1:0|1:2,0:0:0:0:
356,150,67800,2,0,L|292:157,2,64.000000298023,0|0|4,1:0|1:0|1:2,0:0:0:0:
340,232,68385,2,0,L|272:240,2,64.000000298023,0|0|4,1:0|1:0|1:2,0:0:0:0:
325,314,68969,2,0,L|261:321,2,64.000000298023,0|0|4,1:0|1:0|1:2,0:0:0:0:
401,349,69554,5,0,1:0:0:0:
456,192,69943,1,2,1:0:0:0:
336,76,70333,1,4,1:2:0:0:
