osu file format v14

[General]
AudioFilename: audio.mp3
AudioLeadIn: 0
PreviewTime: 54262
Countdown: 0
SampleSet: Soft
StackLeniency: 0.7
Mode: 0
LetterboxInBreaks: 0
EpilepsyWarning: 1
WidescreenStoryboard: 1

[Editor]
Bookmarks: 12879,25347
DistanceSpacing: 1.4
BeatDivisor: 4
GridSize: 4
TimelineZoom: 2.299999

[Metadata]
Title:Rampage
TitleUnicode:ランペイジ
Artist:paraoka feat. haru*nya
ArtistUnicode:paraoka feat. haru*nya
Creator:Irreversible
Version:Another
Source:
Tags:Kyshiro fast challenge funny voice cheering happy Koujimachi Yousankan 麹町養蚕館 マテリアル Damnae antprincess
BeatmapID:1074985
BeatmapSetID:505170

[Difficulty]
HPDrainRate:6
CircleSize:4.5
OverallDifficulty:8
ApproachRate:9
SliderMultiplier:2.06000000000001
SliderTickRate:1

[Events]
//Background and Video events
0,0,"cute-smile-anime-headphones-girl-vocaloid-backgrounds.jpg",0,0
//Break Periods
2,14429,26097
//Storyboard Layer 0 (Background)
//Storyboard Layer 1 (Fail)
//Storyboard Layer 2 (Pass)
//Storyboard Layer 3 (Foreground)
//Storyboard Sound Samples

[TimingPoints]
1762,389.61038961039,4,2,0,50,1,0
26697,-133.333333333333,4,2,0,50,0,0
39164,-116.279069767442,4,2,0,50,0,0
53190,-200,4,2,0,50,0,0
53482,-200,4,2,0,5,0,0
53580,-116.279069767442,4,2,0,50,0,0
53872,-116.279069767442,4,2,0,5,0,0
53969,-86.9565217391304,4,2,0,50,0,0
54262,-86.9565217391304,4,2,0,5,0,0
54359,-133.333333333333,4,2,0,50,0,0
54749,-100,4,2,0,50,0,1
69749,-111.111111111111,4,2,0,50,0,1
69943,-142.857142857143,4,2,0,50,0,1
70138,-200,4,2,0,50,0,1
70333,-100,4,2,0,50,0,0

[Colours]
Combo1 : 164,164,255
Combo2 : 128,255,255
Combo3 : 230,53,234
Combo4 : 255,255,125

[HitObjects]
60,292,1762,6,0,L|176:284,1,103,6|2,1:0|0:0,0:0:0:0:
256,324,2054,1,0,0:0:0:0:
256,324,2151,2,0,L|372:316,1,103,0|2,1:0|1:0,0:0:0:0:
432,260,2443,1,0,0:0:0:0:
432,260,2541,6,0,P|448:200|440:172,1,51.5000000000002,0|0,1:0|0:0,0:0:0:0:
376,144,2736,2,0,P|360:204|368:232,1,51.5000000000002,2|2,0:0|0:0,0:0:0:0:
441,107,2930,2,0,P|393:71|325:91,1,103,2|0,1:0|0:0,0:0:0:0:
276,112,3223,1,0,0:0:0:0:
256,124,3320,6,0,P|205:123|167:90,1,103,2|2,1:0|0:0,0:0:0:0:
88,104,3612,1,2,0:0:0:0:
88,104,3710,2,0,P|84:154|49:190,1,103,0|2,1:0|1:0,0:0:0:0:
0,268,4002,1,0,0:0:0:0:
0,268,4099,6,0,L|8:324,1,51.5000000000002,2|0,1:0|0:0,0:0:0:0:
88,304,4294,2,0,L|96:360,1,51.5000000000002,4|0,1:2|0:0,0:0:0:0:
256,292,4489,2,0,B|240:176,1,103,2|2,1:0|1:0,0:0:0:0:
329,288,4781,1,0,0:0:0:0:
325,324,4878,6,0,P|277:368|213:348,1,103,2|2,1:0|0:0,0:0:0:0:
159,232,5171,1,2,0:0:0:0:
159,232,5268,2,0,P|207:188|271:208,1,103,0|2,1:0|1:0,0:0:0:0:
364,160,5560,1,0,0:0:0:0:
364,160,5658,2,0,P|396:168|436:156,1,51.5000000000002,0|0,1:0|0:0,0:0:0:0:
392,84,5852,2,0,P|360:76|320:88,1,51.5000000000002,0|0,1:0|0:0,0:0:0:0:
241,189,6047,2,0,L|257:305,1,103,2|0,1:0|0:0,0:0:0:0:
128,372,6339,1,0,0:0:0:0:
100,352,6437,6,0,L|114:249,1,103,2|2,1:0|0:0,0:0:0:0:
76,184,6729,1,2,0:0:0:0:
76,184,6826,1,0,1:0:0:0:
256,68,7021,1,2,1:0:0:0:
328,192,7216,1,0,1:0:0:0:
100,352,7411,5,0,1:0:0:0:
100,352,7508,1,2,1:0:0:0:
100,352,7606,1,6,1:0:0:0:
184,243,7800,1,2,1:0:0:0:
324,340,7995,6,0,L|446:334,1,103,6|2,1:0|0:0,0:0:0:0:
287,238,8287,1,2,0:0:0:0:
287,238,8385,2,0,L|165:244,1,103,0|2,1:0|1:0,0:0:0:0:
76,172,8677,1,0,0:0:0:0:
76,172,8774,2,0,P|52:100|52:92,1,51.5000000000002,0|0,1:0|0:0,0:0:0:0:
176,92,8969,2,0,P|200:20|200:12,1,51.5000000000002,0|0,0:0|0:0,0:0:0:0:
292,128,9164,2,0,L|402:122,1,103,2|0,1:0|0:0,0:0:0:0:
479,167,9456,1,0,0:0:0:0:
480,192,9554,6,0,L|486:302,1,103,2|2,1:0|0:0,0:0:0:0:
356,344,9846,1,2,0:0:0:0:
356,344,9943,2,0,P|300:360|256:344,1,103,0|2,1:0|1:0,0:0:0:0:
140,264,10236,1,0,0:0:0:0:
140,264,10333,2,0,P|108:248|64:248,1,51.5000000000002,0|0,1:0|0:0,0:0:0:0:
131,340,10528,2,0,P|158:340|180:329,1,51.5000000000002
307,283,10723,2,0,L|296:164,1,103,2|2,1:0|1:0,0:0:0:0:
392,84,11015,1,0,0:0:0:0:
416,104,11112,6,0,L|406:206,1,103,2|2,1:0|0:0,0:0:0:0:
485,294,11404,1,2,0:0:0:0:
485,294,11502,1,0,1:0:0:0:
260,344,11697,1,2,1:0:0:0:
112,260,11891,1,0,1:0:0:0:
97,227,11988,1,0,0:0:0:0:
88,192,12085,1,0,0:0:0:0:
87,156,12183,1,0,0:0:0:0:
92,120,12281,6,0,L|156:100,1,51.5000000000002,2|0,1:0|0:0,0:0:0:0:
220,116,12476,2,0,L|286:124,1,51.5000000000002,2|0,1:0|0:0,0:0:0:0:
392,80,12671,5,4,1:2:0:0:
411,99,12768,2,0,P|431:159|407:211,1,103,2|0,1:0|0:0,0:0:0:0:
342,251,13060,2,0,P|383:203|440:198,1,103,2|0,1:0|1:0,0:0:0:0:
496,264,13352,1,2,1:0:0:0:
496,264,13450,1,0,1:0:0:0:
271,122,13645,1,2,1:0:0:0:
140,264,13839,6,0,P|124:328|128:336,1,51.5000000000002,0|2,1:0|1:0,0:0:0:0:
172,360,14034,2,0,P|188:296|184:288,1,51.5000000000002,0|0,1:0|0:0,0:0:0:0:
48,352,14229,1,6,1:0:0:0:
56,324,26697,5,4,1:0:0:0:
208,192,26891,2,0,L|200:124,1,38.6250014734271,2|0,0:0|0:0,0:0:0:0:
192,212,27086,2,0,L|284:216,1,77.2500029468541,4|2,1:3|0:0,0:0:0:0:
352,296,27476,5,0,1:3:0:0:
152,288,27671,1,2,0:0:0:0:
160,88,27865,1,4,1:3:0:0:
360,96,28060,6,0,B|348:72|348:72|476:80,1,154.500005893708,2|2,1:0|1:0,0:0:0:0:
404,160,28547,5,0,0:0:0:0:
361,171,28645,2,0,P|317:159|293:123,1,77.2500029468541,4|2,1:3|0:0,0:0:0:0:
420,160,28937,5,0,0:0:0:0:
394,196,29035,2,0,P|352:215|311:202,1,77.2500029468541,2|2,1:0|0:0,0:0:0:0:
432,160,29326,5,0,0:0:0:0:
435,204,29424,2,0,P|415:245|375:262,1,77.2500029468541,2|2,1:0|0:0,0:0:0:0:
296,308,29716,1,0,0:0:0:0:
296,308,29813,5,4,1:2:0:0:
80,192,30008,2,0,L|76:104,2,77.2500029468541,2|4|2,0:0|1:3|0:0,0:0:0:0:
40,288,30593,5,0,1:0:0:0:
152,232,30787,1,2,0:0:0:0:
256,296,30982,1,4,1:3:0:0:
420,208,31177,2,0,P|444:156|424:60,1,154.500005893708,2|2,1:0|1:0,0:0:0:0:
320,32,31664,5,0,0:0:0:0:
288,64,31762,2,0,L|200:60,1,77.2500029468541,4|2,1:3|1:0,0:0:0:0:
210,60,32054,1,0,0:0:0:0:
210,60,32151,1,2,1:0:0:0:
340,192,32346,6,0,L|296:190,1,38.6250014734271,0|0,1:0|1:0,0:0:0:0:
172,192,32541,2,0,L|210:190,1,38.6250014734271,2|0,1:0|1:0,0:0:0:0:
256,252,32736,1,4,1:3:0:0:
48,112,32930,5,4,1:2:0:0:
0,296,33125,1,2,0:0:0:0:
12,324,33222,1,0,0:0:0:0:
32,344,33320,1,4,1:3:0:0:
256,328,33515,1,2,0:0:0:0:
57,188,33710,2,0,L|45:96,2,77.2500029468541,0|2|4,1:0|0:0|1:3,0:0:0:0:
96,48,34294,6,0,P|164:28|212:88,1,154.500005893708,2|2,1:0|1:0,0:0:0:0:
304,88,34781,1,0,0:0:0:0:
320,96,34878,2,0,P|388:104|428:88,1,77.2500029468541,4|2,1:3|1:0,0:0:0:0:
140,184,35268,2,0,P|113:121|79:95,1,77.2500029468541,2|2,1:0|0:0,0:0:0:0:
307,295,35658,2,0,P|266:350|260:392,1,77.2500029468541,2|0,1:0|1:0,0:0:0:0:
263,357,35950,1,0,0:0:0:0:
263,357,36047,1,4,1:2:0:0:
44,276,36242,6,0,L|212:268,1,154.500005893708,2|2,1:0|1:0,0:0:0:0:
108,116,36826,1,0,1:0:0:0:
198,268,37021,1,2,1:0:0:0:
108,116,37216,1,4,1:3:0:0:
284,46,37411,5,2,1:0:0:0:
307,48,37508,1,4,1:3:0:0:
330,50,37606,1,0,1:0:0:0:
445,107,37800,5,0,1:0:0:0:
413,110,37897,1,0,0:0:0:0:
380,112,37995,1,2,1:0:0:0:
232,160,38190,5,4,1:3:0:0:
276,163,38287,1,0,1:0:0:0:
320,167,38385,1,2,1:0:0:0:
463,240,38580,5,4,1:2:0:0:
407,243,38677,1,0,1:0:0:0:
352,248,38774,2,0,P|340:292|344:312,1,38.6250014734271,2|8,1:0|3:0,0:0:0:0:
256,312,38969,2,0,P|278:351|295:362,1,38.6250014734271,2|0,1:0|0:0,0:0:0:0:
140,260,39164,6,0,P|120:192|84:296,1,265.740004054872,6|0,1:0|0:0,0:0:0:0:
184,160,39943,6,0,P|144:124|105:113,2,88.580001351624,0|2|4,1:0|0:0|1:3,0:0:0:0:
320,92,40528,1,2,0:0:0:0:
416,192,40723,6,0,L|400:288,1,88.580001351624,2|2,1:0|0:0,0:0:0:0:
368,336,41015,1,2,0:0:0:0:
308,308,41112,2,0,L|293:220,1,88.580001351624,4|2,1:3|0:0,0:0:0:0:
250,166,41404,1,2,0:0:0:0:
192,204,41502,2,0,L|176:300,1,88.580001351624,2|0,1:0|1:0,0:0:0:0:
136,344,41794,1,0,1:0:0:0:
72,344,41891,2,0,L|57:256,1,88.580001351624,4|8,1:3|1:3,0:0:0:0:
20,192,42184,1,0,0:0:0:0:
33,177,42281,5,6,1:2:0:0:
169,104,42476,1,2,0:0:0:0:
192,76,42573,1,2,0:0:0:0:
214,47,42671,1,4,1:3:0:0:
416,120,42865,5,2,1:0:0:0:
256,196,43060,2,0,P|248:248|256:288,2,88.580001351624,0|2|4,1:0|1:0|1:3,0:0:0:0:
344,300,43645,1,2,1:0:0:0:
164,340,43839,5,0,1:0:0:0:
416,340,44034,1,2,0:0:0:0:
424,300,44132,1,2,0:0:0:0:
432,260,44229,1,4,1:3:0:0:
412,124,44424,1,2,1:0:0:0:
420,84,44522,1,2,0:0:0:0:
428,44,44619,1,2,1:0:0:0:
340,192,44813,6,0,P|316:200|292:196,1,44.290000675812,0|0,1:0|1:0,0:0:0:0:
214,264,45008,2,0,P|217:243|232:224,1,44.290000675812,4|0,1:3|0:0,0:0:0:0:
214,119,45203,2,0,P|233:139|242:158,1,44.290000675812,8|0,1:3|0:0,0:0:0:0:
176,180,45398,6,0,L|84:176,1,88.580001351624,4|2,1:2|0:0,0:0:0:0:
40,240,45690,1,2,0:0:0:0:
40,240,45787,1,4,1:3:0:0:
312,128,45982,1,2,1:0:0:0:
388,280,46177,6,0,L|372:376,2,88.580001351624,0|2|2,1:0|1:0|1:0,0:0:0:0:
412,128,46762,1,2,1:0:0:0:
256,60,46956,6,0,P|184:64|144:96,1,88.580001351624,4|2,3:0|0:0,0:0:0:0:
136,128,47249,1,0,0:0:0:0:
124,192,47346,2,0,P|128:264|160:304,1,88.580001351624,2|0,1:0|0:0,0:0:0:0:
191,316,47638,1,0,0:0:0:0:
256,324,47735,2,0,P|328:320|368:288,1,88.580001351624,2|2,1:0|1:0,0:0:0:0:
387,257,48028,1,0,0:0:0:0:
388,192,48125,2,0,P|385:151|367:128,1,44.290000675812,0|0,1:0|1:0,0:0:0:0:
308,200,48320,2,0,P|310:240|328:263,1,44.290000675812,2|2,0:0|0:0,0:0:0:0:
220,132,48515,5,4,1:2:0:0:
40,192,48710,1,2,0:0:0:0:
43,206,48807,1,0,0:0:0:0:
46,221,48904,1,4,3:0:0:0:
121,311,49099,5,0,0:0:0:0:
127,284,49196,1,0,0:0:0:0:
132,259,49293,1,4,1:2:0:0:
200,116,49489,5,0,0:0:0:0:
206,146,49586,1,0,0:0:0:0:
213,180,49684,1,4,3:3:0:0:
296,328,49878,5,0,0:0:0:0:
304,284,49975,1,0,0:0:0:0:
313,244,50072,1,4,1:2:0:0:
360,48,50268,5,0,0:0:0:0:
367,91,50365,1,0,0:0:0:0:
377,139,50463,1,4,3:0:0:0:
480,192,50657,5,2,1:0:0:0:
256,136,50851,1,4,1:3:0:0:
360,48,51047,1,2,1:0:0:0:
313,244,51242,1,2,1:0:0:0:
32,192,51437,1,2,1:0:0:0:
188,328,51632,6,0,P|232:330|286:294,1,88.580001351624,2|2,1:0|0:0,0:0:0:0:
313,244,51924,1,2,0:0:0:0:
313,244,52021,6,0,L|320:155,1,88.580001351624,4|2,1:3|0:0,0:0:0:0:
198,139,52313,1,2,0:0:0:0:
198,139,52411,6,0,L|191:51,1,88.580001351624,2|2,1:0|1:0,0:0:0:0:
256,16,52703,1,0,0:0:0:0:
256,16,52800,1,2,1:0:0:0:
432,192,52995,1,0,1:0:0:0:
188,328,53190,6,0,P|136:324|104:296,1,77.2500000000004,6|0,1:0|0:0,0:0:0:0:
168,260,53580,6,0,P|183:210|237:256,1,132.870002027436,6|0,1:0|0:0,0:0:0:0:
288,296,53969,6,0,B|316:272|312:231|312:231|360:272|412:249,1,177.675003388883,6|0,1:0|0:0,0:0:0:0:
376,184,54359,1,6,1:0:0:0:
376,184,54554,1,6,1:0:0:0:
216,360,54749,6,0,L|152:356,1,51.5000000000002,6|0,1:0|0:0,0:0:0:0:
100,260,54943,2,0,L|36:264,1,51.5000000000002,6|0,1:0|0:0,0:0:0:0:
67,135,55138,1,0,1:0:0:0:
90,101,55235,1,0,0:0:0:0:
125,81,55332,1,0,1:0:0:0:
166,77,55430,1,2,1:0:0:0:
205,92,55528,6,0,P|239:99|275:87,1,51.5000000000002,0|2,0:0|1:0,0:0:0:0:
327,55,55723,1,0,1:0:0:0:
403,91,55820,2,0,P|431:135|423:203,1,103,2|0,1:0|0:0,0:0:0:0:
348,312,56112,5,2,1:0:0:0:
313,331,56210,1,0,1:0:0:0:
276,348,56307,2,0,L|152:340,1,103,2|2,1:0|1:0,0:0:0:0:
76,356,56599,2,0,L|68:232,1,103,0|2,1:0|1:0,0:0:0:0:
0,196,56891,2,0,P|16:176|44:168,1,51.5000000000002,0|2,0:0|1:0,0:0:0:0:
156,100,57086,6,0,P|188:108|232:108,1,51.5000000000002,2|0,1:0|0:0,0:0:0:0:
305,109,57281,2,0,P|330:106|355:99,1,51.5000000000002,0|0,1:0|0:0,0:0:0:0:
473,168,57476,6,0,L|469:236,1,51.5000000000002,4|0,1:2|0:0,0:0:0:0:
396,336,57671,2,0,L|392:284,1,51.5000000000002,4|0,1:2|0:0,0:0:0:0:
284,236,57865,5,6,1:0:0:0:
246,214,57962,1,0,0:0:0:0:
205,217,58059,1,0,1:0:0:0:
174,245,58157,1,2,1:0:0:0:
149,279,58255,5,2,1:0:0:0:
117,306,58353,1,0,0:0:0:0:
76,309,58450,1,0,1:0:0:0:
38,287,58547,1,2,1:0:0:0:
16,248,58645,6,0,L|12:195,2,51.5000000000002,2|0|0,1:0|0:0|0:0,0:0:0:0:
80,88,58937,2,0,P|128:80|187:95,1,103,2|2,1:0|1:0,0:0:0:0:
256,36,59229,2,0,P|280:36|307:30,1,51.5000000000002
440,104,59424,6,0,L|432:180,1,51.5000000000002,6|0,1:0|0:0,0:0:0:0:
324,236,59619,2,0,L|316:168,1,51.5000000000002,0|0,1:0|0:0,0:0:0:0:
470,285,59813,1,2,1:0:0:0:
470,285,60008,6,0,L|462:365,1,51.5000000000002,6|0,1:0|0:0,0:0:0:0:
336,244,60203,2,0,L|328:176,1,51.5000000000002,2|0,1:0|0:0,0:0:0:0:
224,296,60398,2,0,L|218:347,1,51.5000000000002,2|0,1:0|0:0,0:0:0:0:
100,236,60593,1,0,1:0:0:0:
77,189,60690,1,0,1:0:0:0:
70,139,60787,1,0,1:0:0:0:
80,88,60885,1,0,1:0:0:0:
116,52,60982,6,0,L|180:48,1,51.5000000000002,6|0,1:0|0:0,0:0:0:0:
345,48,61177,2,0,L|397:52,1,51.5000000000002,0|2,1:0|1:0,0:0:0:0:
256,112,61371,5,0,0:0:0:0:
256,112,61469,1,0,1:0:0:0:
256,112,61567,1,2,1:0:0:0:
387,329,61762,5,0,1:0:0:0:
387,329,61859,2,0,P|445:329|500:288,1,103,2|2,1:0|1:0,0:0:0:0:
368,256,62151,2,0,P|318:295|316:313,1,51.5000000000002,0|0,1:0|0:0,0:0:0:0:
187,280,62346,2,0,P|168:262|144:256,1,51.5000000000002,0|0,1:0|0:0,0:0:0:0:
132,376,62541,6,0,L|124:320,1,51.5000000000002,2|0,1:0|0:0,0:0:0:0:
52,144,62736,2,0,L|44:200,1,51.5000000000002,0|0,1:0|0:0,0:0:0:0:
194,330,62930,2,0,L|186:274,1,51.5000000000002,2|0,1:0|0:0,0:0:0:0:
128,116,63125,2,0,L|120:172,1,51.5000000000002,0|0,1:0|0:0,0:0:0:0:
300,292,63320,5,2,1:0:0:0:
357,313,63417,1,0,1:0:0:0:
419,306,63515,1,0,1:0:0:0:
468,272,63612,2,0,P|488:208|484:152,1,103,2|0,1:0|0:0,0:0:0:0:
411,63,63904,2,0,P|387:55|359:55,1,51.5000000000002,2|2,1:0|1:0,0:0:0:0:
200,108,64099,6,0,L|80:104,1,103,6|0,1:0|0:0,0:0:0:0:
32,176,64391,1,0,1:0:0:0:
48,188,64489,2,0,L|161:190,1,103,2|0,1:0|0:0,0:0:0:0:
212,236,64781,1,2,1:0:0:0:
200,248,64879,6,0,P|181:295|182:347,1,103,0|0,1:0|0:0,0:0:0:0:
256,376,65170,1,0,1:0:0:0:
330,346,65268,2,0,P|331:295|312:248,1,103,2|0,1:0|0:0,0:0:0:0:
427,68,65658,6,0,L|323:64,1,103,6|0,1:0|0:0,0:0:0:0:
256,32,65950,1,0,1:0:0:0:
188,64,66047,2,0,L|86:68,1,103,2|0,1:0|0:0,0:0:0:0:
28,112,66339,1,2,1:0:0:0:
36,152,66437,1,0,1:0:0:0:
36,232,66632,1,2,1:0:0:0:
28,272,66729,1,0,0:0:0:0:
40,312,66826,5,4,1:2:0:0:
256,192,67021,1,0,0:0:0:0:
176,64,67216,5,0,1:0:0:0:
139,63,67313,1,0,1:0:0:0:
104,66,67410,1,0,1:0:0:0:
68,72,67508,1,0,1:0:0:0:
34,82,67605,1,4,1:2:0:0:
336,320,67800,5,0,1:0:0:0:
373,321,67897,1,0,1:0:0:0:
408,318,67994,1,0,1:0:0:0:
444,312,68092,1,0,1:0:0:0:
478,302,68189,1,4,1:2:0:0:
128,192,68385,5,0,1:0:0:0:
127,228,68482,1,0,1:0:0:0:
130,263,68579,1,0,1:0:0:0:
136,299,68677,1,0,1:0:0:0:
146,333,68774,1,4,1:2:0:0:
384,192,68969,5,0,1:0:0:0:
384,155,69066,1,0,1:0:0:0:
381,120,69163,1,0,1:0:0:0:
375,84,69261,1,0,1:0:0:0:
365,50,69358,1,4,1:2:0:0:
256,192,69554,5,0,1:0:0:0:
256,192,69651,1,0,1:0:0:0:
256,192,69749,1,2,1:0:0:0:
76,140,69943,1,2,1:0:0:0:
372,56,70138,1,2,1:0:0:0:
372,56,70236,1,0,1:0:0:0:
372,56,70333,1,4,1:2:0:0:
