osu file format v14

[General]
AudioFilename: audio.mp3
AudioLeadIn: 0
PreviewTime: 52879
Countdown: 0
SampleSet: Soft
StackLeniency: 0.7
Mode: 3
LetterboxInBreaks: 0
SpecialStyle: 0
WidescreenStoryboard: 0

[Editor]
Bookmarks: 477,12944,25412,37879,47230,51905,53464,62814,69048
DistanceSpacing: 1
BeatDivisor: 4
GridSize: 4
TimelineZoom: 0.8

[Metadata]
Title:Rampage (Cut Ver.)
TitleUnicode:ランペイジ (Cut Ver.)
Artist:paraoka feat. haru*nya
ArtistUnicode:paraoka feat. haru*nya
Creator:Garalulu
Version:Easy
Source:
Tags:ぱらおか マテリアル material 麹町養蚕館 Koujimachi Yousankan c71 comiket 71 japanese pop jpop
BeatmapID:2629456
BeatmapSetID:1265207

[Difficulty]
HPDrainRate:6.5
CircleSize:9
OverallDifficulty:6.5
ApproachRate:10
SliderMultiplier:1.4
SliderTickRate:1

[Events]
//Background and Video events
0,0,"rampage.jpg",0,0
//Break Periods
//Storyboard Layer 0 (Background)
//Storyboard Layer 1 (Fail)
//Storyboard Layer 2 (Pass)
//Storyboard Layer 3 (Foreground)
//Storyboard Layer 4 (Overlay)
//Storyboard Sound Samples

[TimingPoints]
477,389.61038961039,4,2,1,70,1,0
51905,-100,4,2,1,70,0,1
52100,-100,4,2,1,70,0,0
52295,-100,4,2,1,70,0,1
52489,-100,4,2,1,70,0,0
52684,-100,4,2,1,70,0,1
52879,-100,4,2,1,70,0,0
53074,-100,4,2,1,70,0,1
53269,-100,4,2,1,70,0,0
53464,-100,4,2,1,70,0,1
58528,-100,4,2,1,70,0,0
58723,-100,4,2,1,70,0,1
59113,-100,4,2,1,70,0,0
59697,-100,4,2,1,70,0,1
66321,-100,4,2,1,70,0,0
66515,-100,4,2,1,70,0,1
66905,-100,4,2,1,70,0,0
67100,-100,4,2,1,70,0,1
67489,-100,4,2,1,70,0,0
67684,-100,4,2,1,70,0,1
68074,-100,4,2,1,70,0,0
68269,-100,4,2,1,70,0,1
69048,-100,4,2,1,70,0,0

[HitObjects]
28,192,477,5,8,0:0:0:0:
369,192,477,1,0,0:0:0:70:finish.wav
256,192,866,1,8,0:0:0:0:
483,192,1256,1,8,0:0:0:0:
369,192,1645,1,8,0:0:0:0:
85,192,2035,1,8,0:0:0:0:
199,192,2425,1,8,0:0:0:0:
426,192,2814,1,8,0:0:0:0:
312,192,3204,1,8,0:0:0:0:
28,192,3593,1,8,0:0:0:0:
142,192,3983,1,8,0:0:0:0:
369,192,4373,1,8,0:0:0:0:
256,192,4762,1,8,0:0:0:0:
312,192,5152,1,8,0:0:0:0:
85,192,5541,1,8,0:0:0:0:
426,192,5931,1,8,0:0:0:0:
256,192,6321,1,8,0:0:0:0:
369,192,6515,1,8,0:0:0:0:
142,192,6710,1,8,0:0:0:0:
483,192,6710,1,0,0:0:0:70:finish.wav
28,192,7100,1,8,0:0:0:0:
369,192,7489,1,8,0:0:0:0:
199,192,7879,1,8,0:0:0:0:
312,192,8269,1,8,0:0:0:0:
426,192,8658,1,8,0:0:0:0:
85,192,9048,1,8,0:0:0:0:
483,192,9438,1,8,0:0:0:0:
256,192,9827,1,8,0:0:0:0:
142,192,10217,1,8,0:0:0:0:
483,192,10606,1,8,0:0:0:0:
312,192,10996,1,8,0:0:0:0:
199,192,11191,1,0,0:0:0:70:kick.wav
85,192,11386,1,8,0:0:0:0:
426,192,11386,1,0,0:0:0:70:finish.wav
256,192,11775,1,8,0:0:0:0:
85,192,12165,1,8,0:0:0:0:
426,192,12165,1,0,0:0:0:0:
142,192,12554,1,8,0:0:0:0:
369,192,12554,1,0,0:0:0:70:clap.wav
28,192,12944,1,4,0:0:0:0:
483,192,12944,1,8,0:0:0:0:
142,192,13334,1,8,0:0:0:0:
369,192,13723,1,8,0:0:0:0:
369,192,14113,1,8,0:0:0:0:
483,192,14113,1,0,0:0:0:0:
199,192,14502,1,8,0:0:0:0:
199,192,14892,1,8,0:0:0:0:
85,192,14892,1,0,0:0:0:0:
312,192,15282,1,8,0:0:0:0:
426,192,15671,1,8,0:0:0:0:
142,192,16061,1,8,0:0:0:0:
28,192,16451,1,8,0:0:0:0:
369,192,16840,1,8,0:0:0:0:
483,192,17230,1,8,0:0:0:0:
369,192,17230,1,0,0:0:0:0:
85,192,17619,1,8,0:0:0:0:
199,192,17619,1,0,0:0:0:0:
256,192,18009,1,8,0:0:0:0:
369,192,18009,1,0,0:0:0:0:
28,192,18399,1,8,0:0:0:0:
142,192,18399,1,0,0:0:0:0:
312,192,18788,1,8,0:0:0:0:
426,192,18788,1,0,0:0:0:70:clap.wav
199,192,18983,1,0,0:0:0:70:kick.wav
369,192,19178,1,8,0:0:0:0:
483,192,19567,1,8,0:0:0:0:
142,192,19957,1,8,0:0:0:0:
256,192,19957,1,0,0:0:0:0:
142,192,20347,1,8,0:0:0:0:
312,192,20736,1,8,0:0:0:0:
426,192,20736,1,0,0:0:0:0:
426,192,21126,1,8,0:0:0:0:
85,192,21515,1,8,0:0:0:0:
199,192,21905,1,8,0:0:0:0:
256,192,22295,1,8,0:0:0:0:
369,192,22295,1,0,0:0:0:0:
256,192,22684,1,8,0:0:0:0:
142,192,23074,1,8,0:0:0:0:
28,192,23074,1,0,0:0:0:0:
312,192,23464,1,8,0:0:0:0:
199,192,23658,1,0,0:0:0:70:kick.wav
312,192,23853,1,0,0:0:0:70:kick.wav
426,192,23853,1,0,0:0:0:0:
85,192,24243,1,0,0:0:0:70:kick.wav
369,192,24438,1,0,0:0:0:70:kick.wav
483,192,24438,1,0,0:0:0:0:
28,192,24827,1,0,0:0:0:70:kick.wav
256,192,25022,1,8,0:0:0:0:
369,192,25022,1,0,0:0:0:0:
28,192,25412,1,8,0:0:0:0:
142,192,25412,1,0,0:0:0:70:finish.wav
199,192,25801,1,10,0:0:0:0:
426,192,26191,1,10,0:0:0:0:
312,192,26580,1,10,0:0:0:0:
483,192,26970,1,8,0:0:0:0:
85,192,27165,1,2,0:0:0:0:
199,192,27360,1,10,0:0:0:0:
312,192,27554,1,2,0:0:0:0:
426,192,27749,1,10,0:0:0:0:
85,192,28139,1,10,0:0:0:0:
312,192,28528,1,8,0:0:0:0:
142,192,28918,1,10,0:0:0:0:
28,192,29308,1,10,0:0:0:0:
256,192,29697,1,10,0:0:0:0:
85,192,30087,1,8,0:0:0:0:
369,192,30282,1,2,0:0:0:0:
256,192,30477,1,10,0:0:0:0:
142,192,30671,1,2,0:0:0:0:
28,192,30866,1,10,0:0:0:0:
483,192,31256,1,10,0:0:0:0:
142,192,31645,1,8,0:0:0:0:
426,192,32035,1,10,0:0:0:0:
312,192,32425,1,10,0:0:0:0:
85,192,32814,1,10,0:0:0:0:
369,192,33204,1,8,0:0:0:0:
85,192,33399,1,2,0:0:0:0:
199,192,33593,1,10,0:0:0:0:
426,192,33788,1,2,0:0:0:0:
312,192,33983,1,10,0:0:0:0:
28,192,34373,1,10,0:0:0:0:
312,192,34762,1,8,0:0:0:0:
85,192,35152,1,8,0:0:0:0:
483,192,35541,1,10,0:0:0:0:
369,192,35736,1,2,0:0:0:0:
142,192,35931,1,10,0:0:0:0:
28,192,36126,1,10,0:0:0:0:
426,192,36321,1,8,0:0:0:0:
142,192,36710,1,8,0:0:0:0:
312,192,36710,1,2,0:0:0:0:
28,192,37100,1,8,0:0:0:0:
426,192,37100,1,2,0:0:0:0:
142,192,37489,1,8,0:0:0:0:
312,192,37489,1,2,0:0:0:0:
256,192,37879,1,10,0:0:0:0:
483,192,38269,1,0,0:0:0:70:clap2.wav
142,192,38658,1,10,0:0:0:0:
256,192,38853,1,2,0:0:0:0:
369,192,39048,1,0,0:0:0:70:clap2.wav
483,192,39243,1,2,0:0:0:0:
199,192,39438,1,8,0:0:0:0:
85,192,39827,1,0,0:0:0:70:clap2.wav
369,192,40022,1,2,0:0:0:0:
142,192,40217,1,10,0:0:0:0:
199,192,40606,1,0,0:0:0:70:clap2.wav
426,192,40996,1,8,0:0:0:0:
85,192,41386,1,0,0:0:0:70:clap2.wav
369,192,41775,1,10,0:0:0:0:
256,192,41970,1,2,0:0:0:0:
142,192,42165,1,0,0:0:0:70:clap2.wav
28,192,42360,1,2,0:0:0:0:
312,192,42554,1,8,0:0:0:0:
426,192,42944,1,0,0:0:0:70:clap2.wav
142,192,43139,1,2,0:0:0:0:
369,192,43334,1,10,0:0:0:0:
312,192,43723,1,0,0:0:0:70:clap2.wav
85,192,44113,1,8,0:0:0:0:
426,192,44502,1,0,0:0:0:70:clap2.wav
142,192,44892,1,10,0:0:0:0:
256,192,45087,1,2,0:0:0:0:
369,192,45282,1,0,0:0:0:70:clap2.wav
483,192,45477,1,2,0:0:0:0:
85,192,45671,1,8,0:0:0:0:
312,192,46061,1,0,0:0:0:70:clap2.wav
199,192,46451,1,10,0:0:0:0:
85,192,46645,1,0,0:0:0:70:clap3.wav
312,192,46840,1,10,0:0:0:0:
426,192,47035,1,0,0:0:0:70:kick.wav
199,192,47230,1,8,0:0:0:0:
199,192,47619,1,0,0:0:0:70:clap2.wav
426,192,48009,1,8,0:0:0:0:
426,192,48399,1,0,0:0:0:70:clap2.wav
85,192,48788,1,8,0:0:0:0:
85,192,49178,1,0,0:0:0:70:clap2.wav
369,192,49567,1,10,0:0:0:0:
256,192,49762,1,0,0:0:0:70:kick.wav
28,192,49957,1,0,0:0:0:70:clap2.wav
142,192,50152,1,0,0:0:0:70:kick.wav
369,192,50347,1,8,0:0:0:0:
369,192,50736,1,0,0:0:0:70:clap2.wav
28,192,51126,1,8,0:0:0:0:
28,192,51515,1,0,0:0:0:70:clap2.wav
142,192,51710,1,8,0:0:0:0:
256,192,51905,1,8,0:0:0:0:
483,192,51905,1,0,0:0:0:70:clap3.wav
369,192,52295,1,0,0:0:0:70:clap3.wav
256,192,52684,1,8,0:0:0:0:
483,192,52684,1,0,0:0:0:70:clap3.wav
369,192,53074,1,0,0:0:0:70:clap3.wav
28,192,53464,1,10,0:0:0:0:
369,192,53464,1,0,0:0:0:70:finish.wav
142,192,53658,1,2,0:0:0:0:
256,192,53853,1,10,0:0:0:0:
28,192,54048,1,2,0:0:0:0:
312,192,54243,1,10,0:0:0:0:
312,192,54632,1,8,0:0:0:0:
85,192,55022,1,2,0:0:0:0:
426,192,55022,1,8,0:0:0:0:
312,192,55217,1,2,0:0:0:0:
199,192,55412,1,8,0:0:0:0:
426,192,55606,1,2,0:0:0:0:
142,192,55801,1,10,0:0:0:0:
256,192,56191,1,8,0:0:0:0:
142,192,56580,1,2,0:0:0:0:
483,192,56580,1,8,0:0:0:0:
369,192,56775,1,2,0:0:0:0:
256,192,56970,1,10,0:0:0:0:
483,192,57165,1,2,0:0:0:0:
199,192,57360,1,10,0:0:0:0:
199,192,57749,1,8,0:0:0:0:
28,192,58139,1,2,0:0:0:0:
426,192,58139,1,8,0:0:0:0:
312,192,58528,1,10,0:0:0:0:
28,192,58723,1,2,0:0:0:0:
426,192,58723,1,0,0:0:0:0:
142,192,59113,1,0,0:0:0:70:clap.wav
28,192,59308,1,0,0:0:0:70:kick.wav
426,192,59308,1,0,0:0:0:0:
256,192,59697,1,10,0:0:0:0:
483,192,59697,1,0,0:0:0:70:finish.wav
142,192,59892,1,2,0:0:0:0:
312,192,60087,1,10,0:0:0:0:
199,192,60477,1,10,0:0:0:0:
199,192,60866,1,10,0:0:0:0:
312,192,61061,1,2,0:0:0:0:
28,192,61256,1,8,0:0:0:0:
426,192,61256,1,2,0:0:0:0:
28,192,61645,1,10,0:0:0:0:
142,192,61840,1,2,0:0:0:0:
256,192,62035,1,10,0:0:0:0:
256,192,62425,1,8,0:0:0:0:
369,192,62619,1,2,0:0:0:0:
85,192,62814,1,2,0:0:0:0:
483,192,62814,1,8,0:0:0:0:
312,192,63204,1,8,0:0:0:0:
85,192,63593,1,8,0:0:0:0:
199,192,63593,1,0,0:0:0:0:
312,192,63983,1,10,0:0:0:0:
85,192,64178,1,0,0:0:0:70:kick.wav
312,192,64373,1,2,0:0:0:0:
426,192,64373,1,8,0:0:0:0:
199,192,64762,1,8,0:0:0:0:
426,192,65152,1,8,0:0:0:0:
312,192,65152,1,0,0:0:0:0:
199,192,65541,1,10,0:0:0:0:
426,192,65736,1,0,0:0:0:70:kick.wav
85,192,65931,1,2,0:0:0:0:
199,192,65931,1,0,0:0:0:70:kick.wav
85,192,66321,1,0,0:0:0:70:kick.wav
369,192,66515,1,2,0:0:0:0:
483,192,66515,1,0,0:0:0:70:kick.wav
483,192,66905,1,0,0:0:0:70:kick.wav
142,192,67100,1,2,0:0:0:0:
256,192,67100,1,0,0:0:0:70:kick.wav
142,192,67489,1,0,0:0:0:70:kick.wav
256,192,67684,1,2,0:0:0:0:
369,192,67684,1,0,0:0:0:70:kick.wav
369,192,68074,1,0,0:0:0:70:kick.wav
483,192,68269,1,0,0:0:0:70:kick.wav
28,192,68464,1,2,0:0:0:0:
142,192,68464,1,0,0:0:0:70:kick.wav
142,192,68853,1,0,0:0:0:70:kick.wav
369,192,69048,1,8,0:0:0:0:
483,192,69048,1,4,0:0:0:0:
