osu file format v14

[General]
AudioFilename: audio.mp3
AudioLeadIn: 0
PreviewTime: 52879
Countdown: 0
SampleSet: Soft
StackLeniency: 0.7
Mode: 3
LetterboxInBreaks: 0
SpecialStyle: 0
WidescreenStoryboard: 0

[Editor]
Bookmarks: 477,12944,25412,37879,47230,51905,53464,62814,69048
DistanceSpacing: 1
BeatDivisor: 4
GridSize: 4
TimelineZoom: 1.6

[Metadata]
Title:Rampage (Cut Ver.)
TitleUnicode:ランペイジ (Cut Ver.)
Artist:paraoka feat. haru*nya
ArtistUnicode:paraoka feat. haru*nya
Creator:Garalulu
Version:EX
Source:
Tags:ぱらおか マテリアル material 麹町養蚕館 Koujimachi Yousankan c71 comiket 71 japanese pop jpop
BeatmapID:2629457
BeatmapSetID:1265207

[Difficulty]
HPDrainRate:8.5
CircleSize:9
OverallDifficulty:8.5
ApproachRate:10
SliderMultiplier:1.4
SliderTickRate:1

[Events]
//Background and Video events
0,0,"rampage.jpg",0,0
//Break Periods
//Storyboard Layer 0 (Background)
//Storyboard Layer 1 (Fail)
//Storyboard Layer 2 (Pass)
//Storyboard Layer 3 (Foreground)
//Storyboard Layer 4 (Overlay)
//Storyboard Sound Samples

[TimingPoints]
477,389.61038961039,4,2,1,70,1,0
51905,-100,4,2,1,70,0,1
52100,-100,4,2,1,70,0,0
52295,-100,4,2,1,70,0,1
52489,-100,4,2,1,70,0,0
52684,-100,4,2,1,70,0,1
52879,-100,4,2,1,70,0,0
53074,-100,4,2,1,70,0,1
53269,-100,4,2,1,70,0,0
53464,-100,4,2,1,70,0,1
58528,-100,4,2,1,70,0,0
58723,-100,4,2,1,70,0,1
59113,-100,4,2,1,70,0,0
59697,-100,4,2,1,70,0,1
66321,-100,4,2,1,70,0,0
66515,-100,4,2,1,70,0,1
66905,-100,4,2,1,70,0,0
67100,-100,4,2,1,70,0,1
67489,-100,4,2,1,70,0,0
67684,-100,4,2,1,70,0,1
68074,-100,4,2,1,70,0,0
68269,-100,4,2,1,70,0,1
69048,-100,4,2,1,70,0,0

[HitObjects]
28,192,477,5,8,0:0:0:0:
142,192,477,1,0,0:0:0:70:finish.wav
312,192,477,1,0,0:0:0:0:
369,192,477,1,0,0:0:0:0:
426,192,477,1,0,0:0:0:0:
85,192,671,1,0,0:0:0:0:
312,192,671,1,0,0:0:0:0:
142,192,769,1,0,0:0:0:0:
28,192,866,1,8,0:0:0:0:
85,192,866,1,0,0:0:0:0:
256,192,866,1,0,0:0:0:0:
312,192,866,1,0,0:0:0:0:
256,192,1061,1,0,0:0:0:0:
312,192,1061,1,0,0:0:0:0:
369,192,1061,1,0,0:0:0:0:
28,192,1256,1,8,0:0:0:0:
85,192,1256,1,0,0:0:0:0:
369,192,1256,1,0,0:0:0:0:
483,192,1256,1,0,0:0:0:0:
199,192,1353,1,0,0:0:0:0:
85,192,1451,1,0,0:0:0:0:
369,192,1451,1,0,0:0:0:0:
199,192,1548,1,0,0:0:0:0:
142,192,1645,1,8,0:0:0:0:
256,192,1645,1,0,0:0:0:0:
312,192,1645,1,0,0:0:0:0:
369,192,1645,1,0,0:0:0:0:
28,192,1743,1,0,0:0:0:0:
199,192,1840,1,0,0:0:0:0:
312,192,1840,1,0,0:0:0:0:
199,192,2035,1,8,0:0:0:0:
369,192,2035,1,0,0:0:0:0:
426,192,2035,1,0,0:0:0:0:
483,192,2035,1,0,0:0:0:0:
142,192,2230,1,0,0:0:0:0:
369,192,2230,1,0,0:0:0:0:
199,192,2327,1,0,0:0:0:0:
85,192,2425,1,8,0:0:0:0:
142,192,2425,1,0,0:0:0:0:
256,192,2425,1,0,0:0:0:0:
369,192,2425,1,0,0:0:0:0:
312,192,2619,1,0,0:0:0:0:
369,192,2619,1,0,0:0:0:0:
426,192,2619,1,0,0:0:0:0:
28,192,2814,1,8,0:0:0:0:
142,192,2814,1,0,0:0:0:0:
312,192,2814,1,0,0:0:0:0:
426,192,2814,1,0,0:0:0:0:
256,192,2912,1,0,0:0:0:0:
142,192,3009,1,0,0:0:0:0:
426,192,3009,1,0,0:0:0:0:
256,192,3106,1,0,0:0:0:0:
199,192,3204,1,8,0:0:0:0:
312,192,3204,1,0,0:0:0:0:
369,192,3204,1,0,0:0:0:0:
426,192,3204,1,0,0:0:0:0:
85,192,3301,1,0,0:0:0:0:
256,192,3399,1,0,0:0:0:0:
369,192,3399,1,0,0:0:0:0:
142,192,3593,1,8,0:0:0:0:
256,192,3593,1,0,0:0:0:0:
426,192,3593,1,0,0:0:0:0:
483,192,3593,1,0,0:0:0:0:
199,192,3788,1,0,0:0:0:0:
426,192,3788,1,0,0:0:0:0:
256,192,3886,1,0,0:0:0:0:
142,192,3983,1,8,0:0:0:0:
199,192,3983,1,0,0:0:0:0:
369,192,3983,1,0,0:0:0:0:
426,192,3983,1,0,0:0:0:0:
369,192,4178,1,0,0:0:0:0:
426,192,4178,1,0,0:0:0:0:
483,192,4178,1,0,0:0:0:0:
85,192,4373,1,8,0:0:0:0:
142,192,4373,1,0,0:0:0:0:
199,192,4373,1,0,0:0:0:0:
483,192,4373,1,0,0:0:0:0:
312,192,4470,1,0,0:0:0:0:
199,192,4567,1,0,0:0:0:0:
483,192,4567,1,0,0:0:0:0:
312,192,4665,1,0,0:0:0:0:
256,192,4762,1,8,0:0:0:0:
369,192,4762,1,0,0:0:0:0:
426,192,4762,1,0,0:0:0:0:
483,192,4762,1,0,0:0:0:0:
142,192,4860,1,0,0:0:0:0:
312,192,4957,1,0,0:0:0:0:
426,192,4957,1,0,0:0:0:0:
28,192,5152,1,8,0:0:0:0:
142,192,5152,1,0,0:0:0:0:
312,192,5152,1,0,0:0:0:0:
256,192,5152,1,0,0:0:0:0:
85,192,5347,1,0,0:0:0:0:
256,192,5347,1,0,0:0:0:0:
28,192,5444,1,0,0:0:0:0:
85,192,5541,1,8,0:0:0:0:
142,192,5541,1,0,0:0:0:0:
256,192,5541,1,0,0:0:0:0:
369,192,5541,1,0,0:0:0:0:
199,192,5736,1,0,0:0:0:0:
256,192,5736,1,0,0:0:0:0:
312,192,5736,1,0,0:0:0:0:
28,192,5931,1,8,0:0:0:0:
85,192,5931,1,0,0:0:0:0:
312,192,5931,1,0,0:0:0:0:
426,192,5931,1,0,0:0:0:0:
142,192,6028,1,0,0:0:0:0:
28,192,6126,1,0,0:0:0:0:
256,192,6126,1,0,0:0:0:0:
369,192,6126,1,0,0:0:0:0:
142,192,6223,1,8,0:0:0:0:
312,192,6223,1,0,0:0:0:0:
85,192,6321,1,8,0:0:0:0:
199,192,6321,1,0,0:0:0:0:
426,192,6321,1,0,0:0:0:0:
483,192,6321,1,0,0:0:0:0:
312,192,6418,1,0,0:0:0:0:
199,192,6515,1,8,0:0:0:0:
256,192,6515,1,0,0:0:0:0:
369,192,6515,1,0,0:0:0:0:
426,192,6515,1,0,0:0:0:0:
28,192,6710,1,8,0:0:0:0:
85,192,6710,1,0,0:0:0:70:finish.wav
142,192,6710,1,0,0:0:0:0:
312,192,6710,1,0,0:0:0:0:
426,192,6710,1,0,0:0:0:0:
142,192,6905,1,0,0:0:0:0:
369,192,6905,1,0,0:0:0:0:
256,192,7002,1,0,0:0:0:0:
85,192,7100,1,8,0:0:0:0:
199,192,7100,1,0,0:0:0:0:
369,192,7100,1,0,0:0:0:0:
483,192,7100,1,0,0:0:0:0:
199,192,7295,1,0,0:0:0:0:
256,192,7295,1,0,0:0:0:0:
312,192,7295,1,0,0:0:0:0:
142,192,7489,1,8,0:0:0:0:
256,192,7489,1,0,0:0:0:0:
369,192,7489,1,0,0:0:0:0:
483,192,7489,1,0,0:0:0:0:
312,192,7587,1,0,0:0:0:0:
256,192,7684,1,0,0:0:0:0:
369,192,7684,1,0,0:0:0:0:
312,192,7782,1,0,0:0:0:0:
28,192,7879,1,8,0:0:0:0:
85,192,7879,1,0,0:0:0:0:
142,192,7879,1,0,0:0:0:0:
426,192,7879,1,0,0:0:0:0:
483,192,7977,1,0,0:0:0:0:
199,192,8074,1,0,0:0:0:0:
369,192,8074,1,0,0:0:0:0:
85,192,8269,1,8,0:0:0:0:
142,192,8269,1,0,0:0:0:0:
199,192,8269,1,0,0:0:0:0:
426,192,8269,1,0,0:0:0:0:
199,192,8464,1,0,0:0:0:0:
426,192,8464,1,0,0:0:0:0:
369,192,8561,1,0,0:0:0:0:
28,192,8658,1,8,0:0:0:0:
142,192,8658,1,0,0:0:0:0:
312,192,8658,1,0,0:0:0:0:
426,192,8658,1,0,0:0:0:0:
199,192,8853,1,0,0:0:0:0:
256,192,8853,1,0,0:0:0:0:
312,192,8853,1,0,0:0:0:0:
28,192,9048,1,8,0:0:0:0:
142,192,9048,1,0,0:0:0:0:
256,192,9048,1,0,0:0:0:0:
369,192,9048,1,0,0:0:0:0:
199,192,9145,1,0,0:0:0:0:
142,192,9243,1,0,0:0:0:0:
256,192,9243,1,0,0:0:0:0:
199,192,9340,1,0,0:0:0:0:
85,192,9438,1,8,0:0:0:0:
426,192,9438,1,0,0:0:0:0:
369,192,9438,1,0,0:0:0:0:
483,192,9438,1,0,0:0:0:0:
256,192,9535,1,0,0:0:0:0:
142,192,9632,1,0,0:0:0:0:
312,192,9632,1,0,0:0:0:0:
142,192,9827,1,8,0:0:0:0:
199,192,9827,1,0,0:0:0:0:
256,192,9827,1,0,0:0:0:0:
483,192,9827,1,0,0:0:0:0:
256,192,10022,1,0,0:0:0:0:
483,192,10022,1,0,0:0:0:0:
369,192,10119,1,0,0:0:0:0:
85,192,10217,1,8,0:0:0:0:
199,192,10217,1,0,0:0:0:0:
426,192,10217,1,0,0:0:0:0:
483,192,10217,1,0,0:0:0:0:
199,192,10412,1,0,0:0:0:0:
256,192,10412,1,0,0:0:0:0:
312,192,10412,1,0,0:0:0:0:
28,192,10606,1,8,0:0:0:0:
142,192,10606,1,0,0:0:0:0:
369,192,10606,1,0,0:0:0:0:
483,192,10606,1,0,0:0:0:0:
426,192,10704,1,0,0:0:0:0:
199,192,10801,1,0,0:0:0:0:
483,192,10801,1,0,0:0:0:0:
426,192,10899,1,0,0:0:0:0:
28,192,10996,1,8,0:0:0:0:
85,192,10996,1,0,0:0:0:0:
142,192,10996,1,0,0:0:0:0:
256,192,10996,1,0,0:0:0:0:
369,192,11093,1,0,0:0:0:0:
312,192,11191,1,0,0:0:0:70:kick.wav
483,192,11191,1,0,0:0:0:0:
256,192,11288,1,0,0:0:0:70:kick.wav
426,192,11288,1,0,0:0:0:0:
85,192,11386,1,8,0:0:0:0:
142,192,11386,1,0,0:0:0:70:finish.wav
312,192,11386,1,0,0:0:0:0:
369,192,11386,1,0,0:0:0:0:
28,192,11483,1,0,0:0:0:0:
199,192,11483,1,0,0:0:0:0:
142,192,11580,1,0,0:0:0:70:kick.wav
312,192,11580,1,0,0:0:0:0:
28,192,11678,1,0,0:0:0:0:
199,192,11678,1,0,0:0:0:0:
142,192,11775,1,8,0:0:0:0:
256,192,11775,1,0,0:0:0:0:
312,192,11775,1,0,0:0:0:0:
426,192,11775,1,0,0:0:0:0:
199,192,11970,1,0,0:0:0:70:kick.wav
256,192,11970,1,0,0:0:0:0:
369,192,11970,1,0,0:0:0:0:
483,192,11970,1,0,0:0:0:0:
199,192,12165,1,8,0:0:0:0:
312,192,12165,1,0,0:0:0:0:
483,192,12165,1,0,0:0:0:0:
199,192,12360,1,0,0:0:0:0:
312,192,12360,1,0,0:0:0:0:
483,192,12360,1,0,0:0:0:0:
199,192,12554,1,8,0:0:0:0:
256,192,12554,1,0,0:0:0:70:clap.wav
369,192,12554,1,0,0:0:0:0:
483,192,12554,1,0,0:0:0:0:
312,192,12652,1,0,0:0:0:70:kick.wav
426,192,12652,1,0,0:0:0:0:
256,192,12749,1,0,0:0:0:70:kick.wav
369,192,12749,1,0,0:0:0:0:
199,192,12847,1,0,0:0:0:70:kick.wav
312,192,12847,1,0,0:0:0:0:
28,192,12944,1,4,0:0:0:0:
85,192,12944,1,8,0:0:0:0:
142,192,12944,1,0,0:0:0:0:
426,192,12944,1,0,0:0:0:0:
483,192,12944,1,0,0:0:0:0:
199,192,13041,1,0,0:0:0:0:
369,192,13041,1,0,0:0:0:0:
142,192,13139,1,0,0:0:0:0:
312,192,13139,1,0,0:0:0:0:
256,192,13236,1,0,0:0:0:0:
426,192,13236,1,0,0:0:0:0:
85,192,13334,1,8,0:0:0:0:
199,192,13334,1,0,0:0:0:0:
369,192,13334,1,0,0:0:0:0:
483,192,13334,1,0,0:0:0:0:
256,192,13528,1,0,0:0:0:0:
369,192,13528,1,0,0:0:0:0:
28,192,13626,1,0,0:0:0:0:
142,192,13626,1,0,0:0:0:0:
199,192,13723,1,8,0:0:0:0:
426,192,13723,1,0,0:0:0:0:
312,192,13723,1,0,0:0:0:0:
28,192,13821,1,0,0:0:0:0:
142,192,13821,1,0,0:0:0:0:
256,192,13918,1,0,0:0:0:0:
369,192,13918,1,0,0:0:0:0:
142,192,14113,1,8,0:0:0:0:
312,192,14113,1,0,0:0:0:0:
369,192,14113,1,0,0:0:0:0:
426,192,14113,1,0,0:0:0:0:
85,192,14210,1,0,0:0:0:0:
256,192,14210,1,0,0:0:0:0:
369,192,14405,1,0,0:0:0:0:
483,192,14405,1,0,0:0:0:0:
28,192,14502,1,8,0:0:0:0:
142,192,14502,1,0,0:0:0:0:
312,192,14502,1,0,0:0:0:0:
369,192,14600,1,0,0:0:0:0:
483,192,14600,1,0,0:0:0:0:
85,192,14697,1,0,0:0:0:0:
199,192,14697,1,0,0:0:0:0:
28,192,14892,1,8,0:0:0:0:
85,192,14892,1,0,0:0:0:0:
142,192,14892,1,0,0:0:0:0:
256,192,14892,1,0,0:0:0:0:
312,192,14989,1,0,0:0:0:0:
426,192,14989,1,0,0:0:0:0:
28,192,15184,1,0,0:0:0:0:
199,192,15184,1,0,0:0:0:0:
85,192,15282,1,8,0:0:0:0:
256,192,15282,1,0,0:0:0:0:
312,192,15282,1,0,0:0:0:0:
369,192,15282,1,0,0:0:0:0:
85,192,15477,1,0,0:0:0:0:
199,192,15477,1,0,0:0:0:0:
483,192,15477,1,0,0:0:0:0:
256,192,15574,1,0,0:0:0:0:
142,192,15671,1,8,0:0:0:0:
312,192,15671,1,0,0:0:0:0:
369,192,15671,1,0,0:0:0:0:
426,192,15671,1,0,0:0:0:0:
142,192,15866,1,0,0:0:0:0:
256,192,15866,1,0,0:0:0:0:
483,192,15866,1,0,0:0:0:0:
312,192,15964,1,0,0:0:0:0:
199,192,16061,1,8,0:0:0:0:
369,192,16061,1,0,0:0:0:0:
426,192,16061,1,0,0:0:0:0:
483,192,16061,1,0,0:0:0:0:
85,192,16158,1,0,0:0:0:0:
256,192,16158,1,0,0:0:0:0:
142,192,16256,1,0,0:0:0:0:
312,192,16256,1,0,0:0:0:0:
28,192,16353,1,0,0:0:0:0:
199,192,16353,1,0,0:0:0:0:
85,192,16451,1,8,0:0:0:0:
142,192,16451,1,0,0:0:0:0:
256,192,16451,1,0,0:0:0:0:
369,192,16548,1,0,0:0:0:0:
483,192,16548,1,0,0:0:0:0:
312,192,16743,1,0,0:0:0:0:
426,192,16743,1,0,0:0:0:0:
28,192,16840,1,8,0:0:0:0:
85,192,16840,1,0,0:0:0:0:
199,192,16840,1,0,0:0:0:0:
312,192,16938,1,0,0:0:0:0:
369,192,16938,1,0,0:0:0:0:
28,192,17035,1,0,0:0:0:0:
256,192,17035,1,0,0:0:0:0:
85,192,17230,1,8,0:0:0:0:
142,192,17230,1,0,0:0:0:0:
199,192,17230,1,0,0:0:0:0:
369,192,17230,1,0,0:0:0:0:
312,192,17327,1,0,0:0:0:0:
483,192,17327,1,0,0:0:0:0:
256,192,17425,1,0,0:0:0:0:
142,192,17522,1,0,0:0:0:0:
256,192,17619,1,8,0:0:0:0:
369,192,17619,1,0,0:0:0:0:
426,192,17619,1,0,0:0:0:0:
483,192,17619,1,0,0:0:0:0:
28,192,17717,1,0,0:0:0:0:
199,192,17717,1,0,0:0:0:0:
142,192,17814,1,0,0:0:0:0:
312,192,17814,1,0,0:0:0:0:
256,192,17912,1,0,0:0:0:0:
426,192,17912,1,0,0:0:0:0:
312,192,18009,1,8,0:0:0:0:
369,192,18009,1,0,0:0:0:0:
483,192,18009,1,0,0:0:0:0:
85,192,18106,1,0,0:0:0:0:
256,192,18106,1,0,0:0:0:0:
199,192,18204,1,0,0:0:0:0:
369,192,18204,1,0,0:0:0:0:
312,192,18301,1,0,0:0:0:0:
483,192,18301,1,0,0:0:0:0:
256,192,18399,1,8,0:0:0:0:
369,192,18399,1,0,0:0:0:0:
426,192,18399,1,0,0:0:0:0:
28,192,18496,1,0,0:0:0:0:
199,192,18496,1,0,0:0:0:0:
142,192,18593,1,0,0:0:0:70:kick.wav
312,192,18593,1,0,0:0:0:0:
256,192,18691,1,0,0:0:0:70:kick.wav
426,192,18691,1,0,0:0:0:0:
85,192,18788,1,8,0:0:0:0:
142,192,18788,1,0,0:0:0:70:clap.wav
199,192,18788,1,0,0:0:0:0:
312,192,18788,1,0,0:0:0:0:
369,192,18886,1,0,0:0:0:70:kick.wav
483,192,18886,1,0,0:0:0:0:
85,192,18983,1,0,0:0:0:70:kick.wav
199,192,18983,1,0,0:0:0:0:
369,192,19080,1,0,0:0:0:70:kick.wav
483,192,19080,1,0,0:0:0:0:
28,192,19178,1,8,0:0:0:0:
142,192,19178,1,0,0:0:0:0:
256,192,19178,1,0,0:0:0:0:
312,192,19178,1,0,0:0:0:0:
28,192,19373,1,0,0:0:0:0:
256,192,19373,1,0,0:0:0:0:
312,192,19470,1,0,0:0:0:0:
426,192,19470,1,0,0:0:0:0:
85,192,19567,1,8,0:0:0:0:
142,192,19567,1,0,0:0:0:0:
199,192,19567,1,0,0:0:0:0:
312,192,19665,1,0,0:0:0:0:
426,192,19665,1,0,0:0:0:0:
28,192,19860,1,0,0:0:0:0:
142,192,19860,1,0,0:0:0:0:
256,192,19957,1,8,0:0:0:0:
312,192,19957,1,0,0:0:0:0:
369,192,19957,1,0,0:0:0:0:
28,192,20054,1,0,0:0:0:0:
142,192,20054,1,0,0:0:0:0:
85,192,20152,1,0,0:0:0:0:
199,192,20152,1,0,0:0:0:0:
142,192,20347,1,8,0:0:0:0:
312,192,20347,1,0,0:0:0:0:
369,192,20347,1,0,0:0:0:0:
426,192,20347,1,0,0:0:0:0:
85,192,20444,1,0,0:0:0:0:
199,192,20541,1,0,0:0:0:0:
483,192,20541,1,0,0:0:0:0:
28,192,20639,1,0,0:0:0:0:
142,192,20639,1,0,0:0:0:0:
85,192,20736,1,8,0:0:0:0:
256,192,20736,1,0,0:0:0:0:
369,192,20736,1,0,0:0:0:0:
199,192,20834,1,0,0:0:0:0:
426,192,20834,1,0,0:0:0:0:
28,192,20931,1,0,0:0:0:0:
142,192,20931,1,0,0:0:0:0:
199,192,21028,1,0,0:0:0:0:
426,192,21028,1,0,0:0:0:0:
85,192,21126,1,8,0:0:0:0:
256,192,21126,1,0,0:0:0:0:
369,192,21126,1,0,0:0:0:0:
312,192,21223,1,0,0:0:0:0:
483,192,21223,1,0,0:0:0:0:
28,192,21418,1,0,0:0:0:0:
199,192,21418,1,0,0:0:0:0:
85,192,21515,1,8,0:0:0:0:
142,192,21515,1,0,0:0:0:0:
256,192,21515,1,0,0:0:0:0:
312,192,21515,1,0,0:0:0:0:
142,192,21710,1,0,0:0:0:0:
312,192,21710,1,0,0:0:0:0:
426,192,21710,1,0,0:0:0:0:
483,192,21808,1,0,0:0:0:0:
28,192,21905,1,8,0:0:0:0:
85,192,21905,1,0,0:0:0:0:
199,192,21905,1,0,0:0:0:0:
256,192,21905,1,0,0:0:0:0:
28,192,22100,1,0,0:0:0:0:
256,192,22100,1,0,0:0:0:0:
369,192,22100,1,0,0:0:0:0:
426,192,22197,1,0,0:0:0:0:
85,192,22295,1,8,0:0:0:0:
142,192,22295,1,0,0:0:0:0:
199,192,22295,1,0,0:0:0:0:
312,192,22295,1,0,0:0:0:0:
369,192,22392,1,0,0:0:0:0:
483,192,22392,1,0,0:0:0:0:
256,192,22489,1,0,0:0:0:0:
369,192,22587,1,0,0:0:0:0:
483,192,22587,1,0,0:0:0:0:
28,192,22684,1,8,0:0:0:0:
85,192,22684,1,0,0:0:0:0:
142,192,22684,1,0,0:0:0:0:
369,192,22782,1,0,0:0:0:0:
483,192,22782,1,0,0:0:0:0:
199,192,22879,1,0,0:0:0:0:
312,192,22879,1,0,0:0:0:0:
369,192,22977,1,8,0:0:0:0:
256,192,23074,1,8,0:0:0:0:
426,192,23074,1,0,0:0:0:0:
483,192,23074,1,0,0:0:0:0:
85,192,23171,1,0,0:0:0:0:
199,192,23171,1,0,0:0:0:0:
256,192,23269,1,8,0:0:0:0:
312,192,23269,1,0,0:0:0:0:
85,192,23366,1,0,0:0:0:0:
199,192,23366,1,0,0:0:0:0:
369,192,23464,1,8,0:0:0:0:
426,192,23464,1,0,0:0:0:0:
483,192,23464,1,0,0:0:0:0:
85,192,23561,1,0,0:0:0:70:kick.wav
199,192,23561,1,0,0:0:0:0:
256,192,23658,1,0,0:0:0:70:kick.wav
369,192,23658,1,0,0:0:0:0:
199,192,23756,1,0,0:0:0:70:kick.wav
312,192,23853,1,0,0:0:0:70:kick.wav
369,192,23853,1,0,0:0:0:0:
426,192,23853,1,0,0:0:0:0:
28,192,23951,1,0,0:0:0:70:kick.wav
85,192,23951,1,0,0:0:0:0:
142,192,23951,1,0,0:0:0:0:
369,192,24048,1,0,0:0:0:70:kick.wav
426,192,24048,1,0,0:0:0:0:
483,192,24048,1,0,0:0:0:0:
85,192,24145,1,0,0:0:0:70:kick.wav
142,192,24145,1,0,0:0:0:0:
199,192,24145,1,0,0:0:0:0:
256,192,24243,1,0,0:0:0:70:kick.wav
312,192,24243,1,0,0:0:0:0:
369,192,24243,1,0,0:0:0:0:
85,192,24438,1,0,0:0:0:70:kick.wav
142,192,24438,1,0,0:0:0:0:
199,192,24438,1,0,0:0:0:0:
369,192,24535,1,0,0:0:0:70:kick.wav
426,192,24535,1,0,0:0:0:0:
483,192,24535,1,0,0:0:0:0:
28,192,24632,1,0,0:0:0:70:kick.wav
85,192,24632,1,0,0:0:0:0:
142,192,24632,1,0,0:0:0:0:
312,192,24730,1,0,0:0:0:70:kick.wav
369,192,24730,1,0,0:0:0:0:
426,192,24730,1,0,0:0:0:0:
142,192,24827,1,0,0:0:0:70:kick.wav
199,192,24827,1,0,0:0:0:0:
256,192,24827,1,0,0:0:0:0:
142,192,25022,1,8,0:0:0:0:
199,192,25022,1,0,0:0:0:0:
256,192,25022,1,0,0:0:0:0:
426,192,25022,1,0,0:0:0:0:
312,192,25217,1,0,0:0:0:70:kick.wav
426,192,25217,1,0,0:0:0:0:
28,192,25412,1,8,0:0:0:0:
85,192,25412,1,0,0:0:0:70:finish.wav
142,192,25412,1,0,0:0:0:0:
369,192,25412,1,0,0:0:0:0:
426,192,25412,1,0,0:0:0:0:
199,192,25606,1,2,0:0:0:0:
312,192,25606,1,0,0:0:0:0:
85,192,25704,1,2,0:0:0:0:
426,192,25704,1,0,0:0:0:0:
142,192,25801,1,8,0:0:0:0:
256,192,25801,1,2,0:0:0:0:
312,192,25801,1,0,0:0:0:0:
369,192,25801,1,0,0:0:0:0:
85,192,25996,1,2,0:0:0:0:
256,192,25996,1,0,0:0:0:0:
199,192,26093,1,0,0:0:0:0:
28,192,26191,1,8,0:0:0:0:
142,192,26191,1,2,0:0:0:0:
312,192,26191,1,0,0:0:0:0:
426,192,26191,1,0,0:0:0:0:
142,192,26386,1,2,0:0:0:0:
312,192,26386,1,0,0:0:0:0:
256,192,26483,1,0,0:0:0:0:
85,192,26580,1,2,0:0:0:0:
199,192,26580,1,8,0:0:0:0:
369,192,26580,1,0,0:0:0:0:
483,192,26580,1,0,0:0:0:0:
199,192,26775,1,2,0:0:0:0:
369,192,26775,1,0,0:0:0:0:
312,192,26873,1,0,0:0:0:0:
142,192,26970,1,8,0:0:0:0:
256,192,26970,1,0,0:0:0:0:
426,192,26970,1,0,0:0:0:0:
483,192,26970,1,0,0:0:0:0:
28,192,27165,1,2,0:0:0:0:
199,192,27165,1,0,0:0:0:0:
312,192,27262,1,0,0:0:0:0:
142,192,27360,1,2,0:0:0:0:
199,192,27360,1,8,0:0:0:0:
256,192,27360,1,0,0:0:0:0:
426,192,27360,1,0,0:0:0:0:
256,192,27554,1,2,0:0:0:0:
426,192,27554,1,0,0:0:0:0:
369,192,27652,1,0,0:0:0:0:
199,192,27749,1,2,0:0:0:0:
256,192,27749,1,8,0:0:0:0:
312,192,27749,1,0,0:0:0:0:
483,192,27749,1,0,0:0:0:0:
426,192,27944,1,0,0:0:0:0:
312,192,28041,1,0,0:0:0:0:
28,192,28139,1,2,0:0:0:0:
85,192,28139,1,8,0:0:0:0:
142,192,28139,1,0,0:0:0:0:
256,192,28139,1,0,0:0:0:0:
85,192,28334,1,0,0:0:0:0:
199,192,28431,1,0,0:0:0:0:
256,192,28528,1,8,0:0:0:0:
369,192,28528,1,0,0:0:0:0:
426,192,28528,1,0,0:0:0:0:
483,192,28528,1,0,0:0:0:0:
369,192,28723,1,2,0:0:0:0:
483,192,28723,1,0,0:0:0:0:
199,192,28821,1,0,0:0:0:0:
142,192,28918,1,2,0:0:0:0:
256,192,28918,1,8,0:0:0:0:
312,192,28918,1,0,0:0:0:0:
426,192,28918,1,0,0:0:0:0:
369,192,29113,1,2,0:0:0:0:
483,192,29113,1,0,0:0:0:0:
85,192,29210,1,0,0:0:0:0:
28,192,29308,1,8,0:0:0:0:
142,192,29308,1,2,0:0:0:0:
199,192,29308,1,0,0:0:0:0:
312,192,29308,1,0,0:0:0:0:
256,192,29502,1,2,0:0:0:0:
369,192,29502,1,0,0:0:0:0:
142,192,29600,1,0,0:0:0:0:
199,192,29697,1,8,0:0:0:0:
256,192,29697,1,2,0:0:0:0:
426,192,29697,1,0,0:0:0:0:
483,192,29697,1,0,0:0:0:0:
28,192,29892,1,2,0:0:0:0:
199,192,29892,1,0,0:0:0:0:
312,192,29989,1,0,0:0:0:0:
142,192,30087,1,8,0:0:0:0:
256,192,30087,1,0,0:0:0:0:
426,192,30087,1,0,0:0:0:0:
483,192,30087,1,0,0:0:0:0:
142,192,30282,1,2,0:0:0:0:
312,192,30282,1,0,0:0:0:0:
426,192,30379,1,0,0:0:0:0:
85,192,30477,1,2,0:0:0:0:
199,192,30477,1,8,0:0:0:0:
312,192,30477,1,0,0:0:0:0:
369,192,30477,1,0,0:0:0:0:
199,192,30671,1,2,0:0:0:0:
369,192,30671,1,0,0:0:0:0:
483,192,30769,1,0,0:0:0:0:
142,192,30866,1,2,0:0:0:0:
256,192,30866,1,8,0:0:0:0:
312,192,30866,1,0,0:0:0:0:
426,192,30866,1,0,0:0:0:0:
369,192,31061,1,0,0:0:0:0:
142,192,31158,1,8,0:0:0:0:
256,192,31158,1,0,0:0:0:0:
85,192,31256,1,2,0:0:0:0:
199,192,31256,1,8,0:0:0:0:
312,192,31256,1,0,0:0:0:0:
369,192,31353,1,0,0:0:0:0:
28,192,31353,1,0,0:0:0:0:
142,192,31451,1,8,0:0:0:0:
426,192,31451,1,0,0:0:0:0:
483,192,31451,1,0,0:0:0:0:
28,192,31645,1,8,0:0:0:0:
85,192,31645,1,0,0:0:0:0:
256,192,31645,1,0,0:0:0:0:
369,192,31645,1,0,0:0:0:0:
142,192,31840,1,2,0:0:0:0:
483,192,31840,1,0,0:0:0:0:
256,192,31938,1,2,0:0:0:0:
369,192,31938,1,0,0:0:0:0:
142,192,32035,1,2,0:0:0:0:
199,192,32035,1,8,0:0:0:0:
426,192,32035,1,0,0:0:0:0:
483,192,32035,1,0,0:0:0:0:
256,192,32230,1,2,0:0:0:0:
426,192,32230,1,0,0:0:0:0:
312,192,32327,1,0,0:0:0:0:
142,192,32425,1,8,0:0:0:0:
199,192,32425,1,2,0:0:0:0:
369,192,32425,1,0,0:0:0:0:
483,192,32425,1,0,0:0:0:0:
199,192,32619,1,2,0:0:0:0:
369,192,32619,1,0,0:0:0:0:
256,192,32717,1,0,0:0:0:0:
85,192,32814,1,8,0:0:0:0:
142,192,32814,1,2,0:0:0:0:
312,192,32814,1,0,0:0:0:0:
426,192,32814,1,0,0:0:0:0:
142,192,33009,1,2,0:0:0:0:
312,192,33009,1,0,0:0:0:0:
199,192,33106,1,0,0:0:0:0:
28,192,33204,1,8,0:0:0:0:
85,192,33204,1,0,0:0:0:0:
256,192,33204,1,0,0:0:0:0:
369,192,33204,1,0,0:0:0:0:
312,192,33399,1,2,0:0:0:0:
483,192,33399,1,0,0:0:0:0:
199,192,33496,1,0,0:0:0:0:
85,192,33593,1,2,0:0:0:0:
142,192,33593,1,8,0:0:0:0:
256,192,33593,1,0,0:0:0:0:
369,192,33593,1,0,0:0:0:0:
256,192,33788,1,2,0:0:0:0:
369,192,33788,1,0,0:0:0:0:
142,192,33886,1,0,0:0:0:0:
28,192,33983,1,2,0:0:0:0:
85,192,33983,1,8,0:0:0:0:
199,192,33983,1,0,0:0:0:0:
312,192,33983,1,0,0:0:0:0:
85,192,34178,1,0,0:0:0:0:
142,192,34275,1,0,0:0:0:0:
28,192,34373,1,8,0:0:0:0:
199,192,34373,1,2,0:0:0:0:
256,192,34373,1,0,0:0:0:0:
312,192,34373,1,0,0:0:0:0:
369,192,34567,1,0,0:0:0:0:
312,192,34665,1,0,0:0:0:0:
142,192,34762,1,8,0:0:0:0:
199,192,34762,1,0,0:0:0:0:
256,192,34762,1,0,0:0:0:0:
426,192,34762,1,0,0:0:0:0:
256,192,34957,1,2,0:0:0:0:
483,192,34957,1,0,0:0:0:0:
199,192,35054,1,0,0:0:0:0:
28,192,35152,1,8,0:0:0:0:
142,192,35152,1,0,0:0:0:0:
312,192,35152,1,0,0:0:0:0:
369,192,35152,1,0,0:0:0:0:
312,192,35347,1,2,0:0:0:0:
199,192,35347,1,0,0:0:0:0:
85,192,35444,1,0,0:0:0:0:
142,192,35541,1,8,0:0:0:0:
256,192,35541,1,2,0:0:0:0:
426,192,35541,1,0,0:0:0:0:
483,192,35541,1,0,0:0:0:0:
28,192,35736,1,2,0:0:0:0:
256,192,35736,1,0,0:0:0:0:
312,192,35834,1,0,0:0:0:0:
85,192,35931,1,8,0:0:0:0:
199,192,35931,1,2,0:0:0:0:
369,192,35931,1,0,0:0:0:0:
483,192,35931,1,0,0:0:0:0:
85,192,36126,1,8,0:0:0:0:
199,192,36126,1,2,0:0:0:0:
426,192,36126,1,0,0:0:0:0:
369,192,36223,1,0,0:0:0:0:
142,192,36321,1,8,0:0:0:0:
199,192,36321,1,0,0:0:0:0:
256,192,36321,1,0,0:0:0:0:
483,192,36321,1,0,0:0:0:0:
369,192,36515,1,0,0:0:0:0:
426,192,36613,1,0,0:0:0:0:
85,192,36710,1,8,0:0:0:0:
142,192,36710,1,2,0:0:0:0:
199,192,36710,1,0,0:0:0:0:
369,192,36710,1,0,0:0:0:0:
256,192,36905,1,0,0:0:0:70:kick.wav
312,192,36905,1,0,0:0:0:0:
369,192,37002,1,0,0:0:0:70:kick.wav
426,192,37002,1,0,0:0:0:0:
28,192,37100,1,8,0:0:0:0:
85,192,37100,1,2,0:0:0:0:
142,192,37100,1,0,0:0:0:0:
256,192,37197,1,0,0:0:0:70:kick.wav
369,192,37197,1,0,0:0:0:0:
199,192,37295,1,0,0:0:0:70:kick.wav
312,192,37295,1,0,0:0:0:0:
199,192,37489,1,8,0:0:0:0:
369,192,37489,1,2,0:0:0:0:
426,192,37489,1,0,0:0:0:0:
483,192,37489,1,0,0:0:0:0:
85,192,37587,1,0,0:0:0:70:kick.wav
142,192,37587,1,0,0:0:0:0:
199,192,37684,1,0,0:0:0:70:kick.wav
256,192,37684,1,0,0:0:0:0:
85,192,37879,1,8,0:0:0:0:
312,192,37879,1,2,0:0:0:0:
369,192,37879,1,0,0:0:0:0:
426,192,37879,1,0,0:0:0:0:
28,192,38074,1,0,0:0:0:0:
142,192,38074,1,0,0:0:0:0:
369,192,38171,1,0,0:0:0:0:
85,192,38269,1,0,0:0:0:70:clap2.wav
142,192,38269,1,0,0:0:0:0:
199,192,38269,1,0,0:0:0:0:
256,192,38269,1,0,0:0:0:0:
369,192,38464,1,0,0:0:0:0:
483,192,38464,1,0,0:0:0:0:
142,192,38561,1,0,0:0:0:0:
256,192,38658,1,8,0:0:0:0:
312,192,38658,1,2,0:0:0:0:
369,192,38658,1,0,0:0:0:0:
426,192,38658,1,0,0:0:0:0:
199,192,38853,1,2,0:0:0:0:
256,192,38853,1,0,0:0:0:0:
85,192,38951,1,0,0:0:0:0:
28,192,39048,1,2,0:0:0:0:
142,192,39048,1,0,0:0:0:70:clap2.wav
312,192,39048,1,0,0:0:0:0:
369,192,39048,1,0,0:0:0:0:
312,192,39243,1,2,0:0:0:0:
483,192,39243,1,0,0:0:0:0:
256,192,39340,1,0,0:0:0:0:
312,192,39438,1,8,0:0:0:0:
369,192,39438,1,0,0:0:0:0:
426,192,39438,1,0,0:0:0:0:
483,192,39438,1,0,0:0:0:0:
28,192,39632,1,0,0:0:0:0:
199,192,39632,1,0,0:0:0:0:
256,192,39730,1,0,0:0:0:0:
28,192,39827,1,0,0:0:0:70:clap2.wav
85,192,39827,1,0,0:0:0:0:
142,192,39827,1,0,0:0:0:0:
199,192,39827,1,0,0:0:0:0:
312,192,40022,1,2,0:0:0:0:
426,192,40022,1,0,0:0:0:0:
199,192,40119,1,2,0:0:0:0:
369,192,40119,1,0,0:0:0:0:
28,192,40217,1,8,0:0:0:0:
85,192,40217,1,2,0:0:0:0:
256,192,40217,1,0,0:0:0:0:
312,192,40217,1,0,0:0:0:0:
142,192,40412,1,0,0:0:0:0:
369,192,40412,1,0,0:0:0:0:
199,192,40509,1,8,0:0:0:0:
312,192,40509,1,0,0:0:0:0:
256,192,40606,1,0,0:0:0:70:clap2.wav
369,192,40606,1,0,0:0:0:0:
426,192,40606,1,0,0:0:0:0:
483,192,40606,1,0,0:0:0:0:
256,192,40801,1,8,0:0:0:0:
369,192,40801,1,0,0:0:0:0:
483,192,40801,1,0,0:0:0:0:
312,192,40899,1,0,0:0:0:0:
85,192,40996,1,8,0:0:0:0:
142,192,40996,1,0,0:0:0:0:
199,192,40996,1,0,0:0:0:0:
426,192,40996,1,0,0:0:0:0:
28,192,41191,1,0,0:0:0:0:
256,192,41191,1,0,0:0:0:0:
142,192,41288,1,0,0:0:0:0:
28,192,41386,1,0,0:0:0:70:clap2.wav
256,192,41386,1,0,0:0:0:0:
312,192,41386,1,0,0:0:0:0:
369,192,41386,1,0,0:0:0:0:
199,192,41580,1,2,0:0:0:0:
369,192,41580,1,0,0:0:0:0:
483,192,41678,1,0,0:0:0:0:
85,192,41775,1,8,0:0:0:0:
199,192,41775,1,2,0:0:0:0:
312,192,41775,1,0,0:0:0:0:
426,192,41775,1,0,0:0:0:0:
85,192,41970,1,2,0:0:0:0:
312,192,41970,1,0,0:0:0:0:
426,192,42067,1,0,0:0:0:0:
28,192,42165,1,2,0:0:0:0:
142,192,42165,1,0,0:0:0:70:clap2.wav
256,192,42165,1,0,0:0:0:0:
369,192,42165,1,0,0:0:0:0:
28,192,42360,1,2,0:0:0:0:
142,192,42360,1,0,0:0:0:0:
256,192,42457,1,0,0:0:0:0:
199,192,42554,1,8,0:0:0:0:
369,192,42554,1,0,0:0:0:0:
426,192,42554,1,0,0:0:0:0:
483,192,42554,1,0,0:0:0:0:
256,192,42749,1,0,0:0:0:0:
312,192,42749,1,0,0:0:0:0:
199,192,42847,1,0,0:0:0:0:
28,192,42944,1,0,0:0:0:70:clap2.wav
85,192,42944,1,0,0:0:0:0:
142,192,42944,1,0,0:0:0:0:
312,192,42944,1,0,0:0:0:0:
85,192,43139,1,2,0:0:0:0:
199,192,43139,1,0,0:0:0:0:
142,192,43236,1,2,0:0:0:0:
312,192,43236,1,0,0:0:0:0:
199,192,43334,1,2,0:0:0:0:
256,192,43334,1,8,0:0:0:0:
426,192,43334,1,0,0:0:0:0:
483,192,43334,1,0,0:0:0:0:
28,192,43528,1,0,0:0:0:0:
312,192,43528,1,0,0:0:0:0:
142,192,43626,1,8,0:0:0:0:
426,192,43626,1,0,0:0:0:0:
85,192,43723,1,0,0:0:0:70:clap2.wav
199,192,43723,1,0,0:0:0:0:
256,192,43723,1,0,0:0:0:0:
369,192,43723,1,0,0:0:0:0:
85,192,43918,1,8,0:0:0:0:
256,192,43918,1,0,0:0:0:0:
369,192,43918,1,0,0:0:0:0:
199,192,44015,1,0,0:0:0:0:
28,192,44113,1,8,0:0:0:0:
85,192,44113,1,0,0:0:0:0:
142,192,44113,1,0,0:0:0:0:
312,192,44113,1,0,0:0:0:0:
256,192,44308,1,0,0:0:0:0:
426,192,44308,1,0,0:0:0:0:
312,192,44405,1,0,0:0:0:0:
85,192,44502,1,0,0:0:0:70:clap2.wav
142,192,44502,1,0,0:0:0:0:
199,192,44502,1,0,0:0:0:0:
369,192,44502,1,0,0:0:0:0:
369,192,44697,1,2,0:0:0:0:
483,192,44697,1,0,0:0:0:0:
199,192,44795,1,0,0:0:0:0:
28,192,44892,1,8,0:0:0:0:
142,192,44892,1,2,0:0:0:0:
426,192,44892,1,0,0:0:0:0:
483,192,44892,1,0,0:0:0:0:
28,192,45087,1,2,0:0:0:0:
142,192,45087,1,0,0:0:0:0:
312,192,45184,1,8,0:0:0:0:
256,192,45184,1,0,0:0:0:0:
199,192,45282,1,2,0:0:0:0:
85,192,45282,1,0,0:0:0:70:clap2.wav
369,192,45282,1,0,0:0:0:0:
483,192,45282,1,0,0:0:0:0:
142,192,45477,1,2,0:0:0:0:
483,192,45477,1,0,0:0:0:0:
369,192,45574,1,0,0:0:0:0:
28,192,45671,1,8,0:0:0:0:
85,192,45671,1,0,0:0:0:0:
312,192,45671,1,0,0:0:0:0:
426,192,45671,1,0,0:0:0:0:
142,192,45866,1,0,0:0:0:0:
369,192,45866,1,0,0:0:0:0:
256,192,45964,1,0,0:0:0:0:
85,192,46061,1,2,0:0:0:0:
142,192,46061,1,0,0:0:0:70:clap2.wav
199,192,46061,1,0,0:0:0:0:
312,192,46061,1,0,0:0:0:0:
256,192,46256,1,0,0:0:0:0:
426,192,46256,1,0,0:0:0:0:
28,192,46353,1,8,0:0:0:0:
142,192,46353,1,0,0:0:0:0:
199,192,46451,1,2,0:0:0:0:
312,192,46451,1,8,0:0:0:0:
369,192,46451,1,0,0:0:0:0:
426,192,46451,1,0,0:0:0:0:
256,192,46645,1,2,0:0:0:0:
312,192,46645,1,0,0:0:0:70:clap3.wav
85,192,46743,1,0,0:0:0:70:clap3.wav
199,192,46840,1,2,0:0:0:0:
369,192,46840,1,8,0:0:0:0:
426,192,46840,1,0,0:0:0:0:
85,192,46938,1,0,0:0:0:70:kick.wav
256,192,46938,1,0,0:0:0:0:
199,192,47035,1,2,0:0:0:0:
369,192,47035,1,0,0:0:0:70:kick.wav
312,192,47132,1,0,0:0:0:70:kick.wav
28,192,47230,1,8,0:0:0:0:
85,192,47230,1,0,0:0:0:0:
142,192,47230,1,0,0:0:0:0:
426,192,47230,1,0,0:0:0:0:
312,192,47425,1,0,0:0:0:70:kick.wav
85,192,47522,1,0,0:0:0:70:kick.wav
256,192,47619,1,0,0:0:0:70:clap2.wav
369,192,47619,1,0,0:0:0:0:
426,192,47619,1,0,0:0:0:0:
483,192,47619,1,0,0:0:0:0:
199,192,47814,1,0,0:0:0:70:kick.wav
426,192,47912,1,0,0:0:0:70:kick.wav
28,192,48009,1,8,0:0:0:0:
85,192,48009,1,0,0:0:0:0:
142,192,48009,1,0,0:0:0:0:
256,192,48009,1,0,0:0:0:0:
199,192,48204,1,0,0:0:0:70:kick.wav
28,192,48301,1,0,0:0:0:70:kick.wav
142,192,48399,1,0,0:0:0:70:clap2.wav
199,192,48399,1,0,0:0:0:0:
312,192,48399,1,0,0:0:0:0:
426,192,48399,1,0,0:0:0:0:
256,192,48593,1,0,0:0:0:70:kick.wav
426,192,48691,1,0,0:0:0:70:kick.wav
28,192,48788,1,8,0:0:0:0:
142,192,48788,1,0,0:0:0:0:
256,192,48788,1,0,0:0:0:0:
312,192,48788,1,0,0:0:0:0:
199,192,48983,1,0,0:0:0:70:kick.wav
85,192,49080,1,0,0:0:0:70:kick.wav
256,192,49178,1,0,0:0:0:70:clap2.wav
312,192,49178,1,0,0:0:0:0:
426,192,49178,1,0,0:0:0:0:
483,192,49178,1,0,0:0:0:0:
256,192,49373,1,2,0:0:0:0:
369,192,49373,1,0,0:0:0:70:kick.wav
483,192,49470,1,0,0:0:0:70:kick.wav
85,192,49567,1,2,0:0:0:0:
142,192,49567,1,8,0:0:0:0:
199,192,49567,1,0,0:0:0:0:
369,192,49567,1,0,0:0:0:0:
199,192,49762,1,2,0:0:0:0:
312,192,49762,1,0,0:0:0:70:kick.wav
426,192,49860,1,0,0:0:0:70:kick.wav
28,192,49957,1,2,0:0:0:0:
85,192,49957,1,0,0:0:0:70:clap2.wav
142,192,49957,1,0,0:0:0:0:
312,192,49957,1,0,0:0:0:0:
142,192,50152,1,2,0:0:0:0:
256,192,50152,1,0,0:0:0:70:kick.wav
369,192,50249,1,0,0:0:0:70:kick.wav
28,192,50347,1,8,0:0:0:0:
85,192,50347,1,0,0:0:0:0:
256,192,50347,1,0,0:0:0:0:
312,192,50347,1,0,0:0:0:0:
369,192,50541,1,0,0:0:0:70:kick.wav
142,192,50639,1,0,0:0:0:70:kick.wav
312,192,50736,1,0,0:0:0:70:clap2.wav
369,192,50736,1,0,0:0:0:0:
426,192,50736,1,0,0:0:0:0:
483,192,50736,1,0,0:0:0:0:
142,192,50931,1,0,0:0:0:70:kick.wav
369,192,51028,1,0,0:0:0:70:kick.wav
28,192,51126,1,8,0:0:0:0:
85,192,51126,1,0,0:0:0:0:
142,192,51126,1,0,0:0:0:0:
199,192,51126,1,0,0:0:0:0:
256,192,51223,1,0,0:0:0:70:kick.wav
369,192,51223,1,0,0:0:0:0:
85,192,51321,1,0,0:0:0:70:kick.wav
199,192,51321,1,0,0:0:0:0:
312,192,51418,1,0,0:0:0:70:kick.wav
426,192,51418,1,0,0:0:0:0:
28,192,51515,1,0,0:0:0:70:clap2.wav
142,192,51515,1,0,0:0:0:0:
199,192,51515,1,0,0:0:0:0:
256,192,51515,1,0,0:0:0:0:
426,192,51710,1,8,0:0:0:0:
142,192,51710,1,0,0:0:0:0:
256,192,51710,1,0,0:0:0:0:
369,192,51905,1,8,0:0:0:0:
426,192,51905,1,0,0:0:0:70:clap3.wav
483,192,51905,1,0,0:0:0:0:
256,192,51905,1,0,0:0:0:0:
256,192,52295,1,8,0:0:0:0:
142,192,52295,1,0,0:0:0:70:clap3.wav
85,192,52295,1,0,0:0:0:0:
28,192,52295,1,0,0:0:0:0:
426,192,52684,1,8,0:0:0:0:
369,192,52684,1,0,0:0:0:70:clap3.wav
312,192,52684,1,0,0:0:0:0:
256,192,52684,1,0,0:0:0:0:
256,192,53074,1,8,0:0:0:0:
199,192,53074,1,2,0:0:0:0:
142,192,53074,1,0,0:0:0:70:clap3.wav
85,192,53074,1,0,0:0:0:0:
28,192,53269,1,2,0:0:0:0:
256,192,53269,1,0,0:0:0:0:
28,192,53464,1,2,0:0:0:0:
85,192,53464,1,8,0:0:0:0:
142,192,53464,1,0,0:0:0:70:finish.wav
312,192,53464,1,0,0:0:0:0:
426,192,53464,1,0,0:0:0:0:
199,192,53561,1,2,0:0:0:0:
369,192,53561,1,0,0:0:0:0:
256,192,53658,1,2,0:0:0:0:
426,192,53658,1,0,0:0:0:0:
199,192,53756,1,2,0:0:0:0:
369,192,53756,1,0,0:0:0:0:
28,192,53853,1,2,0:0:0:0:
142,192,53853,1,8,0:0:0:0:
312,192,53853,1,0,0:0:0:0:
199,192,53951,1,2,0:0:0:0:
426,192,53951,1,0,0:0:0:0:
85,192,54048,1,2,0:0:0:0:
312,192,54048,1,0,0:0:0:0:
199,192,54145,1,2,0:0:0:0:
369,192,54145,1,0,0:0:0:0:
312,192,54243,1,2,0:0:0:0:
426,192,54243,1,8,0:0:0:0:
483,192,54243,1,0,0:0:0:0:
28,192,54340,1,2,0:0:0:0:
142,192,54340,1,0,0:0:0:0:
256,192,54438,1,2,0:0:0:0:
369,192,54438,1,0,0:0:0:0:
199,192,54535,1,2,0:0:0:0:
426,192,54535,1,0,0:0:0:0:
142,192,54632,1,8,0:0:0:0:
256,192,54632,1,0,0:0:0:0:
369,192,54632,1,0,0:0:0:0:
483,192,54632,1,0,0:0:0:0:
85,192,54827,1,2,0:0:0:0:
312,192,54827,1,0,0:0:0:0:
142,192,54925,1,2,0:0:0:0:
256,192,54925,1,0,0:0:0:0:
199,192,55022,1,2,0:0:0:0:
369,192,55022,1,8,0:0:0:0:
426,192,55022,1,0,0:0:0:0:
85,192,55119,1,2,0:0:0:0:
312,192,55119,1,0,0:0:0:0:
142,192,55217,1,2,0:0:0:0:
256,192,55217,1,0,0:0:0:0:
28,192,55314,1,2,0:0:0:0:
369,192,55314,1,0,0:0:0:0:
85,192,55412,1,8,0:0:0:0:
199,192,55412,1,0,0:0:0:0:
426,192,55412,1,0,0:0:0:0:
483,192,55412,1,0,0:0:0:0:
256,192,55606,1,2,0:0:0:0:
369,192,55606,1,0,0:0:0:0:
199,192,55704,1,2,0:0:0:0:
312,192,55704,1,0,0:0:0:0:
28,192,55801,1,2,0:0:0:0:
142,192,55801,1,8,0:0:0:0:
256,192,55801,1,0,0:0:0:0:
85,192,55899,1,2,0:0:0:0:
369,192,55899,1,0,0:0:0:0:
199,192,55996,1,2,0:0:0:0:
312,192,55996,1,0,0:0:0:0:
142,192,56093,1,2,0:0:0:0:
426,192,56093,1,0,0:0:0:0:
28,192,56191,1,8,0:0:0:0:
85,192,56191,1,0,0:0:0:0:
256,192,56191,1,0,0:0:0:0:
369,192,56191,1,0,0:0:0:0:
426,192,56386,1,0,0:0:0:70:kick.wav
256,192,56483,1,0,0:0:0:70:kick.wav
28,192,56580,1,2,0:0:0:0:
85,192,56580,1,8,0:0:0:0:
312,192,56580,1,0,0:0:0:0:
369,192,56580,1,0,0:0:0:0:
199,192,56678,1,2,0:0:0:0:
483,192,56678,1,0,0:0:0:0:
85,192,56775,1,2,0:0:0:0:
369,192,56775,1,0,0:0:0:0:
199,192,56873,1,2,0:0:0:0:
483,192,56873,1,0,0:0:0:0:
142,192,56970,1,2,0:0:0:0:
256,192,56970,1,8,0:0:0:0:
426,192,56970,1,0,0:0:0:0:
28,192,57067,1,2,0:0:0:0:
312,192,57067,1,0,0:0:0:0:
142,192,57165,1,2,0:0:0:0:
426,192,57165,1,0,0:0:0:0:
28,192,57262,1,2,0:0:0:0:
312,192,57262,1,0,0:0:0:0:
85,192,57360,1,2,0:0:0:0:
199,192,57360,1,8,0:0:0:0:
369,192,57360,1,0,0:0:0:0:
256,192,57457,1,2,0:0:0:0:
483,192,57457,1,0,0:0:0:0:
142,192,57554,1,2,0:0:0:0:
426,192,57554,1,0,0:0:0:0:
28,192,57652,1,2,0:0:0:0:
312,192,57652,1,0,0:0:0:0:
85,192,57749,1,8,0:0:0:0:
199,192,57749,1,0,0:0:0:0:
369,192,57749,1,0,0:0:0:0:
483,192,57749,1,0,0:0:0:0:
199,192,57944,1,2,0:0:0:0:
369,192,57944,1,0,0:0:0:0:
312,192,58041,1,2,0:0:0:0:
28,192,58139,1,2,0:0:0:0:
85,192,58139,1,8,0:0:0:0:
369,192,58139,1,0,0:0:0:0:
483,192,58139,1,0,0:0:0:0:
142,192,58236,1,2,0:0:0:0:
256,192,58236,1,0,0:0:0:0:
85,192,58334,1,2,0:0:0:0:
369,192,58334,1,0,0:0:0:0:
28,192,58528,1,2,0:0:0:0:
85,192,58528,1,8,0:0:0:0:
142,192,58528,1,0,0:0:0:70:clap.wav
256,192,58528,1,0,0:0:0:0:
142,192,58723,1,2,0:0:0:0:
426,192,58723,1,0,0:0:0:0:
256,192,58821,1,2,0:0:0:0:
369,192,58821,1,0,0:0:0:70:kick.wav
28,192,58918,1,2,0:0:0:0:
142,192,58918,1,8,0:0:0:0:
426,192,58918,1,0,0:0:0:0:
483,192,58918,1,0,0:0:0:0:
369,192,59113,1,2,0:0:0:0:
426,192,59113,1,0,0:0:0:70:clap.wav
483,192,59113,1,0,0:0:0:0:
28,192,59308,1,0,0:0:0:70:kick.wav
199,192,59308,1,0,0:0:0:0:
142,192,59405,1,0,0:0:0:70:kick.wav
312,192,59405,1,0,0:0:0:0:
256,192,59502,1,0,0:0:0:70:kick.wav
426,192,59502,1,0,0:0:0:0:
199,192,59600,1,0,0:0:0:70:kick.wav
369,192,59600,1,0,0:0:0:0:
28,192,59697,1,8,0:0:0:0:
142,192,59697,1,2,0:0:0:0:
312,192,59697,1,0,0:0:0:70:finish.wav
426,192,59697,1,0,0:0:0:0:
199,192,59795,1,2,0:0:0:0:
256,192,59795,1,0,0:0:0:0:
85,192,59892,1,2,0:0:0:0:
369,192,59892,1,0,0:0:0:0:
142,192,59989,1,2,0:0:0:0:
312,192,59989,1,0,0:0:0:0:
85,192,60087,1,2,0:0:0:0:
256,192,60087,1,8,0:0:0:0:
369,192,60087,1,0,0:0:0:0:
199,192,60184,1,2,0:0:0:0:
483,192,60184,1,0,0:0:0:0:
85,192,60282,1,2,0:0:0:0:
369,192,60282,1,0,0:0:0:0:
142,192,60477,1,8,0:0:0:0:
256,192,60477,1,2,0:0:0:0:
426,192,60477,1,0,0:0:0:0:
483,192,60477,1,0,0:0:0:0:
199,192,60574,1,2,0:0:0:0:
369,192,60574,1,0,0:0:0:0:
85,192,60671,1,0,0:0:0:0:
199,192,60769,1,2,0:0:0:0:
369,192,60769,1,0,0:0:0:0:
142,192,60866,1,2,0:0:0:0:
426,192,60866,1,8,0:0:0:0:
483,192,60866,1,0,0:0:0:0:
28,192,60964,1,2,0:0:0:0:
312,192,60964,1,0,0:0:0:0:
85,192,61061,1,2,0:0:0:0:
369,192,61061,1,0,0:0:0:0:
199,192,61158,1,2,0:0:0:0:
483,192,61158,1,0,0:0:0:0:
142,192,61256,1,8,0:0:0:0:
312,192,61256,1,2,0:0:0:0:
426,192,61256,1,0,0:0:0:0:
85,192,61353,1,2,0:0:0:0:
256,192,61353,1,0,0:0:0:0:
199,192,61451,1,2,0:0:0:0:
369,192,61451,1,0,0:0:0:0:
312,192,61548,1,2,0:0:0:0:
483,192,61548,1,0,0:0:0:0:
142,192,61645,1,2,0:0:0:0:
256,192,61645,1,8,0:0:0:0:
426,192,61645,1,0,0:0:0:0:
312,192,61743,1,2,0:0:0:0:
483,192,61743,1,0,0:0:0:0:
199,192,61840,1,2,0:0:0:0:
369,192,61840,1,0,0:0:0:0:
85,192,61938,1,2,0:0:0:0:
256,192,61938,1,0,0:0:0:0:
142,192,62035,1,8,0:0:0:0:
312,192,62035,1,2,0:0:0:0:
426,192,62035,1,0,0:0:0:0:
28,192,62132,1,2,0:0:0:0:
256,192,62132,1,0,0:0:0:0:
142,192,62230,1,2,0:0:0:0:
312,192,62230,1,0,0:0:0:0:
28,192,62327,1,2,0:0:0:0:
256,192,62327,1,0,0:0:0:0:
85,192,62425,1,8,0:0:0:0:
199,192,62425,1,0,0:0:0:0:
369,192,62425,1,0,0:0:0:0:
483,192,62425,1,0,0:0:0:0:
28,192,62619,1,2,0:0:0:0:
312,192,62619,1,0,0:0:0:0:
85,192,62717,1,2,0:0:0:0:
369,192,62717,1,0,0:0:0:0:
142,192,62814,1,2,0:0:0:0:
256,192,62814,1,8,0:0:0:0:
426,192,62814,1,0,0:0:0:0:
483,192,62814,1,0,0:0:0:0:
28,192,63009,1,2,0:0:0:0:
256,192,63009,1,0,0:0:0:0:
142,192,63106,1,2,0:0:0:0:
312,192,63106,1,0,0:0:0:0:
28,192,63204,1,8,0:0:0:0:
85,192,63204,1,0,0:0:0:0:
369,192,63204,1,0,0:0:0:0:
199,192,63301,1,2,0:0:0:0:
312,192,63301,1,0,0:0:0:0:
426,192,63399,1,0,0:0:0:0:
256,192,63496,1,2,0:0:0:0:
312,192,63496,1,0,0:0:0:0:
85,192,63593,1,8,0:0:0:0:
142,192,63593,1,0,0:0:0:0:
369,192,63593,1,0,0:0:0:0:
483,192,63593,1,0,0:0:0:0:
199,192,63788,1,0,0:0:0:0:
312,192,63886,1,0,0:0:0:0:
28,192,63983,1,2,0:0:0:0:
85,192,63983,1,8,0:0:0:0:
142,192,63983,1,0,0:0:0:0:
256,192,63983,1,0,0:0:0:0:
369,192,64080,1,0,0:0:0:70:kick.wav
483,192,64080,1,0,0:0:0:0:
85,192,64178,1,2,0:0:0:0:
199,192,64178,1,0,0:0:0:70:kick.wav
256,192,64275,1,0,0:0:0:70:kick.wav
369,192,64275,1,0,0:0:0:0:
28,192,64373,1,2,0:0:0:0:
85,192,64373,1,8,0:0:0:0:
199,192,64373,1,0,0:0:0:0:
312,192,64373,1,0,0:0:0:0:
199,192,64567,1,2,0:0:0:0:
426,192,64567,1,0,0:0:0:0:
142,192,64665,1,2,0:0:0:0:
312,192,64665,1,0,0:0:0:0:
85,192,64762,1,8,0:0:0:0:
369,192,64762,1,0,0:0:0:0:
426,192,64762,1,0,0:0:0:0:
142,192,64860,1,2,0:0:0:0:
256,192,64860,1,0,0:0:0:0:
28,192,64957,1,0,0:0:0:0:
142,192,65054,1,2,0:0:0:0:
199,192,65054,1,0,0:0:0:0:
85,192,65152,1,8,0:0:0:0:
312,192,65152,1,0,0:0:0:0:
369,192,65152,1,0,0:0:0:0:
426,192,65152,1,0,0:0:0:0:
256,192,65347,1,0,0:0:0:0:
142,192,65444,1,0,0:0:0:0:
28,192,65541,1,2,0:0:0:0:
312,192,65541,1,8,0:0:0:0:
369,192,65541,1,0,0:0:0:70:clap.wav
426,192,65541,1,0,0:0:0:0:
85,192,65639,1,0,0:0:0:70:kick.wav
199,192,65639,1,0,0:0:0:0:
256,192,65736,1,2,0:0:0:0:
369,192,65736,1,0,0:0:0:70:kick.wav
28,192,65834,1,0,0:0:0:70:kick.wav
142,192,65834,1,0,0:0:0:0:
369,192,65931,1,2,0:0:0:0:
426,192,65931,1,0,0:0:0:70:kick.wav
483,192,65931,1,0,0:0:0:0:
85,192,66028,1,2,0:0:0:0:
142,192,66028,1,0,0:0:0:70:kick.wav
199,192,66028,1,0,0:0:0:0:
369,192,66126,1,2,0:0:0:0:
426,192,66126,1,0,0:0:0:70:kick.wav
483,192,66126,1,0,0:0:0:0:
85,192,66223,1,2,0:0:0:0:
142,192,66223,1,0,0:0:0:70:kick.wav
199,192,66223,1,0,0:0:0:0:
369,192,66321,1,2,0:0:0:0:
426,192,66321,1,0,0:0:0:70:kick.wav
483,192,66321,1,0,0:0:0:0:
28,192,66515,1,2,0:0:0:0:
85,192,66515,1,0,0:0:0:70:kick.wav
142,192,66515,1,0,0:0:0:0:
312,192,66613,1,2,0:0:0:0:
369,192,66613,1,0,0:0:0:70:kick.wav
426,192,66613,1,0,0:0:0:0:
28,192,66710,1,2,0:0:0:0:
85,192,66710,1,0,0:0:0:70:kick.wav
142,192,66710,1,0,0:0:0:0:
312,192,66808,1,2,0:0:0:0:
369,192,66808,1,0,0:0:0:70:kick.wav
426,192,66808,1,0,0:0:0:0:
28,192,66905,1,2,0:0:0:0:
85,192,66905,1,0,0:0:0:70:kick.wav
142,192,66905,1,0,0:0:0:0:
142,192,67100,1,2,0:0:0:0:
426,192,67100,1,0,0:0:0:70:kick.wav
483,192,67100,1,0,0:0:0:0:
199,192,67197,1,2,0:0:0:0:
256,192,67197,1,0,0:0:0:70:kick.wav
369,192,67197,1,0,0:0:0:0:
142,192,67295,1,2,0:0:0:0:
426,192,67295,1,0,0:0:0:70:kick.wav
483,192,67295,1,0,0:0:0:0:
199,192,67392,1,2,0:0:0:0:
256,192,67392,1,0,0:0:0:70:kick.wav
369,192,67392,1,0,0:0:0:0:
142,192,67489,1,2,0:0:0:0:
426,192,67489,1,0,0:0:0:70:kick.wav
483,192,67489,1,0,0:0:0:0:
28,192,67684,1,2,0:0:0:0:
85,192,67684,1,0,0:0:0:70:kick.wav
369,192,67684,1,0,0:0:0:0:
142,192,67782,1,2,0:0:0:0:
256,192,67782,1,0,0:0:0:70:kick.wav
312,192,67782,1,0,0:0:0:0:
28,192,67879,1,2,0:0:0:0:
85,192,67879,1,0,0:0:0:70:kick.wav
369,192,67879,1,0,0:0:0:0:
142,192,67977,1,2,0:0:0:0:
256,192,67977,1,0,0:0:0:70:kick.wav
312,192,67977,1,0,0:0:0:0:
28,192,68074,1,2,0:0:0:0:
85,192,68074,1,0,0:0:0:70:kick.wav
369,192,68074,1,0,0:0:0:0:
28,192,68269,1,2,0:0:0:0:
85,192,68269,1,0,0:0:0:70:kick.wav
142,192,68269,1,0,0:0:0:0:
256,192,68269,1,0,0:0:0:0:
256,192,68464,1,2,0:0:0:0:
369,192,68464,1,0,0:0:0:70:kick.wav
426,192,68464,1,0,0:0:0:0:
483,192,68464,1,0,0:0:0:0:
142,192,68561,1,0,0:0:0:0:
28,192,68658,1,0,0:0:0:70:kick.wav
312,192,68658,1,0,0:0:0:0:
199,192,68756,1,0,0:0:0:70:kick.wav
28,192,68853,1,0,0:0:0:70:kick.wav
312,192,68853,1,0,0:0:0:0:
142,192,68951,1,0,0:0:0:0:
256,192,69048,1,8,0:0:0:0:
312,192,69048,1,4,0:0:0:0:
369,192,69048,1,0,0:0:0:0:
426,192,69048,1,0,0:0:0:0:
483,192,69048,1,0,0:0:0:0:
