osu file format v14

[General]
AudioFilename: audio.mp3
AudioLeadIn: 0
PreviewTime: 54349
Countdown: 0
SampleSet: None
StackLeniency: 0.7
Mode: 3
LetterboxInBreaks: 0
SpecialStyle: 0
WidescreenStoryboard: 1

[Editor]
Bookmarks: 53180,53570,53959
DistanceSpacing: 0.8
BeatDivisor: 1
GridSize: 8
TimelineZoom: 1

[Metadata]
Title:Rampage
TitleUnicode:ランペイジ
Artist:paraoka feat. haru*nya
ArtistUnicode:paraoka feat. haru*nya
Creator:[_-Kukkai-_]
Version:beginning
Source:
Tags:
BeatmapID:1352536
BeatmapSetID:615846

[Difficulty]
HPDrainRate:4
CircleSize:4
OverallDifficulty:5
ApproachRate:5
SliderMultiplier:1.4
SliderTickRate:1

[Events]
//Background and Video events
0,0,"cute-smile-anime-headphones-girl-vocaloid-backgrounds.png",0,0
//Break Periods
2,14419,25487
//Storyboard Layer 0 (Background)
//Storyboard Layer 1 (Fail)
//Storyboard Layer 2 (Pass)
//Storyboard Layer 3 (Foreground)
//Storyboard Sound Samples

[TimingPoints]
-196,389.61038961039,4,2,1,60,1,0
14219,-100,4,2,1,60,0,0
14414,-100,4,2,1,60,0,0
26687,-117.647058823529,4,2,1,60,0,0
54349,-100,4,1,1,60,0,1
70323,-100,4,2,1,60,0,0

[HitObjects]
64,192,1362,5,0,0:0:0:0:
448,192,1752,1,6,0:0:0:0:
64,192,2141,1,0,0:0:0:0:
448,192,2531,1,2,0:0:0:0:
64,192,2920,1,0,0:0:0:0:
320,192,3310,1,2,0:0:0:0:
64,192,3700,1,0,0:0:0:0:
448,192,4089,1,2,0:0:0:0:
320,192,4479,1,0,0:0:0:0:
64,192,4868,1,2,0:0:0:0:
192,192,5258,1,0,0:0:0:0:
448,192,5648,1,2,0:0:0:0:
320,192,6037,1,0,0:0:0:0:
64,192,6427,1,2,0:0:0:0:
448,192,6816,1,0,0:0:0:0:
64,192,7206,1,2,0:0:0:0:
320,192,7596,1,0,0:0:0:0:
64,192,7985,1,6,0:0:0:0:
320,192,8375,1,0,0:0:0:0:
192,192,8765,1,2,0:0:0:0:
448,192,9154,1,0,0:0:0:0:
192,192,9544,1,2,0:0:0:0:
320,192,9933,1,0,0:0:0:0:
64,192,10323,1,2,0:0:0:0:
448,192,10713,1,0,0:0:0:0:
64,192,11102,1,2,0:0:0:0:
192,192,11492,1,0,0:0:0:0:
448,192,11881,1,2,0:0:0:0:
64,192,12271,1,0,0:0:0:0:
448,192,12661,128,4,14219:0:0:0:0:
192,192,13440,1,4,0:0:0:0:
64,192,13829,1,4,0:0:0:0:
192,192,14219,1,4,0:0:0:0:
64,192,26687,5,4,0:0:0:0:
448,192,27076,1,0,0:0:0:0:
192,192,27466,1,0,0:0:0:0:
64,192,27855,128,0,28245:0:0:0:0:
448,192,28635,1,0,0:0:0:0:
64,192,29024,1,0,0:0:0:0:
448,192,29414,1,0,0:0:0:0:
192,192,29804,1,4,0:0:0:0:
448,192,30193,1,0,0:0:0:0:
320,192,30583,1,0,0:0:0:0:
192,192,30972,1,0,0:0:0:0:
64,192,31362,1,0,0:0:0:0:
320,192,31752,1,0,0:0:0:0:
64,192,32141,1,0,0:0:0:0:
448,192,32531,1,0,0:0:0:0:
192,192,32920,1,4,0:0:0:0:
448,192,33310,1,0,0:0:0:0:
192,192,33700,1,0,0:0:0:0:
64,192,34089,1,0,0:0:0:0:
448,192,34479,1,0,0:0:0:0:
192,192,34868,1,0,0:0:0:0:
320,192,35258,1,0,0:0:0:0:
448,192,35648,1,0,0:0:0:0:
64,192,36037,1,4,0:0:0:0:
192,192,36427,1,0,0:0:0:0:
64,192,36816,1,0,0:0:0:0:
64,192,37206,128,0,37985:0:0:0:0:
448,192,38375,1,0,0:0:0:0:
64,192,38765,1,0,0:0:0:0:
320,192,39154,128,4,39933:0:0:0:0:
64,192,40323,1,0,0:0:0:0:
448,192,40713,1,0,0:0:0:0:
64,192,41102,1,0,0:0:0:0:
448,192,41492,1,0,0:0:0:0:
192,192,41881,1,0,0:0:0:0:
448,192,42271,1,4,0:0:0:0:
192,192,42661,1,0,0:0:0:0:
64,192,43050,1,4,0:0:0:0:
448,192,43440,1,0,0:0:0:0:
192,192,43829,1,4,0:0:0:0:
320,192,44219,1,0,0:0:0:0:
448,192,44609,1,4,0:0:0:0:
64,192,44998,1,0,0:0:0:0:
320,192,45388,1,4,0:0:0:0:
64,192,45778,1,0,0:0:0:0:
448,192,46167,1,4,0:0:0:0:
64,192,46557,1,0,0:0:0:0:
192,192,46946,1,4,0:0:0:0:
448,192,47336,1,0,0:0:0:0:
64,192,47726,1,0,0:0:0:0:
64,192,48310,128,4,50453:0:0:0:0:
448,192,50842,1,0,0:0:0:0:
192,192,51427,128,0,53180:0:0:0:0:
448,192,53180,1,8,0:0:0:0:
64,192,53570,1,8,0:0:0:0:
448,192,53959,1,8,0:0:0:0:
64,192,54349,1,2,0:0:0:0:
448,192,54739,1,0,0:0:0:0:
64,192,55128,1,0,0:0:0:0:
448,192,55518,1,0,0:0:0:0:
64,192,55907,1,0,0:0:0:0:
320,192,56297,1,0,0:0:0:0:
448,192,56687,1,0,0:0:0:0:
64,192,57076,1,0,0:0:0:0:
192,192,57466,1,0,0:0:0:0:
448,192,57855,1,0,0:0:0:0:
64,192,58245,1,0,0:0:0:0:
320,192,58635,1,0,0:0:0:0:
64,192,59024,1,0,0:0:0:0:
320,192,59414,128,2,60583:0:0:0:0:
64,192,60972,1,0,0:0:0:0:
320,192,61362,1,0,0:0:0:0:
64,192,61752,1,0,0:0:0:0:
448,192,62141,1,0,0:0:0:0:
64,192,62531,1,0,0:0:0:0:
64,192,62920,1,0,0:0:0:0:
448,192,63310,1,0,0:0:0:0:
448,192,63700,1,0,0:0:0:0:
64,192,64089,1,0,0:0:0:0:
192,192,64479,1,0,0:0:0:0:
320,192,64868,1,0,0:0:0:0:
448,192,65258,1,0,0:0:0:0:
64,192,65648,1,0,0:0:0:0:
192,192,66037,1,0,0:0:0:0:
448,192,66427,1,0,0:0:0:0:
320,192,66816,1,0,0:0:0:0:
64,192,67206,1,0,0:0:0:0:
64,192,67596,1,0,0:0:0:0:
192,192,67985,1,0,0:0:0:0:
192,192,68375,1,0,0:0:0:0:
320,192,68765,1,0,0:0:0:0:
320,192,69154,1,0,0:0:0:0:
448,192,69544,1,0,0:0:0:0:
448,192,69933,1,0,0:0:0:0:
192,192,70323,1,4,0:0:0:0:
320,192,70323,1,4,0:0:0:0:
