osu file format v14

[General]
AudioFilename: audio.mp3
AudioLeadIn: 0
PreviewTime: 54307
Countdown: 0
SampleSet: Normal
StackLeniency: 0.7
Mode: 1
LetterboxInBreaks: 0
EpilepsyWarning: 1
WidescreenStoryboard: 1

[Editor]
Bookmarks: 112237,210517
DistanceSpacing: 0.8
BeatDivisor: 4
GridSize: 16
TimelineZoom: 2.3

[Metadata]
Title:Rampage
TitleUnicode:ランペイジ
Artist:paraoka feat. haru*nya
ArtistUnicode:paraoka feat. haru*nya
Creator:[_-Kukkai-_]
Version:Yuri's Oni
Source:
Tags:Vocaloid bank78952 Etsu Nelly PoPoii マテリアル 麹町養蚕館 c71
BeatmapID:1354381
BeatmapSetID:637180

[Difficulty]
HPDrainRate:5
CircleSize:2
OverallDifficulty:6
ApproachRate:10
SliderMultiplier:1.4
SliderTickRate:1

[Events]
//Background and Video events
0,0,"thumb-1920-584356.png",0,0
//Break Periods
//Storyboard Layer 0 (Background)
//Storyboard Layer 1 (Fail)
//Storyboard Layer 2 (Pass)
//Storyboard Layer 3 (Foreground)
//Storyboard Sound Samples

[TimingPoints]
1710,389.61038961039,4,1,0,60,1,0
54697,-100,4,1,0,60,0,1
70281,-100,4,1,0,60,0,0
110800,-100,4,1,0,60,0,1
126385,-100,4,1,0,60,0,0
179372,-100,4,1,0,60,0,1
198073,-100,4,1,0,60,0,0

[HitObjects]
248,184,1710,5,4,0:0:0:0:
264,192,2099,1,0,0:0:0:0:
264,192,2294,1,8,0:0:0:0:
264,192,2489,1,0,0:0:0:0:
264,176,2684,1,0,0:0:0:0:
264,176,2878,1,0,0:0:0:0:
264,176,2976,1,8,0:0:0:0:
264,176,3073,1,0,0:0:0:0:
264,168,3268,1,8,0:0:0:0:
264,168,3658,1,0,0:0:0:0:
264,160,3852,1,8,0:0:0:0:
264,160,4047,1,0,0:0:0:0:
264,168,4242,1,0,0:0:0:0:
264,168,4437,1,0,0:0:0:0:
272,168,4534,1,8,0:0:0:0:
272,168,4632,1,0,0:0:0:0:
280,160,4826,1,8,0:0:0:0:
280,160,5216,1,0,0:0:0:0:
280,160,5411,1,8,0:0:0:0:
280,168,5606,1,0,0:0:0:0:
288,176,5800,1,0,0:0:0:0:
288,176,5995,1,8,0:0:0:0:
288,176,6093,1,8,0:0:0:0:
288,176,6190,1,0,0:0:0:0:
296,176,6385,1,8,0:0:0:0:
288,176,6774,1,0,0:0:0:0:
304,184,6969,1,8,0:0:0:0:
304,184,7164,1,0,0:0:0:0:
304,184,7359,1,8,0:0:0:0:
304,184,7456,1,0,0:0:0:0:
304,184,7554,1,8,0:0:0:0:
304,184,7943,1,4,0:0:0:0:
304,184,8333,1,0,0:0:0:0:
304,184,8528,1,8,0:0:0:0:
312,192,8723,1,0,0:0:0:0:
320,192,8917,1,0,0:0:0:0:
320,192,9112,1,0,0:0:0:0:
320,192,9210,1,8,0:0:0:0:
320,192,9307,1,0,0:0:0:0:
320,192,9502,1,8,0:0:0:0:
320,192,9891,1,0,0:0:0:0:
320,192,10086,1,8,0:0:0:0:
320,192,10281,1,0,0:0:0:0:
320,192,10476,1,0,0:0:0:0:
320,192,10671,1,8,0:0:0:0:
320,192,10768,1,8,0:0:0:0:
320,192,10865,1,0,0:0:0:0:
320,192,11060,1,8,0:0:0:0:
320,192,11450,1,0,0:0:0:0:
320,192,11645,1,8,0:0:0:0:
320,192,11839,1,0,0:0:0:0:
320,192,12034,1,0,0:0:0:0:
320,192,12229,1,0,0:0:0:0:
304,192,12326,1,8,0:0:0:0:
304,192,12424,1,0,0:0:0:0:
320,192,12619,1,0,0:0:0:0:
328,192,12716,1,8,0:0:0:0:
320,192,12911,1,8,0:0:0:0:
328,200,13008,1,8,0:0:0:0:
328,200,13203,1,0,0:0:0:0:
328,192,13300,1,8,0:0:0:0:
328,192,13398,1,8,0:0:0:0:
328,192,13495,1,0,0:0:0:0:
328,192,13593,1,8,0:0:0:0:
336,208,13787,1,8,0:0:0:0:
320,192,14177,1,4,0:0:0:0:
320,192,14372,1,0,0:0:0:0:
320,192,14469,1,0,0:0:0:0:
320,192,14567,1,8,0:0:0:0:
320,192,14762,1,0,0:0:0:0:
320,192,14859,1,8,0:0:0:0:
320,192,14956,1,8,0:0:0:0:
320,192,15054,1,0,0:0:0:0:
320,192,15151,1,8,0:0:0:0:
320,192,15346,1,0,0:0:0:0:
320,192,15443,1,8,0:0:0:0:
320,192,15541,1,0,0:0:0:0:
320,192,15638,1,0,0:0:0:0:
320,192,15736,1,8,0:0:0:0:
280,200,15930,1,0,0:0:0:0:
280,200,16125,1,8,0:0:0:0:
280,200,16320,1,8,0:0:0:0:
280,200,16417,1,0,0:0:0:0:
280,200,16515,1,8,0:0:0:0:
280,200,16612,1,8,0:0:0:0:
280,200,16710,1,0,0:0:0:0:
280,200,16904,1,0,0:0:0:0:
280,200,17099,1,8,0:0:0:0:
280,200,17294,1,0,0:0:0:0:
280,200,17391,1,8,0:0:0:0:
280,200,17489,1,0,0:0:0:0:
280,200,17684,1,8,0:0:0:0:
280,200,17878,1,0,0:0:0:0:
280,200,17976,1,0,0:0:0:0:
280,200,18073,1,8,0:0:0:0:
280,200,18268,1,0,0:0:0:0:
280,200,18463,1,8,0:0:0:0:
280,200,18658,1,0,0:0:0:0:
280,200,18852,1,0,0:0:0:0:
280,200,18950,1,8,0:0:0:0:
280,200,19047,1,0,0:0:0:0:
280,200,19145,1,0,0:0:0:0:
280,200,19242,1,8,0:0:0:0:
280,200,19437,1,0,0:0:0:0:
280,200,19632,1,8,0:0:0:0:
280,200,19729,1,0,0:0:0:0:
280,200,19826,1,8,0:0:0:0:
272,224,19924,1,8,0:0:0:0:
280,200,20021,1,0,0:0:0:0:
280,200,20216,1,8,0:0:0:0:
280,200,20411,1,0,0:0:0:0:
280,200,20508,1,8,0:0:0:0:
280,200,20606,1,0,0:0:0:0:
280,200,20703,1,0,0:0:0:0:
280,200,20800,1,8,0:0:0:0:
280,200,20995,1,0,0:0:0:0:
272,208,21190,1,0,0:0:0:0:
272,208,21287,1,8,0:0:0:0:
272,208,21385,1,0,0:0:0:0:
272,208,21580,1,8,0:0:0:0:
272,208,21774,1,8,0:0:0:0:
272,208,21872,1,8,0:0:0:0:
272,208,21969,1,0,0:0:0:0:
272,208,22164,1,0,0:0:0:0:
272,208,22359,1,8,0:0:0:0:
272,208,22554,1,8,0:0:0:0:
272,208,22651,1,8,0:0:0:0:
272,208,22749,1,0,0:0:0:0:
272,208,22943,1,8,0:0:0:0:
272,208,23138,1,0,0:0:0:0:
272,208,23333,1,8,0:0:0:0:
272,208,23430,1,8,0:0:0:0:
272,208,23528,1,0,0:0:0:0:
272,208,23625,1,8,0:0:0:0:
272,208,23723,1,0,0:0:0:0:
272,208,23917,1,8,0:0:0:0:
256,208,24015,1,8,0:0:0:0:
272,208,24112,1,0,0:0:0:0:
256,208,24307,1,0,0:0:0:0:
256,208,24502,1,8,0:0:0:0:
256,208,24599,1,0,0:0:0:0:
256,208,24697,1,8,0:0:0:0:
256,208,24891,1,0,0:0:0:0:
256,208,25086,1,8,0:0:0:0:
256,208,25184,1,8,0:0:0:0:
256,208,25281,1,0,0:0:0:0:
256,208,25378,1,0,0:0:0:0:
256,208,25476,1,8,0:0:0:0:
256,208,25671,1,0,0:0:0:0:
256,208,25865,1,8,0:0:0:0:
256,208,25963,1,8,0:0:0:0:
256,208,26060,1,0,0:0:0:0:
256,208,26255,1,8,0:0:0:0:
256,208,26352,1,0,0:0:0:0:
256,208,26450,1,8,0:0:0:0:
256,208,26645,1,4,0:0:0:0:
256,176,26839,1,8,0:0:0:0:
272,192,26937,1,8,0:0:0:0:
272,192,27034,1,0,0:0:0:0:
272,192,27229,1,0,0:0:0:0:
272,192,27424,1,8,0:0:0:0:
288,192,27619,1,0,0:0:0:0:
288,192,27813,1,0,0:0:0:0:
288,192,28008,1,8,0:0:0:0:
288,176,28398,1,0,0:0:0:0:
288,176,28593,1,8,0:0:0:0:
288,176,28787,1,0,0:0:0:0:
288,176,28982,1,8,0:0:0:0:
272,192,29372,1,8,0:0:0:0:
272,192,29762,1,0,0:0:0:0:
272,192,29956,1,8,0:0:0:0:
272,192,30054,1,8,0:0:0:0:
272,192,30151,1,8,0:0:0:0:
272,192,30346,1,0,0:0:0:0:
272,192,30541,1,8,0:0:0:0:
272,192,30930,1,8,0:0:0:0:
272,192,31125,1,0,0:0:0:0:
272,192,31515,1,0,0:0:0:0:
272,192,31710,1,8,0:0:0:0:
272,192,31904,1,8,0:0:0:0:
272,192,32099,1,0,0:0:0:0:
272,192,32489,1,8,0:0:0:0:
272,192,32684,1,0,0:0:0:0:
272,192,32781,1,0,0:0:0:0:
272,192,32878,1,0,0:0:0:0:
272,192,33073,1,8,0:0:0:0:
272,192,33171,1,0,0:0:0:0:
272,192,33268,1,8,0:0:0:0:
272,208,33463,1,0,0:0:0:0:
272,208,33658,1,8,0:0:0:0:
272,208,33852,1,8,0:0:0:0:
272,208,34047,1,0,0:0:0:0:
272,208,34242,1,8,0:0:0:0:
272,208,34632,1,8,0:0:0:0:
272,208,34826,1,0,0:0:0:0:
272,208,35021,1,8,0:0:0:0:
272,208,35216,1,8,0:0:0:0:
272,208,35606,1,8,0:0:0:0:
272,192,35800,1,0,0:0:0:0:
272,192,35898,1,0,0:0:0:0:
272,208,35995,1,0,0:0:0:0:
272,208,36190,1,0,0:0:0:0:
272,208,36385,1,8,0:0:0:0:
272,208,36580,1,0,0:0:0:0:
272,208,36774,1,0,0:0:0:0:
272,208,36969,1,8,0:0:0:0:
272,176,37164,1,8,0:0:0:0:
288,208,37359,1,0,0:0:0:0:
288,208,37749,1,8,0:0:0:0:
288,208,37943,1,0,0:0:0:0:
288,192,38333,1,0,0:0:0:0:
288,192,38723,1,8,0:0:0:0:
304,192,38820,1,8,0:0:0:0:
288,192,38917,1,8,0:0:0:0:
304,192,39112,1,0,0:0:0:0:
304,192,39307,1,8,0:0:0:0:
304,192,39502,1,0,0:0:0:0:
304,192,39697,1,0,0:0:0:0:
304,192,39891,1,8,0:0:0:0:
304,192,40281,1,8,0:0:0:0:
304,192,40476,1,0,0:0:0:0:
288,192,40573,1,0,0:0:0:0:
288,192,40671,1,0,0:0:0:0:
288,192,40865,1,8,0:0:0:0:
288,192,41060,1,0,0:0:0:0:
288,192,41255,1,0,0:0:0:0:
288,192,41352,1,0,0:0:0:0:
288,192,41450,1,8,0:0:0:0:
288,192,41645,1,0,0:0:0:0:
288,192,41839,1,8,0:0:0:0:
320,192,42229,1,0,0:0:0:0:
320,192,42424,1,0,0:0:0:0:
304,192,42521,1,0,0:0:0:0:
320,192,42619,1,8,0:0:0:0:
304,192,42813,1,0,0:0:0:0:
304,192,43008,1,8,0:0:0:0:
304,192,43203,1,8,0:0:0:0:
304,192,43398,1,0,0:0:0:0:
304,192,43593,1,8,0:0:0:0:
304,208,43982,1,0,0:0:0:0:
304,208,44177,1,8,0:0:0:0:
304,208,44372,1,8,0:0:0:0:
304,192,44469,1,0,0:0:0:0:
304,192,44567,1,8,0:0:0:0:
304,192,44762,1,0,0:0:0:0:
304,192,44956,1,8,0:0:0:0:
352,192,45346,1,0,0:0:0:0:
320,192,45541,1,8,0:0:0:0:
320,192,45638,1,8,0:0:0:0:
320,192,45736,1,8,0:0:0:0:
320,192,45930,1,0,0:0:0:0:
272,192,46125,1,8,0:0:0:0:
304,192,46320,1,8,0:0:0:0:
304,192,46515,1,0,0:0:0:0:
304,192,46710,1,8,0:0:0:0:
304,192,47099,1,0,0:0:0:0:
304,192,47294,1,8,0:0:0:0:
304,192,47684,1,8,0:0:0:0:
304,192,47878,1,0,0:0:0:0:
304,192,48073,1,8,0:0:0:0:
304,192,48268,1,0,0:0:0:0:
304,192,48658,1,0,0:0:0:0:
304,192,48755,1,0,0:0:0:0:
304,192,48852,1,8,0:0:0:0:
288,208,49047,1,0,0:0:0:0:
288,208,49242,1,8,0:0:0:0:
288,208,49437,1,8,0:0:0:0:
288,208,49534,1,0,0:0:0:0:
288,208,49632,1,8,0:0:0:0:
288,208,49826,1,0,0:0:0:0:
288,208,50021,1,8,0:0:0:0:
288,208,50216,1,0,0:0:0:0:
288,208,50313,1,0,0:0:0:0:
288,208,50411,1,8,0:0:0:0:
288,208,50606,1,0,0:0:0:0:
288,208,50800,1,0,0:0:0:0:
288,208,50995,1,8,0:0:0:0:
288,208,51190,1,0,0:0:0:0:
288,208,51385,1,8,0:0:0:0:
288,208,51580,1,0,0:0:0:0:
288,192,51969,1,8,0:0:0:0:
288,192,52164,1,8,0:0:0:0:
288,192,52359,1,0,0:0:0:0:
288,208,52554,1,0,0:0:0:0:
288,208,52749,1,8,0:0:0:0:
288,208,52943,1,0,0:0:0:0:
288,208,53138,1,12,0:0:0:0:
288,208,53528,1,12,0:0:0:0:
288,208,53917,1,4,0:0:0:0:
288,208,54307,1,12,0:0:0:0:
288,208,54502,1,8,0:0:0:0:
288,208,54697,1,4,0:0:0:0:
272,192,54891,1,0,0:0:0:0:
272,192,54989,1,0,0:0:0:0:
272,192,55086,1,0,0:0:0:0:
272,192,55184,1,8,0:0:0:0:
272,192,55378,1,8,0:0:0:0:
272,208,55476,1,0,0:0:0:0:
272,208,55671,1,0,0:0:0:0:
272,192,55768,1,8,0:0:0:0:
272,192,55963,1,0,0:0:0:0:
272,192,56060,1,8,0:0:0:0:
272,192,56158,1,8,0:0:0:0:
272,192,56255,1,0,0:0:0:0:
272,176,56450,1,0,0:0:0:0:
272,176,56645,1,8,0:0:0:0:
256,192,56839,1,8,0:0:0:0:
256,192,56937,1,8,0:0:0:0:
256,192,57034,1,0,0:0:0:0:
272,176,57132,1,8,0:0:0:0:
272,192,57229,1,0,0:0:0:0:
272,192,57424,1,8,0:0:0:0:
272,160,57619,1,0,0:0:0:0:
272,160,57813,1,0,0:0:0:0:
272,160,57911,1,8,0:0:0:0:
272,160,58008,1,0,0:0:0:0:
272,160,58106,1,0,0:0:0:0:
272,160,58203,1,8,0:0:0:0:
272,144,58398,1,0,0:0:0:0:
272,144,58495,1,8,0:0:0:0:
272,144,58690,1,8,0:0:0:0:
272,144,58787,1,0,0:0:0:0:
272,144,58885,1,8,0:0:0:0:
272,144,59177,1,0,0:0:0:0:
256,160,59274,1,8,0:0:0:0:
256,160,59372,1,0,0:0:0:0:
256,160,59567,1,8,0:0:0:0:
256,160,59762,1,0,0:0:0:0:
256,160,59956,1,0,0:0:0:0:
256,160,60151,1,8,0:0:0:0:
256,160,60346,1,0,0:0:0:0:
256,160,60736,1,8,0:0:0:0:
256,160,60930,1,0,0:0:0:0:
256,160,61028,1,8,0:0:0:0:
256,160,61125,1,0,0:0:0:0:
272,144,61320,1,0,0:0:0:0:
256,160,61417,1,0,0:0:0:0:
272,144,61515,1,0,0:0:0:0:
272,144,61710,1,8,0:0:0:0:
304,144,61807,1,0,0:0:0:0:
272,144,62002,1,0,0:0:0:0:
272,144,62099,1,8,0:0:0:0:
272,144,62197,1,0,0:0:0:0:
272,144,62294,1,8,0:0:0:0:
272,128,62489,1,0,0:0:0:0:
272,144,62684,1,8,0:0:0:0:
272,144,62781,1,8,0:0:0:0:
272,144,62878,1,0,0:0:0:0:
272,160,63073,1,0,0:0:0:0:
272,160,63268,1,8,0:0:0:0:
272,144,63365,1,0,0:0:0:0:
272,160,63463,1,8,0:0:0:0:
272,144,63560,1,0,0:0:0:0:
272,144,63755,1,0,0:0:0:0:
272,144,63852,1,8,0:0:0:0:
272,144,64047,1,0,0:0:0:0:
272,144,64242,1,8,0:0:0:0:
272,144,64339,1,0,0:0:0:0:
272,144,64534,1,8,0:0:0:0:
272,144,64729,1,8,0:0:0:0:
256,160,64826,1,0,0:0:0:0:
256,144,65021,1,0,0:0:0:0:
256,144,65216,1,8,0:0:0:0:
256,144,65313,1,8,0:0:0:0:
256,144,65411,1,0,0:0:0:0:
256,144,65606,1,0,0:0:0:0:
256,144,65800,1,8,0:0:0:0:
256,144,65898,1,0,0:0:0:0:
256,144,66093,1,8,0:0:0:0:
272,144,66287,1,8,0:0:0:0:
272,144,66482,1,0,0:0:0:0:
272,144,66677,1,0,0:0:0:0:
272,144,66774,1,8,0:0:0:0:
256,144,66872,1,8,0:0:0:0:
256,144,66969,1,0,0:0:0:0:
304,160,67164,1,8,0:0:0:0:
288,144,67359,1,8,0:0:0:0:
288,144,67456,1,8,0:0:0:0:
288,144,67554,1,0,0:0:0:0:
288,144,67749,1,8,0:0:0:0:
272,128,67846,1,0,0:0:0:0:
272,128,68041,1,8,0:0:0:0:
272,128,68138,1,0,0:0:0:0:
272,128,68333,1,8,0:0:0:0:
272,128,68528,1,0,0:0:0:0:
288,128,68625,1,8,0:0:0:0:
288,128,68723,1,0,0:0:0:0:
288,128,68917,1,8,0:0:0:0:
288,128,69015,1,8,0:0:0:0:
288,128,69112,1,0,0:0:0:0:
288,96,69210,1,8,0:0:0:0:
288,128,69307,1,0,0:0:0:0:
288,128,69502,1,0,0:0:0:0:
288,128,69599,1,0,0:0:0:0:
288,128,69697,1,8,0:0:0:0:
288,128,69891,1,0,0:0:0:0:
288,112,70086,1,8,0:0:0:0:
288,112,70184,1,8,0:0:0:0:
288,112,70281,1,0,0:0:0:0:
288,96,70476,1,0,0:0:0:0:
288,96,70671,1,8,0:0:0:0:
288,96,70865,1,0,0:0:0:0:
272,112,71060,1,8,0:0:0:0:
272,112,71450,1,0,0:0:0:0:
272,112,71547,1,8,0:0:0:0:
272,112,71645,1,0,0:0:0:0:
272,128,71839,1,8,0:0:0:0:
272,128,72034,1,0,0:0:0:0:
272,128,72229,1,8,0:0:0:0:
256,128,72424,1,8,0:0:0:0:
256,144,72521,1,0,0:0:0:0:
272,128,72619,1,8,0:0:0:0:
256,128,72813,1,0,0:0:0:0:
256,128,73008,1,8,0:0:0:0:
256,128,73398,1,8,0:0:0:0:
256,128,73593,1,0,0:0:0:0:
256,128,73787,1,8,0:0:0:0:
272,128,73982,1,0,0:0:0:0:
256,128,74080,1,0,0:0:0:0:
272,128,74177,1,0,0:0:0:0:
256,128,74372,1,8,0:0:0:0:
256,128,74567,1,0,0:0:0:0:
256,128,74762,1,8,0:0:0:0:
256,128,75151,1,0,0:0:0:0:
256,128,75346,1,8,0:0:0:0:
256,128,75541,1,8,0:0:0:0:
256,128,75638,1,8,0:0:0:0:
256,128,75736,1,0,0:0:0:0:
272,128,75930,1,8,0:0:0:0:
272,128,76028,1,0,0:0:0:0:
272,128,76125,1,8,0:0:0:0:
256,128,76515,1,0,0:0:0:0:
256,128,76904,1,8,0:0:0:0:
256,144,77294,1,0,0:0:0:0:
256,144,77489,1,8,0:0:0:0:
256,144,77878,1,8,0:0:0:0:
256,144,78268,1,0,0:0:0:0:
256,144,78463,1,8,0:0:0:0:
256,160,78658,1,0,0:0:0:0:
256,160,78852,1,0,0:0:0:0:
256,160,79047,1,8,0:0:0:0:
256,160,79242,1,8,0:0:0:0:
256,144,79437,1,0,0:0:0:0:
256,144,79534,1,8,0:0:0:0:
256,144,79632,1,8,0:0:0:0:
256,144,79826,1,0,0:0:0:0:
256,144,80021,1,8,0:0:0:0:
256,144,80216,1,8,0:0:0:0:
256,144,80606,1,0,0:0:0:0:
256,144,80800,1,8,0:0:0:0:
256,144,80995,1,0,0:0:0:0:
256,144,81385,1,0,0:0:0:0:
256,144,81482,1,0,0:0:0:0:
256,144,81580,1,8,0:0:0:0:
256,112,81774,1,0,0:0:0:0:
256,112,81969,1,8,0:0:0:0:
256,112,82164,1,8,0:0:0:0:
256,112,82262,1,8,0:0:0:0:
256,112,82359,1,0,0:0:0:0:
256,112,82554,1,8,0:0:0:0:
256,112,82749,1,4,0:0:0:0:
256,112,82943,1,8,0:0:0:0:
256,112,83041,1,8,0:0:0:0:
256,112,83138,1,0,0:0:0:0:
256,112,83333,1,8,0:0:0:0:
256,112,83528,1,0,0:0:0:0:
256,112,83723,1,0,0:0:0:0:
256,112,83917,1,8,0:0:0:0:
256,112,84112,1,0,0:0:0:0:
256,112,84502,1,0,0:0:0:0:
256,112,84697,1,8,0:0:0:0:
256,112,84891,1,0,0:0:0:0:
256,112,85086,1,0,0:0:0:0:
256,112,85476,1,8,0:0:0:0:
256,112,85865,1,0,0:0:0:0:
256,112,86060,1,0,0:0:0:0:
256,112,86255,1,8,0:0:0:0:
256,112,86450,1,0,0:0:0:0:
256,112,86645,1,8,0:0:0:0:
256,128,87034,1,8,0:0:0:0:
256,128,87229,1,0,0:0:0:0:
256,112,87619,1,0,0:0:0:0:
256,112,87813,1,8,0:0:0:0:
288,128,88008,1,0,0:0:0:0:
288,128,88203,1,8,0:0:0:0:
272,128,88593,1,0,0:0:0:0:
272,128,88982,1,0,0:0:0:0:
272,112,89177,1,8,0:0:0:0:
272,112,89274,1,8,0:0:0:0:
272,112,89372,1,0,0:0:0:0:
272,112,89567,1,8,0:0:0:0:
272,112,89762,1,0,0:0:0:0:
272,128,89956,1,0,0:0:0:0:
272,128,90054,1,0,0:0:0:0:
272,128,90151,1,8,0:0:0:0:
272,128,90346,1,0,0:0:0:0:
272,128,90736,1,0,0:0:0:0:
272,128,90930,1,8,0:0:0:0:
256,112,91125,1,0,0:0:0:0:
256,112,91320,1,8,0:0:0:0:
288,128,91710,1,8,0:0:0:0:
288,128,92099,1,0,0:0:0:0:
288,128,92294,1,0,0:0:0:0:
288,128,92684,1,8,0:0:0:0:
304,144,92878,1,0,0:0:0:0:
304,144,93073,1,0,0:0:0:0:
304,160,93171,1,8,0:0:0:0:
304,160,93268,1,0,0:0:0:0:
288,160,93463,1,8,0:0:0:0:
304,160,93658,1,0,0:0:0:0:
288,160,93852,1,0,0:0:0:0:
288,160,93950,1,0,0:0:0:0:
288,160,94047,1,8,0:0:0:0:
288,160,94242,1,0,0:0:0:0:
288,160,94339,1,8,0:0:0:0:
288,160,94437,1,0,0:0:0:0:
288,160,94534,1,8,0:0:0:0:
288,160,94632,1,0,0:0:0:0:
288,160,94826,1,8,0:0:0:0:
288,160,94924,1,8,0:0:0:0:
288,160,95021,1,0,0:0:0:0:
288,160,95216,1,0,0:0:0:0:
288,160,95606,1,8,0:0:0:0:
288,160,95995,1,0,0:0:0:0:
304,160,96190,1,8,0:0:0:0:
304,160,96385,1,0,0:0:0:0:
304,160,96580,1,8,0:0:0:0:
304,160,96969,1,0,0:0:0:0:
304,160,97164,1,8,0:0:0:0:
304,160,97359,1,8,0:0:0:0:
288,160,97456,1,8,0:0:0:0:
288,160,97554,1,0,0:0:0:0:
288,160,97749,1,0,0:0:0:0:
288,176,97846,1,8,0:0:0:0:
288,176,97943,1,0,0:0:0:0:
288,176,98138,1,8,0:0:0:0:
288,176,98333,1,0,0:0:0:0:
288,176,98723,1,8,0:0:0:0:
304,160,98917,1,8,0:0:0:0:
304,160,99112,1,0,0:0:0:0:
304,160,99307,1,8,0:0:0:0:
304,160,99697,1,0,0:0:0:0:
304,160,100086,1,0,0:0:0:0:
304,160,100281,1,8,0:0:0:0:
304,160,100476,1,8,0:0:0:0:
304,160,100573,1,8,0:0:0:0:
304,160,100671,1,0,0:0:0:0:
304,160,100865,1,0,0:0:0:0:
304,160,100963,1,0,0:0:0:0:
304,160,101060,1,8,0:0:0:0:
304,160,101255,1,8,0:0:0:0:
304,160,101450,1,0,0:0:0:0:
304,160,101839,1,8,0:0:0:0:
304,160,102229,1,0,0:0:0:0:
304,160,102424,1,0,0:0:0:0:
304,160,102619,1,8,0:0:0:0:
304,160,102813,1,8,0:0:0:0:
304,160,103008,1,0,0:0:0:0:
304,160,103398,1,8,0:0:0:0:
304,160,103690,1,0,0:0:0:0:
304,160,103787,1,0,0:0:0:0:
288,160,103885,1,8,0:0:0:0:
288,160,103982,1,0,0:0:0:0:
304,160,104177,1,8,0:0:0:0:
304,160,104274,1,8,0:0:0:0:
304,160,104372,1,0,0:0:0:0:
304,160,104567,1,8,0:0:0:0:
304,160,104762,1,0,0:0:0:0:
304,160,104859,1,0,0:0:0:0:
304,160,104956,1,8,0:0:0:0:
304,160,105151,1,0,0:0:0:0:
304,160,105346,1,8,0:0:0:0:
304,160,105736,1,8,0:0:0:0:
336,144,105930,1,0,0:0:0:0:
304,160,106125,1,8,0:0:0:0:
304,144,106515,1,0,0:0:0:0:
288,144,106710,1,0,0:0:0:0:
288,144,106904,1,8,0:0:0:0:
288,144,107099,1,8,0:0:0:0:
288,144,107294,1,0,0:0:0:0:
288,144,107489,1,8,0:0:0:0:
288,144,107684,1,0,0:0:0:0:
288,144,107878,1,8,0:0:0:0:
288,144,107976,1,8,0:0:0:0:
288,144,108073,1,0,0:0:0:0:
288,144,108268,1,8,0:0:0:0:
288,144,108463,1,0,0:0:0:0:
288,144,108658,1,8,0:0:0:0:
272,144,108755,1,0,0:0:0:0:
272,144,108852,1,8,0:0:0:0:
288,144,109047,1,0,0:0:0:0:
288,208,109242,1,12,0:0:0:0:
288,208,109632,1,12,0:0:0:0:
288,208,110021,1,4,0:0:0:0:
288,208,110411,1,12,0:0:0:0:
288,208,110606,1,8,0:0:0:0:
288,208,110801,1,4,0:0:0:0:
272,192,110995,1,0,0:0:0:0:
272,192,111093,1,8,0:0:0:0:
272,192,111288,1,8,0:0:0:0:
272,192,111482,1,8,0:0:0:0:
272,208,111580,1,0,0:0:0:0:
272,208,111775,1,0,0:0:0:0:
272,192,111872,1,8,0:0:0:0:
272,192,112067,1,0,0:0:0:0:
272,192,112164,1,8,0:0:0:0:
272,192,112262,1,8,0:0:0:0:
272,192,112359,1,0,0:0:0:0:
272,176,112554,1,0,0:0:0:0:
272,176,112651,1,8,0:0:0:0:
256,192,112749,1,8,0:0:0:0:
256,192,112943,1,0,0:0:0:0:
272,176,113138,1,8,0:0:0:0:
288,176,113236,1,8,0:0:0:0:
272,192,113333,1,0,0:0:0:0:
288,176,113430,1,8,0:0:0:0:
272,192,113625,1,0,0:0:0:0:
272,160,113723,1,8,0:0:0:0:
272,160,113917,1,0,0:0:0:0:
272,160,114112,1,8,0:0:0:0:
272,160,114210,1,0,0:0:0:0:
272,160,114307,1,8,0:0:0:0:
272,144,114404,1,8,0:0:0:0:
272,144,114502,1,0,0:0:0:0:
272,144,114697,1,8,0:0:0:0:
272,144,114891,1,0,0:0:0:0:
272,144,114989,1,8,0:0:0:0:
272,144,115184,1,0,0:0:0:0:
256,160,115378,1,8,0:0:0:0:
256,160,115476,1,0,0:0:0:0:
256,160,115671,1,8,0:0:0:0:
256,160,115866,1,8,0:0:0:0:
256,160,116060,1,0,0:0:0:0:
288,128,116255,1,0,0:0:0:0:
288,128,116450,1,8,0:0:0:0:
256,160,116840,1,0,0:0:0:0:
256,160,117034,1,0,0:0:0:0:
256,160,117132,1,8,0:0:0:0:
256,160,117229,1,0,0:0:0:0:
272,144,117424,1,0,0:0:0:0:
272,144,117619,1,0,0:0:0:0:
272,144,117716,1,8,0:0:0:0:
304,144,117911,1,0,0:0:0:0:
272,144,118106,1,8,0:0:0:0:
272,144,118203,1,0,0:0:0:0:
272,144,118398,1,8,0:0:0:0:
272,128,118593,1,0,0:0:0:0:
272,144,118788,1,8,0:0:0:0:
272,144,118885,1,8,0:0:0:0:
272,144,118982,1,0,0:0:0:0:
272,160,119177,1,0,0:0:0:0:
272,160,119372,1,8,0:0:0:0:
272,144,119469,1,0,0:0:0:0:
272,160,119567,1,8,0:0:0:0:
272,144,119664,1,0,0:0:0:0:
272,144,119859,1,0,0:0:0:0:
272,144,119956,1,8,0:0:0:0:
224,144,120054,1,8,0:0:0:0:
272,144,120151,1,0,0:0:0:0:
272,144,120346,1,8,0:0:0:0:
272,144,120443,1,0,0:0:0:0:
272,144,120638,1,8,0:0:0:0:
256,160,120833,1,0,0:0:0:0:
256,144,121125,1,0,0:0:0:0:
256,144,121320,1,8,0:0:0:0:
256,144,121417,1,8,0:0:0:0:
256,144,121515,1,0,0:0:0:0:
256,144,121710,1,0,0:0:0:0:
256,144,121904,1,0,0:0:0:0:
256,144,122002,1,8,0:0:0:0:
256,144,122197,1,0,0:0:0:0:
272,144,122391,1,8,0:0:0:0:
272,144,122586,1,0,0:0:0:0:
272,144,122684,1,8,0:0:0:0:
272,144,122878,1,8,0:0:0:0:
256,144,122976,1,8,0:0:0:0:
256,144,123073,1,0,0:0:0:0:
304,160,123268,1,8,0:0:0:0:
288,144,123463,1,0,0:0:0:0:
288,144,123658,1,0,0:0:0:0:
288,144,123853,1,8,0:0:0:0:
272,128,123950,1,0,0:0:0:0:
288,144,124047,1,8,0:0:0:0:
272,128,124145,1,8,0:0:0:0:
272,128,124242,1,0,0:0:0:0:
272,128,124437,1,8,0:0:0:0:
272,128,124632,1,0,0:0:0:0:
288,128,124729,1,8,0:0:0:0:
288,128,124827,1,0,0:0:0:0:
288,128,125021,1,8,0:0:0:0:
288,128,125119,1,8,0:0:0:0:
288,128,125216,1,0,0:0:0:0:
288,96,125314,1,8,0:0:0:0:
288,128,125411,1,0,0:0:0:0:
288,128,125606,1,8,0:0:0:0:
288,128,125703,1,0,0:0:0:0:
288,128,125801,1,8,0:0:0:0:
288,128,125995,1,0,0:0:0:0:
288,112,126190,1,8,0:0:0:0:
288,112,126288,1,8,0:0:0:0:
288,112,126385,1,0,0:0:0:0:
288,96,126580,1,0,0:0:0:0:
288,96,126775,1,8,0:0:0:0:
288,96,126969,1,0,0:0:0:0:
304,144,127359,1,0,0:0:0:0:
304,144,127554,1,8,0:0:0:0:
256,160,127749,1,8,0:0:0:0:
256,192,127846,1,8,0:0:0:0:
256,192,127943,1,0,0:0:0:0:
256,192,128236,1,0,0:0:0:0:
256,192,128528,1,8,0:0:0:0:
256,192,128723,1,0,0:0:0:0:
256,192,128917,1,0,0:0:0:0:
256,192,129112,1,8,0:0:0:0:
256,192,129210,1,8,0:0:0:0:
256,192,129307,1,0,0:0:0:0:
256,192,129502,1,0,0:0:0:0:
272,176,129891,1,8,0:0:0:0:
272,176,130086,1,0,0:0:0:0:
272,176,130476,1,0,0:0:0:0:
272,176,130671,1,8,0:0:0:0:
272,176,130768,1,8,0:0:0:0:
272,176,130865,1,8,0:0:0:0:
272,176,131060,1,0,0:0:0:0:
272,176,131450,1,8,0:0:0:0:
272,176,131645,1,0,0:0:0:0:
272,176,132034,1,0,0:0:0:0:
272,176,132229,1,8,0:0:0:0:
272,176,132326,1,0,0:0:0:0:
272,176,132424,1,8,0:0:0:0:
288,160,132619,1,0,0:0:0:0:
288,160,132813,1,0,0:0:0:0:
288,160,133008,1,8,0:0:0:0:
288,160,133106,1,8,0:0:0:0:
288,160,133203,1,0,0:0:0:0:
288,160,133398,1,0,0:0:0:0:
288,160,133593,1,8,0:0:0:0:
288,160,133690,1,0,0:0:0:0:
288,160,133787,1,8,0:0:0:0:
288,160,133982,1,0,0:0:0:0:
304,160,134177,1,8,0:0:0:0:
288,160,134274,1,8,0:0:0:0:
288,176,134372,1,0,0:0:0:0:
272,144,134567,1,0,0:0:0:0:
272,144,134762,1,8,0:0:0:0:
272,144,134859,1,0,0:0:0:0:
272,144,134956,1,8,0:0:0:0:
272,144,135151,1,0,0:0:0:0:
272,144,135249,1,0,0:0:0:0:
272,144,135346,1,8,0:0:0:0:
272,144,135443,1,8,0:0:0:0:
272,144,135541,1,0,0:0:0:0:
272,144,135736,1,0,0:0:0:0:
256,144,135930,1,0,0:0:0:0:
256,144,136028,1,0,0:0:0:0:
272,144,136125,1,8,0:0:0:0:
272,144,136320,1,0,0:0:0:0:
256,144,136515,1,0,0:0:0:0:
256,144,136612,1,8,0:0:0:0:
272,144,136710,1,0,0:0:0:0:
272,144,136904,1,8,0:0:0:0:
272,144,137002,1,0,0:0:0:0:
272,144,137099,1,8,0:0:0:0:
272,144,137294,1,0,0:0:0:0:
272,160,137684,1,8,0:0:0:0:
272,160,137878,1,0,0:0:0:0:
272,160,138268,1,0,0:0:0:0:
272,160,138463,1,8,0:0:0:0:
272,160,138560,1,0,0:0:0:0:
272,160,138658,1,8,0:0:0:0:
272,160,138852,1,0,0:0:0:0:
256,160,139242,1,8,0:0:0:0:
256,160,139632,1,0,0:0:0:0:
256,160,139826,1,8,0:0:0:0:
256,160,140021,1,0,0:0:0:0:
256,160,140216,1,8,0:0:0:0:
256,160,140606,1,0,0:0:0:0:
256,160,140995,1,8,0:0:0:0:
256,160,141385,1,8,0:0:0:0:
256,160,141774,1,8,0:0:0:0:
256,160,141969,1,0,0:0:0:0:
256,160,142164,1,0,0:0:0:0:
256,160,142359,1,8,0:0:0:0:
256,160,142554,1,0,0:0:0:0:
256,160,142749,1,8,0:0:0:0:
256,160,142943,1,0,0:0:0:0:
256,160,143041,1,0,0:0:0:0:
256,160,143138,1,8,0:0:0:0:
224,160,143333,1,0,0:0:0:0:
288,160,143528,1,8,0:0:0:0:
288,160,143917,1,8,0:0:0:0:
288,160,144307,1,0,0:0:0:0:
288,160,144697,1,8,0:0:0:0:
320,176,145086,1,0,0:0:0:0:
320,176,145281,1,8,0:0:0:0:
320,176,145378,1,8,0:0:0:0:
320,176,145476,1,0,0:0:0:0:
304,160,145671,1,0,0:0:0:0:
304,160,145865,1,8,0:0:0:0:
304,176,146060,1,0,0:0:0:0:
304,176,146255,1,8,0:0:0:0:
336,192,146450,1,8,0:0:0:0:
336,208,146839,1,0,0:0:0:0:
336,208,147229,1,8,0:0:0:0:
336,208,147619,1,8,0:0:0:0:
320,208,147813,1,0,0:0:0:0:
320,208,148008,1,8,0:0:0:0:
320,208,148398,1,0,0:0:0:0:
320,224,148495,1,0,0:0:0:0:
320,208,148593,1,8,0:0:0:0:
320,208,148787,1,8,0:0:0:0:
320,224,149177,1,8,0:0:0:0:
304,224,149372,1,8,0:0:0:0:
304,224,149469,1,0,0:0:0:0:
304,224,149567,1,0,0:0:0:0:
304,224,149762,1,0,0:0:0:0:
304,224,149956,1,8,0:0:0:0:
304,224,150151,1,0,0:0:0:0:
304,224,150346,1,0,0:0:0:0:
304,224,150541,1,8,0:0:0:0:
304,224,150930,1,8,0:0:0:0:
304,224,151125,1,0,0:0:0:0:
288,240,151223,1,0,0:0:0:0:
304,224,151320,1,0,0:0:0:0:
288,240,151515,1,8,0:0:0:0:
288,240,151612,1,8,0:0:0:0:
288,240,151710,1,0,0:0:0:0:
288,240,151904,1,0,0:0:0:0:
288,240,152099,1,8,0:0:0:0:
288,240,152294,1,8,0:0:0:0:
288,240,152489,1,0,0:0:0:0:
304,224,152684,1,8,0:0:0:0:
304,208,153073,1,8,0:0:0:0:
304,208,153268,1,0,0:0:0:0:
304,208,153463,1,0,0:0:0:0:
304,208,153658,1,8,0:0:0:0:
304,192,154047,1,8,0:0:0:0:
304,208,154437,1,0,0:0:0:0:
304,208,154632,1,0,0:0:0:0:
304,208,154826,1,8,0:0:0:0:
304,208,155021,1,8,0:0:0:0:
320,224,155119,1,8,0:0:0:0:
304,208,155216,1,0,0:0:0:0:
320,224,155411,1,8,0:0:0:0:
320,224,155606,1,0,0:0:0:0:
320,224,155800,1,8,0:0:0:0:
320,224,156190,1,0,0:0:0:0:
320,224,156385,1,8,0:0:0:0:
320,224,156580,1,0,0:0:0:0:
320,224,156774,1,8,0:0:0:0:
320,224,157164,1,0,0:0:0:0:
320,224,157359,1,8,0:0:0:0:
320,224,157554,1,0,0:0:0:0:
320,224,157749,1,0,0:0:0:0:
320,224,157846,1,8,0:0:0:0:
320,224,157943,1,8,0:0:0:0:
320,224,158138,1,0,0:0:0:0:
320,224,158333,1,8,0:0:0:0:
320,224,158528,1,0,0:0:0:0:
320,224,158723,1,0,0:0:0:0:
320,224,158917,1,8,0:0:0:0:
320,224,159307,1,8,0:0:0:0:
320,224,159502,1,0,0:0:0:0:
320,224,159697,1,8,0:0:0:0:
320,224,159891,1,0,0:0:0:0:
320,224,160281,1,8,0:0:0:0:
320,224,160671,1,0,0:0:0:0:
320,224,160865,1,0,0:0:0:0:
320,224,161060,1,8,0:0:0:0:
320,224,161255,1,0,0:0:0:0:
320,224,161645,1,8,0:0:0:0:
320,224,162034,1,0,0:0:0:0:
320,224,162229,1,8,0:0:0:0:
336,224,162619,1,8,0:0:0:0:
336,224,163008,1,0,0:0:0:0:
320,224,163398,1,0,0:0:0:0:
320,224,163787,1,8,0:0:0:0:
320,224,164177,1,0,0:0:0:0:
320,224,164372,1,0,0:0:0:0:
320,224,164567,1,8,0:0:0:0:
320,224,164762,1,8,0:0:0:0:
320,224,164956,1,0,0:0:0:0:
320,224,165151,1,8,0:0:0:0:
320,224,165541,1,0,0:0:0:0:
320,224,165736,1,8,0:0:0:0:
320,224,165930,1,8,0:0:0:0:
320,224,166028,1,8,0:0:0:0:
320,224,166125,1,0,0:0:0:0:
320,224,166320,1,8,0:0:0:0:
320,240,166417,1,0,0:0:0:0:
320,224,166612,1,0,0:0:0:0:
304,224,166710,1,8,0:0:0:0:
304,224,166904,1,0,0:0:0:0:
304,208,167294,1,8,0:0:0:0:
304,208,167489,1,8,0:0:0:0:
304,224,167684,1,0,0:0:0:0:
304,208,167878,1,0,0:0:0:0:
304,208,168073,1,8,0:0:0:0:
304,208,168268,1,0,0:0:0:0:
288,208,168658,1,0,0:0:0:0:
288,208,168852,1,8,0:0:0:0:
288,208,169047,1,8,0:0:0:0:
288,224,169145,1,0,0:0:0:0:
288,224,169242,1,8,0:0:0:0:
288,224,169437,1,0,0:0:0:0:
288,224,169534,1,0,0:0:0:0:
288,224,169632,1,8,0:0:0:0:
288,224,169826,1,0,0:0:0:0:
288,224,170021,1,8,0:0:0:0:
288,224,170411,1,8,0:0:0:0:
288,224,170606,1,8,0:0:0:0:
288,224,170800,1,0,0:0:0:0:
288,224,170995,1,8,0:0:0:0:
288,224,171190,1,0,0:0:0:0:
288,224,171385,1,8,0:0:0:0:
288,224,171774,1,0,0:0:0:0:
288,224,171969,1,8,0:0:0:0:
288,224,172262,1,0,0:0:0:0:
288,224,172359,1,8,0:0:0:0:
288,224,172554,1,8,0:0:0:0:
288,224,172749,1,0,0:0:0:0:
288,224,172943,1,8,0:0:0:0:
288,224,173041,1,8,0:0:0:0:
288,240,173138,1,0,0:0:0:0:
288,240,173528,1,8,0:0:0:0:
288,240,173723,1,8,0:0:0:0:
288,240,173917,1,0,0:0:0:0:
288,240,174112,1,0,0:0:0:0:
272,240,174210,1,0,0:0:0:0:
272,240,174307,1,8,0:0:0:0:
272,240,174502,1,0,0:0:0:0:
272,240,174697,1,8,0:0:0:0:
272,240,175086,1,8,0:0:0:0:
272,240,175281,1,8,0:0:0:0:
256,224,175378,1,0,0:0:0:0:
256,224,175476,1,8,0:0:0:0:
256,208,175671,1,0,0:0:0:0:
256,208,175865,1,8,0:0:0:0:
272,240,176060,1,8,0:0:0:0:
272,240,176255,1,0,0:0:0:0:
256,208,176450,1,0,0:0:0:0:
256,208,176547,1,0,0:0:0:0:
256,208,176645,1,8,0:0:0:0:
256,208,176839,1,0,0:0:0:0:
256,208,176937,1,0,0:0:0:0:
256,208,177034,1,0,0:0:0:0:
256,208,177229,1,8,0:0:0:0:
256,208,177424,1,0,0:0:0:0:
256,208,177619,1,0,0:0:0:0:
288,208,177813,1,12,0:0:0:0:
288,208,178203,1,12,0:0:0:0:
288,208,178592,1,4,0:0:0:0:
288,208,178982,1,12,0:0:0:0:
288,208,179177,1,8,0:0:0:0:
288,208,179372,1,4,0:0:0:0:
272,192,179566,1,0,0:0:0:0:
272,192,179664,1,8,0:0:0:0:
272,192,179859,1,8,0:0:0:0:
272,208,179956,1,0,0:0:0:0:
272,192,180053,1,8,0:0:0:0:
304,192,180151,1,0,0:0:0:0:
272,208,180346,1,0,0:0:0:0:
288,192,180443,1,8,0:0:0:0:
272,192,180638,1,0,0:0:0:0:
272,144,180736,1,8,0:0:0:0:
272,192,180930,1,0,0:0:0:0:
272,176,181125,1,8,0:0:0:0:
272,176,181222,1,8,0:0:0:0:
256,192,181320,1,0,0:0:0:0:
256,192,181514,1,0,0:0:0:0:
272,176,181710,1,8,0:0:0:0:
288,176,181807,1,8,0:0:0:0:
272,192,181904,1,0,0:0:0:0:
288,176,182001,1,8,0:0:0:0:
272,192,182196,1,0,0:0:0:0:
272,160,182294,1,8,0:0:0:0:
272,160,182488,1,0,0:0:0:0:
272,160,182683,1,8,0:0:0:0:
272,160,182781,1,0,0:0:0:0:
272,160,182878,1,8,0:0:0:0:
272,144,182975,1,8,0:0:0:0:
272,144,183073,1,0,0:0:0:0:
272,144,183268,1,8,0:0:0:0:
272,144,183462,1,0,0:0:0:0:
272,144,183560,1,8,0:0:0:0:
272,144,183755,1,8,0:0:0:0:
272,144,183852,1,0,0:0:0:0:
256,160,183949,1,8,0:0:0:0:
256,160,184047,1,0,0:0:0:0:
256,160,184242,1,8,0:0:0:0:
272,144,184339,1,0,0:0:0:0:
256,160,184437,1,8,0:0:0:0:
256,160,184631,1,0,0:0:0:0:
288,128,184826,1,0,0:0:0:0:
272,144,184924,1,8,0:0:0:0:
272,144,185021,1,0,0:0:0:0:
272,144,185216,1,8,0:0:0:0:
256,160,185605,1,0,0:0:0:0:
256,160,185703,1,8,0:0:0:0:
256,160,185800,1,0,0:0:0:0:
272,144,185995,1,8,0:0:0:0:
272,144,186190,1,0,0:0:0:0:
272,144,186287,1,8,0:0:0:0:
272,144,186385,1,8,0:0:0:0:
256,144,186580,1,0,0:0:0:0:
272,144,186677,1,8,0:0:0:0:
288,144,186872,1,8,0:0:0:0:
288,144,186969,1,0,0:0:0:0:
272,128,187164,1,0,0:0:0:0:
272,144,187359,1,8,0:0:0:0:
272,144,187456,1,0,0:0:0:0:
272,144,187553,1,8,0:0:0:0:
272,160,187748,1,0,0:0:0:0:
272,160,187943,1,8,0:0:0:0:
272,144,188138,1,0,0:0:0:0:
272,144,188235,1,8,0:0:0:0:
272,144,188430,1,0,0:0:0:0:
272,144,188527,1,8,0:0:0:0:
224,144,188625,1,8,0:0:0:0:
272,144,188722,1,0,0:0:0:0:
272,144,188917,1,8,0:0:0:0:
272,144,189014,1,0,0:0:0:0:
272,144,189209,1,8,0:0:0:0:
256,160,189404,1,8,0:0:0:0:
256,144,189502,1,0,0:0:0:0:
256,144,189696,1,0,0:0:0:0:
256,144,189891,1,0,0:0:0:0:
256,144,189988,1,8,0:0:0:0:
256,144,190086,1,0,0:0:0:0:
256,144,190281,1,8,0:0:0:0:
256,144,190475,1,0,0:0:0:0:
256,144,190573,1,8,0:0:0:0:
256,144,190768,1,8,0:0:0:0:
272,144,190962,1,8,0:0:0:0:
256,144,191060,1,0,0:0:0:0:
272,144,191157,1,0,0:0:0:0:
272,144,191255,1,8,0:0:0:0:
272,144,191449,1,8,0:0:0:0:
256,144,191547,1,8,0:0:0:0:
256,144,191644,1,0,0:0:0:0:
304,160,191839,1,8,0:0:0:0:
256,144,191937,1,0,0:0:0:0:
256,128,192034,1,8,0:0:0:0:
256,128,192132,1,8,0:0:0:0:
288,144,192229,1,0,0:0:0:0:
288,144,192424,1,8,0:0:0:0:
272,128,192521,1,0,0:0:0:0:
288,144,192618,1,8,0:0:0:0:
272,128,192716,1,8,0:0:0:0:
272,128,192813,1,0,0:0:0:0:
272,128,193008,1,8,0:0:0:0:
272,128,193106,1,0,0:0:0:0:
272,128,193203,1,0,0:0:0:0:
288,128,193300,1,8,0:0:0:0:
288,128,193398,1,0,0:0:0:0:
288,128,193592,1,8,0:0:0:0:
288,128,193690,1,8,0:0:0:0:
288,128,193787,1,0,0:0:0:0:
288,96,193885,1,8,0:0:0:0:
288,128,193982,1,0,0:0:0:0:
288,128,194177,1,8,0:0:0:0:
288,128,194274,1,0,0:0:0:0:
288,128,194372,1,8,0:0:0:0:
272,128,194469,1,8,0:0:0:0:
288,128,194566,1,0,0:0:0:0:
288,112,194761,1,8,0:0:0:0:
288,112,194859,1,8,0:0:0:0:
288,112,194956,1,0,0:0:0:0:
288,112,195054,1,8,0:0:0:0:
288,96,195151,1,0,0:0:0:0:
288,96,195346,1,8,0:0:0:0:
272,112,195541,1,8,0:0:0:0:
272,112,195638,1,8,0:0:0:0:
288,112,195736,1,0,0:0:0:0:
288,112,195930,1,8,0:0:0:0:
288,112,196125,1,0,0:0:0:0:
288,112,196223,1,8,0:0:0:0:
288,112,196320,1,0,0:0:0:0:
288,112,196515,1,8,0:0:0:0:
288,112,196710,1,0,0:0:0:0:
288,112,196807,1,8,0:0:0:0:
288,112,196904,1,0,0:0:0:0:
288,112,197099,1,8,0:0:0:0:
288,112,197197,1,0,0:0:0:0:
288,112,197294,1,8,0:0:0:0:
288,112,197391,1,8,0:0:0:0:
288,112,197489,1,0,0:0:0:0:
288,112,197684,1,8,0:0:0:0:
288,112,197781,1,8,0:0:0:0:
288,112,197878,1,0,0:0:0:0:
288,112,198073,1,4,0:0:0:0:
272,160,198268,1,8,0:0:0:0:
272,160,198463,1,8,0:0:0:0:
272,160,198560,1,0,0:0:0:0:
272,160,198658,1,0,0:0:0:0:
336,160,198755,1,8,0:0:0:0:
272,160,198852,1,0,0:0:0:0:
272,160,199047,1,8,0:0:0:0:
272,160,199242,1,0,0:0:0:0:
288,144,199437,1,8,0:0:0:0:
288,144,199534,1,8,0:0:0:0:
288,144,199632,1,0,0:0:0:0:
272,160,199826,1,8,0:0:0:0:
272,160,200021,1,0,0:0:0:0:
272,144,200216,1,8,0:0:0:0:
272,160,200313,1,0,0:0:0:0:
272,160,200508,1,0,0:0:0:0:
272,160,200606,1,8,0:0:0:0:
272,160,200800,1,0,0:0:0:0:
288,160,200898,1,8,0:0:0:0:
288,160,200995,1,0,0:0:0:0:
272,176,201190,1,0,0:0:0:0:
272,176,201385,1,8,0:0:0:0:
272,176,201482,1,0,0:0:0:0:
272,176,201580,1,8,0:0:0:0:
272,176,201677,1,0,0:0:0:0:
272,176,201872,1,8,0:0:0:0:
320,192,202067,1,0,0:0:0:0:
272,176,202164,1,8,0:0:0:0:
288,160,202359,1,8,0:0:0:0:
272,176,202456,1,8,0:0:0:0:
288,160,202554,1,0,0:0:0:0:
288,160,202749,1,0,0:0:0:0:
288,160,202943,1,0,0:0:0:0:
288,176,203041,1,0,0:0:0:0:
288,160,203138,1,8,0:0:0:0:
288,176,203333,1,0,0:0:0:0:
288,176,203528,1,8,0:0:0:0:
304,160,203625,1,0,0:0:0:0:
304,160,203723,1,0,0:0:0:0:
304,160,203820,1,0,0:0:0:0:
304,176,203917,1,8,0:0:0:0:
304,176,204112,1,0,0:0:0:0:
288,128,204210,1,8,0:0:0:0:
304,176,204307,1,0,0:0:0:0:
288,192,204502,1,0,0:0:0:0:
304,160,204599,1,8,0:0:0:0:
304,192,204794,1,0,0:0:0:0:
288,192,204989,1,8,0:0:0:0:
304,176,205184,1,8,0:0:0:0:
304,176,205281,1,0,0:0:0:0:
288,176,205476,1,8,0:0:0:0:
288,176,205671,1,0,0:0:0:0:
288,176,205865,1,8,0:0:0:0:
288,192,205963,1,8,0:0:0:0:
288,176,206060,1,0,0:0:0:0:
288,192,206255,1,8,0:0:0:0:
288,192,206450,1,0,0:0:0:0:
288,192,206547,1,8,0:0:0:0:
288,192,206742,1,8,0:0:0:0:
288,192,206839,1,0,0:0:0:0:
288,192,207034,1,8,0:0:0:0:
288,192,207229,1,0,0:0:0:0:
288,192,207326,1,8,0:0:0:0:
288,192,207424,1,0,0:0:0:0:
288,192,207521,1,8,0:0:0:0:
288,192,207619,1,0,0:0:0:0:
288,192,207813,1,8,0:0:0:0:
304,176,208008,1,0,0:0:0:0:
304,208,208203,1,0,0:0:0:0:
304,192,208300,1,8,0:0:0:0:
304,192,208398,1,0,0:0:0:0:
304,192,208593,1,8,0:0:0:0:
304,208,208690,1,8,0:0:0:0:
304,208,208787,1,0,0:0:0:0:
288,160,208982,1,4,0:0:0:0:
288,160,209177,1,8,0:0:0:0:
288,176,209274,1,0,0:0:0:0:
288,176,209372,1,8,0:0:0:0:
288,176,209567,1,4,0:0:0:0:
288,176,209762,1,8,0:0:0:0:
288,176,209859,1,8,0:0:0:0:
272,176,209956,1,0,0:0:0:0:
288,176,210151,1,8,0:0:0:0:
288,176,210249,1,0,0:0:0:0:
288,176,210346,1,8,0:0:0:0:
288,176,210541,1,4,0:0:0:0:
