osu file format v14

[General]
AudioFilename: audio.mp3
AudioLeadIn: 0
PreviewTime: 54283
Countdown: 0
SampleSet: Normal
StackLeniency: 0.7
Mode: 2
LetterboxInBreaks: 0
EpilepsyWarning: 1
WidescreenStoryboard: 1

[Editor]
Bookmarks: 57789,59153,59348,59932,60906,63634,63828,66750,67140,67724,68309,68893,69478,70257,127724
DistanceSpacing: 1.4
BeatDivisor: 4
GridSize: 8
TimelineZoom: 3.699999

[Metadata]
Title:Rampage
TitleUnicode:ランペイジ
Artist:paraoka feat. haru*nya
ArtistUnicode:paraoka feat. haru*nya
Creator:[_-Kukkai-_]
Version:Rampage !!!
Source:
Tags:Vocaloid bank78952 Etsu Nelly PoPoii マテリアル 麹町養蚕館 c71
BeatmapID:1524589
BeatmapSetID:637180

[Difficulty]
HPDrainRate:6
CircleSize:4
OverallDifficulty:9.5
ApproachRate:9.5
SliderMultiplier:2.22
SliderTickRate:2

[Events]
//Background and Video events
0,0,"thumb-1920-584356.png",0,0
//Break Periods
2,14377,26120
//Storyboard Layer 0 (Background)
//Storyboard Layer 1 (Fail)
//Storyboard Layer 2 (Pass)
//Storyboard Layer 3 (Foreground)
//Storyboard Sound Samples

[TimingPoints]
1710,389.61038961039,4,2,0,35,1,0
53138,-66.6666666666667,4,2,0,35,0,0
53333,-100,4,2,0,35,0,0
53528,-66.6666666666667,4,2,0,35,0,0
53722,-100,4,2,0,35,0,0
53917,-66.6666666666667,4,2,0,35,0,0
54112,-100,4,2,0,35,0,0
54697,-90.9090909090909,4,1,0,35,0,1
70281,-100,4,2,0,35,0,0
109242,-66.6666666666667,4,2,0,35,0,0
109437,-100,4,2,0,35,0,0
109632,-66.6666666666667,4,2,0,35,0,0
109826,-100,4,2,0,35,0,0
110021,-66.6666666666667,4,2,0,35,0,0
110216,-100,4,2,0,35,0,0
110800,-90.9090909090909,4,1,0,35,0,1
126385,-100,4,2,0,35,0,0
143917,-50,4,2,0,35,0,0
145086,-100,4,2,0,35,0,0
149956,-133.333333333333,4,2,0,35,0,0
150151,-100,4,2,0,35,0,0
150346,-133.333333333333,4,2,0,35,0,0
150541,-100,4,2,0,35,0,0
177813,-66.6666666666667,4,2,0,35,0,0
178008,-100,4,2,0,35,0,0
178203,-66.6666666666667,4,2,0,35,0,0
178398,-100,4,2,0,35,0,0
178593,-66.6666666666667,4,2,0,35,0,0
178787,-100,4,2,0,35,0,0
179372,-90.9090909090909,4,1,0,35,0,1
197684,-100,4,1,0,35,0,1
198073,-100,4,2,0,35,0,0

[Colours]
Combo1 : 148,148,148
Combo2 : 0,236,255
Combo3 : 4,181,176

[HitObjects]
408,336,1320,6,0,L|424:304,7,27.75,0|0|0|0|0|0|0|0,0:1|0:1|0:1|0:1|0:1|0:1|0:1|0:1,0:1:0:0:
128,328,1710,6,0,P|96:272|112:216,1,111,4|0,0:0|0:1,0:1:0:0:
160,224,2002,1,0,0:1:0:0:
224,224,2099,5,0,0:1:0:0:
496,360,2294,6,0,L|344:360,1,111,2|0,0:1|0:1,0:1:0:0:
320,360,2586,1,0,0:1:0:0:
376,304,2684,1,0,0:1:0:0:
440,304,2781,1,0,0:1:0:0:
144,304,2878,6,0,P|80:256|80:208,1,111,2|0,0:1|0:1,0:1:0:0:
80,168,3171,1,0,0:1:0:0:
304,216,3268,6,0,P|344:160|304:120,1,111,2|0,0:1|0:1,0:1:0:0:
264,128,3560,1,0,0:1:0:0:
200,128,3658,5,0,0:1:0:0:
480,360,3852,6,0,P|504:264|512:224,1,111,2|0,0:1|0:1,0:1:0:0:
440,248,4145,5,0,0:1:0:0:
376,248,4242,1,0,0:1:0:0:
440,192,4339,1,0,0:1:0:0:
176,344,4437,5,2,0:1:0:0:
112,344,4534,1,0,0:1:0:0:
112,280,4631,1,0,0:1:0:0:
176,280,4729,1,0,0:1:0:0:
368,224,4826,6,0,L|240:224,1,111,2|0,0:1|0:1,0:1:0:0:
192,224,5119,1,0,0:1:0:0:
288,168,5216,5,0,0:1:0:0:
8,360,5411,6,0,P|32:296|64:240,1,111,2|0,0:1|0:1,0:1:0:0:
112,256,5703,1,0,0:1:0:0:
48,192,5800,1,0,0:1:0:0:
112,192,5898,1,0,0:1:0:0:
376,304,5995,5,2,0:1:0:0:
440,304,6092,1,0,0:1:0:0:
440,240,6189,1,0,0:1:0:0:
112,312,6385,6,0,L|232:312,1,111,2|0,0:1|0:1,0:1:0:0:
168,248,6677,1,0,0:1:0:0:
272,248,6774,1,0,0:1:0:0:
8,264,6969,6,0,P|8:200|32:144,1,111,2|0,0:1|0:1,0:1:0:0:
88,152,7261,1,0,0:1:0:0:
336,224,7359,6,0,L|408:216,1,55.5,2|0,0:1|0:1,0:1:0:0:
176,184,7554,6,0,L|112:184,1,55.5,2|0,0:1|0:1,0:1:0:0:
32,184,7748,6,0,L|0:96,1,55.5,0|0,0:1|0:1,0:1:0:0:
272,352,7943,6,0,P|320:288|280:240,1,111,4|0,0:0|0:1,0:1:0:0:
248,264,8235,1,0,0:1:0:0:
336,200,8333,1,0,0:1:0:0:
72,352,8528,6,0,L|-8:216,1,111,2|0,0:1|0:1,0:1:0:0:
88,248,8820,1,0,0:1:0:0:
152,248,8917,1,0,0:1:0:0:
88,184,9015,1,0,0:1:0:0:
400,256,9112,6,0,L|264:176,1,111,2|0,0:1|0:1,0:1:0:0:
360,144,9404,1,0,0:1:0:0:
88,352,9502,6,0,P|48:296|72:256,1,111,2|0,0:1|0:1,0:1:0:0:
112,224,9794,1,0,0:1:0:0:
200,216,9891,5,0,0:1:0:0:
464,232,10086,2,0,P|488:168|472:112,1,111,2|0,0:1|0:1,0:1:0:0:
416,128,10378,1,0,0:1:0:0:
352,128,10476,1,0,0:1:0:0:
424,64,10573,1,0,0:1:0:0:
160,344,10671,6,0,L|96:344,1,55.5,2|0,0:1|0:1,0:1:0:0:
160,280,10865,2,0,L|240:280,1,55.5,0|0,0:1|0:1,0:1:0:0:
464,288,11060,6,0,P|496:240|472:176,1,111,2|0,0:1|0:1,0:1:0:0:
440,152,11352,1,0,0:1:0:0:
344,152,11450,5,0,0:1:0:0:
88,296,11645,6,0,L|208:296,1,111,2|0,0:1|0:1,0:1:0:0:
144,224,11937,1,0,0:1:0:0:
216,224,12034,1,0,0:1:0:0:
288,224,12132,1,0,0:1:0:0:
56,344,12229,6,0,P|16:288|56:224,1,111,2|0,0:1|0:1,0:1:0:0:
96,256,12521,1,0,0:1:0:0:
328,240,12619,5,6,0:1:0:0:
152,176,12716,6,0,L|128:104,1,55.5,2|0,0:1|0:1,0:1:0:0:
320,120,12911,5,2,0:1:0:0:
504,120,13008,6,0,L|360:120,1,111,2|0,0:1|0:1,0:1:0:0:
328,120,13300,1,0,0:1:0:0:
64,336,13398,6,0,L|16:272,1,55.5,2|0,0:1|0:1,0:1:0:0:
216,272,13593,6,0,L|296:272,1,55.5,2|0,0:1|0:1,0:1:0:0:
64,224,13787,5,0,0:1:0:0:
45,204,13835,1,0,0:1:0:0:
40,177,13884,1,0,0:1:0:0:
52,152,13933,1,0,0:1:0:0:
248,224,13982,5,0,0:1:0:0:
267,205,14030,1,0,0:1:0:0:
271,178,14079,1,0,0:1:0:0:
258,154,14128,1,0,0:1:0:0:
64,88,14177,1,4,0:1:0:0:
264,336,26645,5,4,0:1:0:0:
80,256,26839,5,0,0:1:0:0:
152,256,26937,1,0,0:1:0:0:
224,256,27034,1,0,0:1:0:0:
416,264,27229,6,0,L|352:264,2,55.5,0|0|0,0:1|0:1|0:1,0:1:0:0:
208,264,27619,5,0,0:1:0:0:
136,264,27716,1,0,0:1:0:0:
64,264,27813,1,0,0:1:0:0:
336,344,28008,6,0,L|384:288,1,55.5,0|0,0:1|0:1,0:1:0:0:
136,280,28203,5,0,0:1:0:0:
256,208,28398,6,0,L|288:144,1,55.5,0|0,0:1|0:1,0:1:0:0:
80,152,28593,5,0,0:1:0:0:
248,72,28787,6,0,L|312:72,1,55.5,0|0,0:1|0:1,0:1:0:0:
72,368,28982,6,0,P|32:312|96:280,1,111,0|0,0:1|0:1,0:1:0:0:
104,280,29274,1,0,0:1:0:0:
312,280,29372,6,0,L|184:280,1,111,0|0,0:1|0:1,0:1:0:0:
256,216,29664,1,0,0:1:0:0:
368,208,29761,5,0,0:1:0:0:
200,360,29956,6,0,L|160:296,1,55.5,0|0,0:1|0:1,0:1:0:0:
376,296,30151,5,0,0:1:0:0:
200,240,30346,6,0,L|112:240,1,55.5,0|0,0:1|0:1,0:1:0:0:
352,240,30541,5,0,0:1:0:0:
232,176,30735,6,0,L|304:176,1,55.5,0|0,0:1|0:1,0:1:0:0:
504,176,30930,5,0,0:1:0:0:
224,360,31125,5,0,0:1:0:0:
152,360,31222,1,0,0:1:0:0:
80,360,31320,1,0,0:1:0:0:
256,288,31515,6,0,L|296:232,1,55.5,0|0,0:1|0:1,0:1:0:0:
88,224,31710,5,0,0:1:0:0:
208,160,31904,6,0,L|296:160,1,55.5,0|0,0:1|0:1,0:1:0:0:
472,336,32099,6,0,P|504:272|440:232,1,111,0|0,0:1|0:1,0:1:0:0:
440,216,32391,1,0,0:1:0:0:
216,224,32489,5,0,0:1:0:0:
288,224,32586,1,0,0:1:0:0:
216,152,32684,1,0,0:1:0:0:
48,160,32878,5,0,0:1:0:0:
224,160,33073,5,0,0:1:0:0:
152,160,33171,1,0,0:1:0:0:
224,96,33268,1,0,0:1:0:0:
400,200,33463,5,0,0:1:0:0:
328,200,33560,1,0,0:1:0:0:
256,200,33658,1,0,0:1:0:0:
384,120,33852,5,0,0:1:0:0:
312,120,33950,1,0,0:1:0:0:
376,48,34047,1,0,0:1:0:0:
72,352,34242,5,0,0:1:0:0:
0,352,34339,1,0,0:1:0:0:
72,288,34437,1,0,0:1:0:0:
336,288,34632,6,0,L|424:288,1,55.5,0|0,0:1|0:1,0:1:0:0:
160,224,34826,5,0,0:1:0:0:
272,144,35021,6,0,L|200:144,1,55.5,0|0,0:1|0:1,0:1:0:0:
456,248,35216,6,0,P|488:184|440:144,1,111,0|0,0:1|0:1,0:1:0:0:
416,128,35508,1,0,0:1:0:0:
176,192,35606,6,0,L|296:192,1,111,0|0,0:1|0:1,0:1:0:0:
232,128,35898,1,0,0:1:0:0:
328,128,35995,5,0,0:1:0:0:
48,368,36190,6,0,P|16:312|24:256,1,111,0|0,0:1|0:1,0:1:0:0:
152,256,36580,5,0,0:1:0:0:
224,256,36677,1,0,0:1:0:0:
296,256,36774,1,0,0:1:0:0:
128,184,36969,5,0,0:1:0:0:
56,184,37067,1,0,0:1:0:0:
128,120,37164,1,0,0:1:0:0:
392,192,37359,5,0,0:1:0:0:
320,192,37456,1,0,0:1:0:0:
392,120,37554,1,0,0:1:0:0:
256,344,37748,5,0,0:1:0:0:
184,344,37846,1,0,0:1:0:0:
408,288,37943,6,0,P|456:224|448:184,1,111,0|0,0:1|0:1,0:1:0:0:
416,136,38235,1,0,0:1:0:0:
168,200,38333,6,0,L|104:200,2,55.5,0|0|0,0:1|0:1|0:1,0:1:0:0:
432,200,38722,5,0,0:1:0:0:
360,200,38820,1,0,0:1:0:0:
432,200,38917,1,0,0:1:0:0:
96,368,39112,6,0,P|48:312|72:272,1,111,2|0,0:1|0:1,0:1:0:0:
120,280,39404,1,0,0:1:0:0:
24,208,39502,5,0,0:1:0:0:
168,208,39697,5,0,0:1:0:0:
320,216,39891,6,0,L|360:152,1,55.5,0|0,0:1|0:1,0:1:0:0:
160,160,40086,6,0,L|120:88,1,55.5,0|0,0:1|0:1,0:1:0:0:
368,104,40281,5,0,0:1:0:0:
208,352,40476,5,2,0:1:0:0:
136,352,40573,1,0,0:1:0:0:
208,288,40671,1,0,0:1:0:0:
360,280,40865,6,0,L|224:280,1,111,0|0,0:1|0:1,0:1:0:0:
400,192,41255,5,0,0:1:0:0:
328,192,41352,1,0,0:1:0:0:
512,192,41450,6,0,L|384:192,1,111,0|0,0:1|0:1,0:1:0:0:
456,128,41742,1,0,0:1:0:0:
200,352,41839,5,0,0:1:0:0:
312,288,42034,6,0,L|400:288,1,55.5,0|0,0:1|0:1,0:1:0:0:
80,312,42229,6,0,P|24:264|24:216,1,111,2|0,0:1|0:1,0:1:0:0:
64,176,42521,1,0,0:1:0:0:
152,176,42619,5,0,0:1:0:0:
328,176,42813,6,0,L|400:176,1,55.5,0|0,0:1|0:1,0:1:0:0:
176,176,43008,5,2,0:1:0:0:
288,96,43203,5,0,0:1:0:0:
216,96,43300,1,0,0:1:0:0:
144,96,43398,1,0,0:1:0:0:
264,320,43593,6,0,L|176:320,1,55.5,0|0,0:1|0:1,0:1:0:0:
400,312,43787,6,0,P|424:256|384:216,1,111,2|0,0:1|0:1,0:1:0:0:
344,216,44080,1,0,0:1:0:0:
400,152,44177,5,0,0:1:0:0:
232,144,44372,5,0,0:1:0:0:
304,144,44469,1,0,0:1:0:0:
80,352,44567,6,0,L|200:352,1,111,2|0,0:1|0:1,0:1:0:0:
136,288,44859,1,0,0:1:0:0:
64,288,44956,5,0,0:1:0:0:
232,208,45151,5,0,0:1:0:0:
504,208,45346,6,0,L|384:208,1,111,2|0,0:1|0:1,0:1:0:0:
448,144,45638,1,0,0:1:0:0:
392,144,45735,1,0,0:1:0:0:
208,136,45930,5,0,0:1:0:0:
280,136,46028,1,0,0:1:0:0:
40,312,46125,6,0,L|184:312,1,111,2|0,0:1|0:1,0:1:0:0:
200,312,46417,1,0,0:1:0:0:
416,320,46515,5,0,0:1:0:0:
304,248,46710,6,0,L|216:248,1,55.5,0|0,0:1|0:1,0:1:0:0:
472,240,46904,6,0,L|336:240,1,111,2|0,0:1|0:1,0:1:0:0:
408,168,47197,1,0,0:1:0:0:
104,360,47294,6,0,P|64:304|112:256,1,111,0|0,0:1|0:1,0:1:0:0:
128,240,47586,1,0,0:1:0:0:
360,240,47684,5,2,0:1:0:0:
176,184,47878,5,0,0:1:0:0:
248,184,47976,1,0,0:1:0:0:
344,184,48073,5,0,0:1:0:0:
416,184,48171,1,0,0:1:0:0:
344,120,48268,1,0,0:1:0:0:
416,120,48365,1,0,0:1:0:0:
152,352,48463,6,0,L|80:232,1,111,2|0,0:1|0:1,0:1:0:0:
160,256,48755,1,0,0:1:0:0:
94,256,48852,6,0,L|22:136,1,111,0|0,0:1|0:1,0:1:0:0:
96,152,49145,1,0,0:1:0:0:
360,352,49242,6,0,L|432:232,1,111,2|0,0:1|0:1,0:1:0:0:
352,256,49534,1,0,0:1:0:0:
417,256,49631,6,0,L|489:136,1,111,0|0,0:1|0:1,0:1:0:0:
416,152,49924,1,0,0:1:0:0:
112,248,50021,6,0,L|232:248,1,111,2|0,0:1|0:1,0:1:0:0:
168,176,50313,1,0,0:1:0:0:
240,176,50411,6,0,L|360:176,1,111,0|0,0:1|0:1,0:1:0:0:
296,112,50703,1,0,0:1:0:0:
64,112,50800,5,2,0:1:0:0:
200,104,50995,5,0,0:1:0:0:
128,104,51093,1,0,0:1:0:0:
56,104,51190,1,0,0:1:0:0:
232,336,51385,5,0,0:1:0:0:
488,336,51580,6,0,L|488:200,1,111,2|0,0:1|0:1,0:1:0:0:
416,224,51872,1,0,0:1:0:0:
488,168,51969,2,0,L|488:48,1,111,0|0,0:1|0:1,0:1:0:0:
416,56,52261,1,0,0:1:0:0:
112,320,52359,6,0,L|200:320,1,55.5,0|0,0:1|0:1,0:1:0:0:
384,320,52554,6,0,L|448:320,1,55.5,0|0,0:1|0:1,0:1:0:0:
224,232,52748,6,0,L|312:232,1,55.5,0|0,0:1|0:1,0:1:0:0:
464,232,52943,6,0,L|528:232,1,55.5,0|0,0:1|0:1,0:1:0:0:
224,296,53138,6,0,B|56:296|56:296|160:296,1,249.750009527207,8|0,0:1|0:1,0:1:0:0:
352,200,53528,6,0,B|184:200|184:200|288:200,1,249.750009527207,8|0,0:1|0:1,0:1:0:0:
488,88,53917,6,0,B|320:88|320:88|424:88,1,249.750009527207,8|0,0:1|0:1,0:1:0:0:
96,352,54307,6,0,L|24:352,1,55.5,2|0,0:1|0:1,0:1:0:0:
280,272,54502,6,0,L|336:272,1,55.5,2|0,0:1|0:1,0:1:0:0:
128,192,54697,5,4,0:1:0:0:
56,192,54794,1,0,0:1:0:0:
128,128,54891,1,0,0:1:0:0:
200,128,54989,1,0,0:1:0:0:
360,320,55086,5,0,0:1:0:0:
192,272,55184,5,0,0:1:0:0:
264,272,55281,1,0,0:1:0:0:
328,272,55378,1,0,0:1:0:0:
104,208,55476,5,4,0:1:0:0:
176,208,55573,1,0,0:1:0:0:
392,208,55671,5,0,0:1:0:0:
152,216,55768,6,0,B|72:216|72:216|144:216,1,122.100003726196,0|0,0:1|0:1,0:1:0:0:
184,216,56060,5,0,0:1:0:0:
112,152,56158,1,0,0:1:0:0:
416,328,56255,5,4,0:1:0:0:
354,328,56352,1,0,0:1:0:0:
293,328,56449,1,0,0:1:0:0:
352,256,56547,1,0,0:1:0:0:
424,256,56645,6,0,P|464:216|416:184,1,122.100003726196,0|0,0:1|0:1,0:1:0:0:
360,184,56937,1,0,0:1:0:0:
88,208,57034,5,4,0:1:0:0:
152,208,57132,1,0,0:1:0:0:
216,208,57229,1,0,0:1:0:0:
152,144,57326,1,0,0:1:0:0:
376,288,57424,5,4,0:1:0:0:
440,288,57521,1,0,0:1:0:0:
376,216,57619,1,0,0:1:0:0:
448,216,57716,1,0,0:1:0:0:
144,232,57813,5,4,0:1:0:0:
216,232,57911,1,0,0:1:0:0:
416,240,58008,1,0,0:1:0:0:
488,240,58106,1,0,0:1:0:0:
224,160,58203,5,0,0:1:0:0:
296,160,58300,1,0,0:1:0:0:
464,160,58398,1,0,0:1:0:0:
392,160,58495,1,0,0:1:0:0:
112,280,58593,5,4,0:1:0:0:
40,280,58690,1,0,0:1:0:0:
112,216,58787,1,0,0:1:0:0:
320,216,58885,5,0,0:1:0:0:
256,216,58982,1,0,0:1:0:0:
384,208,59177,6,0,L|456:208,1,61.0500018630982,0|0,0:1|0:1,0:1:0:0:
136,200,59372,5,6,0:1:0:0:
208,200,59469,1,0,0:1:0:0:
400,200,59567,5,2,0:1:0:0:
328,200,59664,1,0,0:1:0:0:
72,288,59761,5,6,0:1:0:0:
136,288,59859,1,0,0:1:0:0:
400,200,59956,5,2,0:1:0:0:
472,200,60054,1,0,0:1:0:0:
248,104,60151,5,6,0:1:0:0:
320,104,60248,1,0,0:1:0:0:
88,264,60346,5,2,0:1:0:0:
24,208,60443,1,0,0:1:0:0:
248,128,60541,5,4,0:1:0:0:
320,128,60638,1,0,0:1:0:0:
128,56,60735,1,0,0:1:0:0:
56,56,60833,1,0,0:1:0:0:
296,320,60930,5,4,0:1:0:0:
368,320,61028,1,0,0:1:0:0:
440,320,61125,1,0,0:1:0:0:
368,248,61222,1,0,0:1:0:0:
144,184,61320,5,0,0:1:0:0:
216,184,61417,1,0,0:1:0:0:
416,184,61515,5,0,0:1:0:0:
354,184,61612,1,0,0:1:0:0:
293,184,61709,1,4,0:1:0:0:
352,120,61807,1,0,0:1:0:0:
288,120,61904,1,0,0:1:0:0:
216,120,62002,1,0,0:1:0:0:
432,128,62099,5,0,0:1:0:0:
493,128,62196,1,0,0:1:0:0:
437,128,62293,1,0,0:1:0:0:
376,128,62391,1,0,0:1:0:0:
112,264,62489,5,4,0:1:0:0:
176,264,62586,1,0,0:1:0:0:
72,184,62684,5,0,0:1:0:0:
144,184,62781,1,0,0:1:0:0:
392,192,62878,5,0,0:1:0:0:
320,192,62976,1,0,0:1:0:0:
424,112,63073,5,0,0:1:0:0:
352,112,63171,1,0,0:1:0:0:
88,152,63268,5,4,0:1:0:0:
152,152,63365,1,0,0:1:0:0:
376,160,63463,5,0,0:1:0:0:
216,144,63658,5,4,0:1:0:0:
288,144,63755,1,0,0:1:0:0:
384,72,63852,5,0,0:1:0:0:
312,72,63950,1,0,0:1:0:0:
240,72,64047,1,4,0:1:0:0:
504,352,64242,5,0,0:1:0:0:
432,352,64340,1,0,0:1:0:0:
504,288,64437,1,0,0:1:0:0:
296,352,64631,5,0,0:1:0:0:
224,352,64729,1,0,0:1:0:0:
296,288,64826,1,4,0:1:0:0:
80,320,65021,5,0,0:1:0:0:
8,320,65119,1,0,0:1:0:0:
80,256,65216,1,0,0:1:0:0:
272,256,65313,5,0,0:1:0:0:
208,256,65411,1,0,0:1:0:0:
144,256,65508,1,0,0:1:0:0:
368,256,65606,5,4,0:1:0:0:
48,184,65800,5,0,0:1:0:0:
120,184,65898,1,0,0:1:0:0:
48,120,65995,1,0,0:1:0:0:
240,192,66190,5,0,0:1:0:0:
312,192,66288,1,0,0:1:0:0:
240,128,66385,1,4,0:1:0:0:
368,192,66580,5,0,0:1:0:0:
440,192,66677,1,0,0:1:0:0:
24,328,66774,5,0,0:1:0:0:
96,328,66872,1,0,0:1:0:0:
168,328,66969,1,0,0:1:0:0:
240,328,67067,1,0,0:1:0:0:
480,216,67164,5,6,0:1:0:0:
408,216,67261,1,2,0:1:0:0:
208,216,67359,5,2,0:1:0:0:
280,216,67456,1,2,0:1:0:0:
464,144,67554,5,2,0:1:0:0:
336,152,67748,5,6,0:1:0:0:
408,152,67846,1,2,0:1:0:0:
168,152,67943,5,2,0:1:0:0:
240,152,68041,1,2,0:1:0:0:
440,80,68138,5,2,0:1:0:0:
312,352,68333,5,6,0:1:0:0:
240,352,68430,1,2,0:1:0:0:
480,248,68528,5,2,0:1:0:0:
408,248,68625,1,2,0:1:0:0:
136,264,68722,5,2,0:1:0:0:
264,176,68917,5,6,0:1:0:0:
200,176,69015,1,2,0:1:0:0:
448,176,69112,5,2,0:1:0:0:
512,176,69210,1,2,0:1:0:0:
232,352,69307,5,2,0:1:0:0:
212,328,69355,1,0,0:1:0:0:
192,305,69404,1,0,0:1:0:0:
168,272,69453,1,0,0:1:0:0:
384,256,69502,5,6,0:1:0:0:
456,256,69599,1,0,0:1:0:0:
128,184,69697,5,2,0:1:0:0:
200,184,69794,1,0,0:1:0:0:
480,184,69891,5,0,0:1:0:0:
408,184,69989,1,0,0:1:0:0:
144,184,70086,5,0,0:1:0:0:
216,184,70184,1,0,0:1:0:0:
16,320,70281,6,0,L|136:320,1,111,4|0,0:0|0:1,0:1:0:0:
72,256,70573,1,0,0:1:0:0:
312,320,70671,6,0,L|448:320,1,111,0|0,0:1|0:1,0:1:0:0:
368,256,70963,1,0,0:1:0:0:
168,248,71060,6,0,L|240:248,1,55.5,0|0,0:1|0:1,0:1:0:0:
448,168,71255,6,0,L|384:168,1,55.5,0|0,0:1|0:1,0:1:0:0:
184,176,71450,1,0,0:1:0:0:
344,88,71645,6,0,L|416:88,1,55.5,0|0,0:1|0:1,0:1:0:0:
168,88,71839,5,0,0:1:0:0:
280,312,72034,6,0,L|176:312,1,55.5,0|0,0:1|0:1,0:1:0:0:
464,304,72229,5,0,0:1:0:0:
304,232,72424,6,0,L|296:160,1,55.5,0|0,0:1|0:1,0:1:0:0:
504,96,72619,6,0,L|440:96,1,55.5,0|0,0:1|0:1,0:1:0:0:
240,96,72813,6,0,L|336:96,1,55.5,0|0,0:1|0:1,0:1:0:0:
40,256,73008,6,0,L|200:256,1,111,0|0,0:1|0:1,0:1:0:0:
96,184,73300,1,0,0:1:0:0:
360,256,73398,6,0,L|232:256,1,111,0|0,0:1|0:1,0:1:0:0:
304,192,73690,1,0,0:1:0:0:
144,360,73787,6,0,L|0:360,1,111,0|0,0:1|0:1,0:1:0:0:
88,296,74080,1,0,0:1:0:0:
328,296,74177,6,0,L|272:296,1,55.5,0|0,0:1|0:1,0:1:0:0:
64,208,74372,6,0,L|144:208,1,55.5,0|0,0:1|0:1,0:1:0:0:
352,216,74567,6,0,L|216:216,1,111,0|0,0:1|0:1,0:1:0:0:
304,152,74859,1,0,0:1:0:0:
512,152,74956,5,0,0:1:0:0:
384,360,75151,6,0,L|312:360,1,55.5,0|0,0:1|0:1,0:1:0:0:
128,368,75346,6,0,L|64:368,1,55.5,0|0,0:1|0:1,0:1:0:0:
296,304,75541,6,0,L|328:248,1,55.5,0|0,0:1|0:1,0:1:0:0:
120,256,75735,5,0,0:1:0:0:
288,184,75930,5,0,0:1:0:0:
168,104,76125,5,0,0:1:0:0:
56,112,76320,1,0,0:1:0:0:
392,352,76515,6,0,L|256:352,1,111,0|0,0:1|0:1,0:1:0:0:
224,352,76807,1,0,0:1:0:0:
424,272,76904,6,0,B|488:272|488:272|392:272,1,111,0|0,0:1|0:1,0:1:0:0:
376,272,77197,1,0,0:1:0:0:
176,272,77294,6,0,L|112:272,1,55.5,0|0,0:1|0:1,0:1:0:0:
328,184,77489,6,0,L|240:184,1,55.5,0|0,0:1|0:1,0:1:0:0:
40,192,77684,6,0,L|176:192,1,111,0|0,0:1|0:1,0:1:0:0:
96,128,77976,1,0,0:1:0:0:
392,120,78073,5,0,0:1:0:0:
224,64,78268,6,0,L|312:64,1,55.5,0|0,0:1|0:1,0:1:0:0:
504,64,78463,5,0,0:1:0:0:
360,352,78658,6,0,L|296:352,1,55.5,0|0,0:1|0:1,0:1:0:0:
120,352,78852,6,0,L|192:352,1,55.5,0|0,0:1|0:1,0:1:0:0:
376,272,79047,6,0,L|440:272,1,55.5,0|0,0:1|0:1,0:1:0:0:
192,192,79242,6,0,L|304:192,1,111,0|0,0:1|0:1,0:1:0:0:
240,128,79534,1,0,0:1:0:0:
488,184,79632,6,0,L|376:184,1,111,0|0,0:1|0:1,0:1:0:0:
432,112,79924,1,0,0:1:0:0:
176,288,80021,6,0,L|96:288,1,55.5,0|0,0:1|0:1,0:1:0:0:
320,288,80216,6,0,L|408:288,1,55.5,0|0,0:1|0:1,0:1:0:0:
120,224,80411,5,0,0:1:0:0:
240,224,80606,5,0,0:1:0:0:
512,176,80800,5,0,0:1:0:0:
440,176,80898,1,0,0:1:0:0:
376,176,80995,1,0,0:1:0:0:
440,112,81093,1,0,0:1:0:0:
184,344,81190,5,0,0:1:0:0:
112,344,81287,1,0,0:1:0:0:
336,272,81385,5,0,0:1:0:0:
272,272,81482,1,0,0:1:0:0:
64,272,81580,5,0,0:1:0:0:
192,200,81774,5,0,0:1:0:0:
128,200,81872,1,0,0:1:0:0:
352,208,81969,5,0,0:1:0:0:
416,208,82067,1,0,0:1:0:0:
192,136,82164,5,0,0:1:0:0:
368,128,82359,5,0,0:1:0:0:
144,136,82554,5,0,0:1:0:0:
480,320,82748,6,0,L|344:320,1,111,4|0,0:0|0:1,0:1:0:0:
424,256,83041,1,0,0:1:0:0:
352,256,83138,2,0,L|224:256,1,111,0|0,0:1|0:1,0:1:0:0:
296,192,83430,5,0,0:1:0:0:
224,192,83528,2,0,L|352:192,1,111,0|0,0:1|0:1,0:1:0:0:
280,128,83820,1,0,0:1:0:0:
352,128,83917,5,0,0:1:0:0:
80,320,84112,5,0,0:1:0:0:
8,320,84210,1,0,0:1:0:0:
240,320,84307,5,0,0:1:0:0:
64,224,84502,5,0,0:1:0:0:
128,224,84599,1,0,0:1:0:0:
400,224,84697,5,2,0:0:0:0:
232,168,84891,5,0,0:1:0:0:
168,168,84989,1,0,0:1:0:0:
464,168,85086,5,2,0:0:0:0:
344,104,85281,5,0,0:1:0:0:
408,104,85378,1,0,0:1:0:0:
120,104,85476,5,2,0:0:0:0:
240,96,85671,5,0,0:1:0:0:
176,96,85768,1,0,0:1:0:0:
240,24,85865,1,0,0:1:0:0:
408,320,86060,5,0,0:1:0:0:
480,320,86158,1,0,0:1:0:0:
216,312,86255,5,0,0:1:0:0:
328,232,86450,5,0,0:1:0:0:
392,232,86547,1,0,0:1:0:0:
72,232,86645,5,0,0:1:0:0:
192,160,86839,5,0,0:1:0:0:
128,160,86937,1,0,0:1:0:0:
424,160,87034,5,0,0:1:0:0:
248,160,87229,5,0,0:1:0:0:
320,160,87326,1,0,0:1:0:0:
392,160,87424,1,0,0:1:0:0:
112,352,87619,5,0,0:1:0:0:
176,352,87716,1,0,0:1:0:0:
432,352,87813,5,2,0:0:0:0:
256,272,88008,5,0,0:1:0:0:
320,272,88106,1,0,0:1:0:0:
104,200,88203,5,2,0:0:0:0:
168,200,88300,1,0,0:1:0:0:
392,200,88398,5,0,0:1:0:0:
328,200,88495,1,0,0:1:0:0:
144,192,88593,5,2,0:0:0:0:
256,112,88787,5,0,0:1:0:0:
32,112,88982,5,0,0:1:0:0:
200,312,89177,5,0,0:1:0:0:
128,312,89274,1,0,0:1:0:0:
336,312,89372,5,0,0:1:0:0:
224,224,89567,5,0,0:1:0:0:
224,160,89664,1,0,0:1:0:0:
472,152,89761,5,0,0:1:0:0:
352,328,89956,5,0,0:1:0:0:
416,320,90054,1,0,0:1:0:0:
184,328,90151,5,0,0:1:0:0:
304,264,90346,5,0,0:1:0:0:
304,192,90443,1,0,0:1:0:0:
80,192,90541,5,0,0:1:0:0:
192,192,90735,5,0,0:1:0:0:
128,192,90833,1,0,0:1:0:0:
368,184,90930,5,2,0:0:0:0:
256,96,91125,5,0,0:1:0:0:
320,96,91222,1,0,0:1:0:0:
504,96,91320,5,2,0:0:0:0:
440,96,91417,1,0,0:1:0:0:
376,96,91515,1,0,0:1:0:0:
440,32,91612,1,0,0:1:0:0:
104,256,91710,5,0,0:1:0:0:
168,256,91807,1,0,0:1:0:0:
232,256,91904,1,0,0:1:0:0:
168,192,92002,1,0,0:1:0:0:
360,184,92099,5,0,0:1:0:0:
240,112,92294,1,0,0:1:0:0:
168,112,92391,1,0,0:1:0:0:
96,112,92489,1,0,0:1:0:0:
224,328,92684,5,0,0:1:0:0:
296,328,92781,1,0,0:1:0:0:
72,248,92878,5,0,0:1:0:0:
184,256,93073,5,0,0:1:0:0:
120,256,93171,1,0,0:1:0:0:
376,256,93268,5,0,0:1:0:0:
96,192,93463,5,0,0:1:0:0:
160,192,93560,1,0,0:1:0:0:
408,200,93658,5,0,0:1:0:0:
288,120,93852,5,0,0:1:0:0:
224,120,93950,1,0,0:1:0:0:
472,120,94047,5,2,0:0:0:0:
312,344,94242,5,2,0:0:0:0:
248,344,94339,1,2,0:0:0:0:
504,352,94437,5,2,0:0:0:0:
432,352,94534,1,0,0:1:0:0:
360,352,94632,1,0,0:1:0:0:
144,288,94826,5,2,0:0:0:0:
208,288,94924,1,0,0:1:0:0:
272,288,95021,1,0,0:1:0:0:
0,208,95216,5,2,0:1:0:0:
64,208,95313,1,0,0:1:0:0:
128,208,95411,1,0,0:1:0:0:
280,352,95606,5,0,0:1:0:0:
208,352,95703,1,0,0:1:0:0:
280,280,95800,1,0,0:1:0:0:
16,192,95995,6,0,L|144:192,1,111,0|0,0:1|0:1,0:1:0:0:
72,128,96287,1,0,0:1:0:0:
144,128,96385,1,0,0:1:0:0:
456,336,96580,6,0,L|392:336,1,55.5,0|0,0:1|0:1,0:1:0:0:
160,336,96774,5,2,0:1:0:0:
272,240,96969,5,0,0:1:0:0:
208,240,97067,1,0,0:1:0:0:
144,240,97164,1,0,0:1:0:0:
424,184,97359,5,0,0:1:0:0:
360,184,97456,1,0,0:1:0:0:
112,192,97554,6,0,L|240:192,1,111,0|0,0:1|0:1,0:1:0:0:
168,120,97846,1,0,0:1:0:0:
232,120,97943,1,0,0:1:0:0:
400,128,98138,5,0,0:1:0:0:
128,352,98333,6,0,L|-24:352,1,111,2|0,0:1|0:1,0:1:0:0:
72,288,98625,1,0,0:1:0:0:
8,288,98722,1,0,0:1:0:0:
176,296,98917,5,0,0:1:0:0:
248,296,99015,1,0,0:1:0:0:
472,296,99112,5,2,0:1:0:0:
304,224,99307,5,0,0:1:0:0:
232,224,99404,1,0,0:1:0:0:
304,160,99502,1,0,0:1:0:0:
16,88,99697,5,0,0:1:0:0:
80,88,99794,1,0,0:1:0:0:
336,80,99891,5,2,0:1:0:0:
168,328,100086,5,0,0:1:0:0:
240,328,100184,1,0,0:1:0:0:
304,328,100281,1,0,0:1:0:0:
32,224,100476,5,0,0:1:0:0:
32,160,100573,1,0,0:1:0:0:
264,168,100671,5,2,0:1:0:0:
152,88,100865,5,0,0:1:0:0:
216,88,100963,1,0,0:1:0:0:
496,96,101060,5,0,0:1:0:0:
328,96,101255,5,0,0:1:0:0:
16,336,101450,5,2,0:1:0:0:
144,336,101645,1,0,0:1:0:0:
80,336,101742,1,0,0:1:0:0:
144,264,101839,1,0,0:1:0:0:
320,272,102034,5,0,0:1:0:0:
384,272,102132,1,0,0:1:0:0:
144,184,102229,2,0,L|280:184,1,111,2|0,0:1|0:1,0:1:0:0:
200,120,102521,1,0,0:1:0:0:
128,120,102619,1,0,0:1:0:0:
392,352,102813,5,0,0:1:0:0:
456,352,102911,1,0,0:1:0:0:
256,288,103008,6,0,L|136:288,1,111,2|0,0:1|0:1,0:1:0:0:
200,224,103300,1,0,0:1:0:0:
456,224,103398,6,0,L|336:224,1,111,0|0,0:1|0:1,0:1:0:0:
400,152,103690,1,0,0:1:0:0:
128,160,103787,5,2,0:1:0:0:
192,160,103885,1,0,0:1:0:0:
440,176,103982,5,0,0:1:0:0:
368,176,104080,1,0,0:1:0:0:
112,312,104177,5,0,0:1:0:0:
40,312,104274,1,0,0:1:0:0:
112,248,104372,1,0,0:1:0:0:
40,248,104469,1,0,0:1:0:0:
344,248,104567,6,0,L|200:248,1,111,2|0,0:1|0:1,0:1:0:0:
168,248,104859,1,0,0:1:0:0:
232,184,104956,6,0,L|96:184,1,111,0|0,0:1|0:1,0:1:0:0:
56,184,105248,1,0,0:1:0:0:
288,320,105346,6,0,L|432:320,1,111,2|0,0:1|0:1,0:1:0:0:
464,320,105638,1,0,0:1:0:0:
400,256,105735,6,0,L|536:256,1,111,0|0,0:1|0:1,0:1:0:0:
456,184,106027,1,0,0:1:0:0:
112,272,106125,6,0,L|248:272,1,111,2|0,0:1|0:1,0:1:0:0:
168,208,106417,1,0,0:1:0:0:
400,264,106515,6,0,L|256:264,1,111,0|0,0:1|0:1,0:1:0:0:
344,192,106807,1,0,0:1:0:0:
120,192,106904,5,2,0:1:0:0:
56,192,107002,1,0,0:1:0:0:
280,192,107099,5,0,0:1:0:0:
344,192,107197,1,0,0:1:0:0:
104,192,107294,5,0,0:1:0:0:
160,192,107489,5,0,0:1:0:0:
448,200,107684,5,2,0:1:0:0:
272,352,107878,5,0,0:1:0:0:
208,352,107976,1,0,0:1:0:0:
144,352,108073,1,0,0:1:0:0:
312,248,108268,5,0,0:1:0:0:
248,248,108365,1,0,0:1:0:0:
0,248,108463,5,0,0:1:0:0:
112,248,108658,5,0,0:1:0:0:
48,248,108755,1,0,0:1:0:0:
336,184,108852,5,0,0:1:0:0:
400,184,108950,1,0,0:1:0:0:
128,88,109047,5,0,0:1:0:0:
72,88,109145,1,0,0:1:0:0:
312,344,109242,6,0,B|480:344|480:344|336:344,1,249.750009527207,8|0,0:1|0:1,0:1:0:0:
192,232,109632,6,0,B|360:232|360:232|216:232,1,249.750009527207,8|0,0:1|0:1,0:1:0:0:
64,112,110021,6,0,B|232:112|232:112|88:112,1,249.750009527207,8|0,0:1|0:1,0:1:0:0:
408,344,110411,5,2,0:1:0:0:
472,344,110508,1,0,0:1:0:0:
240,248,110606,5,2,0:1:0:0:
176,248,110703,1,0,0:1:0:0:
384,176,110800,5,4,0:1:0:0:
456,176,110898,1,0,0:1:0:0:
384,104,110995,1,0,0:1:0:0:
152,192,111093,5,0,0:1:0:0:
224,192,111190,1,0,0:1:0:0:
296,192,111287,1,0,0:1:0:0:
72,296,111385,5,0,0:1:0:0:
144,296,111482,1,0,0:1:0:0:
72,224,111580,1,4,0:1:0:0:
288,288,111677,5,0,0:1:0:0:
216,288,111774,1,0,0:1:0:0:
384,224,111872,5,0,0:1:0:0:
456,224,111969,1,0,0:1:0:0:
384,152,112067,1,0,0:1:0:0:
144,224,112164,5,0,0:1:0:0:
72,224,112261,1,0,0:1:0:0:
256,168,112359,5,4,0:1:0:0:
328,168,112456,1,0,0:1:0:0:
400,168,112554,1,0,0:1:0:0:
328,96,112651,5,0,0:1:0:0:
96,320,112748,5,0,0:1:0:0:
32,312,112846,1,0,0:1:0:0:
96,248,112943,1,0,0:1:0:0:
24,248,113041,1,0,0:1:0:0:
240,248,113138,5,4,0:1:0:0:
168,248,113235,1,0,0:1:0:0:
392,176,113333,5,0,0:1:0:0:
320,176,113430,1,0,0:1:0:0:
80,176,113528,5,4,0:1:0:0:
152,176,113625,1,0,0:1:0:0:
360,176,113722,5,0,0:1:0:0:
288,176,113820,1,0,0:1:0:0:
80,320,113917,5,4,0:1:0:0:
152,320,114015,1,0,0:1:0:0:
224,320,114112,1,0,0:1:0:0:
160,248,114210,1,0,0:1:0:0:
392,256,114307,5,0,0:1:0:0:
464,256,114404,1,0,0:1:0:0:
248,168,114502,5,0,0:1:0:0:
320,168,114599,1,0,0:1:0:0:
104,336,114697,5,4,0:1:0:0:
32,336,114794,1,0,0:1:0:0:
32,264,114891,1,0,0:1:0:0:
104,264,114989,1,0,0:1:0:0:
304,272,115086,5,0,0:1:0:0:
232,272,115184,1,0,0:1:0:0:
160,272,115281,1,0,0:1:0:0:
232,200,115378,1,0,0:1:0:0:
32,192,115476,5,6,0:1:0:0:
104,192,115573,1,0,0:1:0:0:
320,200,115671,5,2,0:1:0:0:
392,200,115768,1,0,0:1:0:0:
80,112,115865,5,6,0:1:0:0:
8,112,115963,1,0,0:1:0:0:
248,112,116060,5,2,0:1:0:0:
176,112,116158,1,0,0:1:0:0:
400,112,116255,5,6,0:1:0:0:
328,112,116352,1,0,0:1:0:0:
104,280,116450,5,2,0:1:0:0:
176,280,116547,5,0,0:1:0:0:
376,288,116645,5,4,0:1:0:0:
304,288,116742,1,0,0:1:0:0:
80,224,116839,5,0,0:1:0:0:
152,224,116937,1,0,0:1:0:0:
408,224,117034,5,4,0:0:0:0:
336,224,117132,1,0,0:0:0:0:
96,224,117229,5,0,0:0:0:0:
168,224,117326,1,0,0:0:0:0:
232,224,117424,1,0,0:0:0:0:
64,160,117521,5,0,0:0:0:0:
136,160,117619,1,0,0:0:0:0:
352,160,117716,5,0,0:0:0:0:
280,160,117813,1,4,0:0:0:0:
344,88,117911,1,0,0:0:0:0:
88,272,118008,5,0,0:0:0:0:
160,272,118106,1,0,0:0:0:0:
400,272,118203,5,0,0:0:0:0:
328,272,118300,1,0,0:0:0:0:
120,216,118398,5,0,0:0:0:0:
192,216,118495,1,0,0:0:0:0:
120,144,118593,1,4,0:0:0:0:
336,136,118690,5,0,0:0:0:0:
264,136,118787,1,0,0:0:0:0:
40,144,118885,5,0,0:0:0:0:
112,144,118982,1,0,0:0:0:0:
184,144,119080,1,0,0:0:0:0:
448,312,119177,5,0,0:0:0:0:
376,312,119274,1,0,0:0:0:0:
144,272,119372,5,4,0:0:0:0:
72,272,119469,1,0,0:0:0:0:
304,224,119567,5,0,0:0:0:0:
376,224,119664,1,0,0:0:0:0:
448,224,119761,1,4,0:0:0:0:
376,152,119859,1,0,0:0:0:0:
104,176,119956,5,0,0:0:0:0:
176,176,120054,1,0,0:0:0:0:
480,184,120151,5,4,0:0:0:0:
352,344,120346,1,0,0:0:0:0:
280,344,120444,1,0,0:0:0:0:
208,344,120541,1,0,0:0:0:0:
280,280,120735,5,0,0:0:0:0:
208,280,120833,1,0,0:0:0:0:
136,280,120930,1,4,0:0:0:0:
208,216,121125,5,0,0:0:0:0:
136,216,121223,1,0,0:0:0:0:
64,216,121320,1,0,0:0:0:0:
136,144,121417,1,0,0:0:0:0:
208,144,121515,1,0,0:0:0:0:
136,72,121612,1,0,0:0:0:0:
432,336,121710,5,4,0:0:0:0:
312,240,121904,5,0,0:0:0:0:
384,240,122002,1,0,0:0:0:0:
456,240,122099,1,0,0:0:0:0:
240,176,122294,5,0,0:0:0:0:
312,176,122392,1,0,0:0:0:0:
384,176,122489,1,4,0:0:0:0:
168,112,122684,5,0,0:0:0:0:
240,112,122782,1,0,0:0:0:0:
312,112,122879,1,4,0:0:0:0:
240,40,122976,1,0,0:0:0:0:
312,40,123073,1,0,0:0:0:0:
240,112,123171,1,0,0:0:0:0:
0,304,123268,5,6,0:0:0:0:
72,304,123365,1,2,0:0:0:0:
312,304,123463,5,2,0:0:0:0:
240,304,123560,1,2,0:0:0:0:
64,224,123658,1,2,0:0:0:0:
200,144,123852,5,6,0:0:0:0:
272,144,123950,1,2,0:0:0:0:
64,56,124047,1,2,0:0:0:0:
136,56,124145,1,2,0:0:0:0:
360,64,124242,1,2,0:0:0:0:
232,328,124437,5,6,0:0:0:0:
304,328,124534,1,2,0:0:0:0:
496,328,124632,1,2,0:0:0:0:
424,328,124729,1,2,0:0:0:0:
240,336,124826,5,2,0:0:0:0:
112,240,125021,5,6,0:0:0:0:
184,240,125119,1,2,0:0:0:0:
0,160,125216,1,2,0:0:0:0:
72,160,125313,1,2,0:0:0:0:
280,160,125411,5,2,0:0:0:0:
296,134,125459,1,0,0:0:0:0:
312,108,125508,1,0,0:0:0:0:
88,96,125606,5,6,0:0:0:0:
160,96,125703,1,0,0:0:0:0:
448,104,125800,5,2,0:0:0:0:
376,104,125898,1,0,0:0:0:0:
96,272,125995,5,0,0:0:0:0:
288,272,126190,1,0,0:0:0:0:
0,192,126385,6,0,L|136:192,1,111,4|0,0:1|0:1,0:1:0:0:
56,120,126677,1,0,0:1:0:0:
128,120,126774,1,0,0:1:0:0:
400,328,126969,5,2,0:1:0:0:
328,328,127067,1,0,0:1:0:0:
400,264,127164,6,0,L|256:264,1,111,0|0,0:1|0:1,0:1:0:0:
344,192,127456,1,0,0:1:0:0:
120,256,127554,6,0,L|-16:256,1,111,2|0,0:1|0:1,0:1:0:0:
64,184,127846,1,0,0:1:0:0:
368,256,127943,6,0,L|520:256,1,111,2|0,0:1|0:1,0:1:0:0:
424,184,128235,1,0,0:1:0:0:
496,184,128333,1,0,0:1:0:0:
208,256,128528,5,2,0:1:0:0:
280,256,128625,1,0,0:1:0:0:
208,192,128722,1,0,0:1:0:0:
280,192,128820,1,0,0:1:0:0:
352,192,128917,1,0,0:1:0:0:
240,136,129112,6,0,L|96:136,1,111,0|0,0:1|0:1,0:1:0:0:
448,296,129502,5,2,0:1:0:0:
376,296,129599,1,0,0:1:0:0:
304,296,129697,1,0,0:1:0:0:
376,232,129794,1,0,0:1:0:0:
304,232,129891,1,0,0:1:0:0:
232,232,129989,1,0,0:1:0:0:
40,168,130086,5,2,0:1:0:0:
112,168,130184,1,0,0:1:0:0:
40,96,130281,1,0,0:1:0:0:
112,96,130378,1,0,0:1:0:0:
184,96,130476,1,0,0:1:0:0:
112,32,130573,1,0,0:1:0:0:
344,312,130671,5,2,0:1:0:0:
416,312,130768,1,0,0:1:0:0:
344,240,130865,1,0,0:1:0:0:
416,240,130963,1,0,0:1:0:0:
104,352,131060,6,0,L|104:208,1,111,2|0,0:1|0:1,0:1:0:0:
176,240,131352,1,0,0:1:0:0:
248,240,131450,1,0,0:1:0:0:
512,136,131645,5,2,0:1:0:0:
440,136,131742,1,0,0:1:0:0:
368,136,131839,1,0,0:1:0:0:
80,320,132034,5,0,0:1:0:0:
152,320,132132,1,0,0:1:0:0:
80,248,132229,1,0,0:1:0:0:
152,248,132326,1,0,0:1:0:0:
224,248,132424,1,0,0:1:0:0:
152,176,132521,1,0,0:1:0:0:
400,176,132619,6,0,L|272:176,1,111,4|0,0:0|0:1,0:1:0:0:
344,104,132911,1,0,0:1:0:0:
272,104,133008,1,0,0:1:0:0:
344,32,133106,1,0,0:1:0:0:
128,344,133203,6,0,L|0:344,1,111,2|0,0:1|0:1,0:1:0:0:
72,272,133495,1,0,0:1:0:0:
0,272,133593,1,0,0:1:0:0:
72,200,133690,1,0,0:1:0:0:
304,200,133787,6,0,L|176:200,1,111,2|0,0:1|0:1,0:1:0:0:
248,128,134080,1,0,0:1:0:0:
448,128,134177,5,2,0:1:0:0:
512,128,134274,1,0,0:1:0:0:
448,56,134372,6,0,L|320:56,1,111,0|0,0:1|0:1,0:1:0:0:
392,120,134664,1,0,0:1:0:0:
128,336,134761,5,2,0:1:0:0:
200,336,134859,1,0,0:1:0:0:
128,264,134956,6,0,L|256:264,1,111,0|0,0:1|0:1,0:1:0:0:
184,200,135248,1,0,0:1:0:0:
416,200,135346,5,2,0:1:0:0:
488,200,135443,1,0,0:1:0:0:
416,128,135541,1,0,0:1:0:0:
488,128,135638,1,0,0:1:0:0:
232,320,135735,5,2,0:1:0:0:
160,320,135833,1,0,0:1:0:0:
232,248,135930,1,0,0:1:0:0:
304,248,136028,1,0,0:1:0:0:
232,176,136125,1,0,0:1:0:0:
304,176,136222,1,0,0:1:0:0:
64,184,136320,5,2,0:1:0:0:
136,184,136417,1,0,0:1:0:0:
64,120,136515,1,0,0:1:0:0:
136,120,136612,1,0,0:1:0:0:
208,120,136710,1,0,0:1:0:0:
280,120,136807,1,0,0:1:0:0:
64,336,136904,5,2,0:1:0:0:
136,336,137002,1,0,0:1:0:0:
64,272,137099,1,0,0:1:0:0:
136,272,137197,1,0,0:1:0:0:
456,280,137294,6,0,L|328:280,1,111,2|0,0:1|0:1,0:1:0:0:
400,216,137586,1,0,0:1:0:0:
328,216,137684,1,0,0:1:0:0:
64,224,137878,5,2,0:1:0:0:
136,224,137976,1,0,0:1:0:0:
336,160,138073,5,0,0:1:0:0:
408,160,138171,1,0,0:1:0:0:
168,80,138268,1,0,0:1:0:0:
240,80,138365,1,0,0:1:0:0:
448,80,138463,5,0,0:1:0:0:
376,80,138560,1,0,0:1:0:0:
112,264,138658,5,0,0:1:0:0:
184,264,138755,1,0,0:1:0:0:
424,264,138852,1,4,0:0:0:0:
88,240,139047,5,0,0:0:0:0:
160,240,139145,1,0,0:0:0:0:
336,240,139242,1,0,0:0:0:0:
224,176,139437,5,0,0:0:0:0:
152,176,139534,1,0,0:0:0:0:
416,176,139632,1,0,0:0:0:0:
296,120,139826,5,0,0:0:0:0:
368,120,139924,1,0,0:0:0:0:
112,112,140021,5,0,0:0:0:0:
224,48,140216,5,0,0:0:0:0:
296,48,140313,1,0,0:0:0:0:
40,48,140411,1,0,0:0:0:0:
152,336,140606,5,0,0:0:0:0:
224,336,140703,1,0,0:0:0:0:
464,336,140800,1,0,0:0:0:0:
344,272,140995,5,0,0:0:0:0:
272,272,141093,1,0,0:0:0:0:
488,192,141190,5,0,0:0:0:0:
368,104,141385,5,0,0:0:0:0:
440,104,141482,1,0,0:0:0:0:
160,104,141580,5,0,0:0:0:0:
272,320,141774,5,0,0:0:0:0:
344,320,141872,1,0,0:0:0:0:
80,328,141969,1,0,0:0:0:0:
192,328,142164,5,0,0:0:0:0:
120,328,142261,1,0,0:0:0:0:
400,328,142359,5,0,0:0:0:0:
288,256,142554,5,0,0:0:0:0:
216,256,142651,1,0,0:0:0:0:
472,256,142748,5,0,0:0:0:0:
360,184,142943,5,0,0:0:0:0:
432,184,143041,1,0,0:0:0:0:
160,176,143138,5,0,0:0:0:0:
272,96,143333,5,0,0:0:0:0:
200,96,143430,1,0,0:0:0:0:
480,96,143528,5,2,0:0:0:0:
24,96,143917,6,2,L|480:96,2,444
256,160,145086,1,0,0:0:0:0:
136,304,145281,5,0,0:0:0:0:
64,304,145378,1,0,0:0:0:0:
336,296,145476,1,0,0:0:0:0:
216,216,145671,5,0,0:0:0:0:
144,216,145768,1,0,0:0:0:0:
424,200,145865,5,0,0:0:0:0:
312,120,146060,5,0,0:0:0:0:
384,120,146158,1,0,0:0:0:0:
104,120,146255,5,0,0:0:0:0:
216,336,146450,5,0,0:0:0:0:
288,336,146547,1,0,0:0:0:0:
496,336,146645,5,0,0:0:0:0:
384,264,146839,5,0,0:0:0:0:
312,264,146937,1,0,0:0:0:0:
96,272,147034,5,0,0:0:0:0:
216,192,147229,5,0,0:0:0:0:
288,192,147326,1,0,0:0:0:0:
80,184,147424,5,0,0:0:0:0:
192,96,147619,5,0,0:0:0:0:
120,96,147716,1,0,0:0:0:0:
376,112,147813,1,0,0:0:0:0:
264,320,148008,5,0,0:0:0:0:
336,320,148106,1,0,0:0:0:0:
96,328,148203,5,0,0:0:0:0:
208,232,148398,5,0,0:0:0:0:
136,232,148495,1,0,0:0:0:0:
384,240,148593,5,0,0:0:0:0:
272,152,148787,5,0,0:0:0:0:
344,152,148885,1,0,0:0:0:0:
72,152,148982,5,0,0:0:0:0:
184,144,149177,5,0,0:0:0:0:
112,144,149274,1,0,0:0:0:0:
184,72,149372,1,0,0:0:0:0:
256,72,149469,1,0,0:0:0:0:
184,8,149567,1,0,0:0:0:0:
256,8,149664,1,0,0:0:0:0:
480,32,149761,5,0,0:0:0:0:
168,352,149956,5,8,0:0:0:0:
496,208,150151,1,8,0:0:0:0:
152,144,150346,1,8,0:0:0:0:
472,136,150541,5,8,0:0:0:0:
64,368,150930,6,0,P|24:296|96:216,1,166.5,8|0,0:0|0:0,0:0:0:0:
264,224,151320,5,0,0:0:0:0:
384,176,151515,5,0,0:0:0:0:
312,176,151612,1,0,0:0:0:0:
384,104,151710,1,0,0:0:0:0:
264,360,151904,5,0,0:0:0:0:
192,360,152002,1,0,0:0:0:0:
120,360,152099,1,0,0:0:0:0:
240,264,152294,5,0,0:0:0:0:
168,264,152391,1,0,0:0:0:0:
240,192,152489,1,0,0:0:0:0:
120,176,152684,5,0,0:0:0:0:
48,176,152781,1,0,0:0:0:0:
120,104,152878,1,0,0:0:0:0:
240,104,153073,5,0,0:0:0:0:
168,104,153171,1,0,0:0:0:0:
96,104,153268,1,0,0:0:0:0:
216,344,153463,5,0,0:0:0:0:
288,344,153560,1,0,0:0:0:0:
80,352,153658,5,2,0:0:0:0:
200,288,153852,5,0,0:0:0:0:
248,232,153950,1,0,0:0:0:0:
64,224,154047,5,2,0:0:0:0:
176,168,154242,5,0,0:0:0:0:
104,168,154339,1,0,0:0:0:0:
176,104,154437,1,0,0:0:0:0:
304,96,154632,5,0,0:0:0:0:
376,96,154729,1,0,0:0:0:0:
448,96,154826,1,0,0:0:0:0:
328,312,155021,5,0,0:0:0:0:
256,312,155119,1,0,0:0:0:0:
328,240,155216,1,0,0:0:0:0:
208,168,155411,5,0,0:0:0:0:
280,168,155508,1,0,0:0:0:0:
208,96,155606,1,0,0:0:0:0:
472,352,155800,5,0,0:0:0:0:
400,352,155898,1,0,0:0:0:0:
472,280,155995,1,0,0:0:0:0:
352,288,156190,5,0,0:0:0:0:
280,288,156287,1,0,0:0:0:0:
208,288,156385,1,0,0:0:0:0:
320,192,156580,5,0,0:0:0:0:
248,192,156677,1,0,0:0:0:0:
480,192,156774,5,2,0:0:0:0:
368,192,156969,5,0,0:0:0:0:
328,128,157067,1,0,0:0:0:0:
504,128,157164,5,2,0:0:0:0:
328,128,157359,5,0,0:0:0:0:
152,128,157554,5,0,0:0:0:0:
264,336,157748,5,0,0:0:0:0:
336,336,157846,1,0,0:0:0:0:
136,336,157943,5,0,0:0:0:0:
248,264,158138,5,0,0:0:0:0:
320,264,158235,1,0,0:0:0:0:
112,256,158333,5,0,0:0:0:0:
224,192,158528,1,0,0:0:0:0:
160,192,158625,1,0,0:0:0:0:
224,120,158722,1,0,0:0:0:0:
352,208,158917,5,0,0:0:0:0:
416,208,159015,1,0,0:0:0:0:
208,208,159112,5,0,0:0:0:0:
96,144,159307,5,0,0:0:0:0:
24,144,159404,1,0,0:0:0:0:
256,144,159502,1,0,0:0:0:0:
368,80,159697,5,0,0:0:0:0:
440,80,159794,1,0,0:0:0:0:
144,360,159891,6,0,P|120:320|160:272,1,111,2|0,0:0|0:0,0:0:0:0:
96,216,160184,1,0,0:0:0:0:
312,232,160281,5,2,0:0:0:0:
424,176,160476,5,0,0:0:0:0:
488,176,160573,1,0,0:0:0:0:
224,184,160671,5,0,0:0:0:0:
336,176,160865,6,0,L|408:176,1,55.5
88,352,161060,6,0,P|64:288|104:256,1,111
152,264,161352,1,0,0:0:0:0:
360,272,161450,5,0,0:0:0:0:
248,192,161645,6,0,L|176:192,1,55.5
408,192,161839,5,0,0:0:0:0:
480,136,162034,6,0,L|504:80,1,55.5
312,80,162229,5,0,0:0:0:0:
192,352,162424,6,0,L|264:352,2,55.5
72,288,162813,6,0,L|24:232,1,55.5
240,224,163008,5,0,0:0:0:0:
304,224,163106,1,0,0:0:0:0:
472,184,163203,6,0,L|400:184,1,55.5
144,184,163398,5,0,0:0:0:0:
256,96,163593,5,0,0:1:0:0:
320,96,163690,1,0,0:1:0:0:
104,96,163787,5,2,0:1:0:0:
216,360,163982,5,0,0:1:0:0:
144,360,164080,1,0,0:1:0:0:
72,360,164177,1,0,0:1:0:0:
192,288,164372,5,0,0:1:0:0:
264,288,164469,1,0,0:1:0:0:
336,288,164567,1,0,0:1:0:0:
224,192,164761,5,0,0:1:0:0:
160,192,164859,1,0,0:1:0:0:
224,128,164956,1,0,0:1:0:0:
336,112,165151,5,0,0:1:0:0:
408,112,165248,1,0,0:1:0:0:
192,112,165346,5,2,0:1:0:0:
304,336,165541,5,0,0:1:0:0:
232,336,165638,1,0,0:1:0:0:
160,336,165735,1,0,0:1:0:0:
288,272,165930,5,0,0:1:0:0:
360,272,166028,1,0,0:1:0:0:
144,264,166125,5,0,0:1:0:0:
264,200,166320,5,0,0:1:0:0:
312,144,166417,1,0,0:1:0:0:
112,136,166515,5,0,0:1:0:0:
232,64,166710,5,0,0:1:0:0:
304,64,166807,1,0,0:1:0:0:
512,64,166904,5,2,0:1:0:0:
400,352,167099,5,0,0:1:0:0:
472,352,167197,1,0,0:1:0:0:
400,288,167294,1,0,0:1:0:0:
280,360,167489,5,0,0:1:0:0:
208,360,167586,1,0,0:1:0:0:
424,248,167684,5,2,0:1:0:0:
304,176,167878,5,0,0:1:0:0:
232,176,167976,1,0,0:1:0:0:
496,104,168073,5,0,0:1:0:0:
384,104,168268,5,0,0:1:0:0:
320,104,168365,1,0,0:1:0:0:
80,104,168463,5,2,0:1:0:0:
192,368,168658,5,0,0:1:0:0:
256,368,168755,1,0,0:1:0:0:
48,368,168852,5,0,0:1:0:0:
160,264,169047,5,0,0:1:0:0:
96,264,169145,1,0,0:1:0:0:
384,272,169242,5,2,0:1:0:0:
504,200,169437,5,0,0:1:0:0:
432,200,169534,1,0,0:1:0:0:
360,200,169632,1,0,0:1:0:0:
240,104,169826,5,0,0:1:0:0:
312,104,169924,1,0,0:1:0:0:
88,344,170021,5,2,0:1:0:0:
208,264,170216,5,0,0:1:0:0:
144,264,170313,1,0,0:1:0:0:
400,264,170411,5,0,0:1:0:0:
512,168,170606,5,0,0:1:0:0:
440,168,170703,1,0,0:1:0:0:
192,160,170800,5,2,0:1:0:0:
80,88,170995,5,0,0:1:0:0:
152,88,171093,1,0,0:1:0:0:
400,96,171190,5,0,0:1:0:0:
288,360,171385,5,0,0:1:0:0:
352,360,171482,1,0,0:1:0:0:
416,360,171580,1,2,0:1:0:0:
304,272,171774,5,0,0:1:0:0:
376,272,171872,1,0,0:1:0:0:
440,272,171969,1,0,0:1:0:0:
320,184,172164,5,0,0:1:0:0:
392,184,172261,1,0,0:1:0:0:
136,200,172359,5,2,0:1:0:0:
208,200,172456,1,0,0:1:0:0:
432,200,172554,5,0,0:1:0:0:
368,200,172651,1,0,0:1:0:0:
128,352,172748,5,0,0:1:0:0:
192,352,172846,1,0,0:1:0:0:
416,232,172943,5,0,0:1:0:0:
344,232,173041,1,0,0:1:0:0:
64,232,173138,5,2,0:1:0:0:
176,232,173333,5,0,0:1:0:0:
184,232,173430,1,0,0:1:0:0:
200,232,173528,1,0,0:1:0:0:
312,216,173722,5,0,0:1:0:0:
328,216,173820,1,0,0:1:0:0:
56,208,173917,5,2,0:1:0:0:
168,208,174112,5,0,0:1:0:0:
152,208,174210,1,0,0:1:0:0:
136,208,174307,1,0,0:1:0:0:
248,208,174502,5,0,0:1:0:0:
240,208,174599,1,0,0:1:0:0:
472,208,174697,5,2,0:1:0:0:
368,208,174891,5,0,0:1:0:0:
376,208,174989,1,0,0:1:0:0:
384,208,175086,1,0,0:1:0:0:
264,208,175281,5,0,0:1:0:0:
336,208,175378,1,0,0:1:0:0:
72,200,175476,5,2,0:1:0:0:
184,112,175671,5,0,0:1:0:0:
256,112,175768,1,0,0:1:0:0:
32,104,175865,5,0,0:1:0:0:
152,336,176060,5,0,0:1:0:0:
216,336,176158,1,0,0:1:0:0:
472,336,176255,5,2,0:1:0:0:
360,256,176450,5,0,0:1:0:0:
344,256,176547,1,0,0:1:0:0:
320,256,176645,1,0,0:1:0:0:
216,256,176839,5,0,0:1:0:0:
200,256,176937,1,0,0:1:0:0:
408,256,177034,5,0,0:1:0:0:
504,176,177229,5,0,0:1:0:0:
472,176,177326,1,0,0:1:0:0:
432,176,177424,1,0,0:1:0:0:
512,96,177619,5,0,0:1:0:0:
192,368,177813,6,0,B|24:368|24:368|144:368,1,249.750009527207,8|0,0:0|0:0,0:0:0:0:
320,368,178203,6,0,B|488:368|488:368|368:368,1,249.750009527207,8|0,0:0|0:0,0:0:0:0:
192,368,178593,6,0,B|24:368|24:368|144:368,1,249.750009527207,8|0,0:0|0:0,0:0:0:0:
384,256,178982,5,8,0:0:0:0:
312,256,179080,1,0,0:0:0:0:
64,248,179177,5,8,0:0:0:0:
136,248,179274,1,0,0:0:0:0:
400,256,179372,5,4,0:0:0:0:
328,256,179469,1,0,0:0:0:0:
120,256,179567,1,0,0:0:0:0:
192,256,179664,5,0,0:0:0:0:
384,184,179761,5,0,0:0:0:0:
456,184,179859,1,0,0:0:0:0:
384,112,179956,1,0,0:0:0:0:
152,184,180054,5,0,0:0:0:0:
224,184,180151,1,4,0:0:0:0:
296,184,180248,1,0,0:0:0:0:
72,328,180346,5,0,0:0:0:0:
144,328,180443,1,0,0:0:0:0:
352,328,180541,5,0,0:0:0:0:
280,328,180638,1,0,0:0:0:0:
208,328,180735,1,0,0:0:0:0:
280,256,180833,1,0,0:0:0:0:
512,256,180930,5,4,0:0:0:0:
440,256,181028,1,0,0:0:0:0:
512,184,181125,1,0,0:0:0:0:
440,184,181222,1,0,0:0:0:0:
168,192,181320,5,0,0:0:0:0:
240,192,181417,1,0,0:0:0:0:
312,192,181515,1,0,0:0:0:0:
240,112,181612,1,0,0:0:0:0:
40,360,181710,5,4,0:0:0:0:
104,360,181807,1,0,0:0:0:0:
40,288,181904,1,0,0:0:0:0:
112,288,182002,1,0,0:0:0:0:
400,296,182099,5,4,0:0:0:0:
96,176,182294,1,0,0:0:0:0:
224,168,182489,5,4,0:0:0:0:
296,168,182586,1,0,0:0:0:0:
224,96,182684,1,0,0:0:0:0:
296,96,182781,1,0,0:0:0:0:
496,344,182878,5,0,0:0:0:0:
424,344,182976,1,0,0:0:0:0:
352,344,183073,1,0,0:0:0:0:
280,344,183171,1,0,0:0:0:0:
40,344,183268,5,4,0:0:0:0:
112,344,183365,1,0,0:0:0:0:
344,256,183463,5,0,0:0:0:0:
272,256,183560,1,0,0:0:0:0:
496,184,183658,5,0,0:0:0:0:
424,184,183755,1,0,0:0:0:0:
352,184,183852,1,0,0:0:0:0:
280,184,183950,1,0,0:0:0:0:
16,336,184047,5,6,0:0:0:0:
88,336,184145,1,2,0:0:0:0:
16,264,184242,1,2,0:0:0:0:
88,264,184339,1,2,0:0:0:0:
424,272,184437,5,6,0:0:0:0:
352,272,184632,1,2,0:0:0:0:
416,272,184729,1,2,0:0:0:0:
352,208,184826,1,6,0:0:0:0:
416,208,184924,1,2,0:0:0:0:
88,200,185021,5,2,0:0:0:0:
160,200,185119,1,0,0:0:0:0:
384,200,185216,5,4,0:0:0:0:
448,200,185313,1,0,0:0:0:0:
208,88,185411,1,0,0:0:0:0:
280,88,185508,1,0,0:0:0:0:
512,320,185606,5,4,0:0:0:0:
440,320,185703,1,0,0:0:0:0:
368,320,185800,1,0,0:0:0:0:
440,256,185898,1,0,0:0:0:0:
368,256,185995,1,0,0:0:0:0:
160,280,186093,5,0,0:0:0:0:
96,280,186190,1,0,0:0:0:0:
24,280,186287,1,0,0:0:0:0:
96,208,186385,1,4,0:0:0:0:
280,216,186482,5,0,0:0:0:0:
352,216,186580,1,0,0:0:0:0:
280,144,186677,1,0,0:0:0:0:
24,152,186774,5,0,0:0:0:0:
96,152,186872,1,0,0:0:0:0:
168,152,186969,1,0,0:0:0:0:
400,352,187067,6,0,L|456:296,1,61.0500018630982,0|4,0:0|0:0,0:0:0:0:
248,280,187261,6,0,L|208:216,1,61.0500018630982
424,144,187456,6,0,L|352:144,1,61.0500018630982
144,144,187651,6,0,L|224:136,1,61.0500018630982
440,352,187846,6,0,L|496:280,1,61.0500018630982,0|4,0:0|0:0,0:0:0:0:
160,352,188041,6,0,L|80:360,1,61.0500018630982
384,256,188235,6,0,L|464:256,1,61.0500018630982
384,176,188430,5,0,0:0:0:0:
320,176,188528,1,0,0:0:0:0:
384,104,188625,1,0,0:0:0:0:
48,320,188722,5,4,0:0:0:0:
176,320,188917,6,0,L|176:256,2,61.0500018630982
296,248,189307,6,0,L|296:168,2,61.0500018630982,0|0|4,0:0|0:0|0:0,0:0:0:0:
424,176,189697,6,0,L|424:104,2,61.0500018630982
360,176,189989,1,0,0:0:0:0:
424,176,190086,1,0,0:0:0:0:
488,176,190184,1,0,0:0:0:0:
240,344,190281,5,4,0:0:0:0:
56,288,190476,2,0,L|56:224,2,61.0500018630982
192,216,190865,6,0,L|192:144,2,61.0500018630982,0|0|4,0:0|0:0|0:0,0:0:0:0:
312,176,191255,2,0,L|312:104,2,61.0500018630982
248,176,191547,1,0,0:0:0:0:
184,176,191645,1,0,0:0:0:0:
112,176,191742,1,0,0:0:0:0:
432,328,191839,5,6,0:0:0:0:
360,320,191937,1,2,0:0:0:0:
112,336,192034,5,2,0:0:0:0:
40,336,192132,1,2,0:0:0:0:
272,240,192229,5,2,0:0:0:0:
160,176,192424,5,6,0:0:0:0:
224,176,192521,1,2,0:0:0:0:
416,176,192619,5,2,0:0:0:0:
344,176,192716,1,2,0:0:0:0:
88,184,192813,5,2,0:0:0:0:
208,96,193008,5,6,0:0:0:0:
280,96,193106,1,2,0:0:0:0:
32,336,193203,5,2,0:0:0:0:
104,336,193300,1,2,0:0:0:0:
360,336,193398,5,2,0:0:0:0:
488,272,193593,5,6,0:0:0:0:
416,272,193690,1,2,0:0:0:0:
192,272,193787,5,2,0:0:0:0:
264,272,193885,1,2,0:0:0:0:
440,176,193982,5,2,0:0:0:0:
312,192,194177,5,6,0:0:0:0:
240,192,194274,1,2,0:0:0:0:
488,96,194372,5,2,0:0:0:0:
424,96,194469,1,2,0:0:0:0:
224,88,194567,5,2,0:0:0:0:
16,328,194761,5,6,0:0:0:0:
80,328,194859,1,2,0:0:0:0:
312,328,194956,5,2,0:0:0:0:
248,328,195054,1,2,0:0:0:0:
64,232,195151,5,2,0:0:0:0:
376,224,195346,6,2,L|464:224,3,61.0500018630982,6|2|2|2,0:0|0:0|0:0|0:0,0:0:0:0:
88,224,195735,5,2,0:0:0:0:
160,224,195930,2,2,L|48:224,3,61.0500018630982,6|2|2|2,0:0|0:0|0:0|0:0,0:0:0:0:
448,224,196320,5,2,0:0:0:0:
320,160,196515,6,2,L|384:160,1,61.0500018630982,6|2,0:0|0:0,0:0:0:0:
104,160,196710,6,2,L|32:160,1,61.0500018630982
384,160,196904,5,2,0:0:0:0:
32,360,197099,6,2,L|8:296,1,61.0500018630982,6|2,0:0|0:0,0:0:0:0:
248,296,197294,6,2,L|288:232,1,61.0500018630982
80,224,197489,6,2,L|32:152,1,61.0500018630982
224,120,197684,6,0,L|360:112,1,111
48,104,198073,5,4,0:0:0:0:
