osu file format v14

[General]
AudioFilename: audio.mp3
AudioLeadIn: 0
PreviewTime: 54283
Countdown: 0
SampleSet: Soft
StackLeniency: 0.7
Mode: 2
LetterboxInBreaks: 0
EpilepsyWarning: 1
WidescreenStoryboard: 1

[Editor]
Bookmarks: 57789,59153,59348,59932,60906,63634,63828,66750,67140,67724,68309,68893,69478,70257,127724
DistanceSpacing: 1.4
BeatDivisor: 4
GridSize: 8
TimelineZoom: 3.699999

[Metadata]
Title:Rampage
TitleUnicode:ランペイジ
Artist:paraoka feat. haru*nya
ArtistUnicode:paraoka feat. haru*nya
Creator:[_-Kukkai-_]
Version:Overdose
Source:
Tags:Vocaloid bank78952 Etsu Nelly PoPoii マテリアル 麹町養蚕館 c71
BeatmapID:1526647
BeatmapSetID:637180

[Difficulty]
HPDrainRate:6
CircleSize:4
OverallDifficulty:9.6
ApproachRate:9.6
SliderMultiplier:2.22
SliderTickRate:2

[Events]
//Background and Video events
0,0,"thumb-1920-584356.png",0,0
//Break Periods
2,14377,26120
//Storyboard Layer 0 (Background)
//Storyboard Layer 1 (Fail)
//Storyboard Layer 2 (Pass)
//Storyboard Layer 3 (Foreground)
//Storyboard Sound Samples

[TimingPoints]
1710,389.61038961039,4,2,0,35,1,0
53138,-66.6666666666667,4,2,0,35,0,0
53333,-100,4,2,0,35,0,0
53528,-66.6666666666667,4,2,0,35,0,0
53722,-100,4,2,0,35,0,0
53917,-66.6666666666667,4,2,0,35,0,0
54112,-100,4,2,0,35,0,0
54697,-90.9090909090909,4,1,0,35,0,1
70281,-100,4,2,0,35,0,0
109242,-66.6666666666667,4,2,0,35,0,0
109437,-100,4,2,0,35,0,0
109632,-66.6666666666667,4,2,0,35,0,0
109826,-100,4,2,0,35,0,0
110021,-66.6666666666667,4,2,0,35,0,0
110216,-100,4,2,0,35,0,0
110800,-90.9090909090909,4,1,0,35,0,1
126385,-100,4,2,0,35,0,0
143917,-100,4,2,0,35,0,0
145086,-100,4,2,0,35,0,0
149956,-133.333333333333,4,2,0,35,0,0
150151,-100,4,2,0,35,0,0
150346,-133.333333333333,4,2,0,35,0,0
150541,-100,4,2,0,35,0,0
177813,-66.6666666666667,4,2,0,35,0,0
178008,-100,4,2,0,35,0,0
178203,-66.6666666666667,4,2,0,35,0,0
178398,-100,4,2,0,35,0,0
178593,-66.6666666666667,4,2,0,35,0,0
178787,-100,4,2,0,35,0,0
179372,-90.9090909090909,4,1,0,35,0,1
197684,-100,4,1,0,35,0,1
198073,-100,4,2,0,35,0,0

[Colours]
Combo1 : 148,148,148
Combo2 : 0,236,255
Combo3 : 4,181,176

[HitObjects]
304,360,1320,5,0,0:1:0:0:
326,344,1368,1,0,0:0:0:0:
342,321,1417,1,0,0:0:0:0:
350,295,1466,1,0,0:0:0:0:
349,267,1514,1,0,0:0:0:0:
339,242,1563,1,0,0:0:0:0:
320,221,1612,1,0,0:0:0:0:
296,208,1660,1,0,0:0:0:0:
96,360,1710,6,0,P|32:336|32:272,1,111,4|0,0:0|0:1,0:0:0:0:
80,232,2002,5,0,0:1:0:0:
24,176,2099,1,0,0:1:0:0:
288,352,2294,6,0,L|336:216,1,111,2|0,0:1|0:1,0:0:0:0:
400,192,2586,5,0,0:1:0:0:
372,143,2683,1,0,0:1:0:0:
344,95,2780,1,0,0:1:0:0:
88,360,2878,6,0,L|208:360,1,111,2|0,0:1|0:1,0:0:0:0:
144,296,3171,1,0,0:1:0:0:
384,312,3268,6,0,P|416:256|424:200,1,111,2|0,0:1|0:1,0:0:0:0:
400,144,3560,5,0,0:1:0:0:
312,152,3658,5,0,0:1:0:0:
32,264,3852,6,0,L|0:144,1,111,2|0,0:1|0:1,0:0:0:0:
64,104,4145,5,0,0:1:0:0:
8,48,4242,1,0,0:1:0:0:
72,48,4339,1,0,0:1:0:0:
312,360,4437,6,0,L|368:304,1,55.5,2|0,0:1|0:1,0:0:0:0:
280,272,4632,6,0,L|256:208,1,55.5,0|0,0:1|0:1,0:0:0:0:
488,208,4826,6,0,P|496:136|472:80,1,111,2|0,0:1|0:1,0:0:0:0:
440,56,5119,1,0,0:1:0:0:
376,24,5216,1,0,0:1:0:0:
96,368,5411,6,0,L|24:368,1,55.5,2|0,0:1|0:0,0:0:0:0:
120,304,5606,6,0,L|160:256,1,55.5,0|0,0:1|0:1,0:0:0:0:
96,200,5800,6,0,L|72:128,1,55.5,0|0,0:1|0:1,0:0:0:0:
328,368,5995,5,2,0:1:0:0:
372,335,6092,1,0,0:1:0:0:
398,286,6189,1,0,0:1:0:0:
401,231,6287,1,0,0:0:0:0:
176,224,6385,6,0,L|56:224,1,111,2|0,0:1|0:1,0:0:0:0:
120,160,6677,1,0,0:1:0:0:
56,160,6774,1,0,0:1:0:0:
328,368,6969,6,0,L|256:368,1,55.5,2|0,0:1|0:0,0:0:0:0:
192,360,7164,6,0,L|152:304,1,55.5,0|0,0:1|0:1,0:0:0:0:
384,280,7359,6,0,L|432:216,1,55.5,2|0,0:1|0:1,0:0:0:0:
256,208,7554,6,0,L|232:144,1,55.5,2|0,0:1|0:1,0:0:0:0:
456,72,7748,6,0,L|352:72,1,55.5,0|0,0:1|0:1,0:0:0:0:
112,360,7943,6,0,P|56:312|64:248,1,111,4|0,0:0|0:1,0:0:0:0:
104,224,8235,1,0,0:1:0:0:
168,184,8333,5,0,0:1:0:0:
472,200,8528,6,0,L|352:200,1,111,2|0,0:1|0:1,0:0:0:0:
416,136,8820,1,0,0:1:0:0:
488,136,8917,1,0,0:1:0:0:
416,72,9015,1,0,0:1:0:0:
176,360,9112,5,2,0:1:0:0:
161,306,9209,1,0,0:0:0:0:
161,251,9306,1,0,0:1:0:0:
176,197,9404,1,0,0:1:0:0:
392,216,9502,6,0,P|472:208|496:160,1,111,2|0,0:1|0:1,0:0:0:0:
432,128,9794,5,0,0:1:0:0:
504,128,9891,1,0,0:1:0:0:
200,360,10086,6,0,L|64:360,1,111,2|0,0:1|0:1,0:0:0:0:
144,288,10378,1,0,0:1:0:0:
72,288,10476,1,0,0:1:0:0:
8,288,10573,1,0,0:1:0:0:
216,288,10671,6,0,L|280:288,1,55.5,2|0,0:1|0:1,0:0:0:0:
216,224,10865,2,0,L|152:224,1,55.5,0|0,0:1|0:1,0:0:0:0:
400,368,11060,6,0,P|448:312|440:232,1,111,2|0,0:1|0:1,0:0:0:0:
448,208,11352,1,0,0:1:0:0:
416,144,11450,1,0,0:1:0:0:
80,360,11645,6,0,P|32:288|48:240,1,111,2|0,0:1|0:1,0:0:0:0:
88,224,11937,1,0,0:1:0:0:
144,184,12034,1,0,0:1:0:0:
88,128,12132,1,0,0:1:0:0:
328,368,12229,6,0,P|384:328|416:264,1,111,2|0,0:1|0:1,0:0:0:0:
216,256,12521,5,0,0:1:0:0:
408,200,12619,1,6,0:1:0:0:
160,360,12716,6,0,L|112:288,1,55.5,2|0,0:1|0:1,0:0:0:0:
312,288,12911,6,0,L|368:240,1,55.5,2|2,0:1|0:1,0:0:0:0:
472,200,13203,6,0,L|504:128,1,55.5,0|0,0:1|0:1,0:0:0:0:
264,208,13398,6,0,L|184:208,1,55.5,2|0,0:1|0:1,0:0:0:0:
416,200,13593,6,0,L|480:200,1,55.5,2|0,0:1|0:1,0:0:0:0:
176,360,13787,5,0,0:1:0:0:
154,342,13835,1,0,0:1:0:0:
144,316,13884,1,0,0:1:0:0:
147,289,13933,1,0,0:1:0:0:
328,280,13982,5,0,0:1:0:0:
345,259,14030,1,0,0:1:0:0:
352,232,14079,1,0,0:1:0:0:
345,205,14128,1,0,0:1:0:0:
56,200,14177,1,4,0:1:0:0:
256,360,26645,6,0,P|320:320|344:272,1,111,4|0,0:1|0:1,0:0:0:0:
280,280,26937,5,0,0:1:0:0:
48,288,27034,6,0,L|24:160,1,111,0|0,0:1|0:1,0:0:0:0:
184,168,27424,6,0,L|72:168,2,111,0|0|0,0:1|0:1|0:1,0:0:0:0:
456,368,28008,6,0,P|488:312|496:240,1,111,0|0,0:1|0:1,0:0:0:0:
360,160,28398,6,0,L|296:160,1,55.5,0|0,0:1|0:1,0:0:0:0:
72,368,28593,6,0,P|32:312|40:256,1,111,0|0,0:1|0:1,0:0:0:0:
96,272,28885,1,0,0:1:0:0:
320,272,28982,6,0,P|376:224|384:176,1,111,0|0,0:1|0:1,0:0:0:0:
320,184,29274,1,0,0:1:0:0:
64,272,29372,6,0,P|16:232|40:176,1,111,0|0,0:1|0:1,0:0:0:0:
88,184,29664,1,0,0:1:0:0:
320,352,29761,5,0,0:1:0:0:
144,288,29956,5,0,0:1:0:0:
304,192,30151,6,0,L|160:192,1,111,0|0,0:1|0:1,0:0:0:0:
392,192,30541,6,0,L|496:144,2,111,0|0|0,0:1|0:1|0:1,0:0:0:0:
72,368,31125,6,0,P|40:304|80:264,1,111,0|0,0:1|0:1,0:0:0:0:
176,272,31515,6,0,L|240:272,1,55.5,0|0,0:1|0:1,0:0:0:0:
456,368,31710,6,0,P|496:312|496:256,1,111,0|0,0:1|0:1,0:0:0:0:
432,272,32002,1,0,0:1:0:0:
176,360,32099,6,0,P|104:304|120:248,1,111,0|0,0:1|0:1,0:0:0:0:
168,288,32391,1,0,0:1:0:0:
384,296,32489,6,0,P|416:240|408:176,1,111,0|0,0:1|0:1,0:0:0:0:
352,192,32781,1,0,0:0:0:0:
72,200,32878,5,0,0:1:0:0:
192,200,33073,6,0,L|216:136,1,55.5,0|0,0:1|0:1,0:0:0:0:
40,96,33268,6,0,L|176:96,2,111,0|0|0,0:1|0:1|0:1,0:0:0:0:
184,192,33852,5,0,0:1:0:0:
40,352,34047,1,0,0:1:0:0:
424,360,34242,6,0,P|480:312|504:248,1,111,0|0,0:1|0:1,0:0:0:0:
384,192,34632,6,0,L|448:192,1,55.5,0|0,0:1|0:1,0:0:0:0:
112,360,34826,6,0,P|96:288|128:240,1,111,0|0,0:1|0:1,0:0:0:0:
160,224,35119,1,0,0:1:0:0:
424,232,35216,6,0,P|424:152|376:96,1,111,0|0,0:1|0:1,0:0:0:0:
368,88,35508,1,0,0:1:0:0:
160,256,35606,6,0,L|288:256,1,111,0|0,0:1|0:1,0:0:0:0:
8,256,35995,5,0,0:1:0:0:
216,352,36190,6,0,L|344:272,1,111,0|0,0:1|0:1,0:0:0:0:
160,184,36580,6,0,L|304:184,2,111,0|0|0,0:1|0:1|0:1,0:0:0:0:
40,160,37164,5,0,0:1:0:0:
336,368,37359,6,0,L|368:240,2,111,0|0|0,0:1|0:1|0:1,0:0:0:0:
56,344,37943,6,0,P|48:256|72:216,1,111,0|0,0:1|0:1,0:0:0:0:
120,232,38235,1,0,0:1:0:0:
344,232,38333,6,0,L|408:232,1,55.5,0|0,0:1|0:1,0:0:0:0:
176,216,38528,6,0,L|312:216,1,111,0|0,0:1|0:1,0:0:0:0:
504,128,38820,6,0,L|440:128,1,55.5,0|0,0:1|0:1,0:0:0:0:
408,128,39015,1,0,0:0:0:0:
128,360,39112,6,0,P|96:288|120:232,1,111,2|0,0:1|0:1,0:0:0:0:
120,200,39404,1,0,0:1:0:0:
136,136,39502,1,0,0:1:0:0:
312,136,39697,5,0,0:1:0:0:
144,344,39891,5,0,0:1:0:0:
312,336,40086,1,0,0:1:0:0:
144,280,40281,1,0,0:1:0:0:
424,248,40476,5,2,0:1:0:0:
72,368,40671,6,0,P|64:296|72:240,1,111,0|0,0:1|0:1,0:0:0:0:
104,208,40963,1,0,0:0:0:0:
376,352,41060,6,0,P|400:288|392:232,1,111,0|0,0:1|0:1,0:0:0:0:
376,192,41352,1,0,0:1:0:0:
112,360,41450,6,0,P|40:304|40:248,1,111,0|0,0:1|0:1,0:0:0:0:
96,248,41742,5,0,0:1:0:0:
328,248,41839,6,0,L|184:248,1,111,0|0,0:1|0:1,0:0:0:0:
480,368,42229,6,0,P|496:304|456:256,1,111,2|0,0:1|0:1,0:0:0:0:
424,240,42521,5,0,0:1:0:0:
320,240,42619,6,0,P|344:184|392:160,1,111,0|0,0:1|0:1,0:0:0:0:
80,352,43008,6,0,P|32:304|40:240,1,111,2|0,0:1|0:1,0:0:0:0:
160,256,43398,1,0,0:1:0:0:
456,256,43593,5,0,0:1:0:0:
184,360,43787,6,0,L|64:360,1,111,2|0,0:1|0:1,0:0:0:0:
128,296,44080,1,0,0:1:0:0:
384,296,44177,6,0,L|512:296,1,111,0|0,0:1|0:1,0:0:0:0:
432,224,44469,1,0,0:1:0:0:
160,288,44567,2,0,P|128:216|168:168,1,111,2|0,0:1|0:1,0:0:0:0:
200,176,44859,1,0,0:1:0:0:
464,192,44956,6,0,L|336:192,1,111,0|0,0:1|0:1,0:0:0:0:
64,368,45346,6,0,P|48:296|56:240,1,111,2|0,0:1|0:1,0:0:0:0:
72,200,45638,1,0,0:1:0:0:
176,200,45735,6,0,P|144:136|88:112,1,111,0|0,0:1|0:1,0:0:0:0:
456,360,46125,5,2,0:1:0:0:
288,272,46320,6,0,L|400:272,1,111,0|0,0:1|0:1,0:0:0:0:
88,344,46710,5,0,0:1:0:0:
352,264,46904,6,0,L|216:264,1,111,2|0,0:1|0:1,0:0:0:0:
112,360,47294,6,0,L|80:232,1,111,0|0,0:1|0:1,0:0:0:0:
64,184,47586,5,0,0:1:0:0:
320,328,47684,6,0,P|384:288|400:248,1,111,2|0,0:1|0:1,0:0:0:0:
368,192,47976,5,0,0:1:0:0:
152,192,48073,6,0,L|88:192,1,55.5,0|0,0:1|0:1,0:0:0:0:
312,200,48268,6,0,L|392:200,1,55.5,0|0,0:1|0:1,0:0:0:0:
56,368,48463,6,0,L|40:240,1,111,2|0,0:1|0:1,0:0:0:0:
32,192,48755,1,0,0:1:0:0:
16,120,48852,1,0,0:1:0:0:
128,232,49047,6,0,L|192:232,1,55.5,0|0,0:1|0:1,0:0:0:0:
448,368,49242,6,0,L|480:240,1,111,2|0,0:1|0:1,0:0:0:0:
488,192,49534,1,0,0:1:0:0:
504,120,49632,1,0,0:1:0:0:
384,96,49826,6,0,L|312:96,1,55.5,0|0,0:1|0:1,0:0:0:0:
64,368,50021,6,0,P|48:288|80:256,1,111,2|0,0:1|0:1,0:0:0:0:
112,232,50313,1,0,0:1:0:0:
168,184,50411,1,0,0:1:0:0:
40,112,50606,6,0,L|-16:112,1,55.5,0|0,0:1|0:1,0:0:0:0:
256,368,50800,6,0,P|320:320|336:280,1,111,2|0,0:1|0:1,0:0:0:0:
320,224,51093,5,0,0:1:0:0:
96,208,51190,6,0,L|224:208,1,111,0|0,0:1|0:1,0:0:0:0:
464,376,51580,6,0,P|488:304|472:232,1,111,2|0,0:1|0:1,0:0:0:0:
464,200,51872,1,0,0:1:0:0:
432,144,51969,1,0,0:1:0:0:
320,72,52164,6,0,L|384:72,1,55.5,0|0,0:1|0:1,0:0:0:0:
72,360,52359,6,0,L|40:280,1,55.5,0|0,0:1|0:1,0:0:0:0:
232,288,52554,6,0,L|256:216,1,55.5,0|0,0:1|0:1,0:0:0:0:
32,208,52748,6,0,L|24:128,1,55.5,0|0,0:1|0:1,0:0:0:0:
320,208,52943,6,0,L|344:128,1,55.5,0|0,0:1|0:1,0:0:0:0:
48,352,53138,6,0,P|16:272|128:168,1,249.750009527207,8|0,0:1|0:1,0:0:0:0:
368,360,53528,6,0,P|448:296|424:160,1,249.750009527207,8|0,0:1|0:1,0:0:0:0:
176,352,53917,6,0,P|136:248|256:184,1,249.750009527207,8|0,0:1|0:1,0:0:0:0:
504,192,54307,6,0,L|352:192,1,111,2|2,0:1|0:1,0:0:0:0:
136,352,54697,6,0,L|64:352,1,61.0500018630982,4|0,0:1|0:1,0:0:0:0:
136,280,54891,2,0,L|224:280,1,61.0500018630982,0|0,0:1|0:1,0:0:0:0:
400,280,55086,5,0,0:1:0:0:
304,232,55184,5,0,0:1:0:0:
284,175,55281,1,0,0:1:0:0:
313,123,55378,1,0,0:1:0:0:
504,208,55476,5,4,0:1:0:0:
496,148,55573,1,0,0:1:0:0:
451,109,55670,1,0,0:1:0:0:
264,104,55768,5,0,0:1:0:0:
40,352,55865,6,0,P|16:280|56:216,1,122.100003726196,0|0,0:0|0:1,0:0:0:0:
96,232,56158,1,0,0:1:0:0:
320,368,56255,6,0,P|408:312|416:256,1,122.100003726196,4|0,0:1|0:1,0:0:0:0:
208,288,56547,5,0,0:1:0:0:
164,247,56644,1,0,0:1:0:0:
164,187,56741,1,0,0:0:0:0:
352,184,56839,6,0,L|432:184,1,61.0500018630982,0|0,0:1|0:1,0:0:0:0:
144,352,57034,6,0,L|104:272,1,61.0500018630982,4|0,0:1|0:1,0:0:0:0:
192,256,57229,6,0,L|232:176,1,61.0500018630982,0|0,0:1|0:1,0:0:0:0:
32,112,57424,6,0,L|112:112,1,61.0500018630982,4|0,0:1|0:1,0:0:0:0:
336,112,57619,6,0,L|256:112,1,61.0500018630982,0|0,0:1|0:1,0:0:0:0:
48,360,57813,6,0,L|8:296,1,61.0500018630982,4|0,0:1|0:1,0:0:0:0:
104,264,58008,6,0,L|152:200,1,61.0500018630982,0|0,0:1|0:1,0:0:0:0:
392,344,58203,6,0,L|456:272,1,61.0500018630982,0|0,0:1|0:1,0:0:0:0:
224,264,58398,6,0,L|176:192,1,61.0500018630982,0|0,0:1|0:1,0:0:0:0:
362,176,58593,6,0,L|424:176,3,61.0500018630982,4|0|0|0,0:1|0:1|0:1|0:1,0:0:0:0:
144,176,58982,5,0,0:1:0:0:
280,368,59177,6,0,L|304:296,1,61.0500018630982,0|0,0:1|0:1,0:0:0:0:
56,256,59372,6,0,L|224:256,1,122.100003726196,6|2,0:1|0:1,0:0:0:0:
120,184,59664,1,0,0:1:0:0:
56,184,59761,1,6,0:1:0:0:
432,184,59956,5,2,0:1:0:0:
360,184,60054,1,0,0:1:0:0:
309,256,60151,6,0,L|432:256,1,122.100003726196,6|2,0:1|0:1,0:0:0:0:
472,208,60443,1,0,0:1:0:0:
216,352,60541,6,0,L|160:288,1,61.0500018630982,4|0,0:1|0:1,0:0:0:0:
376,280,60735,6,0,L|288:280,1,61.0500018630982,0|0,0:1|0:1,0:0:0:0:
72,296,60930,5,4,0:1:0:0:
32,240,61027,1,0,0:1:0:0:
96,200,61124,1,0,0:1:0:0:
32,152,61222,1,0,0:1:0:0:
240,160,61320,6,0,L|320:160,1,61.0500018630982,0|0,0:1|0:1,0:0:0:0:
496,160,61515,6,0,L|416:160,1,61.0500018630982,0|0,0:1|0:1,0:0:0:0:
208,368,61710,5,4,0:1:0:0:
199,307,61807,1,0,0:1:0:0:
212,248,61904,1,0,0:1:0:0:
280,216,62002,5,0,0:1:0:0:
64,352,62099,6,0,P|32:304|24:208,1,122.100003726196,0|0,0:1|0:1,0:0:0:0:
88,232,62391,5,0,0:1:0:0:
304,232,62489,6,0,L|328:160,1,61.0500018630982,4|0,0:1|0:1,0:0:0:0:
104,176,62684,6,0,L|80:96,1,61.0500018630982,0|0,0:1|0:1,0:0:0:0:
328,368,62878,6,0,L|384:304,1,61.0500018630982,0|0,0:1|0:1,0:0:0:0:
456,280,63073,6,0,L|488:200,1,61.0500018630982,0|0,0:1|0:1,0:0:0:0:
240,208,63268,6,0,L|168:208,3,61.0500018630982,4|0|0|0,0:1|0:1|0:1|0:0,0:0:0:0:
416,208,63658,5,4,0:1:0:0:
288,208,63852,6,0,L|208:208,1,61.0500018630982,0|0,0:1|0:1,0:0:0:0:
40,360,64047,6,0,P|16:296|72:272,1,122.100003726196,4|0,0:1|0:1,0:0:0:0:
112,272,64339,1,0,0:1:0:0:
51,270,64437,6,0,P|27:206|83:182,1,122.100003726196,0|0,0:1|0:1,0:0:0:0:
128,184,64729,1,0,0:1:0:0:
384,376,64826,6,0,P|408:312|352:288,1,122.100003726196,4|0,0:1|0:1,0:0:0:0:
312,288,65118,1,0,0:1:0:0:
373,286,65216,6,0,P|397:222|341:198,1,122.100003726196,0|0,0:1|0:1,0:0:0:0:
296,200,65508,1,0,0:1:0:0:
64,368,65606,6,0,L|16:216,1,122.100003726196,4|0,0:1|0:1,0:0:0:0:
88,240,65898,1,0,0:1:0:0:
27,251,65995,6,0,L|0:120,1,122.100003726196,0|0,0:1|0:1,0:0:0:0:
64,120,66287,1,0,0:1:0:0:
2,132,66385,6,0,L|0:0,1,122.100003726196,4|0,0:1|0:1,0:0:0:0:
320,352,66774,6,0,L|352:272,1,61.0500018630982,0|0,0:1|0:1,0:0:0:0:
256,272,66969,6,0,L|224:200,1,61.0500018630982,0|0,0:1|0:1,0:0:0:0:
456,200,67164,6,0,L|480:128,1,61.0500018630982,6|2,0:1|0:1,0:0:0:0:
264,192,67359,6,0,L|248:112,1,61.0500018630982,2|2,0:1|0:1,0:0:0:0:
480,80,67554,1,2,0:1:0:0:
352,296,67748,6,0,L|272:296,1,61.0500018630982,6|2,0:1|0:1,0:0:0:0:
88,304,67943,6,0,L|16:304,1,61.0500018630982,2|2,0:1|0:1,0:0:0:0:
240,208,68138,5,2,0:1:0:0:
408,200,68333,6,0,L|472:136,1,61.0500018630982,6|2,0:1|0:1,0:0:0:0:
160,208,68528,6,0,L|136:128,1,61.0500018630982,2|2,0:1|0:1,0:0:0:0:
400,80,68722,5,2,0:1:0:0:
272,80,68917,6,0,L|184:80,1,61.0500018630982,6|2,0:1|0:1,0:0:0:0:
8,88,69112,6,0,L|80:88,1,61.0500018630982,2|2,0:1|0:1,0:0:0:0:
264,80,69307,5,2,0:1:0:0:
283,102,69355,1,0,0:1:0:0:
287,132,69404,1,0,0:1:0:0:
273,159,69453,1,0,0:1:0:0:
32,360,69502,6,0,L|8:288,1,61.0500018630982,6|0,0:1|0:1,0:0:0:0:
232,304,69697,6,0,L|272:248,1,61.0500018630982,2|0,0:1|0:1,0:0:0:0:
184,216,69891,6,0,L|160:160,1,61.0500018630982,0|0,0:1|0:1,0:0:0:0:
256,128,70086,6,0,L|336:128,1,61.0500018630982,0|0,0:1|0:1,0:0:0:0:
504,128,70281,6,0,P|496:200|456:232,1,111,4|0,0:0|0:1,0:0:0:0:
408,224,70573,1,0,0:1:0:0:
344,224,70671,5,0,0:1:0:0:
456,104,70865,5,0,0:1:0:0:
512,48,70963,1,0,0:1:0:0:
248,360,71060,6,0,L|192:224,1,111,0|0,0:1|0:1,0:0:0:0:
288,200,71352,5,0,0:1:0:0:
232,136,71450,1,0,0:1:0:0:
64,352,71645,6,0,L|8:288,1,55.5,0|0,0:1|0:1,0:0:0:0:
24,232,71839,5,0,0:1:0:0:
328,232,72034,5,0,0:1:0:0:
272,232,72131,1,0,0:1:0:0:
217,232,72228,1,0,0:1:0:0:
336,192,72424,6,0,L|408:192,1,55.5,0|0,0:1|0:1,0:0:0:0:
144,368,72619,5,0,0:1:0:0:
256,288,72813,1,0,0:1:0:0:
80,296,73008,6,0,L|48:152,1,111,0|0,0:1|0:1,0:0:0:0:
88,128,73300,5,0,0:1:0:0:
376,336,73398,6,0,L|496:336,1,111,0|0,0:1|0:1,0:0:0:0:
432,264,73690,1,0,0:1:0:0:
168,328,73787,6,0,P|136:264|160:224,1,111,0|0,0:1|0:1,0:0:0:0:
216,232,74080,1,0,0:1:0:0:
440,232,74177,5,0,0:1:0:0:
320,144,74372,6,0,L|312:16,1,111,0|0,0:1|0:1,0:0:0:0:
432,344,74761,5,0,0:1:0:0:
376,344,74858,1,0,0:1:0:0:
321,344,74955,1,0,0:1:0:0:
48,368,75151,6,0,L|16:304,1,55.5,0|0,0:1|0:1,0:0:0:0:
232,312,75346,5,0,0:1:0:0:
352,320,75541,6,0,L|392:264,1,55.5,0|0,0:1|0:1,0:0:0:0:
304,240,75735,6,0,P|272:184|304:144,1,111,0|0,0:1|0:1,0:0:0:0:
360,144,76028,1,0,0:0:0:0:
424,144,76125,6,0,P|464:184|472:336,1,166.5,0|0,0:1|0:0,0:0:0:0:
136,368,76515,6,0,L|8:368,1,111,0|0,0:1|0:1,0:0:0:0:
80,304,76807,1,0,0:1:0:0:
304,312,76904,6,0,P|328:256|288:192,1,111,0|0,0:1|0:1,0:0:0:0:
272,176,77197,1,0,0:1:0:0:
40,368,77294,6,0,L|0:216,1,111,0|0,0:1|0:1,0:0:0:0:
80,256,77586,1,0,0:1:0:0:
144,256,77684,1,0,0:1:0:0:
304,256,77878,6,0,L|184:256,1,111,0|0,0:1|0:1,0:0:0:0:
64,368,78268,6,0,L|24:256,1,111,0|0,0:1|0:1,0:0:0:0:
192,248,78658,5,0,0:1:0:0:
80,144,78852,1,0,0:1:0:0:
248,144,79047,5,0,0:1:0:0:
416,352,79242,2,0,P|464:296|472:232,1,111,0|0,0:1|0:1,0:0:0:0:
424,216,79534,1,0,0:1:0:0:
224,328,79632,6,0,L|96:328,1,111,0|0,0:1|0:1,0:0:0:0:
224,256,80021,6,0,P|280:216|288:152,1,111,0|0,0:1|0:1,0:0:0:0:
280,104,80313,1,0,0:1:0:0:
248,40,80411,1,0,0:1:0:0:
72,56,80606,5,0,0:1:0:0:
424,360,80800,6,0,L|488:360,1,55.5,0|0,0:1|0:1,0:0:0:0:
256,304,80995,6,0,L|224:240,1,55.5,0|0,0:1|0:1,0:0:0:0:
392,208,81190,6,0,L|472:208,4,55.5,0|0|0|0|0,0:1|0:1|0:1|0:1|0:1,0:0:0:0:
96,352,81774,6,0,L|24:352,4,55.5,0|0|0|0|0,0:1|0:1|0:1|0:1|0:1,0:0:0:0:
264,352,82359,5,0,0:1:0:0:
152,288,82554,5,0,0:1:0:0:
416,304,82748,6,0,P|504:256|504:224,1,111,4|0,0:0|0:1,0:0:0:0:
440,224,83041,1,0,0:1:0:0:
216,304,83138,5,0,0:1:0:0:
152,176,83333,1,0,0:1:0:0:
320,192,83528,1,0,0:1:0:0:
208,112,83722,6,0,L|320:112,1,111,0|0,0:1|0:1,0:0:0:0:
32,368,84112,6,0,P|8:312|32:248,1,111,0|0,0:1|0:1,0:0:0:0:
136,256,84502,6,0,L|200:256,1,55.5,0|0,0:1|0:1,0:0:0:0:
448,264,84697,6,0,P|488:208|480:152,1,111,2|0,0:0|0:1,0:0:0:0:
432,128,84989,1,0,0:1:0:0:
128,272,85086,6,0,L|240:272,1,111,2|0,0:0|0:1,0:0:0:0:
296,272,85378,1,0,0:1:0:0:
80,352,85476,6,0,P|48:288|80:240,1,111,2|0,0:0|0:1,0:0:0:0:
120,216,85768,1,0,0:1:0:0:
376,360,85865,5,0,0:1:0:0:
240,320,86060,6,0,L|88:320,2,111,0|0|0,0:1|0:1|0:1,0:0:0:0:
400,256,86645,6,0,L|256:256,2,111,0|0|0,0:1|0:1|0:1,0:0:0:0:
80,352,87229,5,0,0:1:0:0:
39,314,87326,1,0,0:1:0:0:
32,256,87424,6,0,P|24:176|64:144,1,111,0|0,0:1|0:1,0:0:0:0:
96,136,87716,1,0,0:1:0:0:
344,352,87813,6,0,L|200:352,1,111,2|0,0:0|0:1,0:0:0:0:
176,352,88106,1,0,0:1:0:0:
408,280,88203,6,0,P|456:232|440:176,1,111,2|0,0:0|0:1,0:0:0:0:
416,144,88495,1,0,0:1:0:0:
208,336,88593,6,0,L|168:208,1,111,2|0,0:0|0:1,0:0:0:0:
312,208,88982,6,0,L|464:208,1,111,0|0,0:1|0:1,0:0:0:0:
424,144,89274,1,0,0:1:0:0:
56,352,89372,6,0,L|0:224,1,111,0|0,0:1|0:1,0:0:0:0:
160,200,89761,6,0,L|24:200,2,111,0|0|0,0:1|0:1|0:1,0:0:0:0:
432,360,90346,5,0,0:1:0:0:
484,348,90443,1,0,0:1:0:0:
512,304,90541,6,0,P|504:224|448:184,1,111,0|0,0:1|0:1,0:0:0:0:
432,168,90833,1,0,0:1:0:0:
224,200,90930,6,0,L|344:200,1,111,2|0,0:0|0:1,0:0:0:0:
280,136,91222,1,0,0:1:0:0:
40,352,91320,6,0,P|24:288|32:224,1,111,2|0,0:0|0:1,0:0:0:0:
40,176,91612,1,0,0:1:0:0:
304,352,91710,6,0,P|336:272|336:224,1,111,0|0,0:1|0:1,0:0:0:0:
328,184,92002,1,0,0:1:0:0:
96,192,92099,5,0,0:1:0:0:
256,352,92294,6,0,L|384:352,1,111,0|0,0:1|0:1,0:0:0:0:
504,272,92684,6,0,L|368:272,2,111,0|0|0,0:1|0:1|0:1,0:0:0:0:
448,200,93268,1,0,0:1:0:0:
152,360,93463,5,0,0:1:0:0:
40,296,93658,2,0,P|24:216|24:168,1,111,0|0,0:1|0:1,0:0:0:0:
304,352,94047,6,0,P|352:296|360:256,1,111,2|2,0:0|0:0,0:0:0:0:
336,200,94339,1,2,0:0:0:0:
112,208,94437,6,0,L|24:208,1,55.5,2|0,0:0|0:1,0:0:0:0:
256,208,94632,6,0,L|384:208,1,111,0|2,0:1|0:0,0:0:0:0:
312,136,94924,5,0,0:1:0:0:
384,136,95021,1,0,0:1:0:0:
456,136,95119,1,0,0:0:0:0:
136,368,95216,6,0,L|24:368,1,111,2|0,0:1|0:1,0:0:0:0:
144,288,95606,6,0,L|24:288,1,111,0|0,0:1|0:1,0:0:0:0:
192,360,95995,6,0,L|256:256,1,111,0|0,0:1|0:1,0:0:0:0:
72,192,96385,5,0,0:1:0:0:
208,192,96580,6,0,L|288:192,1,55.5,0|0,0:1|0:1,0:0:0:0:
480,360,96774,6,0,L|360:360,1,111,2|0,0:1|0:1,0:0:0:0:
480,288,97164,2,0,L|352:288,1,111,0|0,0:1|0:1,0:0:0:0:
312,288,97456,1,0,0:1:0:0:
80,360,97554,6,0,P|24:296|40:264,1,111,0|0,0:1|0:1,0:0:0:0:
88,248,97846,1,0,0:1:0:0:
328,240,97943,6,0,L|200:240,1,111,0|0,0:1|0:1,0:0:0:0:
272,168,98235,1,0,0:0:0:0:
488,360,98333,6,0,L|504:248,1,111,2|0,0:1|0:1,0:0:0:0:
344,232,98722,6,0,L|472:232,1,111,0|0,0:1|0:1,0:0:0:0:
72,360,99112,6,0,L|0:264,1,111,2|0,0:1|0:1,0:0:0:0:
168,208,99502,6,0,L|32:200,1,111,0|0,0:1|0:1,0:0:0:0:
112,128,99794,1,0,0:1:0:0:
392,368,99891,6,0,P|448:328|448:272,1,111,2|0,0:1|0:1,0:0:0:0:
424,224,100184,1,0,0:1:0:0:
144,320,100281,6,0,L|16:320,1,111,0|0,0:1|0:1,0:0:0:0:
88,256,100573,1,0,0:1:0:0:
360,272,100671,6,0,P|408:224|408:168,1,111,2|0,0:1|0:1,0:0:0:0:
344,176,100963,1,0,0:1:0:0:
80,176,101060,5,0,0:1:0:0:
208,168,101255,1,0,0:1:0:0:
480,368,101450,6,0,P|496:288|480:240,1,111,2|0,0:1|0:1,0:0:0:0:
464,200,101742,1,0,0:1:0:0:
240,368,101839,6,0,L|152:280,1,111,0|0,0:1|0:1,0:0:0:0:
216,232,102132,5,0,0:1:0:0:
416,232,102229,6,0,L|488:120,1,111,2|0,0:1|0:1,0:0:0:0:
416,96,102521,1,0,0:1:0:0:
144,344,102619,6,0,L|256:344,1,111,0|0,0:1|0:1,0:0:0:0:
200,272,102911,1,0,0:1:0:0:
16,280,103008,6,0,P|16:192|32:144,1,111,2|0,0:1|0:1,0:0:0:0:
56,120,103300,1,0,0:1:0:0:
240,128,103398,6,0,L|376:128,1,111,0|0,0:1|0:1,0:0:0:0:
296,64,103690,1,0,0:1:0:0:
352,64,103787,1,2,0:1:0:0:
296,8,103885,1,0,0:1:0:0:
48,360,103982,6,0,L|-8:248,1,111,0|0,0:1|0:1,0:0:0:0:
40,192,104274,1,0,0:1:0:0:
224,192,104372,6,0,L|304:192,1,55.5,0|0,0:1|0:1,0:0:0:0:
40,352,104567,5,2,0:1:0:0:
160,264,104761,6,0,L|160:192,2,55.5,0|0|0,0:1|0:1|0:1,0:0:0:0:
40,168,105151,6,0,L|-16:112,1,55.5,0|0,0:1|0:1,0:0:0:0:
384,352,105346,5,2,0:1:0:0:
264,288,105541,6,0,L|264:216,2,55.5,0|0|0,0:1|0:1|0:1,0:0:0:0:
376,192,105930,6,0,L|464:192,1,55.5,0|0,0:1|0:1,0:0:0:0:
56,368,106125,5,2,0:1:0:0:
168,248,106320,5,0,0:1:0:0:
112,248,106417,1,0,0:1:0:0:
57,248,106514,1,0,0:1:0:0:
184,168,106710,6,0,L|240:168,1,55.5,0|0,0:1|0:1,0:0:0:0:
448,368,106904,5,2,0:1:0:0:
512,368,107001,1,0,0:1:0:0:
448,312,107098,1,0,0:1:0:0:
512,312,107197,1,0,0:1:0:0:
224,312,107294,5,0,0:1:0:0:
104,248,107489,6,0,L|80:176,1,55.5,0|0,0:1|0:0,0:0:0:0:
304,352,107684,6,0,L|176:352,1,111,2|0,0:1|0:1,0:0:0:0:
136,352,107976,1,0,0:1:0:0:
80,352,108073,1,0,0:1:0:0:
200,248,108268,6,0,L|280:248,1,55.5,0|0,0:1|0:1,0:0:0:0:
480,248,108463,6,0,L|512:184,1,55.5,0|0,0:1|0:0,0:0:0:0:
248,352,108658,6,0,L|200:280,1,55.5,0|0,0:1|0:1,0:0:0:0:
448,200,108852,6,0,L|368:200,1,55.5,0|0,0:1|0:1,0:0:0:0:
144,200,109047,6,0,L|72:200,1,55.5,0|0,0:1|0:1,0:0:0:0:
352,360,109242,6,0,P|408:280|336:152,1,249.750009527207,8|0,0:1|0:1,0:0:0:0:
48,352,109632,6,0,P|16:256|128:144,1,249.750009527207,8|0,0:1|0:1,0:0:0:0:
416,312,110021,6,0,P|448:224|296:72,1,333.000012702942,8|2,0:1|0:1,0:0:0:0:
240,72,110508,1,0,0:1:0:0:
456,72,110606,6,0,L|512:72,1,55.5,2|0,0:1|0:1,0:0:0:0:
256,352,110800,6,0,L|176:352,1,61.0500018630982,4|0,0:1|0:1,0:0:0:0:
0,360,110995,6,0,L|72:360,1,61.0500018630982,0|0,0:1|0:1,0:0:0:0:
272,272,111190,6,0,L|336:224,3,61.0500018630982,0|0|0|0,0:1|0:1|0:1|0:1,0:0:0:0:
80,208,111580,6,0,L|16:208,2,61.0500018630982,4|0|0,0:1|0:1|0:1,0:0:0:0:
272,208,111872,6,0,L|144:208,1,122.100003726196,0|0,0:1|0:1,0:0:0:0:
352,208,112164,6,0,L|440:208,1,61.0500018630982,0|0,0:1|0:1,0:0:0:0:
144,352,112359,6,0,L|112:288,1,61.0500018630982,4|0,0:1|0:1,0:0:0:0:
304,272,112554,6,0,L|216:272,1,61.0500018630982,0|0,0:1|0:1,0:0:0:0:
40,216,112748,6,0,L|0:144,1,61.0500018630982,0|0,0:1|0:1,0:0:0:0:
232,208,112943,6,0,L|272:144,1,61.0500018630982,0|0,0:1|0:1,0:0:0:0:
448,224,113138,5,4,0:1:0:0:
512,232,113235,1,0,0:1:0:0:
448,168,113332,1,0,0:1:0:0:
504,168,113430,1,0,0:1:0:0:
208,272,113528,6,0,L|128:272,1,61.0500018630982,4|0,0:1|0:1,0:0:0:0:
72,272,113722,6,0,L|40:192,1,61.0500018630982,0|0,0:1|0:1,0:0:0:0:
272,264,113917,6,0,L|192:264,2,61.0500018630982,4|0|0,0:1|0:1|0:1,0:0:0:0:
432,264,114210,6,0,L|472:208,1,61.0500018630982,0|0,0:1|0:1,0:0:0:0:
304,136,114404,5,0,0:1:0:0:
365,136,114501,1,0,0:1:0:0:
426,136,114598,1,0,0:1:0:0:
160,336,114697,6,0,P|120:280|128:216,1,122.100003726196,4|0,0:1|0:1,0:0:0:0:
344,224,114989,6,0,L|256:224,1,61.0500018630982,0|0,0:1|0:1,0:0:0:0:
56,232,115184,5,0,0:1:0:0:
25,181,115281,1,0,0:1:0:0:
38,123,115378,1,0,0:1:0:0:
432,312,115476,6,0,L|304:312,1,122.100003726196,6|2,0:1|0:1,0:0:0:0:
368,248,115768,1,0,0:1:0:0:
432,248,115865,5,6,0:1:0:0:
112,312,116060,5,2,0:1:0:0:
173,312,116157,1,0,0:1:0:0:
234,312,116254,1,6,0:1:0:0:
104,240,116450,6,0,L|56:168,1,61.0500018630982,2|0,0:1|0:1,0:0:0:0:
304,184,116645,6,0,L|368:112,1,61.0500018630982,4|0,0:1|0:1,0:0:0:0:
136,56,116839,6,0,L|216:56,1,61.0500018630982,0|0,0:1|0:1,0:0:0:0:
448,360,117034,5,4,0:0:0:0:
400,312,117131,1,0,0:0:0:0:
456,272,117228,1,0,0:0:0:0:
400,232,117326,1,0,0:0:0:0:
216,232,117424,6,0,L|168:168,1,61.0500018630982,0|0,0:0|0:0,0:0:0:0:
0,96,117619,6,0,L|80:96,1,61.0500018630982,0|0,0:0|0:0,0:0:0:0:
240,88,117813,5,4,0:0:0:0:
448,96,117911,6,0,L|496:144,1,61.0500018630982,0|0,0:0|0:0,0:0:0:0:
400,296,118106,5,0,0:0:0:0:
112,304,118203,6,0,L|56:224,1,61.0500018630982,0|0,0:0|0:0,0:0:0:0:
296,232,118398,6,0,L|344:176,1,61.0500018630982,0|0,0:0|0:0,0:0:0:0:
96,192,118593,6,0,L|32:152,3,61.0500018630982,4|0|0|0,0:0|0:0|0:0|0:0,0:0:0:0:
288,360,118982,6,0,P|376:320|392:280,1,122.100003726196,0|0,0:0|0:0,0:0:0:0:
336,240,119274,1,0,0:0:0:0:
128,320,119372,5,4,0:0:0:0:
94,269,119469,1,0,0:0:0:0:
86,209,119566,1,0,0:0:0:0:
320,208,119664,5,0,0:0:0:0:
376,208,119761,2,0,L|240:208,1,122.100003726196,4|0,0:0|0:0,0:0:0:0:
312,136,120054,1,0,0:0:0:0:
88,352,120151,5,4,0:0:0:0:
216,272,120346,6,0,L|312:272,2,61.0500018630982,0|0|0,0:0|0:0|0:0,0:0:0:0:
88,200,120735,5,0,0:0:0:0:
40,136,120833,1,0,0:0:0:0:
448,344,120930,5,4,0:0:0:0:
328,256,121125,6,0,L|256:256,2,61.0500018630982,0|0|0,0:0|0:0|0:0,0:0:0:0:
392,256,121417,5,0,0:0:0:0:
464,208,121515,5,0,0:0:0:0:
480,136,121612,1,0,0:0:0:0:
224,312,121710,5,4,0:0:0:0:
96,264,121904,2,0,L|72:184,2,61.0500018630982,0|0|0,0:0|0:0|0:0,0:0:0:0:
216,184,122294,6,0,L|216:96,1,61.0500018630982,0|0,0:0|0:0,0:0:0:0:
480,352,122489,6,0,P|496:272|472:192,1,122.100003726196,4|0,0:0|0:0,0:0:0:0:
464,176,122781,5,0,0:0:0:0:
200,200,122878,6,0,L|128:200,1,61.0500018630982,4|0,0:0|0:0,0:0:0:0:
384,200,123073,6,0,L|472:200,1,61.0500018630982,0|0,0:0|0:0,0:0:0:0:
168,360,123268,6,0,L|136:280,1,61.0500018630982,6|2,0:0|0:0,0:0:0:0:
352,296,123463,6,0,L|392:224,1,61.0500018630982,2|2,0:0|0:0,0:0:0:0:
136,224,123658,1,2,0:0:0:0:
272,168,123852,6,0,L|352:168,1,61.0500018630982,6|2,0:0|0:0,0:0:0:0:
144,72,124047,6,0,L|232:72,1,61.0500018630982,2|2,0:0|0:0,0:0:0:0:
432,80,124242,5,2,0:0:0:0:
304,352,124437,6,0,L|240:352,1,61.0500018630982,6|2,0:0|0:0,0:0:0:0:
24,352,124632,2,0,L|120:352,1,61.0500018630982,2|2,0:0|0:0,0:0:0:0:
296,288,124826,1,2,0:0:0:0:
416,208,125021,6,0,L|352:208,1,61.0500018630982,6|2,0:0|0:0,0:0:0:0:
160,208,125216,6,0,L|240:208,1,61.0500018630982,2|2,0:0|0:0,0:0:0:0:
416,144,125411,5,2,0:0:0:0:
438,124,125459,1,0,0:0:0:0:
449,95,125508,1,0,0:0:0:0:
445,65,125557,1,0,0:0:0:0:
232,352,125606,6,0,L|376:352,1,122.100003726196,6|2,0:0|0:0,0:0:0:0:
296,280,125898,5,0,0:0:0:0:
56,288,125995,6,0,L|8:224,1,61.0500018630982,0|0,0:0|0:0,0:0:0:0:
216,208,126190,2,0,L|264:152,1,61.0500018630982,0|0,0:0|0:0,0:0:0:0:
40,128,126385,5,4,0:1:0:0:
112,352,126580,6,0,L|176:352,1,55.5,0|0,0:1|0:1,0:0:0:0:
368,248,126774,6,0,L|496:248,1,111,0|2,0:1|0:1,0:0:0:0:
480,192,127067,1,0,0:1:0:0:
480,120,127164,1,0,0:1:0:0:
368,104,127359,6,0,L|296:104,1,55.5,0|0,0:1|0:1,0:0:0:0:
40,360,127554,6,0,P|16:288|40:240,1,111,2|0,0:1|0:1,0:0:0:0:
208,248,127846,1,0,0:1:0:0:
408,248,127943,6,0,L|296:248,1,111,2|0,0:1|0:1,0:0:0:0:
464,168,128235,6,0,L|496:112,1,55.5,0|0,0:1|0:1,0:0:0:0:
136,376,128528,5,2,0:1:0:0:
109,327,128625,1,0,0:1:0:0:
83,278,128722,1,0,0:1:0:0:
304,272,128820,6,0,L|352:208,1,55.5,0|0,0:1|0:1,0:0:0:0:
248,184,129015,6,0,L|224:128,1,55.5,0|0,0:0|0:1,0:0:0:0:
304,96,129210,6,0,L|344:40,1,55.5,0|0,0:0|0:1,0:0:0:0:
48,352,129502,6,0,L|16:288,1,55.5,2|0,0:1|0:1,0:0:0:0:
184,272,129697,2,0,L|280:272,1,55.5,0|0,0:1|0:1,0:0:0:0:
432,272,129891,6,0,L|496:200,1,55.5,0|0,0:1|0:1,0:0:0:0:
288,200,130086,6,0,L|256:128,1,55.5,2|0,0:1|0:1,0:0:0:0:
472,200,130281,6,0,L|504:136,1,55.5,0|0,0:1|0:1,0:0:0:0:
232,280,130476,6,0,L|152:280,1,55.5,0|0,0:1|0:1,0:0:0:0:
400,192,130671,6,0,L|320:192,1,55.5,2|0,0:1|0:1,0:0:0:0:
64,352,130865,6,0,L|8:272,1,55.5,0|0,0:1|0:1,0:0:0:0:
240,288,131060,6,0,P|304:224|312:160,1,111,2|0,0:1|0:1,0:0:0:0:
312,72,131352,1,0,0:1:0:0:
312,136,131450,1,0,0:1:0:0:
16,352,131645,5,2,0:1:0:0:
72,352,131742,1,0,0:1:0:0:
16,296,131839,1,0,0:1:0:0:
272,320,132034,6,0,L|320:272,1,55.5,0|0,0:1|0:1,0:0:0:0:
248,216,132229,6,0,L|200:144,1,55.5,0|0,0:1|0:1,0:0:0:0:
304,128,132424,6,0,L|352:64,1,55.5,0|0,0:1|0:1,0:0:0:0:
112,72,132619,5,4,0:0:0:0:
416,376,132813,6,0,L|480:376,1,55.5,0|0,0:1|0:1,0:0:0:0:
416,304,133008,6,0,L|344:304,1,55.5,0|0,0:1|0:1,0:0:0:0:
408,232,133203,1,2,0:1:0:0:
96,376,133398,6,0,L|32:376,1,55.5,0|0,0:1|0:1,0:0:0:0:
96,304,133593,6,0,L|168:304,1,55.5,0|0,0:1|0:1,0:0:0:0:
104,232,133788,1,2,0:1:0:0:
400,240,133982,6,0,L|440:184,1,55.5,0|0,0:1|0:1,0:0:0:0:
344,152,134177,2,0,L|312:80,1,55.5,2|0,0:1|0:1,0:0:0:0:
392,64,134372,1,0,0:1:0:0:
80,360,134567,6,0,L|32:280,1,55.5,0|0,0:1|0:1,0:0:0:0:
112,272,134761,2,0,L|160:208,1,55.5,2|0,0:1|0:1,0:0:0:0:
88,176,134956,1,0,0:1:0:0:
392,192,135151,6,0,L|496:192,1,55.5,0|0,0:1|0:1,0:0:0:0:
160,368,135346,5,2,0:1:0:0:
113,340,135443,1,0,0:1:0:0:
107,287,135540,1,0,0:1:0:0:
145,250,135638,1,0,0:1:0:0:
368,248,135735,5,2,0:1:0:0:
420,229,135832,1,0,0:1:0:0:
461,192,135929,1,0,0:1:0:0:
240,168,136028,6,0,L|176:168,1,55.5,0|0,0:1|0:1,0:0:0:0:
384,168,136222,6,0,L|424:104,1,55.5,0|2,0:1|0:1,0:0:0:0:
224,112,136417,5,0,0:1:0:0:
24,368,136515,6,0,L|-8:296,1,55.5,0|0,0:1|0:1,0:0:0:0:
192,296,136710,2,0,L|240:240,1,55.5,0|0,0:1|0:1,0:0:0:0:
40,160,136904,6,0,L|144:160,1,55.5,2|0,0:1|0:1,0:0:0:0:
384,352,137099,6,0,L|440:344,1,55.5,0|0,0:1|0:1,0:0:0:0:
184,280,137294,6,0,L|120:168,1,111,2|0,0:1|0:1,0:0:0:0:
304,96,137684,5,0,0:1:0:0:
32,352,137878,6,0,L|8:288,1,55.5,2|0,0:1|0:1,0:0:0:0:
112,280,138073,6,0,L|160:224,1,55.5,0|0,0:1|0:1,0:0:0:0:
80,184,138268,6,0,L|56:120,1,55.5,0|0,0:1|0:1,0:0:0:0:
304,112,138463,6,0,L|392:112,1,55.5,0|0,0:1|0:1,0:0:0:0:
168,112,138658,6,0,L|96:112,1,55.5,0|0,0:1|0:1,0:0:0:0:
416,336,138852,1,4,0:0:0:0:
176,376,139242,6,0,P|136:288|200:176,1,222,0|0,0:0|0:0,0:0:0:0:
72,112,139826,5,0,0:0:0:0:
192,112,140021,5,0,0:0:0:0:
352,96,140216,6,0,L|440:232,1,111,0|0,0:0|0:0,0:0:0:0:
96,352,140606,6,0,L|32:208,1,111,0|0,0:0|0:0,0:0:0:0:
368,256,140995,6,0,L|432:144,1,111,0|0,0:0|0:0,0:0:0:0:
80,128,141385,6,0,L|208:128,1,111,0|0,0:0|0:0,0:0:0:0:
448,368,141774,6,0,L|504:232,1,111,0|0,0:0|0:0,0:0:0:0:
336,128,142164,5,0,0:0:0:0:
24,368,142359,6,0,L|-8:232,1,111,0|0,0:0|0:0,0:0:0:0:
144,256,142748,6,0,L|16:256,1,111,0|0,0:0|0:0,0:0:0:0:
192,256,143138,2,0,L|56:256,1,111,0|0,0:0|0:0,0:0:0:0:
456,264,143528,5,2,0:0:0:0:
232,368,143917,5,2,0:0:0:0:
464,216,144307,1,2,0:0:0:0:
128,208,144697,1,2,0:0:0:0:
256,360,145086,6,0,L|312:248,1,111,0|0,0:0|0:0,0:0:0:0:
144,200,145476,6,0,L|280:200,1,111,0|0,0:0|0:0,0:0:0:0:
104,200,145865,2,0,L|240:200,2,111,0|0|0,0:0|0:0|0:0,0:0:0:0:
216,128,146450,6,0,L|344:128,1,111,0|0,0:0|0:0,0:0:0:0:
440,360,146839,6,0,L|488:240,1,111,0|0,0:0|0:0,0:0:0:0:
312,256,147229,6,0,L|272:136,1,111,0|0,0:0|0:0,0:0:0:0:
448,64,147619,6,0,L|320:64,1,111,0|0,0:0|0:0,0:0:0:0:
176,64,148008,6,0,L|80:168,1,111,0|0,0:0|0:0,0:0:0:0:
232,344,148398,6,0,L|104:344,1,111,0|0,0:0|0:0,0:0:0:0:
280,360,148787,6,0,P|408:288|224:16,1,555,0|0,0:0|0:0,0:0:0:0:
24,320,149956,5,8,0:0:0:0:
240,328,150151,1,8,0:0:0:0:
56,320,150346,1,8,0:0:0:0:
272,328,150541,1,8,0:0:0:0:
152,264,150930,6,0,P|96:200|152:72,1,222,8|0,0:0|0:0,0:0:0:0:
256,352,151515,6,0,L|400:352,1,111,0|0,0:0|0:0,0:0:0:0:
200,280,151904,6,0,L|160:160,1,111,0|0,0:0|0:0,0:0:0:0:
312,120,152294,6,0,L|192:120,1,111,0|0,0:0|0:0,0:0:0:0:
480,352,152684,6,0,P|496:280|464:216,1,111,0|0,0:0|0:0,0:0:0:0:
368,216,153073,6,0,L|296:216,1,55.5,0|0,0:0|0:0,0:0:0:0:
88,344,153268,6,0,P|56:280|88:224,1,111,0|0,0:0|0:0,0:0:0:0:
120,200,153560,1,0,0:0:0:0:
320,344,153658,6,0,P|392:304|416:240,1,111,2|0,0:0|0:0,0:0:0:0:
440,224,153950,1,0,0:0:0:0:
144,336,154047,6,0,P|64:304|40:264,1,111,2|0,0:0|0:0,0:0:0:0:
24,232,154339,1,0,0:0:0:0:
240,224,154437,5,0,0:0:0:0:
368,128,154632,6,0,L|240:128,2,111,0|0|0,0:0|0:0|0:0,0:0:0:0:
240,344,155216,5,0,0:0:0:0:
72,264,155411,6,0,L|224:264,1,111,0|0,0:0|0:0,0:0:0:0:
448,360,155800,6,0,P|480:288|480:224,1,111,0|0,0:0|0:0,0:0:0:0:
384,200,156190,6,0,L|320:200,1,55.5,0|0,0:0|0:0,0:0:0:0:
80,360,156385,6,0,L|16:232,1,111,0|0,0:0|0:0,0:0:0:0:
336,256,156774,6,0,P|384:200|376:152,1,111,2|0,0:0|0:0,0:0:0:0:
320,112,157067,1,0,0:0:0:0:
112,240,157164,6,0,L|24:152,2,111,2|0|0,0:0|0:0|0:0,0:0:0:0:
232,368,157748,6,0,L|304:368,1,55.5,0|0,0:0|0:0,0:0:0:0:
344,368,157943,2,0,P|400:328|416:288,1,111,0|0,0:0|0:0,0:0:0:0:
288,224,158333,6,0,L|408:224,2,111,0|0|0,0:0|0:0|0:0,0:0:0:0:
96,360,158917,6,0,L|24:256,1,111,0|0,0:0|0:0,0:0:0:0:
144,192,159307,6,0,L|224:192,1,55.5,0|0,0:0|0:0,0:0:0:0:
440,352,159502,6,0,P|496:272|480:224,1,111,0|0,0:0|0:0,0:0:0:0:
440,208,159794,1,0,0:0:0:0:
184,360,159891,6,0,P|112:312|96:272,1,111,2|0,0:0|0:0,0:0:0:0:
80,224,160184,1,0,0:0:0:0:
312,224,160281,6,0,P|400:184|416:144,1,111,2|0,0:0|0:0,0:0:0:0:
432,120,160573,1,0,0:0:0:0:
128,360,160671,6,0,L|8:360,1,111,0|0,0:0|0:0,0:0:0:0:
320,296,161060,6,0,L|416:232,1,111,0|0,0:0|0:0,0:0:0:0:
296,160,161450,5,0,0:0:0:0:
24,360,161645,6,0,L|8:240,1,111,0|0,0:0|0:0,0:0:0:0:
312,248,162034,6,0,L|360:136,1,111,0|0,0:0|0:0,0:0:0:0:
232,112,162424,6,0,L|112:112,2,111,0|0|0,0:0|0:0|0:0,0:0:0:0:
280,112,162911,1,0,0:0:0:0:
64,344,163008,6,0,L|16:296,1,55.5,0|0,0:0|0:0,0:0:0:0:
264,272,163203,6,0,P|320:208|312:160,1,111,0|0,0:0|0:0,0:0:0:0:
304,120,163495,1,0,0:0:0:0:
48,264,163593,6,0,L|176:264,1,111,0|2,0:1|0:1,0:0:0:0:
272,264,163982,6,0,L|144:264,1,111,0|0,0:1|0:1,0:0:0:0:
288,192,164372,6,0,L|168:192,1,111,0|0,0:1|0:1,0:0:0:0:
288,128,164761,2,0,L|416:128,1,111,0|0,0:1|0:1,0:0:0:0:
40,368,165151,6,0,P|8:288|16:240,1,111,0|2,0:1|0:1,0:0:0:0:
128,224,165541,5,0,0:1:0:0:
183,224,165638,1,0,0:1:0:0:
239,224,165735,1,0,0:1:0:0:
352,224,165930,6,0,L|416:224,1,55.5,0|0,0:1|0:1,0:0:0:0:
112,360,166125,6,0,P|48:304|40:256,1,111,0|0,0:1|0:1,0:0:0:0:
56,216,166417,1,0,0:1:0:0:
264,208,166515,6,0,L|144:208,1,111,0|0,0:1|0:1,0:0:0:0:
464,368,166904,6,0,L|512:256,1,111,2|0,0:1|0:1,0:0:0:0:
384,224,167294,6,0,L|504:224,1,111,0|0,0:1|0:1,0:0:0:0:
144,360,167684,6,0,L|72:264,1,111,2|0,0:1|0:1,0:0:0:0:
200,192,168073,6,0,L|56:192,1,111,0|0,0:1|0:1,0:0:0:0:
400,368,168463,6,0,P|440:296|432:240,1,111,2|0,0:1|0:1,0:0:0:0:
416,208,168755,1,0,0:1:0:0:
384,144,168852,1,0,0:1:0:0:
272,96,169047,6,0,L|176:96,1,55.5,0|0,0:1|0:1,0:0:0:0:
456,360,169242,6,0,P|496:288|496:240,1,111,2|0,0:1|0:1,0:0:0:0:
440,256,169534,5,0,0:1:0:0:
216,256,169632,6,0,L|360:256,1,111,0|0,0:1|0:1,0:0:0:0:
56,360,170021,6,0,P|16:288|32:248,1,111,2|0,0:1|0:1,0:0:0:0:
56,208,170313,1,0,0:1:0:0:
232,208,170411,6,0,L|384:208,1,111,0|0,0:1|0:1,0:0:0:0:
32,104,170800,6,0,L|152:104,1,111,2|0,0:1|0:1,0:0:0:0:
256,104,171190,6,0,L|128:104,1,111,0|0,0:1|0:1,0:0:0:0:
200,40,171482,5,0,0:1:0:0:
448,360,171580,6,0,P|504:288|496:232,1,111,2|0,0:1|0:1,0:0:0:0:
208,312,171969,6,0,L|128:208,1,111,0|0,0:1|0:1,0:0:0:0:
176,152,172261,1,0,0:1:0:0:
400,224,172359,6,0,L|512:144,1,111,2|0,0:1|0:1,0:0:0:0:
184,360,172748,6,0,L|128:304,1,55.5,0|0,0:1|0:1,0:0:0:0:
312,288,172943,6,0,L|352:248,1,55.5,0|0,0:1|0:1,0:0:0:0:
80,352,173138,6,0,P|48:280|80:216,1,111,2|0,0:1|0:1,0:0:0:0:
88,200,173430,1,0,0:1:0:0:
128,152,173528,1,0,0:1:0:0:
232,72,173722,6,0,L|312:72,1,55.5,0|0,0:1|0:1,0:0:0:0:
472,368,173917,6,0,P|496:288|472:224,1,111,2|0,0:1|0:1,0:0:0:0:
464,208,174210,1,0,0:1:0:0:
424,152,174307,1,0,0:1:0:0:
328,88,174502,6,0,L|256:96,1,55.5,0|0,0:1|0:1,0:0:0:0:
16,360,174697,6,0,P|8:288|32:240,1,111,2|0,0:1|0:1,0:0:0:0:
56,216,174989,1,0,0:1:0:0:
96,176,175086,1,0,0:1:0:0:
208,80,175281,6,0,L|136:80,1,55.5,0|0,0:1|0:1,0:0:0:0:
416,360,175476,6,0,P|480:280|472:240,1,111,2|0,0:1|0:1,0:0:0:0:
448,216,175768,1,0,0:1:0:0:
240,216,175865,6,0,L|368:216,1,111,0|0,0:1|0:1,0:0:0:0:
64,352,176255,6,0,P|40:280|56:208,1,111,2|0,0:1|0:1,0:0:0:0:
64,184,176547,1,0,0:1:0:0:
96,136,176645,2,0,P|144:64|176:32,1,111,0|0,0:1|0:1,0:0:0:0:
200,24,176937,1,0,0:1:0:0:
432,360,177034,6,0,P|472:296|488:240,1,111,0|0,0:1|0:1,0:0:0:0:
472,208,177326,1,0,0:1:0:0:
272,216,177424,6,0,L|192:216,1,55.5,0|0,0:1|0:0,0:0:0:0:
432,104,177619,6,0,L|336:104,1,55.5,0|0,0:1|0:0,0:0:0:0:
72,368,177813,6,0,P|24:296|112:168,1,249.750009527207,8|0,0:0|0:0,0:0:0:0:
360,368,178203,6,0,P|448:304|376:176,1,249.750009527207,8|0,0:0|0:0,0:0:0:0:
136,208,178593,6,0,P|88:128|208:56,1,249.750009527207,8|0,0:0|0:0,0:0:0:0:
400,64,178982,6,0,L|488:64,1,55.5,8|0,0:0|0:0,0:0:0:0:
232,360,179177,6,0,L|152:352,1,55.5,8|0,0:0|0:0,0:0:0:0:
368,248,179372,6,0,L|432:192,1,61.0500018630982,4|0,0:0|0:0,0:0:0:0:
352,128,179567,2,0,L|304:72,1,61.0500018630982,0|0,0:0|0:0,0:0:0:0:
96,352,179761,6,0,L|16:352,3,61.0500018630982,0|0|0|0,0:0|0:0|0:0|0:0,0:0:0:0:
240,272,180151,6,0,L|304:224,1,61.0500018630982,4|0,0:0|0:0,0:0:0:0:
96,192,180346,6,0,L|56:128,1,61.0500018630982,0|0,0:0|0:0,0:0:0:0:
264,112,180541,6,0,L|336:112,1,61.0500018630982,0|0,0:0|0:0,0:0:0:0:
504,320,180735,6,0,L|432:320,1,61.0500018630982,0|0,0:0|0:0,0:0:0:0:
208,328,180930,6,0,L|152:280,3,61.0500018630982,4|0|0|0,0:0|0:0|0:0|0:0,0:0:0:0:
384,248,181320,6,0,L|424:192,1,61.0500018630982,0|0,0:0|0:0,0:0:0:0:
496,152,181515,6,0,L|512:80,1,61.0500018630982,0|0,0:0|0:0,0:0:0:0:
312,200,181710,6,0,L|232:200,1,61.0500018630982,4|0,0:0|0:0,0:0:0:0:
432,120,181904,6,0,L|520:120,1,61.0500018630982,0|0,0:0|0:0,0:0:0:0:
192,368,182099,6,0,L|112:272,1,122.100003726196,4|0,0:0|0:0,0:0:0:0:
416,224,182489,6,0,L|488:224,3,61.0500018630982,4|0|0|0,0:0|0:0|0:0|0:0,0:0:0:0:
200,360,182878,6,0,L|136:296,1,61.0500018630982,0|0,0:0|0:0,0:0:0:0:
336,272,183073,6,0,L|392:216,1,61.0500018630982,0|0,0:0|0:0,0:0:0:0:
184,200,183268,6,0,L|128:168,1,61.0500018630982,4|0,0:0|0:0,0:0:0:0:
48,128,183463,6,0,L|8:64,1,61.0500018630982,0|0,0:0|0:0,0:0:0:0:
256,336,183658,6,0,L|312:272,1,61.0500018630982,0|0,0:0|0:0,0:0:0:0:
128,240,183852,6,0,L|80:168,1,61.0500018630982,0|0,0:0|0:0,0:0:0:0:
392,192,184047,6,0,L|480:192,4,61.0500018630982,6|2|2|2|6,0:0|0:0|0:0|0:0|0:0,0:0:0:0:
96,352,184632,6,0,L|24:352,4,61.0500018630982,2|2|6|2|2,0:0|0:0|0:0|0:0|0:0,0:0:0:0:
144,352,185119,1,0,0:0:0:0:
336,360,185216,6,0,L|400:288,1,61.0500018630982,4|0,0:0|0:0,0:0:0:0:
176,272,185411,6,0,L|136:200,1,61.0500018630982,0|0,0:0|0:0,0:0:0:0:
368,208,185606,6,0,L|464:208,1,61.0500018630982,4|0,0:0|0:0,0:0:0:0:
224,96,185800,6,0,L|304:96,1,61.0500018630982,0|0,0:0|0:0,0:0:0:0:
464,352,185995,6,0,L|504:280,1,61.0500018630982,0|0,0:0|0:0,0:0:0:0:
432,200,186190,6,0,L|336:192,1,61.0500018630982,0|0,0:0|0:0,0:0:0:0:
64,352,186385,6,0,L|0:280,1,61.0500018630982,4|0,0:0|0:0,0:0:0:0:
208,256,186580,6,0,L|256:192,1,61.0500018630982,0|0,0:0|0:0,0:0:0:0:
440,192,186774,6,0,L|504:192,3,61.0500018630982,0|0|0|0,0:0|0:0|0:0|0:0,0:0:0:0:
96,376,187164,6,0,L|8:264,1,122.100003726196,4|0,0:0|0:0,0:0:0:0:
296,240,187554,6,0,L|152:240,1,122.100003726196,0|0,0:0|0:0,0:0:0:0:
448,368,187943,6,0,P|496:304|496:216,1,122.100003726196,4|0,0:0|0:0,0:0:0:0:
200,280,188333,6,0,P|128:208|136:160,1,122.100003726196,0|0,0:0|0:0,0:0:0:0:
168,136,188625,1,0,0:0:0:0:
424,360,188722,6,0,P|464:304|488:224,1,122.100003726196,4|0,0:0|0:0,0:0:0:0:
416,248,189015,6,0,L|328:248,1,61.0500018630982,0|0,0:0|0:0,0:0:0:0:
48,352,189307,6,0,L|-16:352,1,61.0500018630982,0|0,0:0|0:0,0:0:0:0:
176,360,189502,6,0,P|240:304|248:256,1,122.100003726196,4|0,0:0|0:0,0:0:0:0:
216,208,189794,1,0,0:0:0:0:
24,200,189891,6,0,L|0:144,1,61.0500018630982,0|0,0:0|0:0,0:0:0:0:
200,152,190086,6,0,L|264:88,1,61.0500018630982,0|0,0:0|0:0,0:0:0:0:
16,352,190281,6,0,L|104:352,1,61.0500018630982,4|0,0:0|0:0,0:0:0:0:
280,352,190476,6,0,L|344:296,1,61.0500018630982,0|0,0:0|0:0,0:0:0:0:
136,288,190671,6,0,P|80:216|96:176,1,122.100003726196,0|0,0:0|0:0,0:0:0:0:
112,144,190963,1,0,0:0:0:0:
152,96,191060,1,4,0:0:0:0:
360,96,191255,6,0,L|432:96,1,61.0500018630982,0|0,0:0|0:0,0:0:0:0:
128,360,191450,6,0,L|64:280,1,61.0500018630982,0|0,0:0|0:0,0:0:0:0:
280,288,191645,6,0,L|328:216,1,61.0500018630982,0|0,0:0|0:0,0:0:0:0:
80,208,191839,6,0,L|8:208,3,61.0500018630982,6|2|2|2,0:0|0:0|0:0|0:0,0:0:0:0:
240,200,192229,1,2,0:0:0:0:
376,200,192424,6,0,L|448:200,3,61.0500018630982,6|2|2|2,0:0|0:0|0:0|0:0,0:0:0:0:
248,192,192813,5,2,0:0:0:0:
120,360,193008,6,0,L|64:296,1,61.0500018630982,6|2,0:0|0:0,0:0:0:0:
152,272,193203,6,0,L|192:208,1,61.0500018630982,2|2,0:0|0:0,0:0:0:0:
432,200,193398,5,2,0:0:0:0:
304,200,193593,6,0,L|256:128,1,61.0500018630982,6|2,0:0|0:0,0:0:0:0:
344,104,193787,6,0,L|392:40,1,61.0500018630982,2|2,0:0|0:0,0:0:0:0:
72,56,193982,5,2,0:0:0:0:
200,360,194177,6,0,L|296:360,1,61.0500018630982,6|2,0:0|0:0,0:0:0:0:
480,360,194372,2,0,L|384:360,1,61.0500018630982,2|2,0:0|0:0,0:0:0:0:
256,296,194567,1,2,0:0:0:0:
128,304,194761,6,0,L|16:304,1,61.0500018630982,6|2,0:0|0:0,0:0:0:0:
296,224,194956,6,0,L|384:224,1,61.0500018630982,2|2,0:0|0:0,0:0:0:0:
128,232,195151,1,2,0:0:0:0:
248,240,195346,6,0,L|296:176,1,61.0500018630982,6|2,0:0|0:0,0:0:0:0:
56,168,195541,6,0,L|-8:96,1,61.0500018630982,2|2,0:0|0:0,0:0:0:0:
288,112,195735,1,2,0:0:0:0:
408,352,195930,6,0,L|456:296,1,61.0500018630982,6|2,0:0|0:0,0:0:0:0:
240,288,196125,6,0,L|184:224,1,61.0500018630982,2|2,0:0|0:0,0:0:0:0:
408,208,196320,5,2,0:0:0:0:
280,208,196515,6,0,L|200:208,1,61.0500018630982,6|2,0:0|0:0,0:0:0:0:
0,208,196710,2,0,L|80:208,1,61.0500018630982,2|2,0:0|0:0,0:0:0:0:
248,208,196904,5,2,0:0:0:0:
376,200,197099,5,6,0:0:0:0:
401,184,197147,1,0,0:0:0:0:
416,158,197196,1,2,0:0:0:0:
415,128,197245,1,0,0:0:0:0:
184,112,197294,6,0,L|120:112,1,61.0500018630982,2|2,0:0|0:0,0:0:0:0:
368,352,197489,6,0,L|432:280,1,61.0500018630982,2|2,0:0|0:0,0:0:0:0:
144,288,197684,6,0,P|88:232|168:104,1,222,0|4,0:0|0:0,0:0:0:0:
