osu file format v14

[General]
AudioFilename: audio.mp3
AudioLeadIn: 0
PreviewTime: 54283
Countdown: 0
SampleSet: Soft
StackLeniency: 0.7
Mode: 2
LetterboxInBreaks: 0
EpilepsyWarning: 1
WidescreenStoryboard: 1

[Editor]
Bookmarks: 57789,59153,59348,59932,60906,63634,63828,66750,67140,67724,68309,68893,69478,70257,127724,181570
DistanceSpacing: 1.4
BeatDivisor: 4
GridSize: 16
TimelineZoom: 3.699999

[Metadata]
Title:Rampage
TitleUnicode:ランペイジ
Artist:paraoka feat. haru*nya
ArtistUnicode:paraoka feat. haru*nya
Creator:[_-Kukkai-_]
Version:Nelly's Platter
Source:
Tags:Vocaloid bank78952 Etsu Nelly PoPoii マテリアル 麹町養蚕館 c71
BeatmapID:1359784
BeatmapSetID:637180

[Difficulty]
HPDrainRate:6
CircleSize:3.6
OverallDifficulty:8
ApproachRate:8
SliderMultiplier:1.92
SliderTickRate:2

[Events]
//Background and Video events
0,0,"thumb-1920-584356.png",0,0
//Break Periods
2,14377,25895
2,126750,138102
//Storyboard Layer 0 (Background)
//Storyboard Layer 1 (Fail)
//Storyboard Layer 2 (Pass)
//Storyboard Layer 3 (Foreground)
//Storyboard Sound Samples

[TimingPoints]
1710,389.61038961039,4,2,0,35,1,0
53138,-166.666666666667,4,2,0,35,0,0
53333,-100,4,2,0,35,0,0
53528,-166.666666666667,4,2,0,35,0,0
53722,-100,4,2,0,35,0,0
53917,-166.666666666667,4,2,0,35,0,0
54112,-100,4,2,0,35,0,0
54697,-90.9090909090909,4,1,0,35,0,1
70281,-100,4,2,0,35,0,0
109242,-166.666666666667,4,2,0,35,0,0
109437,-100,4,2,0,35,0,0
109632,-166.666666666667,4,2,0,35,0,0
109826,-100,4,2,0,35,0,0
110021,-166.666666666667,4,2,0,35,0,0
110216,-100,4,2,0,35,0,0
110800,-90.9090909090909,4,1,0,35,0,1
126385,-100,4,2,0,35,0,0
149956,-133.333333333333,4,2,0,35,0,0
150151,-100,4,2,0,35,0,0
150346,-133.333333333333,4,2,0,35,0,0
150541,-100,4,2,0,35,0,0
177813,-166.666666666667,4,2,0,35,0,0
178008,-100,4,2,0,35,0,0
178203,-166.666666666667,4,2,0,35,0,0
178398,-100,4,2,0,35,0,0
178593,-166.666666666667,4,2,0,35,0,0
178787,-100,4,2,0,35,0,0
179372,-90.9090909090909,4,1,0,35,0,1
197684,-100,4,1,0,35,0,1
198073,-100,4,2,0,35,0,0

[Colours]
Combo1 : 148,148,148
Combo2 : 0,236,255
Combo3 : 4,181,176

[HitObjects]
80,96,1710,6,0,L|224:240,1,192,4|0,0:0|0:1,0:0:0:0:
96,240,2294,2,0,P|84:192|192:128,1,192,2|0,0:1|0:1,0:0:0:0:
304,128,2878,2,0,L|400:128,1,96,2|0,0:1|0:1,0:0:0:0:
240,40,3268,6,0,L|232:232,1,192,2|0,0:1|0:1,0:0:0:0:
352,240,3852,2,0,P|400:224|352:128,1,192,2|0,0:1|0:1,0:0:0:0:
304,128,4339,1,0,0:1:0:0:
256,128,4437,2,0,L|160:128,1,96,2|0,0:1|0:1,0:0:0:0:
320,256,4826,6,0,L|416:256,2,96,2|0|0,0:1|0:1|0:1,0:0:0:0:
208,256,5411,2,0,P|196:208|304:144,1,192,2|0,0:1|0:1,0:0:0:0:
416,144,5995,2,0,L|320:144,1,96,2|0,0:1|0:1,0:0:0:0:
208,144,6385,5,2,0:1:0:0:
117,167,6579,1,0,0:1:0:0:
78,251,6774,1,0,0:1:0:0:
112,336,6969,2,0,L|256:192,1,192,2|2,0:1|0:1,0:0:0:0:
304,192,7456,1,0,0:1:0:0:
384,192,7554,2,0,L|288:192,1,96,2|0,0:1|0:1,0:0:0:0:
32,80,7943,6,0,P|20:128|128:192,1,192,4|0,0:0|0:1,0:0:0:0:
240,112,8528,2,0,L|375:247,1,192,2|0,0:1|0:1,0:0:0:0:
256,256,9112,2,0,L|160:256,1,96,2|0,0:1|0:1,0:0:0:0:
320,256,9502,6,0,L|328:160,1,96,2|0,0:1|0:1,0:0:0:0:
208,80,9891,1,0,0:1:0:0:
320,80,10086,2,0,P|368:96|320:192,1,192,2|0,0:1|0:1,0:0:0:0:
272,192,10573,1,0,0:1:0:0:
224,192,10671,2,0,L|128:192,1,96,2|0,0:1|0:1,0:0:0:0:
288,192,11060,6,0,P|384:208|408:292,1,192,2|0,0:1|0:1,0:0:0:0:
288,304,11645,2,0,L|144:160,1,192,2|0,0:1|0:1,0:0:0:0:
272,160,12229,2,0,L|368:160,1,96,2|0,0:1|0:1,0:0:0:0:
208,160,12619,5,6,0:1:0:0:
200,128,12716,1,2,0:1:0:0:
320,48,12911,1,2,0:1:0:0:
328,80,13008,1,2,0:1:0:0:
208,96,13203,1,0,0:1:0:0:
118,119,13397,1,2,0:1:0:0:
82,204,13592,1,2,0:1:0:0:
128,285,13787,1,0,0:1:0:0:
220,297,13982,1,0,0:1:0:0:
480,240,14177,1,4,0:1:0:0:
432,192,26645,5,4,0:1:0:0:
320,288,26839,2,0,L|312:240,2,48,0|0|0,0:1|0:1|0:1,0:0:0:0:
432,288,27229,1,0,0:1:0:0:
320,288,27424,2,0,L|224:288,2,96,0|0|0,0:1|0:1|0:1,0:0:0:0:
208,288,28008,6,0,P|160:272|208:176,1,192,0|0,0:1|0:1,0:0:0:0:
320,176,28593,2,0,L|328:80,1,96,0|0,0:1|0:1,0:0:0:0:
208,64,28982,2,0,L|64:208,2,192,0|0|0,0:1|0:1|0:1,0:0:0:0:
320,64,29956,5,0,0:1:0:0:
208,64,30151,2,0,L|200:160,1,96,0|0,0:1|0:1,0:0:0:0:
320,176,30541,2,0,L|416:176,2,96,0|0|0,0:1|0:1|0:1,0:0:0:0:
208,176,31125,2,0,P|160:192|208:288,1,192,0|0,0:1|0:1,0:0:0:0:
256,288,31612,1,0,0:1:0:0:
304,288,31710,2,0,L|400:288,1,96,0|0,0:1|0:1,0:0:0:0:
288,288,32099,2,0,P|192:256|176:176,1,192,0|0,0:1|0:1,0:0:0:0:
400,160,32878,5,0,0:1:0:0:
288,208,33073,1,0,0:1:0:0:
280,160,33171,1,0,0:1:0:0:
272,112,33268,1,0,0:1:0:0:
384,64,33463,1,0,0:1:0:0:
272,64,33658,2,0,L|176:64,1,96,0|0,0:1|0:1,0:0:0:0:
288,64,34047,1,0,0:1:0:0:
400,64,34242,6,0,P|412:112|304:176,1,192,0|0,0:1|0:1,0:0:0:0:
192,176,34826,2,0,L|96:176,1,96,0|0,0:1|0:1,0:0:0:0:
208,176,35216,2,0,P|184:264|96:288,1,192,0|0,0:1|0:1,0:0:0:0:
320,288,35995,5,0,0:1:0:0:
208,288,36190,2,0,P|144:240|176:144,1,192,0|0,0:1|0:1,0:0:0:0:
288,128,36774,1,0,0:1:0:0:
176,48,36969,2,0,L|80:48,1,96,0|0,0:1|0:1,0:0:0:0:
192,48,37359,6,0,P|208:96|112:176,1,192,0|0,0:1|0:1,0:0:0:0:
224,176,37943,2,0,L|232:272,1,96,0|0,0:1|0:1,0:0:0:0:
112,288,38333,2,0,P|80:240|148:144,1,192,0|0,0:1|0:1,0:0:0:0:
384,288,39112,6,0,L|240:144,1,192,2|0,0:1|0:1,0:0:0:0:
480,176,39891,2,0,L|488:80,1,96,0|0,0:1|0:1,0:0:0:0:
368,64,40281,1,0,0:1:0:0:
256,64,40476,2,0,P|240:112|336:192,1,192,2|0,0:1|0:1,0:0:0:0:
448,192,41060,1,0,0:1:0:0:
336,192,41255,2,0,L|328:240,2,48,0|0|0,0:1|0:1|0:1,0:0:0:0:
448,192,41645,1,0,0:1:0:0:
336,192,41839,2,0,L|240:192,1,96,0|0,0:1|0:1,0:0:0:0:
128,240,42229,6,0,L|272:96,1,192,2|0,0:1|0:1,0:0:0:0:
144,80,42813,2,0,L|136:128,2,48,0|0|2,0:1|0:1|0:1,0:0:0:0:
256,48,43203,1,0,0:1:0:0:
144,32,43398,1,0,0:1:0:0:
256,48,43593,6,0,P|352:64|384:144,1,192,0|0,0:1|0:1,0:0:0:0:
272,192,44177,1,0,0:1:0:0:
384,288,44372,1,0,0:1:0:0:
392,256,44469,1,0,0:1:0:0:
400,224,44567,1,2,0:1:0:0:
288,96,44761,1,0,0:1:0:0:
240,96,44858,1,0,0:1:0:0:
192,96,44955,1,0,0:1:0:0:
304,96,45151,1,0,0:1:0:0:
144,96,45346,6,0,P|96:112|144:208,1,192,2|0,0:1|0:1,0:0:0:0:
256,208,45930,1,0,0:1:0:0:
144,208,46125,2,0,L|136:304,1,96,2|0,0:1|0:1,0:0:0:0:
256,336,46515,1,0,0:1:0:0:
368,288,46710,6,0,P|384:240|288:160,1,192,0|0,0:1|0:1,0:0:0:0:
176,272,47294,2,0,L|320:128,1,192,0|2,0:1|0:1,0:0:0:0:
192,48,47878,2,0,L|96:48,1,96,0|0,0:1|0:1,0:0:0:0:
256,48,48268,2,0,L|264:96,1,48,0|0,0:1|0:1,0:0:0:0:
256,48,48463,6,0,P|240:96|336:176,1,192,2|0,0:1|0:1,0:0:0:0:
464,176,49047,1,0,0:1:0:0:
416,176,49144,1,0,0:1:0:0:
368,176,49242,2,0,L|224:320,1,192,2|0,0:1|0:1,0:0:0:0:
368,320,49826,1,0,0:1:0:0:
376,272,49924,1,0,0:1:0:0:
384,224,50021,5,2,0:1:0:0:
272,224,50216,2,0,L|264:128,1,96,0|0,0:1|0:1,0:0:0:0:
384,48,50606,1,0,0:1:0:0:
392,95,50704,1,0,0:1:0:0:
384,144,50801,1,2,0:1:0:0:
272,144,50995,2,0,L|176:144,1,96,0|0,0:1|0:1,0:0:0:0:
288,144,51385,1,0,0:1:0:0:
128,144,51580,6,0,P|96:192|176:272,1,192,2|0,0:1|0:1,0:0:0:0:
288,272,52164,1,0,0:1:0:0:
336,272,52261,1,0,0:1:0:0:
384,272,52358,1,0,0:1:0:0:
256,272,52554,1,0,0:1:0:0:
211,258,52651,1,0,0:1:0:0:
191,216,52748,1,0,0:1:0:0:
210,174,52846,1,0,0:1:0:0:
254,159,52943,1,0,0:1:0:0:
416,160,53138,6,0,L|424:288,1,115.199996484375,8|8,0:1|0:1,0:0:0:0:
198,352,53917,2,0,L|313:352,1,115.199996484375,8|2,0:1|0:1,0:0:0:0:
96,160,54697,6,0,L|88:272,1,105.600003222656,4|0,0:1|0:1,0:0:0:0:
208,304,55086,2,0,P|272:288|208:208,1,211.200006445313,0|4,0:1|0:1,0:0:0:0:
336,208,55671,1,0,0:1:0:0:
344,144,55768,2,0,P|336:80|256:48,1,158.400004833985,0|0,0:1|0:1,0:0:0:0:
80,240,56255,5,4,0:1:0:0:
208,304,56450,2,0,L|216:240,1,52.8000016113282,0|0,0:1|0:1,0:0:0:0:
32,128,56839,1,0,0:1:0:0:
160,128,57034,2,0,P|176:192|72:272,1,211.200006445313,4|4,0:1|0:1,0:0:0:0:
320,352,57813,5,4,0:1:0:0:
336,302,57910,1,0,0:1:0:0:
320,240,58007,1,0,0:1:0:0:
192,240,58203,1,0,0:1:0:0:
176,190,58300,1,0,0:1:0:0:
186,139,58397,1,0,0:1:0:0:
320,80,58593,2,0,L|328:144,1,52.8000016113282,4|0,0:1|0:1,0:0:0:0:
192,128,58885,2,0,P|176:192|256:240,1,158.400004833985,0|0,0:1|0:1,0:0:0:0:
416,240,59372,6,0,L|424:128,1,105.600003222656,6|2,0:1|0:1,0:0:0:0:
304,80,59761,1,6,0:1:0:0:
128,80,59956,1,2,0:1:0:0:
120,136,60054,1,0,0:1:0:0:
112,192,60151,1,6,0:1:0:0:
288,208,60346,2,0,P|400:160|392:88,1,211.200006445313,2|0,0:1|0:1,0:0:0:0:
96,80,60930,5,4,0:1:0:0:
88,128,61028,1,0,0:1:0:0:
80,168,61125,1,0,0:1:0:0:
208,256,61320,1,0,0:1:0:0:
256,256,61417,1,0,0:1:0:0:
304,256,61514,1,0,0:1:0:0:
176,336,61710,2,0,L|168:272,1,52.8000016113282,4|0,0:1|0:1,0:0:0:0:
288,160,62002,2,0,L|296:96,1,52.8000016113282,0|0,0:1|0:1,0:0:0:0:
160,32,62294,1,0,0:1:0:0:
288,32,62489,5,4,0:1:0:0:
338,35,62586,1,0,0:1:0:0:
362,80,62683,1,0,0:1:0:0:
338,124,62781,1,0,0:1:0:0:
287,127,62879,1,0,0:1:0:0:
236,130,62976,1,0,0:1:0:0:
212,175,63073,1,0,0:1:0:0:
236,219,63171,1,0,0:1:0:0:
288,224,63268,2,0,L|336:272,3,52.8000016113282,4|0|0|0,0:1|0:1|0:1|0:0,0:0:0:0:
384,80,63658,2,0,L|392:192,1,105.600003222656,4|0,0:1|0:1,0:0:0:0:
112,256,64047,6,0,P|96:192|144:112,1,158.400004833985,4|0,0:1|0:1,0:0:0:0:
192,96,64437,1,0,0:1:0:0:
336,96,64632,1,0,0:1:0:0:
192,96,64826,2,0,L|184:208,1,105.600003222656,0|0,0:1|0:1,0:0:0:0:
336,224,65216,2,0,L|448:224,1,105.600003222656,0|0,0:1|0:1,0:0:0:0:
288,224,65606,6,0,P|272:160|320:80,1,158.400004833985,4|0,0:1|0:1,0:0:0:0:
368,64,65995,2,0,L|480:64,1,105.600003222656,0|0,0:1|0:1,0:0:0:0:
320,64,66385,2,0,L|312:176,1,105.600003222656,0|0,0:1|0:1,0:0:0:0:
464,192,66774,2,0,L|472:304,1,105.600003222656,0|0,0:1|0:1,0:0:0:0:
128,304,67164,5,6,0:1:0:0:
78,293,67261,1,2,0:1:0:0:
55,247,67358,1,2,0:1:0:0:
78,202,67456,1,2,0:1:0:0:
128,192,67553,1,2,0:1:0:0:
304,192,67748,5,6,0:1:0:0:
320,241,67845,1,2,0:1:0:0:
305,290,67942,1,2,0:1:0:0:
263,321,68040,1,2,0:1:0:0:
212,321,68137,1,2,0:1:0:0:
384,336,68333,5,6,0:1:0:0:
386,296,68430,1,2,0:1:0:0:
389,257,68527,1,2,0:1:0:0:
392,217,68625,1,2,0:1:0:0:
395,178,68722,1,2,0:1:0:0:
224,64,68917,5,6,0:1:0:0:
207,113,69014,1,2,0:1:0:0:
222,162,69111,1,2,0:1:0:0:
264,193,69209,1,2,0:1:0:0:
315,193,69306,1,2,0:1:0:0:
144,336,69502,5,6,0:1:0:0:
272,232,69697,2,0,L|279:337,1,105.600003222656,2|0,0:1|0:1,0:0:0:0:
144,336,70086,1,0,0:1:0:0:
416,64,70281,6,0,L|424:160,1,96,4|0,0:0|0:1,0:0:0:0:
304,176,70671,2,0,L|208:176,1,96,0|0,0:1|0:1,0:0:0:0:
336,176,71060,2,0,L|448:288,2,144,0|0|0,0:1|0:1|0:1,0:0:0:0:
288,176,71742,1,0,0:1:0:0:
224,176,71839,6,0,L|128:176,1,96,0|0,0:1|0:1,0:0:0:0:
240,176,72229,2,0,L|248:80,1,96,0|0,0:1|0:1,0:0:0:0:
128,96,72619,1,0,0:1:0:0:
256,64,72813,1,0,0:1:0:0:
112,32,73008,1,0,0:1:0:0:
416,32,73398,6,0,L|424:128,1,96,0|0,0:1|0:1,0:0:0:0:
304,128,73787,2,0,L|296:224,1,96,0|0,0:1|0:1,0:0:0:0:
416,288,74177,2,0,L|272:288,1,144,0|0,0:1|0:1,0:0:0:0:
448,320,74761,2,0,P|464:272|368:192,1,192,0|0,0:1|0:1,0:0:0:0:
256,192,75346,1,0,0:1:0:0:
144,192,75541,2,0,L|48:192,1,96,0|0,0:1|0:1,0:0:0:0:
160,96,75930,1,0,0:1:0:0:
168,152,76028,1,0,0:0:0:0:
176,208,76125,1,0,0:1:0:0:
32,304,76320,1,0,0:1:0:0:
288,352,76515,6,0,L|384:352,1,96,0|0,0:1|0:1,0:0:0:0:
496,352,76904,2,0,L|400:352,1,96,0|0,0:1|0:1,0:0:0:0:
288,352,77294,2,0,P|240:304|272:224,1,144,0|0,0:1|0:1,0:0:0:0:
432,192,77878,2,0,P|448:144|352:64,1,192,0|0,0:1|0:1,0:0:0:0:
240,64,78463,2,0,L|144:64,1,96,0|0,0:1|0:1,0:0:0:0:
304,64,78852,2,0,L|312:160,1,96,0|0,0:1|0:1,0:0:0:0:
160,176,79242,1,0,0:1:0:0:
272,272,79437,1,0,0:1:0:0:
320,272,79534,1,0,0:1:0:0:
368,272,79632,6,0,L|464:272,2,96,0|0|0,0:1|0:1|0:1,0:0:0:0:
256,272,80216,2,0,L|160:272,1,96,0|0,0:1|0:1,0:0:0:0:
272,272,80606,2,0,L|280:176,1,96,0|0,0:1|0:1,0:0:0:0:
128,144,80995,1,0,0:1:0:0:
384,80,81190,5,0,0:1:0:0:
416,113,81287,1,0,0:1:0:0:
418,160,81384,1,0,0:1:0:0:
389,196,81482,1,0,0:1:0:0:
342,204,81579,1,0,0:1:0:0:
192,144,81774,5,0,0:1:0:0:
159,177,81871,1,0,0:1:0:0:
157,224,81968,1,0,0:1:0:0:
186,260,82066,1,0,0:1:0:0:
233,268,82163,1,0,0:1:0:0:
384,272,82359,2,0,L|480:272,1,96,0|0,0:1|0:1,0:0:0:0:
224,64,82748,5,4,0:0:0:0:
112,128,82943,2,0,L|80:176,2,48,0|0|0,0:1|0:1|0:1,0:0:0:0:
224,224,83333,1,0,0:1:0:0:
336,224,83528,2,0,L|432:224,2,96,0|0|0,0:1|0:1|0:1,0:0:0:0:
224,224,84112,6,0,P|176:208|224:112,1,192,0|0,0:1|0:1,0:0:0:0:
336,112,84697,2,0,L|240:112,1,96,2|0,0:0|0:1,0:0:0:0:
368,112,85086,2,0,P|464:128|496:208,2,192,2|2|0,0:0|0:0|0:1,0:0:0:0:
256,112,86060,2,0,L|248:208,1,96,0|0,0:1|0:1,0:0:0:0:
368,224,86450,1,0,0:1:0:0:
256,272,86645,2,0,L|160:272,2,96,0|0|0,0:1|0:1|0:1,0:0:0:0:
368,272,87229,6,0,P|376:224|272:144,1,192,0|0,0:1|0:1,0:0:0:0:
224,144,87716,1,0,0:1:0:0:
176,144,87813,1,2,0:0:0:0:
288,144,88008,1,0,0:1:0:0:
176,144,88203,2,0,L|80:144,1,96,2|0,0:0|0:1,0:0:0:0:
208,144,88593,1,2,0:0:0:0:
480,144,88982,5,0,0:1:0:0:
368,128,89177,1,0,0:1:0:0:
360,176,89274,1,0,0:1:0:0:
352,208,89372,2,0,L|448:208,1,96,0|0,0:1|0:1,0:0:0:0:
336,208,89761,2,0,L|328:304,1,96,0|0,0:1|0:1,0:0:0:0:
448,336,90151,1,0,0:1:0:0:
336,352,90346,6,0,L|192:208,1,192,0|0,0:1|0:1,0:0:0:0:
320,192,90930,2,0,L|328:96,1,96,2|0,0:0|0:1,0:0:0:0:
208,80,91320,2,0,P|192:128|288:208,1,192,2|0,0:0|0:1,0:0:0:0:
48,208,92099,5,0,0:1:0:0:
160,208,92294,2,0,P|176:256|80:336,1,192,0|0,0:1|0:1,0:0:0:0:
192,368,92878,2,0,L|200:272,1,96,0|0,0:1|0:1,0:0:0:0:
96,240,93268,1,0,0:1:0:0:
208,240,93463,6,0,P|256:224|208:128,1,192,0|0,0:1|0:1,0:0:0:0:
320,64,94047,2,0,L|416:64,1,96,2|2,0:0|0:0,0:0:0:0:
256,64,94437,1,2,0:0:0:0:
211,77,94534,1,0,0:1:0:0:
191,119,94631,1,0,0:1:0:0:
210,161,94729,1,0,0:0:0:0:
256,176,94826,2,0,L|352:176,1,96,2|0,0:0|0:1,0:0:0:0:
64,320,95216,6,0,P|48:272|144:192,1,192,2|0,0:1|0:1,0:0:0:0:
368,208,95995,2,0,L|464:208,2,96,0|0|0,0:1|0:1|0:1,0:0:0:0:
256,208,96580,2,0,P|160:192|160:112,1,192,0|0,0:1|0:1,0:0:0:0:
272,96,97164,1,0,0:1:0:0:
112,96,97359,2,0,L|104:144,2,48,0|0|0,0:1|0:1|0:1,0:0:0:0:
256,192,97748,1,0,0:1:0:0:
304,192,97845,1,0,0:1:0:0:
352,192,97942,1,0,0:1:0:0:
208,192,98138,1,0,0:1:0:0:
204,239,98235,1,0,0:0:0:0:
200,287,98333,6,0,P|184:239|280:159,1,192,2|0,0:1|0:1,0:0:0:0:
400,160,98917,1,0,0:1:0:0:
288,160,99112,2,0,L|192:160,2,96,2|0|0,0:1|0:1|0:1,0:0:0:0:
128,160,99697,2,0,P|80:176|128:272,1,192,0|0,0:1|0:1,0:0:0:0:
240,272,100281,1,0,0:1:0:0:
128,288,100476,2,0,L|80:240,2,48,0|0|2,0:1|0:1|0:1,0:0:0:0:
288,288,100865,1,0,0:1:0:0:
296,232,100963,1,0,0:1:0:0:
304,176,101060,1,0,0:1:0:0:
144,176,101255,1,0,0:1:0:0:
136,120,101353,1,0,0:0:0:0:
128,64,101450,6,0,P|128:128|240:176,1,192,2|0,0:1|0:1,0:0:0:0:
352,160,102034,1,0,0:1:0:0:
240,128,102229,2,0,L|232:224,1,96,2|0,0:1|0:1,0:0:0:0:
280,264,102521,1,0,0:1:0:0:
328,296,102619,1,0,0:1:0:0:
208,320,102813,6,0,P|160:304|208:208,1,192,0|0,0:1|0:1,0:0:0:0:
320,208,103398,2,0,L|416:208,1,96,0|0,0:1|0:1,0:0:0:0:
304,208,103787,1,2,0:1:0:0:
288,163,103884,1,0,0:1:0:0:
299,117,103981,1,0,0:1:0:0:
432,48,104177,2,0,L|328:48,1,96,0|0,0:1|0:1,0:0:0:0:
80,48,104567,6,0,P|64:96|160:176,1,192,2|0,0:1|0:1,0:0:0:0:
272,176,105151,1,0,0:1:0:0:
320,176,105248,1,0,0:1:0:0:
368,176,105345,1,2,0:1:0:0:
240,176,105541,2,0,L|232:272,1,96,0|0,0:1|0:1,0:0:0:0:
368,288,105930,1,0,0:1:0:0:
375,240,106027,1,0,0:1:0:0:
368,288,106125,5,2,0:1:0:0:
240,304,106320,2,0,L|144:304,1,96,0|0,0:1|0:1,0:0:0:0:
272,160,106710,1,0,0:1:0:0:
320,160,106807,1,0,0:1:0:0:
368,160,106904,1,2,0:1:0:0:
240,80,107099,1,0,0:1:0:0:
368,80,107294,1,0,0:1:0:0:
224,48,107489,1,0,0:1:0:0:
384,48,107684,6,0,P|400:96|304:176,1,192,2|0,0:1|0:1,0:0:0:0:
176,160,108268,1,0,0:1:0:0:
168,200,108365,1,0,0:1:0:0:
160,232,108463,1,0,0:1:0:0:
288,272,108658,1,0,0:1:0:0:
333,258,108755,1,0,0:1:0:0:
353,216,108852,1,0,0:1:0:0:
334,174,108950,1,0,0:1:0:0:
290,159,109047,1,0,0:1:0:0:
128,160,109242,6,0,P|104:224|120:264,1,115.199996484375,8|8,0:1|0:1,0:0:0:0:
346,352,110021,2,0,L|352:288,1,57.5999982421876,8|0,0:1|0:0,0:0:0:0:
222,224,110411,1,2,0:1:0:0:
464,64,110800,5,4,0:1:0:0:
480,113,110897,1,0,0:1:0:0:
465,162,110994,1,0,0:1:0:0:
423,193,111092,1,0,0:1:0:0:
372,193,111189,1,0,0:1:0:0:
240,96,111385,1,0,0:1:0:0:
368,40,111580,2,0,L|376:104,2,52.8000016113282,4|0|0,0:1|0:1|0:1,0:0:0:0:
240,32,111969,2,0,L|128:32,1,105.600003222656,0|0,0:1|0:1,0:0:0:0:
288,128,112359,6,0,L|320:176,1,52.8000016113282,4|0,0:1|0:1,0:0:0:0:
176,176,112651,2,0,L|144:224,1,52.8000016113282,0|0,0:1|0:1,0:0:0:0:
288,256,112943,1,0,0:1:0:0:
336,256,113040,1,0,0:1:0:0:
384,256,113137,1,4,0:1:0:0:
240,256,113333,1,0,0:1:0:0:
202,218,113430,2,0,P|184:160|256:112,1,158.400004833985,0|0,0:1|0:1,0:0:0:0:
400,112,113917,5,4,0:1:0:0:
256,112,114112,1,0,0:1:0:0:
248,152,114210,1,0,0:1:0:0:
240,192,114307,1,0,0:1:0:0:
384,288,114502,1,0,0:1:0:0:
336,288,114599,1,0,0:1:0:0:
288,288,114696,1,4,0:1:0:0:
432,288,114891,2,0,L|448:224,1,52.8000016113282,0|0,0:1|0:1,0:0:0:0:
304,176,115184,1,0,0:1:0:0:
80,176,115476,6,0,L|72:64,1,105.600003222656,6|2,0:1|0:1,0:0:0:0:
224,48,115865,1,6,0:1:0:0:
368,48,116060,2,0,L|376:112,2,52.8000016113282,2|0|6,0:1|0:1|0:1,0:0:0:0:
224,48,116450,1,2,0:1:0:0:
368,48,116645,2,0,L|480:48,1,105.600003222656,4|0,0:1|0:1,0:0:0:0:
176,96,117034,5,4,0:0:0:0:
126,109,117131,1,0,0:0:0:0:
105,156,117228,1,0,0:0:0:0:
126,202,117326,1,0,0:0:0:0:
176,215,117423,1,0,0:0:0:0:
320,224,117619,2,0,L|352:176,1,52.8000016113282,0|0,0:0|0:0,0:0:0:0:
208,128,117911,1,0,0:0:0:0:
352,96,118106,2,0,L|368:160,4,52.8000016113282,0|0|0|0|0,0:0|0:0|0:0|0:0|0:0,0:0:0:0:
304,96,118593,5,4,0:0:0:0:
253,99,118690,1,0,0:0:0:0:
229,144,118787,1,0,0:0:0:0:
253,188,118885,1,0,0:0:0:0:
304,191,118982,1,0,0:0:0:0:
354,194,119079,1,0,0:0:0:0:
378,239,119176,1,0,0:0:0:0:
354,283,119274,1,0,0:0:0:0:
304,288,119372,2,0,L|192:288,1,105.600003222656,4|0,0:0|0:0,0:0:0:0:
368,304,119761,2,0,L|376:192,1,105.600003222656,4|0,0:0|0:0,0:0:0:0:
112,48,120151,6,0,P|96:112|160:176,1,158.400004833985,4|0,0:0|0:0,0:0:0:0:
208,176,120541,2,0,L|320:176,1,105.600003222656,0|0,0:0|0:0,0:0:0:0:
160,176,120930,2,0,L|152:288,1,105.600003222656,4|0,0:0|0:0,0:0:0:0:
304,304,121320,1,0,0:0:0:0:
160,304,121515,1,0,0:0:0:0:
336,304,121710,6,0,P|352:240|304:160,1,158.400004833985,4|0,0:0|0:0,0:0:0:0:
256,144,122099,1,0,0:0:0:0:
112,144,122294,2,0,L|104:208,2,52.8000016113282,0|0|4,0:0|0:0|0:0,0:0:0:0:
256,144,122684,1,0,0:0:0:0:
112,144,122878,2,0,L|104:256,1,105.600003222656,4|0,0:0|0:0,0:0:0:0:
384,352,123268,5,6,0:0:0:0:
434,348,123365,1,2,0:0:0:0:
458,303,123462,1,2,0:0:0:0:
434,259,123560,1,2,0:0:0:0:
384,256,123658,1,2,0:0:0:0:
208,256,123852,5,6,0:0:0:0:
157,252,123949,1,2,0:0:0:0:
133,207,124046,1,2,0:0:0:0:
157,163,124144,1,2,0:0:0:0:
208,160,124242,1,2,0:0:0:0:
384,160,124437,5,6,0:0:0:0:
400,209,124534,1,2,0:0:0:0:
387,259,124631,1,2,0:0:0:0:
349,295,124729,1,2,0:0:0:0:
298,304,124826,1,2,0:0:0:0:
464,352,125021,5,6,0:0:0:0:
466,312,125118,1,2,0:0:0:0:
469,273,125215,1,2,0:0:0:0:
472,233,125313,1,2,0:0:0:0:
475,194,125410,1,2,0:0:0:0:
304,96,125606,6,0,L|192:96,1,105.600003222656,6|2,0:0|0:0,0:0:0:0:
368,320,125995,2,0,L|375:214,1,105.600003222656,0|0,0:0|0:0,0:0:0:0:
96,144,126385,1,4,0:1:0:0:
336,64,138852,6,0,L|344:160,1,96,4|0,0:0|0:0,0:0:0:0:
224,160,139242,1,0,0:0:0:0:
336,240,139437,1,0,0:0:0:0:
224,272,139632,2,0,L|128:272,2,96,0|0|0,0:0|0:0|0:0,0:0:0:0:
336,272,140216,2,0,L|344:176,1,96,0|0,0:0|0:0,0:0:0:0:
224,160,140606,5,0,0:0:0:0:
176,160,140703,1,0,0:0:0:0:
128,160,140800,1,0,0:0:0:0:
256,160,140995,2,0,L|264:208,2,48,0|0|0,0:0|0:0|0:0,0:0:0:0:
128,64,141385,1,0,0:0:0:0:
124,111,141482,1,0,0:0:0:0:
120,159,141579,1,0,0:0:0:0:
256,160,141774,1,0,0:0:0:0:
304,160,141871,1,0,0:0:0:0:
352,160,141969,6,0,P|400:176|352:272,1,192,0|0,0:0|0:0,0:0:0:0:
128,272,142748,2,0,L|32:272,2,96,0|0|0,0:0|0:0|0:0,0:0:0:0:
240,272,143333,1,0,0:0:0:0:
112,272,143528,1,2,0:0:0:0:
416,272,143917,2,0,L|424:176,1,96,2|0,0:0|0:0,0:0:0:0:
304,160,144307,2,0,P|256:176|304:272,1,192,2|2,0:0|0:0,0:0:0:0:
64,272,145086,5,0,0:0:0:0:
176,272,145281,2,0,L|184:224,2,48,0|0|0,0:0|0:0|0:0,0:0:0:0:
64,272,145671,1,0,0:0:0:0:
176,272,145865,2,0,L|272:272,2,96,0|0|0,0:0|0:0|0:0,0:0:0:0:
288,272,146450,1,0,0:0:0:0:
291,224,146547,1,0,0:0:0:0:
295,176,146644,5,0,0:0:0:0:
160,160,146839,1,0,0:0:0:0:
112,160,146936,1,0,0:0:0:0:
64,160,147033,1,0,0:0:0:0:
192,160,147229,2,0,L|200:208,2,48,0|0|0,0:0|0:0|0:0,0:0:0:0:
64,288,147619,1,0,0:0:0:0:
112,288,147716,1,0,0:0:0:0:
160,288,147813,1,0,0:0:0:0:
288,288,148008,1,0,0:0:0:0:
336,288,148105,1,0,0:0:0:0:
384,288,148202,5,0,0:0:0:0:
272,288,148398,2,0,L|176:288,1,96,0|0,0:0|0:0,0:0:0:0:
288,288,148787,2,0,P|304:240|208:160,1,192,0|0,0:0|0:0,0:0:0:0:
160,160,149274,1,0,0:0:0:0:
112,160,149372,1,0,0:0:0:0:
67,173,149469,1,0,0:0:0:0:
47,215,149566,1,0,0:0:0:0:
66,257,149664,1,0,0:0:0:0:
110,272,149761,5,0,0:0:0:0:
224,272,149956,1,8,0:0:0:0:
96,272,150151,1,8,0:0:0:0:
240,272,150346,1,8,0:0:0:0:
80,272,150541,1,8,0:0:0:0:
352,272,150930,1,8,0:0:0:0:
80,192,151320,5,0,0:0:0:0:
192,288,151514,2,0,L|200:240,2,48,0|0|0,0:0|0:0|0:0,0:0:0:0:
80,288,151904,1,0,0:0:0:0:
192,288,152099,2,0,L|288:288,2,96,0|0|0,0:0|0:0|0:0,0:0:0:0:
304,288,152683,6,0,P|352:272|304:176,1,192,0|0,0:0|0:0,0:0:0:0:
192,176,153268,2,0,L|184:80,1,96,0|0,0:0|0:0,0:0:0:0:
304,64,153657,2,0,L|448:208,2,192,2|2|0,0:0|0:0|0:0,0:0:0:0:
192,64,154631,5,0,0:0:0:0:
304,64,154826,2,0,L|312:160,1,96,0|0,0:0|0:0,0:0:0:0:
192,176,155216,2,0,L|96:176,2,96,0|0|0,0:0|0:0|0:0,0:0:0:0:
304,176,155800,2,0,P|352:192|304:288,1,192,0|0,0:0|0:0,0:0:0:0:
256,288,156287,1,0,0:0:0:0:
208,288,156385,2,0,L|112:288,1,96,0|0,0:0|0:0,0:0:0:0:
224,288,156774,2,0,P|320:256|336:176,1,192,2|2,0:0|0:0,0:0:0:0:
112,160,157553,5,0,0:0:0:0:
224,208,157748,1,0,0:0:0:0:
232,160,157846,1,0,0:0:0:0:
240,112,157943,1,0,0:0:0:0:
128,64,158138,1,0,0:0:0:0:
240,64,158333,2,0,L|336:64,1,96,0|0,0:0|0:0,0:0:0:0:
224,64,158722,1,0,0:0:0:0:
112,64,158917,6,0,P|100:112|208:176,1,192,0|0,0:0|0:0,0:0:0:0:
320,176,159501,2,0,L|416:176,1,96,0|0,0:0|0:0,0:0:0:0:
304,176,159891,2,0,P|328:264|416:288,1,192,2|2,0:0|0:0,0:0:0:0:
192,288,160670,5,0,0:0:0:0:
304,288,160865,2,0,L|312:192,1,96,0|0,0:0|0:0,0:0:0:0:
192,176,161255,1,0,0:0:0:0:
304,176,161450,2,0,L|400:176,2,96,0|0|0,0:0|0:0|0:0,0:0:0:0:
192,176,162034,6,0,P|176:224|272:304,1,192,0|0,0:0|0:0,0:0:0:0:
384,176,162618,2,0,L|392:272,1,96,0|0,0:0|0:0,0:0:0:0:
272,272,163008,1,0,0:0:0:0:
264,216,163106,1,0,0:0:0:0:
256,160,163203,1,0,0:0:0:0:
368,128,163398,1,0,0:0:0:0:
144,272,163787,6,0,L|288:128,1,192,2|0,0:1|0:1,0:0:0:0:
48,128,164566,2,0,L|40:32,1,96,0|0,0:1|0:1,0:0:0:0:
160,32,164956,1,0,0:1:0:0:
272,32,165151,2,0,P|288:80|192:160,1,192,0|0,0:1|0:1,0:0:0:0:
80,160,165735,1,0,0:1:0:0:
192,160,165930,2,0,L|200:208,2,48,0|0|0,0:1|0:1|0:1,0:0:0:0:
80,160,166320,1,0,0:1:0:0:
192,160,166514,2,0,L|288:160,1,96,0|0,0:1|0:1,0:0:0:0:
400,160,166904,6,0,L|256:16,1,192,2|0,0:1|0:1,0:0:0:0:
384,240,167488,2,0,L|392:288,2,48,0|0|2,0:1|0:1|0:1,0:0:0:0:
272,224,167878,1,0,0:1:0:0:
400,176,168073,1,0,0:1:0:0:
256,80,168268,6,0,P|160:96|128:176,1,192,0|0,0:1|0:1,0:0:0:0:
256,224,168852,1,0,0:1:0:0:
144,304,169047,1,0,0:1:0:0:
136,272,169144,1,0,0:1:0:0:
128,240,169242,1,2,0:1:0:0:
256,288,169436,1,0,0:1:0:0:
304,288,169533,1,0,0:1:0:0:
352,288,169630,1,0,0:0:0:0:
224,288,169826,1,0,0:1:0:0:
352,288,170021,6,0,P|415:230|351:175,1,192,2|0,0:1|0:1,0:0:0:0:
240,176,170605,1,0,0:1:0:0:
368,208,170800,2,0,L|376:304,1,96,2|0,0:1|0:1,0:0:0:0:
256,336,171190,1,0,0:1:0:0:
368,336,171385,6,0,P|384:288|288:208,1,192,0|0,0:1|0:1,0:0:0:0:
176,208,171969,2,0,L|320:64,1,192,0|2,0:1|0:1,0:0:0:0:
192,48,172553,2,0,L|96:48,1,96,0|0,0:1|0:1,0:0:0:0:
240,48,172943,2,0,L|248:96,1,48,0|0,0:1|0:1,0:0:0:0:
240,48,173138,6,0,P|256:96|160:176,1,192,2|0,0:1|0:1,0:0:0:0:
304,176,173722,1,0,0:1:0:0:
352,176,173819,1,0,0:1:0:0:
400,176,173917,2,0,P|448:192|400:288,1,192,2|0,0:1|0:1,0:0:0:0:
272,272,174501,1,0,0:1:0:0:
264,224,174599,1,0,0:1:0:0:
256,176,174696,5,2,0:1:0:0:
384,160,174891,2,0,L|392:64,1,96,0|0,0:1|0:1,0:0:0:0:
256,32,175281,1,0,0:1:0:0:
248,79,175379,1,0,0:1:0:0:
256,128,175476,1,2,0:1:0:0:
384,160,175670,2,0,L|288:160,2,96,0|0|0,0:1|0:1|0:1,0:0:0:0:
256,160,176255,6,0,P|224:208|304:288,1,192,2|0,0:1|0:1,0:0:0:0:
432,288,176839,1,0,0:1:0:0:
384,288,176936,1,0,0:1:0:0:
336,288,177033,1,0,0:1:0:0:
208,288,177229,1,0,0:1:0:0:
163,274,177326,1,0,0:1:0:0:
143,232,177423,1,0,0:1:0:0:
162,190,177521,1,0,0:0:0:0:
206,175,177618,1,0,0:1:0:0:
352,80,177813,6,0,L|360:208,1,115.199996484375,8|8,0:0|0:0,0:0:0:0:
160,352,178592,2,0,L|256:352,1,96,8|0,0:0|0:0,0:0:0:0:
106,224,178982,1,8,0:0:0:0:
400,224,179372,5,4,0:0:0:0:
416,174,179469,1,0,0:0:0:0:
401,125,179566,1,0,0:0:0:0:
359,94,179664,1,0,0:0:0:0:
308,94,179761,1,0,0:0:0:0:
176,96,179956,1,0,0:0:0:0:
172,148,180053,1,0,0:0:0:0:
168,201,180151,2,0,P|164:256|256:304,1,158.400004833985,4|0,0:0|0:0,0:0:0:0:
304,288,180541,2,0,L|312:176,1,105.600003222656,0|0,0:0|0:0,0:0:0:0:
176,128,180930,6,0,L|160:192,3,52.8000016113282,4|0|0|0,0:0|0:0|0:0|0:0,0:0:0:0:
240,192,181320,2,0,L|256:256,3,52.8000016113282,0|0|0|0,0:0|0:0|0:0|0:0,0:0:0:0:
176,256,181710,1,4,0:0:0:0:
48,272,181904,2,0,L|40:208,2,52.8000016113282,0|0|4,0:0|0:0|0:0,0:0:0:0:
352,272,182489,5,4,0:0:0:0:
402,268,182586,1,0,0:0:0:0:
426,223,182683,1,0,0:0:0:0:
402,179,182781,1,0,0:0:0:0:
352,176,182878,5,0,0:0:0:0:
302,172,182975,1,0,0:0:0:0:
278,127,183072,1,0,0:0:0:0:
302,83,183170,1,0,0:0:0:0:
352,64,183268,1,4,0:0:0:0:
208,48,183463,2,0,L|200:112,1,52.8000016113282,0|0,0:0|0:0,0:0:0:0:
256,112,183658,1,0,0:0:0:0:
272,161,183755,1,0,0:0:0:0:
257,210,183852,1,0,0:0:0:0:
215,241,183950,1,0,0:0:0:0:
160,248,184047,5,6,0:0:0:0:
288,256,184242,1,2,0:0:0:0:
336,256,184339,1,2,0:0:0:0:
384,256,184437,1,6,0:0:0:0:
240,256,184632,1,2,0:0:0:0:
384,256,184826,1,6,0:0:0:0:
391,203,184923,1,2,0:0:0:0:
398,151,185020,1,2,0:0:0:0:
256,112,185216,2,0,L|368:112,1,105.600003222656,4|0,0:0|0:0,0:0:0:0:
80,48,185606,5,4,0:0:0:0:
208,48,185800,1,0,0:0:0:0:
211,100,185897,1,0,0:0:0:0:
215,153,185994,1,0,0:0:0:0:
96,240,186190,1,0,0:0:0:0:
144,240,186287,1,0,0:0:0:0:
192,240,186385,1,4,0:0:0:0:
320,240,186580,2,0,L|328:176,1,52.8000016113282,0|0,0:0|0:0,0:0:0:0:
272,176,186775,1,0,0:0:0:0:
256,127,186872,1,0,0:0:0:0:
271,78,186969,1,0,0:0:0:0:
313,47,187067,1,0,0:0:0:0:
368,40,187164,6,0,L|480:48,1,105.600003222656,4|0,0:0|0:0,0:0:0:0:
320,128,187554,1,0,0:0:0:0:
464,160,187748,2,0,L|472:224,2,52.8000016113282,0|0|4,0:0|0:0|0:0,0:0:0:0:
320,128,188138,1,0,0:0:0:0:
176,144,188333,1,0,0:0:0:0:
320,256,188528,1,0,0:0:0:0:
272,256,188625,1,0,0:0:0:0:
224,256,188722,6,0,P|176:224|208:144,1,158.400004833985,4|0,0:0|0:0,0:0:0:0:
256,128,189112,1,0,0:0:0:0:
384,128,189307,1,0,0:0:0:0:
240,128,189502,2,0,L|232:240,1,105.600003222656,4|0,0:0|0:0,0:0:0:0:
384,256,189891,1,0,0:0:0:0:
434,252,189988,1,0,0:0:0:0:
458,207,190085,1,0,0:0:0:0:
434,163,190183,1,0,0:0:0:0:
383,160,190280,5,4,0:0:0:0:
240,160,190476,1,0,0:0:0:0:
192,160,190573,1,0,0:0:0:0:
144,160,190671,1,0,0:0:0:0:
288,160,190865,1,0,0:0:0:0:
144,160,191060,2,0,L|136:272,1,105.600003222656,4|0,0:0|0:0,0:0:0:0:
288,288,191450,1,0,0:0:0:0:
338,284,191547,1,0,0:0:0:0:
362,239,191644,1,0,0:0:0:0:
338,195,191742,1,0,0:0:0:0:
287,192,191840,5,6,0:0:0:0:
236,188,191937,1,2,0:0:0:0:
212,143,192034,1,2,0:0:0:0:
236,99,192132,1,2,0:0:0:0:
287,96,192229,1,2,0:0:0:0:
112,96,192424,5,6,0:0:0:0:
108,148,192521,1,2,0:0:0:0:
104,201,192618,1,2,0:0:0:0:
100,253,192716,1,2,0:0:0:0:
96,306,192813,1,2,0:0:0:0:
272,320,193008,1,6,0:0:0:0:
275,267,193105,5,2,0:0:0:0:
279,214,193202,5,2,0:0:0:0:
283,162,193300,5,2,0:0:0:0:
287,109,193397,5,2,0:0:0:0:
112,80,193593,5,6,0:0:0:0:
95,129,193690,1,2,0:0:0:0:
110,178,193787,1,2,0:0:0:0:
152,209,193885,1,2,0:0:0:0:
203,209,193982,1,2,0:0:0:0:
368,176,194177,5,6,0:0:0:0:
384,225,194274,1,2,0:0:0:0:
369,274,194371,1,2,0:0:0:0:
327,305,194469,1,2,0:0:0:0:
276,305,194566,1,2,0:0:0:0:
448,336,194761,5,6,0:0:0:0:
464,286,194858,1,2,0:0:0:0:
449,237,194955,1,2,0:0:0:0:
407,206,195053,1,2,0:0:0:0:
356,206,195150,1,2,0:0:0:0:
192,208,195346,5,6,0:0:0:0:
141,204,195443,1,2,0:0:0:0:
117,159,195540,1,2,0:0:0:0:
141,115,195638,1,2,0:0:0:0:
192,112,195735,1,2,0:0:0:0:
32,96,195930,5,6,0:0:0:0:
15,145,196027,1,2,0:0:0:0:
30,194,196124,1,2,0:0:0:0:
72,225,196222,1,2,0:0:0:0:
123,225,196319,1,2,0:0:0:0:
288,224,196515,5,6,0:0:0:0:
338,220,196612,1,2,0:0:0:0:
362,175,196709,1,2,0:0:0:0:
338,131,196807,1,2,0:0:0:0:
287,128,196904,1,2,0:0:0:0:
464,128,197099,5,6,0:0:0:0:
467,180,197196,1,2,0:0:0:0:
471,233,197293,1,2,0:0:0:0:
475,285,197391,1,2,0:0:0:0:
479,338,197488,1,2,0:0:0:0:
368,352,197684,2,0,L|272:352,1,96,0|0,0:0|0:0,0:0:0:0:
16,224,198073,1,4,0:0:0:0:
