osu file format v14

[General]
AudioFilename: audio.mp3
AudioLeadIn: 0
PreviewTime: 54349
Countdown: 0
SampleSet: Soft
StackLeniency: 0.7
Mode: 3
LetterboxInBreaks: 0
SpecialStyle: 0
WidescreenStoryboard: 1

[Editor]
Bookmarks: 53180,53570,53959
DistanceSpacing: 0.8
BeatDivisor: 2
GridSize: 8
TimelineZoom: 1

[Metadata]
Title:Rampage
TitleUnicode:ランペイジ
Artist:paraoka feat. haru*nya
ArtistUnicode:paraoka feat. haru*nya
Creator:[_-Kukkai-_]
Version:EZ
Source:
Tags:
BeatmapID:1352538
BeatmapSetID:615846

[Difficulty]
HPDrainRate:4
CircleSize:4
OverallDifficulty:5
ApproachRate:5
SliderMultiplier:1.4
SliderTickRate:1

[Events]
//Background and Video events
0,0,"cute-smile-anime-headphones-girl-vocaloid-backgrounds.png",0,0
//Break Periods
//Storyboard Layer 0 (Background)
//Storyboard Layer 1 (Fail)
//Storyboard Layer 2 (Pass)
//Storyboard Layer 3 (Foreground)
//Storyboard Sound Samples

[TimingPoints]
-196,389.61038961039,4,2,1,60,1,0
14219,-100,4,2,1,60,0,0
14414,-100,4,2,1,60,0,0
54349,-100,4,1,1,60,0,1
70323,-100,4,2,1,60,0,0

[HitObjects]
64,192,1362,5,0,0:0:0:0:
448,192,1752,1,4,0:0:0:0:
192,192,2141,1,2,0:0:0:0:
320,192,2336,1,0,0:0:0:0:
64,192,2531,1,2,0:0:0:0:
64,192,2920,1,0,0:0:0:0:
448,192,3310,1,0,0:0:0:0:
64,192,3700,1,2,0:0:0:0:
320,192,3894,128,0,4089:0:0:0:0:
448,192,4479,128,2,4868:0:0:0:0:
64,192,4868,128,0,5258:0:0:0:0:
320,192,5258,1,2,0:0:0:0:
448,192,5453,1,0,0:0:0:0:
192,192,5648,1,2,0:0:0:0:
64,192,6037,128,0,6427:0:0:0:0:
448,192,6427,128,0,6816:0:0:0:0:
192,192,6816,1,2,0:0:0:0:
64,192,7011,1,0,0:0:0:0:
448,192,7206,1,2,0:0:0:0:
192,192,7596,1,2,0:0:0:0:
448,192,7791,1,0,0:0:0:0:
64,192,7985,128,4,8375:0:0:0:0:
320,192,8375,1,2,0:0:0:0:
448,192,8570,1,0,0:0:0:0:
192,192,8765,1,2,0:0:0:0:
64,192,9154,1,2,0:0:0:0:
448,192,9544,1,0,0:0:0:0:
64,192,9933,1,2,0:0:0:0:
320,192,10128,1,0,0:0:0:0:
192,192,10323,1,0,0:0:0:0:
448,192,10713,1,0,0:0:0:0:
64,192,11102,1,0,0:0:0:0:
320,192,11492,1,2,0:0:0:0:
192,192,11687,1,0,0:0:0:0:
448,192,11881,1,2,0:0:0:0:
448,192,12271,128,0,12661:0:0:0:0:
64,192,12661,128,6,14219:0:0:0:0:
192,192,13050,1,2,0:0:0:0:
320,192,13440,1,6,0:0:0:0:
448,192,13829,1,6,0:0:0:0:
448,192,14219,1,6,0:0:0:0:
64,192,14609,1,0,0:0:0:0:
448,192,14998,1,0,0:0:0:0:
64,192,15388,1,0,0:0:0:0:
448,192,15778,1,0,0:0:0:0:
192,192,16167,1,0,0:0:0:0:
320,192,16557,1,0,0:0:0:0:
192,192,16946,1,0,0:0:0:0:
64,192,17336,1,0,0:0:0:0:
448,192,17726,1,0,0:0:0:0:
192,192,18115,1,0,0:0:0:0:
320,192,18505,1,0,0:0:0:0:
64,192,18894,1,6,0:0:0:0:
64,192,19284,1,6,0:0:0:0:
448,192,19674,1,6,0:0:0:0:
448,192,20063,1,6,0:0:0:0:
64,192,20453,1,4,0:0:0:0:
448,192,20842,1,0,0:0:0:0:
192,192,21232,1,0,0:0:0:0:
64,192,21622,1,0,0:0:0:0:
448,192,22011,1,0,0:0:0:0:
320,192,22401,1,0,0:0:0:0:
64,192,22791,1,0,0:0:0:0:
192,192,23180,1,0,0:0:0:0:
448,192,23570,1,0,0:0:0:0:
320,192,23959,1,0,0:0:0:0:
64,192,24349,1,0,0:0:0:0:
448,192,24739,1,0,0:0:0:0:
64,192,25128,1,4,0:0:0:0:
192,192,25323,1,4,0:0:0:0:
320,192,25518,1,4,0:0:0:0:
448,192,25907,1,4,0:0:0:0:
320,192,26102,1,4,0:0:0:0:
192,192,26297,1,4,0:0:0:0:
448,192,26687,1,6,0:0:0:0:
64,192,27076,1,0,0:0:0:0:
192,192,27466,1,2,0:0:0:0:
448,192,27855,1,0,0:0:0:0:
64,192,28245,1,2,0:0:0:0:
448,192,28440,1,0,0:0:0:0:
192,192,28635,1,0,0:0:0:0:
320,192,28829,1,0,0:0:0:0:
64,192,29024,1,0,0:0:0:0:
448,192,29414,1,2,0:0:0:0:
192,192,29804,1,4,0:0:0:0:
320,192,30193,1,0,0:0:0:0:
192,192,30388,1,0,0:0:0:0:
448,192,30583,1,0,0:0:0:0:
64,192,30778,1,0,0:0:0:0:
320,192,30972,1,0,0:0:0:0:
64,192,31167,1,0,0:0:0:0:
320,192,31557,1,0,0:0:0:0:
448,192,31752,1,0,0:0:0:0:
192,192,31946,1,0,0:0:0:0:
320,192,32141,1,0,0:0:0:0:
448,192,32531,1,2,0:0:0:0:
64,192,32920,1,6,0:0:0:0:
448,192,33115,1,0,0:0:0:0:
192,192,33310,1,2,0:0:0:0:
320,192,33505,1,0,0:0:0:0:
64,192,33700,1,2,0:0:0:0:
320,192,33894,1,0,0:0:0:0:
192,192,34089,1,2,0:0:0:0:
64,192,34284,1,0,0:0:0:0:
448,192,34674,1,0,0:0:0:0:
320,192,34868,1,2,0:0:0:0:
64,192,35063,1,0,0:0:0:0:
448,192,35258,1,0,0:0:0:0:
64,192,35648,1,0,0:0:0:0:
320,192,36037,1,4,0:0:0:0:
192,192,36427,1,0,0:0:0:0:
448,192,36816,1,0,0:0:0:0:
192,192,37206,1,0,0:0:0:0:
448,192,37401,128,0,37985:0:0:0:0:
320,192,37985,128,0,38375:0:0:0:0:
192,192,38375,128,0,38765:0:0:0:0:
64,192,38765,128,0,39154:0:0:0:0:
448,192,39154,128,4,39933:0:0:0:0:
64,192,39933,1,2,0:0:0:0:
192,192,40128,1,0,0:0:0:0:
320,192,40323,1,2,0:0:0:0:
448,192,40518,128,0,41492:0:0:0:0:
64,192,41492,128,0,42271:0:0:0:0:
448,192,42271,1,4,0:0:0:0:
192,192,42855,1,0,0:0:0:0:
64,192,43050,1,6,0:0:0:0:
320,192,43245,1,0,0:0:0:0:
448,192,43440,128,2,44219:0:0:0:0:
64,192,43829,1,4,0:0:0:0:
192,192,44219,1,2,0:0:0:0:
64,192,44609,128,4,45388:0:0:0:0:
448,192,44998,1,2,0:0:0:0:
320,192,45388,1,6,0:0:0:0:
448,192,45778,1,2,0:0:0:0:
64,192,45972,1,0,0:0:0:0:
192,192,46167,1,6,0:0:0:0:
320,192,46362,1,0,0:0:0:0:
448,192,46557,128,0,47336:0:0:0:0:
192,192,46946,1,4,0:0:0:0:
64,192,47336,128,0,47726:0:0:0:0:
448,192,47726,1,6,0:0:0:0:
320,192,47920,1,0,0:0:0:0:
192,192,48115,1,2,0:0:0:0:
448,192,48115,128,0,50453:0:0:0:0:
64,192,48505,1,6,0:0:0:0:
320,192,48894,1,2,0:0:0:0:
64,192,49284,1,6,0:0:0:0:
192,192,49674,1,2,0:0:0:0:
64,192,50063,1,6,0:0:0:0:
192,192,50453,1,2,0:0:0:0:
320,192,50648,1,0,0:0:0:0:
64,192,50842,1,4,0:0:0:0:
320,192,51037,1,0,0:0:0:0:
448,192,51232,1,0,0:0:0:0:
64,192,51427,128,0,53180:0:0:0:0:
448,192,51622,1,6,0:0:0:0:
320,192,52011,1,2,0:0:0:0:
192,192,52401,1,6,0:0:0:0:
320,192,52791,1,2,0:0:0:0:
448,192,53180,1,8,0:0:0:0:
64,192,53570,1,8,0:0:0:0:
448,192,53959,1,8,0:0:0:0:
64,192,54349,1,2,0:0:0:0:
320,192,54544,1,0,0:0:0:0:
448,192,54739,1,2,0:0:0:0:
64,192,54933,1,0,0:0:0:0:
320,192,55128,1,2,0:0:0:0:
192,192,55323,1,0,0:0:0:0:
448,192,55518,1,2,0:0:0:0:
64,192,55713,1,0,0:0:0:0:
448,192,55907,1,2,0:0:0:0:
192,192,56102,1,0,0:0:0:0:
64,192,56297,1,2,0:0:0:0:
448,192,56492,128,0,56881:0:0:0:0:
64,192,56881,1,0,0:0:0:0:
320,192,57076,1,2,0:0:0:0:
192,192,57271,1,0,0:0:0:0:
64,192,57466,128,2,57855:0:0:0:0:
448,192,57855,1,2,0:0:0:0:
192,192,58050,1,0,0:0:0:0:
320,192,58245,1,2,0:0:0:0:
64,192,58440,1,0,0:0:0:0:
448,192,58635,1,2,0:0:0:0:
64,192,58829,1,0,0:0:0:0:
320,192,59024,1,2,0:0:0:0:
192,192,59219,1,0,0:0:0:0:
448,192,59414,1,2,0:0:0:0:
192,192,59609,1,2,0:0:0:0:
320,192,59804,1,2,0:0:0:0:
64,192,59998,1,2,0:0:0:0:
320,192,60193,1,2,0:0:0:0:
448,192,60388,128,2,60972:0:0:0:0:
64,192,60972,1,0,0:0:0:0:
192,192,61167,1,0,0:0:0:0:
448,192,61362,1,2,0:0:0:0:
192,192,61557,1,0,0:0:0:0:
320,192,61752,1,2,0:0:0:0:
64,192,61946,1,0,0:0:0:0:
448,192,62141,1,2,0:0:0:0:
64,192,62336,1,0,0:0:0:0:
320,192,62531,1,2,0:0:0:0:
64,192,62726,1,0,0:0:0:0:
192,192,62920,1,2,0:0:0:0:
448,192,63115,1,0,0:0:0:0:
192,192,63310,1,2,0:0:0:0:
320,192,63505,1,0,0:0:0:0:
64,192,63700,1,2,0:0:0:0:
448,192,64089,1,2,0:0:0:0:
64,192,64479,1,2,0:0:0:0:
192,192,64868,1,2,0:0:0:0:
320,192,65258,1,2,0:0:0:0:
448,192,65648,1,2,0:0:0:0:
320,192,66037,1,2,0:0:0:0:
192,192,66427,1,2,0:0:0:0:
64,192,66816,1,2,0:0:0:0:
64,192,67206,1,2,0:0:0:0:
448,192,67401,1,0,0:0:0:0:
192,192,67596,1,2,0:0:0:0:
320,192,67791,1,0,0:0:0:0:
64,192,67985,1,2,0:0:0:0:
448,192,68180,1,0,0:0:0:0:
320,192,68375,1,2,0:0:0:0:
64,192,68570,1,0,0:0:0:0:
320,192,68765,1,2,0:0:0:0:
192,192,68959,1,0,0:0:0:0:
448,192,69154,1,2,0:0:0:0:
192,192,69349,1,0,0:0:0:0:
64,192,69544,1,2,0:0:0:0:
448,192,69739,128,0,70323:0:0:0:0:
