osu file format v14

[General]
AudioFilename: audio.mp3
AudioLeadIn: 0
PreviewTime: 54349
Countdown: 0
SampleSet: None
StackLeniency: 0.7
Mode: 3
LetterboxInBreaks: 0
SpecialStyle: 0
WidescreenStoryboard: 1

[Editor]
Bookmarks: 14219,26687,53180,53570,53959,60778,65063,65940
DistanceSpacing: 0.8
BeatDivisor: 4
GridSize: 8
TimelineZoom: 1.7

[Metadata]
Title:Rampage
TitleUnicode:ランペイジ
Artist:paraoka feat. haru*nya
ArtistUnicode:paraoka feat. haru*nya
Creator:[_-Kukkai-_]
Version:Amii's MX
Source:
Tags:
BeatmapID:1352535
BeatmapSetID:615846

[Difficulty]
HPDrainRate:8
CircleSize:4
OverallDifficulty:8
ApproachRate:5
SliderMultiplier:1.4
SliderTickRate:1

[Events]
//Background and Video events
0,0,"cute-smile-anime-headphones-girl-vocaloid-backgrounds.png",0,0
//Break Periods
//Storyboard Layer 0 (Background)
//Storyboard Layer 1 (Fail)
//Storyboard Layer 2 (Pass)
//Storyboard Layer 3 (Foreground)
//Storyboard Sound Samples

[TimingPoints]
1752,389.61038961039,4,2,1,50,1,0
14414,-100,4,2,1,50,0,0
53180,-166.666666666667,4,2,1,50,0,0
53375,-100,4,2,1,50,0,0
53570,-166.666666666667,4,2,1,50,0,0
53765,-100,4,2,1,50,0,0
53959,-166.666666666667,4,2,1,50,0,0
54154,-100,4,2,1,50,0,0
54349,-100,4,2,1,50,0,1
54739,-83.3333333333333,4,1,1,50,0,1
70323,-100,4,2,1,50,0,0

[HitObjects]
64,192,1362,128,0,1752:0:0:0:0:
448,192,1752,128,0,1946:0:0:0:0:
192,192,1752,1,0,0:0:0:0:
320,192,1752,1,0,0:0:0:0:
64,192,1946,1,0,0:0:0:0:
192,192,2044,1,0,0:0:0:0:
320,192,2141,1,0,0:0:0:0:
448,192,2141,1,0,0:0:0:0:
192,192,2336,128,0,2531:0:0:0:0:
320,192,2433,1,0,0:0:0:0:
64,192,2531,1,0,0:0:0:0:
448,192,2531,1,0,0:0:0:0:
320,192,2726,1,0,0:0:0:0:
192,192,2823,1,0,0:0:0:0:
64,192,2920,1,0,0:0:0:0:
448,192,2920,128,0,3115:0:0:0:0:
192,192,3115,1,0,0:0:0:0:
320,192,3213,1,0,0:0:0:0:
192,192,3310,1,0,0:0:0:0:
64,192,3310,128,0,3505:0:0:0:0:
448,192,3505,1,0,0:0:0:0:
192,192,3602,1,0,0:0:0:0:
448,192,3700,1,0,0:0:0:0:
320,192,3700,1,0,0:0:0:0:
192,192,3894,128,0,4089:0:0:0:0:
320,192,3992,1,0,0:0:0:0:
448,192,4089,1,0,0:0:0:0:
64,192,4089,1,0,0:0:0:0:
320,192,4187,1,0,0:0:0:0:
64,192,4284,1,0,0:0:0:0:
192,192,4381,1,0,0:0:0:0:
448,192,4479,1,0,0:0:0:0:
320,192,4479,128,0,4674:0:0:0:0:
192,192,4576,1,0,0:0:0:0:
64,192,4674,1,0,0:0:0:0:
448,192,4771,1,0,0:0:0:0:
320,192,4868,1,0,0:0:0:0:
192,192,4868,128,0,5063:0:0:0:0:
64,192,5063,1,0,0:0:0:0:
448,192,5161,1,0,0:0:0:0:
192,192,5258,1,0,0:0:0:0:
320,192,5258,1,0,0:0:0:0:
448,192,5453,128,0,5648:0:0:0:0:
320,192,5550,1,0,0:0:0:0:
192,192,5648,1,0,0:0:0:0:
64,192,5648,1,0,0:0:0:0:
320,192,5745,1,0,0:0:0:0:
64,192,5842,1,0,0:0:0:0:
192,192,5940,1,0,0:0:0:0:
448,192,6037,1,0,0:0:0:0:
320,192,6037,128,0,6232:0:0:0:0:
64,192,6135,1,0,0:0:0:0:
192,192,6232,1,0,0:0:0:0:
448,192,6329,1,0,0:0:0:0:
320,192,6427,1,0,0:0:0:0:
64,192,6427,128,0,6622:0:0:0:0:
192,192,6622,1,0,0:0:0:0:
448,192,6719,1,0,0:0:0:0:
192,192,6816,1,0,0:0:0:0:
320,192,6816,1,0,0:0:0:0:
448,192,7011,128,0,7206:0:0:0:0:
320,192,7109,1,0,0:0:0:0:
64,192,7206,1,0,0:0:0:0:
192,192,7206,1,0,0:0:0:0:
320,192,7304,1,0,0:0:0:0:
64,192,7401,128,0,7498:0:0:0:0:
448,192,7498,1,0,0:0:0:0:
320,192,7498,1,0,0:0:0:0:
64,192,7596,128,0,7791:0:0:0:0:
192,192,7596,1,0,0:0:0:0:
320,192,7693,1,0,0:0:0:0:
448,192,7791,1,0,0:0:0:0:
192,192,7791,1,0,0:0:0:0:
64,192,7985,1,0,0:0:0:0:
448,192,7985,1,0,0:0:0:0:
320,192,7985,128,0,8180:0:0:0:0:
192,192,8180,1,0,0:0:0:0:
448,192,8278,1,0,0:0:0:0:
320,192,8375,1,0,0:0:0:0:
64,192,8375,1,0,0:0:0:0:
192,192,8570,128,0,8765:0:0:0:0:
320,192,8667,1,0,0:0:0:0:
448,192,8765,1,0,0:0:0:0:
64,192,8765,1,0,0:0:0:0:
192,192,8862,1,0,0:0:0:0:
320,192,8959,1,0,0:0:0:0:
192,192,9057,1,0,0:0:0:0:
448,192,9154,128,0,9349:0:0:0:0:
64,192,9154,1,0,0:0:0:0:
192,192,9349,1,0,0:0:0:0:
320,192,9446,1,0,0:0:0:0:
192,192,9544,1,0,0:0:0:0:
64,192,9544,128,0,9739:0:0:0:0:
320,192,9739,1,0,0:0:0:0:
448,192,9836,1,0,0:0:0:0:
64,192,9933,1,0,0:0:0:0:
192,192,9933,1,0,0:0:0:0:
448,192,10128,128,0,10323:0:0:0:0:
64,192,10226,1,0,0:0:0:0:
192,192,10323,1,0,0:0:0:0:
320,192,10323,1,0,0:0:0:0:
64,192,10420,1,0,0:0:0:0:
448,192,10518,1,0,0:0:0:0:
320,192,10615,1,0,0:0:0:0:
192,192,10713,1,0,0:0:0:0:
64,192,10713,128,0,10907:0:0:0:0:
320,192,10810,1,0,0:0:0:0:
448,192,10907,1,0,0:0:0:0:
192,192,11005,1,0,0:0:0:0:
448,192,11102,1,0,0:0:0:0:
320,192,11102,128,0,11297:0:0:0:0:
64,192,11297,1,0,0:0:0:0:
448,192,11394,1,0,0:0:0:0:
320,192,11492,1,0,0:0:0:0:
192,192,11492,1,0,0:0:0:0:
448,192,11687,128,0,11881:0:0:0:0:
320,192,11784,1,0,0:0:0:0:
192,192,11881,1,0,0:0:0:0:
64,192,11881,1,0,0:0:0:0:
320,192,12076,1,0,0:0:0:0:
192,192,12174,1,0,0:0:0:0:
64,192,12271,128,0,12466:0:0:0:0:
448,192,12271,1,0,0:0:0:0:
192,192,12368,1,0,0:0:0:0:
448,192,12466,1,0,0:0:0:0:
320,192,12466,1,0,0:0:0:0:
64,192,12563,1,0,0:0:0:0:
192,192,12563,1,0,0:0:0:0:
320,192,12661,1,0,0:0:0:0:
448,192,12661,1,0,0:0:0:0:
64,192,12758,1,0,0:0:0:0:
192,192,12855,1,0,0:0:0:0:
320,192,12855,1,0,0:0:0:0:
448,192,12953,1,0,0:0:0:0:
320,192,13050,1,0,0:0:0:0:
64,192,13050,1,0,0:0:0:0:
320,192,13245,1,0,0:0:0:0:
448,192,13245,1,0,0:0:0:0:
192,192,13342,1,0,0:0:0:0:
64,192,13342,1,0,0:0:0:0:
320,192,13440,1,0,0:0:0:0:
448,192,13440,1,0,0:0:0:0:
192,192,13635,1,0,0:0:0:0:
64,192,13635,1,0,0:0:0:0:
448,192,13732,1,0,0:0:0:0:
320,192,13732,1,0,0:0:0:0:
192,192,13829,1,0,0:0:0:0:
64,192,13829,1,0,0:0:0:0:
320,192,13927,1,0,0:0:0:0:
448,192,13927,1,0,0:0:0:0:
192,192,14024,1,0,0:0:0:0:
64,192,14024,1,0,0:0:0:0:
320,192,14122,1,0,0:0:0:0:
448,192,14122,1,0,0:0:0:0:
192,192,14219,1,0,0:0:0:0:
64,192,14219,1,0,0:0:0:0:
448,192,14414,1,0,0:0:0:0:
64,192,14511,1,0,0:0:0:0:
192,192,14609,1,0,0:0:0:0:
320,192,14609,1,0,0:0:0:0:
64,192,14804,1,0,0:0:0:0:
192,192,14901,1,0,0:0:0:0:
320,192,14998,1,0,0:0:0:0:
448,192,14998,1,0,0:0:0:0:
192,192,15096,1,0,0:0:0:0:
64,192,15193,1,0,0:0:0:0:
448,192,15291,1,0,0:0:0:0:
320,192,15388,1,0,0:0:0:0:
192,192,15388,1,0,0:0:0:0:
64,192,15485,1,0,0:0:0:0:
192,192,15583,1,0,0:0:0:0:
448,192,15680,1,0,0:0:0:0:
320,192,15778,1,0,0:0:0:0:
64,192,15778,1,0,0:0:0:0:
192,192,15875,1,0,0:0:0:0:
320,192,15972,1,0,0:0:0:0:
448,192,16070,1,0,0:0:0:0:
192,192,16167,1,0,0:0:0:0:
64,192,16167,1,0,0:0:0:0:
320,192,16265,1,0,0:0:0:0:
192,192,16362,1,0,0:0:0:0:
64,192,16459,1,0,0:0:0:0:
320,192,16557,1,0,0:0:0:0:
448,192,16557,1,0,0:0:0:0:
192,192,16752,1,0,0:0:0:0:
320,192,16849,1,0,0:0:0:0:
64,192,16946,1,0,0:0:0:0:
448,192,16946,1,0,0:0:0:0:
192,192,17044,1,0,0:0:0:0:
320,192,17141,1,0,0:0:0:0:
192,192,17239,1,0,0:0:0:0:
64,192,17336,1,0,0:0:0:0:
320,192,17336,1,0,0:0:0:0:
448,192,17433,1,0,0:0:0:0:
192,192,17531,1,0,0:0:0:0:
320,192,17628,1,0,0:0:0:0:
448,192,17726,1,0,0:0:0:0:
192,192,17726,1,0,0:0:0:0:
64,192,17823,1,0,0:0:0:0:
320,192,17920,1,0,0:0:0:0:
192,192,18018,1,0,0:0:0:0:
320,192,18115,1,0,0:0:0:0:
448,192,18115,1,0,0:0:0:0:
64,192,18213,1,0,0:0:0:0:
448,192,18310,1,0,0:0:0:0:
320,192,18407,1,0,0:0:0:0:
192,192,18505,1,0,0:0:0:0:
64,192,18505,1,0,0:0:0:0:
320,192,18602,1,0,0:0:0:0:
448,192,18700,1,0,0:0:0:0:
192,192,18797,1,0,0:0:0:0:
320,192,18894,1,0,0:0:0:0:
64,192,18894,1,0,0:0:0:0:
448,192,18992,1,0,0:0:0:0:
192,192,19089,1,0,0:0:0:0:
320,192,19187,1,0,0:0:0:0:
448,192,19187,1,0,0:0:0:0:
192,192,19284,1,0,0:0:0:0:
64,192,19284,1,0,0:0:0:0:
320,192,19381,1,0,0:0:0:0:
448,192,19479,1,0,0:0:0:0:
192,192,19576,1,0,0:0:0:0:
64,192,19576,1,0,0:0:0:0:
320,192,19674,1,0,0:0:0:0:
448,192,19674,1,0,0:0:0:0:
64,192,19771,1,0,0:0:0:0:
192,192,19868,1,0,0:0:0:0:
320,192,19868,1,0,0:0:0:0:
448,192,19966,1,0,0:0:0:0:
192,192,20063,1,0,0:0:0:0:
64,192,20063,1,0,0:0:0:0:
320,192,20161,1,0,0:0:0:0:
448,192,20161,1,0,0:0:0:0:
192,192,20258,1,0,0:0:0:0:
64,192,20258,1,0,0:0:0:0:
320,192,20355,1,0,0:0:0:0:
448,192,20355,1,0,0:0:0:0:
192,192,20453,1,0,0:0:0:0:
64,192,20453,1,0,0:0:0:0:
320,192,20648,1,0,0:0:0:0:
192,192,20745,1,0,0:0:0:0:
320,192,20842,1,0,0:0:0:0:
448,192,20842,1,0,0:0:0:0:
64,192,20940,1,0,0:0:0:0:
192,192,21037,1,0,0:0:0:0:
320,192,21135,1,0,0:0:0:0:
192,192,21232,1,0,0:0:0:0:
64,192,21232,1,0,0:0:0:0:
448,192,21329,1,0,0:0:0:0:
64,192,21427,1,0,0:0:0:0:
192,192,21524,1,0,0:0:0:0:
320,192,21622,1,0,0:0:0:0:
448,192,21622,1,0,0:0:0:0:
192,192,21719,1,0,0:0:0:0:
64,192,21816,1,0,0:0:0:0:
448,192,21914,1,0,0:0:0:0:
320,192,22011,1,0,0:0:0:0:
64,192,22011,1,0,0:0:0:0:
192,192,22109,1,0,0:0:0:0:
448,192,22206,1,0,0:0:0:0:
320,192,22304,1,0,0:0:0:0:
192,192,22401,1,0,0:0:0:0:
64,192,22401,1,0,0:0:0:0:
448,192,22498,1,0,0:0:0:0:
320,192,22596,1,0,0:0:0:0:
192,192,22693,1,0,0:0:0:0:
320,192,22791,1,0,0:0:0:0:
448,192,22791,1,0,0:0:0:0:
64,192,22985,1,0,0:0:0:0:
192,192,23083,1,0,0:0:0:0:
320,192,23180,1,0,0:0:0:0:
448,192,23180,1,0,0:0:0:0:
192,192,23375,1,0,0:0:0:0:
320,192,23375,1,0,0:0:0:0:
448,192,23472,1,0,0:0:0:0:
192,192,23570,1,0,0:0:0:0:
64,192,23570,1,0,0:0:0:0:
320,192,23667,1,0,0:0:0:0:
192,192,23765,1,0,0:0:0:0:
320,192,23862,1,0,0:0:0:0:
64,192,23959,1,0,0:0:0:0:
448,192,23959,1,0,0:0:0:0:
320,192,24057,1,0,0:0:0:0:
192,192,24154,1,0,0:0:0:0:
448,192,24252,1,0,0:0:0:0:
64,192,24252,1,0,0:0:0:0:
192,192,24349,1,0,0:0:0:0:
320,192,24349,1,0,0:0:0:0:
448,192,24446,1,0,0:0:0:0:
192,192,24544,1,0,0:0:0:0:
64,192,24544,1,0,0:0:0:0:
320,192,24641,1,0,0:0:0:0:
448,192,24739,1,0,0:0:0:0:
64,192,24739,1,0,0:0:0:0:
320,192,24836,1,0,0:0:0:0:
192,192,24836,1,0,0:0:0:0:
64,192,24933,1,0,0:0:0:0:
448,192,24933,1,0,0:0:0:0:
192,192,25031,1,0,0:0:0:0:
320,192,25128,1,0,0:0:0:0:
448,192,25128,1,0,0:0:0:0:
192,192,25226,1,0,0:0:0:0:
64,192,25226,1,0,0:0:0:0:
320,192,25323,1,0,0:0:0:0:
448,192,25323,1,0,0:0:0:0:
192,192,25420,1,0,0:0:0:0:
64,192,25420,1,0,0:0:0:0:
448,192,25518,128,0,25713:0:0:0:0:
320,192,25518,128,0,25713:0:0:0:0:
192,192,25713,1,0,0:0:0:0:
64,192,25713,1,0,0:0:0:0:
320,192,25810,1,0,0:0:0:0:
448,192,25810,1,0,0:0:0:0:
192,192,25907,1,0,0:0:0:0:
64,192,25907,1,0,0:0:0:0:
320,192,26005,1,0,0:0:0:0:
448,192,26005,1,0,0:0:0:0:
192,192,26102,128,0,26297:0:0:0:0:
64,192,26102,128,0,26297:0:0:0:0:
320,192,26297,128,0,26492:0:0:0:0:
448,192,26297,128,0,26687:0:0:0:0:
64,192,26492,128,0,26687:0:0:0:0:
192,192,26492,1,0,0:0:0:0:
192,192,26687,1,0,0:0:0:0:
320,192,26687,1,0,0:0:0:0:
320,192,26881,1,0,0:0:0:0:
192,192,26979,1,0,0:0:0:0:
320,192,27076,1,0,0:0:0:0:
448,192,27076,1,0,0:0:0:0:
64,192,27271,1,0,0:0:0:0:
448,192,27368,1,0,0:0:0:0:
320,192,27466,1,0,0:0:0:0:
192,192,27466,1,0,0:0:0:0:
448,192,27661,1,0,0:0:0:0:
320,192,27758,1,0,0:0:0:0:
192,192,27855,1,0,0:0:0:0:
64,192,27855,1,0,0:0:0:0:
320,192,28050,1,0,0:0:0:0:
448,192,28148,1,0,0:0:0:0:
320,192,28245,1,0,0:0:0:0:
64,192,28245,1,0,0:0:0:0:
192,192,28440,1,0,0:0:0:0:
320,192,28537,1,0,0:0:0:0:
64,192,28635,1,0,0:0:0:0:
448,192,28635,1,0,0:0:0:0:
320,192,28829,1,0,0:0:0:0:
64,192,28927,1,0,0:0:0:0:
448,192,29024,1,0,0:0:0:0:
192,192,29024,1,0,0:0:0:0:
320,192,29219,1,0,0:0:0:0:
192,192,29316,1,0,0:0:0:0:
64,192,29414,1,0,0:0:0:0:
448,192,29414,1,0,0:0:0:0:
192,192,29609,1,0,0:0:0:0:
320,192,29706,1,0,0:0:0:0:
192,192,29803,1,0,0:0:0:0:
64,192,29803,1,0,0:0:0:0:
448,192,29998,1,0,0:0:0:0:
320,192,30096,1,0,0:0:0:0:
448,192,30193,1,0,0:0:0:0:
192,192,30193,1,0,0:0:0:0:
64,192,30388,1,0,0:0:0:0:
192,192,30485,1,0,0:0:0:0:
320,192,30583,1,0,0:0:0:0:
448,192,30583,1,0,0:0:0:0:
64,192,30777,1,0,0:0:0:0:
448,192,30875,1,0,0:0:0:0:
192,192,30972,1,0,0:0:0:0:
320,192,30972,1,0,0:0:0:0:
448,192,31167,1,0,0:0:0:0:
320,192,31264,1,0,0:0:0:0:
192,192,31362,1,0,0:0:0:0:
64,192,31362,1,0,0:0:0:0:
320,192,31557,1,0,0:0:0:0:
192,192,31654,1,0,0:0:0:0:
320,192,31752,1,0,0:0:0:0:
448,192,31752,1,0,0:0:0:0:
64,192,31946,1,0,0:0:0:0:
320,192,32044,1,0,0:0:0:0:
448,192,32141,1,0,0:0:0:0:
192,192,32141,1,0,0:0:0:0:
64,192,32336,1,0,0:0:0:0:
320,192,32433,1,0,0:0:0:0:
448,192,32433,1,0,0:0:0:0:
192,192,32531,1,0,0:0:0:0:
64,192,32531,1,0,0:0:0:0:
192,192,32726,1,0,0:0:0:0:
320,192,32726,1,0,0:0:0:0:
448,192,32920,1,0,0:0:0:0:
320,192,32920,1,0,0:0:0:0:
64,192,33115,1,0,0:0:0:0:
320,192,33213,1,0,0:0:0:0:
192,192,33310,1,0,0:0:0:0:
64,192,33310,1,0,0:0:0:0:
448,192,33505,1,0,0:0:0:0:
64,192,33602,1,0,0:0:0:0:
192,192,33700,1,0,0:0:0:0:
320,192,33700,1,0,0:0:0:0:
64,192,33894,1,0,0:0:0:0:
192,192,33992,1,0,0:0:0:0:
320,192,34089,1,0,0:0:0:0:
448,192,34089,1,0,0:0:0:0:
192,192,34284,1,0,0:0:0:0:
64,192,34381,1,0,0:0:0:0:
192,192,34479,1,0,0:0:0:0:
448,192,34479,1,0,0:0:0:0:
320,192,34674,1,0,0:0:0:0:
192,192,34771,1,0,0:0:0:0:
448,192,34868,1,0,0:0:0:0:
64,192,34868,1,0,0:0:0:0:
192,192,35063,1,0,0:0:0:0:
448,192,35161,1,0,0:0:0:0:
64,192,35258,1,0,0:0:0:0:
320,192,35258,1,0,0:0:0:0:
192,192,35453,1,0,0:0:0:0:
320,192,35550,1,0,0:0:0:0:
448,192,35648,1,0,0:0:0:0:
64,192,35648,1,0,0:0:0:0:
320,192,35842,1,0,0:0:0:0:
192,192,35940,1,0,0:0:0:0:
320,192,36037,1,0,0:0:0:0:
448,192,36037,1,0,0:0:0:0:
64,192,36232,1,0,0:0:0:0:
192,192,36329,1,0,0:0:0:0:
64,192,36427,1,0,0:0:0:0:
320,192,36427,1,0,0:0:0:0:
448,192,36622,1,0,0:0:0:0:
320,192,36719,1,0,0:0:0:0:
192,192,36816,1,0,0:0:0:0:
64,192,36816,1,0,0:0:0:0:
448,192,37011,1,0,0:0:0:0:
64,192,37109,1,0,0:0:0:0:
320,192,37206,1,0,0:0:0:0:
192,192,37206,1,0,0:0:0:0:
64,192,37401,1,0,0:0:0:0:
192,192,37498,1,0,0:0:0:0:
320,192,37596,1,0,0:0:0:0:
448,192,37596,1,0,0:0:0:0:
192,192,37790,1,0,0:0:0:0:
320,192,37888,1,0,0:0:0:0:
192,192,37985,1,0,0:0:0:0:
64,192,37985,1,0,0:0:0:0:
448,192,38180,1,0,0:0:0:0:
192,192,38277,1,0,0:0:0:0:
64,192,38277,1,0,0:0:0:0:
320,192,38375,1,0,0:0:0:0:
448,192,38375,1,0,0:0:0:0:
192,192,38472,1,0,0:0:0:0:
64,192,38472,1,0,0:0:0:0:
320,192,38570,1,0,0:0:0:0:
448,192,38570,1,0,0:0:0:0:
64,192,38764,1,0,0:0:0:0:
448,192,38764,1,0,0:0:0:0:
320,192,38862,1,0,0:0:0:0:
192,192,38862,1,0,0:0:0:0:
64,192,38959,1,0,0:0:0:0:
448,192,38959,1,0,0:0:0:0:
320,192,39154,1,0,0:0:0:0:
192,192,39154,1,0,0:0:0:0:
64,192,39349,1,0,0:0:0:0:
192,192,39446,1,0,0:0:0:0:
320,192,39544,1,0,0:0:0:0:
448,192,39544,1,0,0:0:0:0:
448,192,39739,1,0,0:0:0:0:
320,192,39836,1,0,0:0:0:0:
192,192,39933,1,0,0:0:0:0:
64,192,39933,1,0,0:0:0:0:
192,192,40128,1,0,0:0:0:0:
320,192,40226,1,0,0:0:0:0:
448,192,40323,1,0,0:0:0:0:
64,192,40323,1,0,0:0:0:0:
320,192,40518,1,0,0:0:0:0:
192,192,40615,1,0,0:0:0:0:
64,192,40713,1,0,0:0:0:0:
448,192,40713,1,0,0:0:0:0:
192,192,40907,1,0,0:0:0:0:
320,192,41005,1,0,0:0:0:0:
192,192,41102,1,0,0:0:0:0:
64,192,41102,1,0,0:0:0:0:
320,192,41297,1,0,0:0:0:0:
192,192,41394,1,0,0:0:0:0:
320,192,41492,1,0,0:0:0:0:
448,192,41492,1,0,0:0:0:0:
64,192,41687,1,0,0:0:0:0:
320,192,41784,1,0,0:0:0:0:
448,192,41784,1,0,0:0:0:0:
192,192,41881,1,0,0:0:0:0:
64,192,41881,1,0,0:0:0:0:
320,192,42076,1,0,0:0:0:0:
192,192,42076,1,0,0:0:0:0:
448,192,42271,1,0,0:0:0:0:
64,192,42271,1,0,0:0:0:0:
320,192,42466,1,0,0:0:0:0:
192,192,42563,1,0,0:0:0:0:
64,192,42661,1,0,0:0:0:0:
448,192,42661,1,0,0:0:0:0:
192,192,42855,1,0,0:0:0:0:
320,192,42953,1,0,0:0:0:0:
448,192,43050,1,0,0:0:0:0:
64,192,43050,1,0,0:0:0:0:
320,192,43245,1,0,0:0:0:0:
192,192,43342,1,0,0:0:0:0:
320,192,43440,1,0,0:0:0:0:
448,192,43440,1,0,0:0:0:0:
192,192,43635,1,0,0:0:0:0:
320,192,43732,1,0,0:0:0:0:
192,192,43829,1,0,0:0:0:0:
64,192,43829,1,0,0:0:0:0:
64,192,44024,1,0,0:0:0:0:
192,192,44122,1,0,0:0:0:0:
448,192,44219,1,0,0:0:0:0:
320,192,44219,1,0,0:0:0:0:
448,192,44414,1,0,0:0:0:0:
320,192,44511,1,0,0:0:0:0:
64,192,44609,1,0,0:0:0:0:
192,192,44609,1,0,0:0:0:0:
320,192,44803,1,0,0:0:0:0:
192,192,44901,1,0,0:0:0:0:
64,192,44901,1,0,0:0:0:0:
320,192,44998,1,0,0:0:0:0:
448,192,44998,1,0,0:0:0:0:
448,192,45193,1,0,0:0:0:0:
192,192,45193,1,0,0:0:0:0:
64,192,45388,1,0,0:0:0:0:
320,192,45388,1,0,0:0:0:0:
192,192,45583,1,0,0:0:0:0:
320,192,45680,1,0,0:0:0:0:
192,192,45777,1,0,0:0:0:0:
64,192,45777,1,0,0:0:0:0:
448,192,45972,1,0,0:0:0:0:
192,192,46070,1,0,0:0:0:0:
448,192,46167,1,0,0:0:0:0:
320,192,46167,1,0,0:0:0:0:
64,192,46362,1,0,0:0:0:0:
320,192,46459,1,0,0:0:0:0:
448,192,46459,1,0,0:0:0:0:
192,192,46557,1,0,0:0:0:0:
64,192,46557,1,0,0:0:0:0:
320,192,46752,1,0,0:0:0:0:
192,192,46849,1,0,0:0:0:0:
64,192,46946,1,0,0:0:0:0:
448,192,46946,1,0,0:0:0:0:
192,192,47141,1,0,0:0:0:0:
320,192,47239,1,0,0:0:0:0:
192,192,47336,1,0,0:0:0:0:
64,192,47336,1,0,0:0:0:0:
448,192,47531,1,0,0:0:0:0:
192,192,47628,1,0,0:0:0:0:
320,192,47726,1,0,0:0:0:0:
64,192,47726,1,0,0:0:0:0:
448,192,47920,1,0,0:0:0:0:
320,192,48018,1,0,0:0:0:0:
192,192,48115,1,0,0:0:0:0:
64,192,48115,1,0,0:0:0:0:
320,192,48213,1,0,0:0:0:0:
448,192,48213,1,0,0:0:0:0:
192,192,48310,1,0,0:0:0:0:
64,192,48310,1,0,0:0:0:0:
320,192,48407,1,0,0:0:0:0:
448,192,48407,1,0,0:0:0:0:
64,192,48505,1,0,0:0:0:0:
192,192,48505,1,0,0:0:0:0:
320,192,48700,1,0,0:0:0:0:
192,192,48797,1,0,0:0:0:0:
448,192,48894,1,0,0:0:0:0:
320,192,48894,1,0,0:0:0:0:
64,192,49089,1,0,0:0:0:0:
448,192,49187,1,0,0:0:0:0:
192,192,49284,1,0,0:0:0:0:
320,192,49284,1,0,0:0:0:0:
448,192,49479,1,0,0:0:0:0:
320,192,49576,1,0,0:0:0:0:
64,192,49674,1,0,0:0:0:0:
192,192,49674,1,0,0:0:0:0:
320,192,49868,1,0,0:0:0:0:
448,192,49966,1,0,0:0:0:0:
64,192,50063,1,0,0:0:0:0:
320,192,50063,1,0,0:0:0:0:
192,192,50258,1,0,0:0:0:0:
320,192,50355,1,0,0:0:0:0:
448,192,50453,1,0,0:0:0:0:
64,192,50453,1,0,0:0:0:0:
320,192,50648,1,0,0:0:0:0:
64,192,50745,1,0,0:0:0:0:
192,192,50842,1,0,0:0:0:0:
448,192,50842,1,0,0:0:0:0:
320,192,51037,1,0,0:0:0:0:
192,192,51135,1,0,0:0:0:0:
448,192,51232,1,0,0:0:0:0:
64,192,51232,1,0,0:0:0:0:
192,192,51427,1,0,0:0:0:0:
320,192,51524,1,0,0:0:0:0:
64,192,51622,1,0,0:0:0:0:
192,192,51622,1,0,0:0:0:0:
448,192,51816,1,0,0:0:0:0:
320,192,51914,1,0,0:0:0:0:
192,192,52011,1,0,0:0:0:0:
448,192,52011,1,0,0:0:0:0:
64,192,52206,1,0,0:0:0:0:
192,192,52303,1,0,0:0:0:0:
448,192,52401,1,0,0:0:0:0:
320,192,52401,1,0,0:0:0:0:
192,192,52498,1,0,0:0:0:0:
64,192,52596,1,0,0:0:0:0:
448,192,52596,1,0,0:0:0:0:
320,192,52693,1,0,0:0:0:0:
192,192,52790,1,0,0:0:0:0:
64,192,52790,1,0,0:0:0:0:
320,192,52888,1,0,0:0:0:0:
448,192,52985,1,0,0:0:0:0:
64,192,52985,1,0,0:0:0:0:
192,192,53083,1,0,0:0:0:0:
320,192,53180,128,0,53472:0:0:0:0:
448,192,53180,128,0,53472:0:0:0:0:
64,192,53180,128,0,53472:0:0:0:0:
64,192,53570,128,0,53862:0:0:0:0:
192,192,53570,128,0,53862:0:0:0:0:
448,192,53570,128,0,53862:0:0:0:0:
64,192,53959,128,0,54252:0:0:0:0:
192,192,53959,128,0,54252:0:0:0:0:
320,192,53959,128,0,54252:0:0:0:0:
448,192,54349,128,0,54641:0:0:0:0:
320,192,54349,128,0,54641:0:0:0:0:
192,192,54349,128,0,54641:0:0:0:0:
64,192,54739,1,0,0:0:0:0:
320,192,54739,1,0,0:0:0:0:
448,192,54739,1,0,0:0:0:0:
192,192,54933,1,0,0:0:0:0:
448,192,55031,1,0,0:0:0:0:
320,192,55031,1,0,0:0:0:0:
192,192,55128,1,0,0:0:0:0:
64,192,55128,1,0,0:0:0:0:
320,192,55323,1,0,0:0:0:0:
192,192,55420,1,0,0:0:0:0:
320,192,55518,1,0,0:0:0:0:
448,192,55518,1,0,0:0:0:0:
64,192,55713,1,0,0:0:0:0:
448,192,55713,1,0,0:0:0:0:
320,192,55810,1,0,0:0:0:0:
192,192,55907,1,0,0:0:0:0:
64,192,55907,1,0,0:0:0:0:
320,192,56102,1,0,0:0:0:0:
192,192,56200,1,0,0:0:0:0:
448,192,56297,1,0,0:0:0:0:
64,192,56297,1,0,0:0:0:0:
192,192,56492,1,0,0:0:0:0:
320,192,56589,1,0,0:0:0:0:
448,192,56589,1,0,0:0:0:0:
192,192,56687,1,0,0:0:0:0:
64,192,56687,1,0,0:0:0:0:
448,192,56881,1,0,0:0:0:0:
320,192,56979,1,0,0:0:0:0:
64,192,56979,1,0,0:0:0:0:
192,192,57076,1,0,0:0:0:0:
448,192,57076,1,0,0:0:0:0:
64,192,57271,1,0,0:0:0:0:
320,192,57271,1,0,0:0:0:0:
192,192,57368,1,0,0:0:0:0:
320,192,57466,1,0,0:0:0:0:
448,192,57466,1,0,0:0:0:0:
192,192,57661,1,0,0:0:0:0:
320,192,57661,1,0,0:0:0:0:
64,192,57758,1,0,0:0:0:0:
192,192,57855,1,0,0:0:0:0:
448,192,57855,1,0,0:0:0:0:
64,192,58050,1,0,0:0:0:0:
320,192,58148,1,0,0:0:0:0:
448,192,58148,1,0,0:0:0:0:
192,192,58245,1,0,0:0:0:0:
64,192,58245,1,0,0:0:0:0:
448,192,58440,1,0,0:0:0:0:
192,192,58537,1,0,0:0:0:0:
64,192,58537,1,0,0:0:0:0:
320,192,58635,1,0,0:0:0:0:
448,192,58635,1,0,0:0:0:0:
64,192,58829,1,0,0:0:0:0:
192,192,58829,1,0,0:0:0:0:
320,192,58927,1,0,0:0:0:0:
192,192,59024,1,0,0:0:0:0:
448,192,59024,1,0,0:0:0:0:
320,192,59219,1,0,0:0:0:0:
448,192,59219,1,0,0:0:0:0:
192,192,59316,1,0,0:0:0:0:
64,192,59414,1,0,0:0:0:0:
320,192,59414,1,0,0:0:0:0:
448,192,59609,1,0,0:0:0:0:
320,192,59706,1,0,0:0:0:0:
192,192,59706,1,0,0:0:0:0:
64,192,59803,1,0,0:0:0:0:
448,192,59803,1,0,0:0:0:0:
320,192,59998,1,0,0:0:0:0:
64,192,59998,1,0,0:0:0:0:
192,192,60096,1,0,0:0:0:0:
448,192,60096,1,0,0:0:0:0:
320,192,60193,1,0,0:0:0:0:
64,192,60193,1,0,0:0:0:0:
64,192,60388,1,0,0:0:0:0:
448,192,60388,1,0,0:0:0:0:
320,192,60485,1,0,0:0:0:0:
192,192,60485,1,0,0:0:0:0:
64,192,60583,1,0,0:0:0:0:
448,192,60583,1,0,0:0:0:0:
320,192,60680,1,0,0:0:0:0:
192,192,60680,1,0,0:0:0:0:
448,192,60777,1,0,0:0:0:0:
64,192,60777,1,0,0:0:0:0:
192,192,60875,1,0,0:0:0:0:
320,192,60875,1,0,0:0:0:0:
64,192,60972,1,0,0:0:0:0:
448,192,60972,1,0,0:0:0:0:
320,192,61167,1,0,0:0:0:0:
64,192,61264,1,0,0:0:0:0:
192,192,61264,1,0,0:0:0:0:
448,192,61362,1,0,0:0:0:0:
320,192,61362,1,0,0:0:0:0:
192,192,61557,1,0,0:0:0:0:
320,192,61654,1,0,0:0:0:0:
448,192,61654,1,0,0:0:0:0:
192,192,61752,1,0,0:0:0:0:
64,192,61752,1,0,0:0:0:0:
320,192,61946,1,0,0:0:0:0:
192,192,61946,1,0,0:0:0:0:
448,192,62044,1,0,0:0:0:0:
64,192,62141,1,0,0:0:0:0:
320,192,62141,1,0,0:0:0:0:
192,192,62336,1,0,0:0:0:0:
448,192,62336,1,0,0:0:0:0:
64,192,62433,1,0,0:0:0:0:
320,192,62531,1,0,0:0:0:0:
448,192,62531,1,0,0:0:0:0:
192,192,62726,1,0,0:0:0:0:
320,192,62823,1,0,0:0:0:0:
448,192,62823,1,0,0:0:0:0:
192,192,62920,1,0,0:0:0:0:
64,192,62920,1,0,0:0:0:0:
320,192,63115,1,0,0:0:0:0:
64,192,63213,1,0,0:0:0:0:
448,192,63213,1,0,0:0:0:0:
320,192,63310,1,0,0:0:0:0:
192,192,63310,1,0,0:0:0:0:
64,192,63505,1,0,0:0:0:0:
448,192,63505,1,0,0:0:0:0:
192,192,63602,1,0,0:0:0:0:
320,192,63700,1,0,0:0:0:0:
448,192,63700,1,0,0:0:0:0:
192,192,63894,1,0,0:0:0:0:
64,192,63894,1,0,0:0:0:0:
320,192,63992,1,0,0:0:0:0:
448,192,64089,1,0,0:0:0:0:
64,192,64089,1,0,0:0:0:0:
192,192,64284,1,0,0:0:0:0:
320,192,64381,1,0,0:0:0:0:
64,192,64381,1,0,0:0:0:0:
448,192,64479,1,0,0:0:0:0:
192,192,64479,1,0,0:0:0:0:
320,192,64674,1,0,0:0:0:0:
192,192,64771,1,0,0:0:0:0:
64,192,64771,1,0,0:0:0:0:
320,192,64868,1,0,0:0:0:0:
448,192,64868,1,0,0:0:0:0:
320,192,65063,1,0,0:0:0:0:
192,192,65063,1,0,0:0:0:0:
64,192,65258,1,0,0:0:0:0:
192,192,65258,1,0,0:0:0:0:
320,192,65355,1,0,0:0:0:0:
448,192,65355,1,0,0:0:0:0:
192,192,65453,1,0,0:0:0:0:
64,192,65453,1,0,0:0:0:0:
320,192,65550,1,0,0:0:0:0:
448,192,65550,1,0,0:0:0:0:
192,192,65648,1,0,0:0:0:0:
64,192,65648,1,0,0:0:0:0:
320,192,65842,1,0,0:0:0:0:
192,192,65940,1,0,0:0:0:0:
64,192,65940,1,0,0:0:0:0:
320,192,66037,1,0,0:0:0:0:
448,192,66037,1,0,0:0:0:0:
64,192,66232,1,0,0:0:0:0:
448,192,66329,1,0,0:0:0:0:
192,192,66329,1,0,0:0:0:0:
320,192,66427,1,0,0:0:0:0:
64,192,66427,1,0,0:0:0:0:
192,192,66622,1,0,0:0:0:0:
320,192,66622,1,0,0:0:0:0:
64,192,66816,1,0,0:0:0:0:
448,192,66816,1,0,0:0:0:0:
320,192,66914,1,0,0:0:0:0:
192,192,66914,1,0,0:0:0:0:
64,192,67011,1,0,0:0:0:0:
448,192,67011,1,0,0:0:0:0:
192,192,67109,1,0,0:0:0:0:
448,192,67206,1,0,0:0:0:0:
320,192,67206,1,0,0:0:0:0:
192,192,67303,1,0,0:0:0:0:
64,192,67303,1,0,0:0:0:0:
320,192,67401,1,0,0:0:0:0:
448,192,67401,1,0,0:0:0:0:
192,192,67498,1,0,0:0:0:0:
64,192,67498,1,0,0:0:0:0:
320,192,67596,1,0,0:0:0:0:
448,192,67596,1,0,0:0:0:0:
192,192,67790,1,0,0:0:0:0:
64,192,67790,1,0,0:0:0:0:
320,192,67888,1,0,0:0:0:0:
448,192,67888,1,0,0:0:0:0:
192,192,67985,1,0,0:0:0:0:
64,192,67985,1,0,0:0:0:0:
320,192,68083,1,0,0:0:0:0:
448,192,68083,1,0,0:0:0:0:
192,192,68180,1,0,0:0:0:0:
64,192,68180,1,0,0:0:0:0:
64,192,68375,1,0,0:0:0:0:
448,192,68375,1,0,0:0:0:0:
320,192,68472,1,0,0:0:0:0:
192,192,68472,1,0,0:0:0:0:
64,192,68570,1,0,0:0:0:0:
448,192,68570,1,0,0:0:0:0:
320,192,68667,1,0,0:0:0:0:
192,192,68667,1,0,0:0:0:0:
64,192,68764,1,0,0:0:0:0:
448,192,68764,1,0,0:0:0:0:
320,192,68959,1,0,0:0:0:0:
192,192,68959,1,0,0:0:0:0:
64,192,69057,1,0,0:0:0:0:
448,192,69057,1,0,0:0:0:0:
320,192,69154,1,0,0:0:0:0:
192,192,69154,1,0,0:0:0:0:
64,192,69252,1,0,0:0:0:0:
448,192,69252,1,0,0:0:0:0:
320,192,69349,1,0,0:0:0:0:
192,192,69349,1,0,0:0:0:0:
64,192,69544,1,0,0:0:0:0:
448,192,69544,1,0,0:0:0:0:
320,192,69739,1,0,0:0:0:0:
448,192,69739,1,0,0:0:0:0:
192,192,69933,1,0,0:0:0:0:
64,192,69933,1,0,0:0:0:0:
320,192,70031,1,0,0:0:0:0:
448,192,70128,1,0,0:0:0:0:
64,192,70128,1,0,0:0:0:0:
192,192,70226,1,0,0:0:0:0:
320,192,70323,1,0,0:0:0:0:
448,192,70323,1,0,0:0:0:0:
64,192,70323,1,0,0:0:0:0:
