osu file format v14

[General]
AudioFilename: Mani mani.mp3
AudioLeadIn: 0
PreviewTime: 67279
Countdown: 0
SampleSet: Normal
StackLeniency: 0.7
Mode: 1
LetterboxInBreaks: 0
WidescreenStoryboard: 1

[Editor]
DistanceSpacing: 1.8
BeatDivisor: 4
GridSize: 32
TimelineZoom: 2.5

[Metadata]
Title:Manimani
TitleUnicode:まにまに
Artist:paraoka feat. haru*nya
ArtistUnicode:paraoka feat. haru*nya
Creator:Stefan
Version:Oni
Source:
Tags:manima ni mani-mani 麹町養蚕館 koujimachi yousankan マストダイ must die masutodai c73 thenutritiousguy tng
BeatmapID:1773789
BeatmapSetID:600538

[Difficulty]
HPDrainRate:5
CircleSize:5
OverallDifficulty:5
ApproachRate:5
SliderMultiplier:1.4
SliderTickRate:1

[Events]
//Background and Video events
0,0,"bg.jpg",0,-135
//Break Periods
//Storyboard Layer 0 (Background)
//Storyboard Layer 1 (Fail)
//Storyboard Layer 2 (Pass)
//Storyboard Layer 3 (Foreground)
//Storyboard Sound Samples

[TimingPoints]
1117,324.324324324324,4,1,0,70,1,0
5008,-125,4,1,0,70,0,0
13765,-111.111111111111,4,1,0,70,0,0
14738,-108.695652173913,4,1,0,70,0,0
14900,-106.382978723404,4,1,0,70,0,0
14981,-105.263157894737,4,1,0,70,0,0
15062,-104.166666666667,4,1,0,70,0,0
15144,-103.092783505155,4,1,0,70,0,0
15225,-102.040816326531,4,1,0,70,0,0
15387,-100,4,1,0,75,0,0
36468,-105.263157894737,4,1,0,75,0,0
57387,-114.942528735632,4,1,0,75,0,0
64360,-113.636363636364,4,1,0,75,0,0
64522,-112.359550561798,4,1,0,75,0,0
64684,-111.111111111111,4,1,0,75,0,0
65981,-108.695652173913,4,1,0,75,0,0
66144,-106.382978723404,4,1,0,75,0,0
66306,-104.166666666667,4,1,0,75,0,0
66468,-102.040816326531,4,1,0,75,0,0
66630,-100,4,1,0,75,0,0
66954,-66.6666666666667,4,1,0,75,0,0
67279,-90.9090909090909,4,1,0,80,0,1
86738,-90.9090909090909,4,1,0,80,0,0
87225,-95.2380952380952,4,1,0,60,0,0
87711,-95.2380952380952,4,1,0,80,0,0
88035,-100,4,1,0,75,0,0
98738,-105.263157894737,4,1,0,75,0,0
119657,-114.942528735632,4,1,0,75,0,0
126630,-113.636363636364,4,1,0,75,0,0
126792,-112.359550561798,4,1,0,75,0,0
126954,-111.111111111111,4,1,0,75,0,0
128252,-108.695652173913,4,1,0,75,0,0
128414,-106.382978723404,4,1,0,75,0,0
128576,-104.166666666667,4,1,0,75,0,0
128738,-102.040816326531,4,1,0,75,0,0
128900,-100,4,1,0,75,0,0
129224,-66.6666666666667,4,1,0,75,0,0
129549,-90.9090909090909,4,1,0,80,0,1
143819,-95.2380952380952,4,1,0,80,0,0
144144,-100,4,1,0,80,0,0
144468,-83.3333333333333,4,1,0,80,0,0
144630,-85.4700854700855,4,1,0,80,0,0
144711,-86.2068965517241,4,1,0,80,0,0
144792,-86.9565217391304,4,1,0,80,0,0
144873,-87.719298245614,4,1,0,80,0,0
144954,-88.4955752212389,4,1,0,80,0,0
145116,-90.9090909090909,4,1,0,80,0,1
149008,-90.9090909090909,4,1,0,80,0,0
149495,-95.2380952380952,4,1,0,60,0,0
149981,-95.2380952380952,4,1,0,80,0,0
150306,-105.263157894737,4,1,0,80,0,0
159387,-103.092783505155,4,1,0,80,0,0
160684,-100,4,1,0,80,0,0
169441,-96.1538461538461,4,1,0,80,0,0
169765,-91.743119266055,4,1,0,80,0,0
170089,-89.2857142857143,4,1,0,80,0,0
170576,-86.2068965517241,4,1,0,80,0,0
171062,-83.3333333333333,4,1,0,85,0,1
180792,-83.3333333333333,4,1,0,80,0,0
181279,-105.263157894737,4,1,0,70,0,0
188900,-104.166666666667,4,1,0,70,0,0
189062,-103.092783505155,4,1,0,70,0,0
189225,-101.010101010101,4,1,0,80,0,0
189387,-99.009900990099,4,1,0,80,0,0
189549,-97.0873786407767,4,1,0,80,0,0
189873,-95.2380952380952,4,1,0,80,0,0
190035,-93.4579439252336,4,1,0,80,0,0
190198,-91.743119266055,4,1,0,80,0,0
190360,-90.9090909090909,4,1,0,80,0,0
190846,-90.0900900900901,4,1,0,80,0,0
191008,-89.2857142857143,4,1,0,80,0,0
191171,-88.4955752212389,4,1,0,80,0,0
191657,-87.719298245614,4,1,0,80,0,0
191819,-86.9565217391304,4,1,0,80,0,0
192144,-86.9565217391304,4,1,0,80,0,1
211279,-86.9565217391304,4,1,0,75,0,0
211765,-90.9090909090909,4,1,0,75,0,0
212576,-95.2380952380952,4,1,0,75,0,0
220360,-94.3396226415094,4,1,0,75,0,0
221008,-93.4579439252336,4,1,0,75,0,0
221657,-92.5925925925926,4,1,0,75,0,0
221981,-91.743119266055,4,1,0,75,0,0
222306,-90.9090909090909,4,1,0,75,0,0
222954,-90.9090909090909,4,1,0,80,0,1
225225,-93.4579439252336,4,1,0,80,0,1
225387,-94.3396226415094,4,1,0,80,0,1
225549,-95.2380952380952,4,1,0,80,0,1
227819,-92.5925925925926,4,1,0,80,0,1
227981,-91.743119266055,4,1,0,80,0,1
228144,-90.9090909090909,4,1,0,80,0,1
235603,-93.4579439252336,4,1,0,80,0,1
235765,-94.3396226415094,4,1,0,80,0,1
235927,-95.2380952380952,4,1,0,80,0,1
238198,-92.5925925925926,4,1,0,80,0,1
238360,-91.743119266055,4,1,0,80,0,1
238523,-90.9090909090909,4,1,0,80,0,1
241116,-88.4955752212389,4,1,0,80,0,1
241198,-87.719298245614,4,1,0,80,0,1
241279,-86.9565217391304,4,1,0,80,0,1
241360,-86.2068965517241,4,1,0,80,0,1
241441,-85.4700854700855,4,1,0,80,0,1
241603,-83.3333333333333,4,1,0,80,0,1
241765,-81.3008130081301,4,1,0,80,0,1
241846,-80.6451612903226,4,1,0,80,0,1
241927,-80,4,1,0,80,0,1
242008,-79.3650793650794,4,1,0,80,0,1
242089,-78.7401574803149,4,1,0,80,0,1
242252,-76.9230769230769,4,1,0,80,0,1
242414,-74.0740740740741,4,1,0,80,0,0
243062,-83.3333333333333,4,1,0,70,0,0
244035,-90.9090909090909,4,1,0,70,0,0
244603,-90.9090909090909,4,1,0,15,0,0
246306,-105.263157894737,4,1,0,15,0,0
246873,-105.263157894737,4,1,0,65,0,0
247279,-111.111111111111,4,1,0,65,0,0
247603,-117.647058823529,4,1,0,65,0,0

[HitObjects]
256,192,5008,5,0,0:0:0:0:
256,192,5657,1,8,0:0:0:0:
256,192,6306,1,0,0:0:0:0:
256,192,6630,1,0,0:0:0:0:
256,192,6954,1,0,0:0:0:0:
256,192,7603,1,0,0:0:0:0:
256,192,8252,1,8,0:0:0:0:
256,192,8900,1,0,0:0:0:0:
256,192,9225,1,0,0:0:0:0:
256,192,9549,1,0,0:0:0:0:
256,192,9873,1,8,0:0:0:0:
256,192,10035,1,0,0:0:0:0:
256,192,10198,1,0,0:0:0:0:
256,192,10846,1,8,0:0:0:0:
256,192,11495,1,0,0:0:0:0:
256,192,12144,1,0,0:0:0:0:
256,192,12468,1,0,0:0:0:0:
256,192,12630,1,0,0:0:0:0:
256,192,12792,1,0,0:0:0:0:
256,192,13441,1,8,0:0:0:0:
256,192,13765,1,0,0:0:0:0:
256,192,13927,1,0,0:0:0:0:
256,192,14008,1,0,0:0:0:0:
256,192,14089,1,0,0:0:0:0:
256,192,14738,1,0,0:0:0:0:
256,192,14900,1,0,0:0:0:0:
256,192,14981,1,0,0:0:0:0:
256,192,15062,1,0,0:0:0:0:
256,192,15144,1,0,0:0:0:0:
256,192,15225,1,0,0:0:0:0:
256,192,15387,1,12,0:0:0:0:
256,192,15711,1,8,0:0:0:0:
256,192,15873,1,0,0:0:0:0:
256,192,16035,1,8,0:0:0:0:
256,192,16116,1,0,0:0:0:0:
256,192,16198,1,0,0:0:0:0:
256,192,16360,1,8,0:0:0:0:
256,192,16522,1,0,0:0:0:0:
256,192,16684,1,8,0:0:0:0:
256,192,16846,1,0,0:0:0:0:
256,192,16927,1,0,0:0:0:0:
256,192,17008,1,8,0:0:0:0:
256,192,17171,1,0,0:0:0:0:
256,192,17333,1,8,0:0:0:0:
256,192,17414,1,8,0:0:0:0:
256,192,17495,1,0,0:0:0:0:
256,192,17657,1,8,0:0:0:0:
256,192,17819,1,0,0:0:0:0:
256,192,17900,1,0,0:0:0:0:
256,192,17981,1,8,0:0:0:0:
256,192,18306,1,8,0:0:0:0:
256,192,18468,1,0,0:0:0:0:
256,192,18630,1,8,0:0:0:0:
256,192,18792,1,0,0:0:0:0:
256,192,18873,1,0,0:0:0:0:
256,192,18954,1,8,0:0:0:0:
256,192,19116,1,0,0:0:0:0:
256,192,19279,1,8,0:0:0:0:
256,192,19360,1,0,0:0:0:0:
256,192,19441,1,0,0:0:0:0:
256,192,19603,1,8,0:0:0:0:
256,192,19765,1,0,0:0:0:0:
256,192,19927,1,8,0:0:0:0:
256,192,20008,1,0,0:0:0:0:
256,192,20089,1,0,0:0:0:0:
256,192,20171,1,0,0:0:0:0:
256,192,20252,1,0,0:0:0:0:
256,192,20414,1,0,0:0:0:0:
256,192,20576,1,8,0:0:0:0:
256,192,20900,1,8,0:0:0:0:
256,192,21062,1,0,0:0:0:0:
256,192,21225,1,8,0:0:0:0:
256,192,21306,1,0,0:0:0:0:
256,192,21387,1,0,0:0:0:0:
256,192,21549,1,8,0:0:0:0:
256,192,21711,1,0,0:0:0:0:
256,192,21873,1,8,0:0:0:0:
256,192,22035,1,0,0:0:0:0:
256,192,22116,1,0,0:0:0:0:
256,192,22198,1,8,0:0:0:0:
256,192,22360,1,0,0:0:0:0:
256,192,22522,1,8,0:0:0:0:
256,192,22603,1,8,0:0:0:0:
256,192,22684,1,0,0:0:0:0:
256,192,22846,1,8,0:0:0:0:
256,192,23008,1,0,0:0:0:0:
256,192,23089,1,0,0:0:0:0:
256,192,23171,1,8,0:0:0:0:
256,192,23495,1,8,0:0:0:0:
256,192,23657,1,0,0:0:0:0:
256,192,23819,1,8,0:0:0:0:
256,192,23981,1,0,0:0:0:0:
256,192,24062,1,0,0:0:0:0:
256,192,24144,1,8,0:0:0:0:
256,192,24306,1,0,0:0:0:0:
256,192,24468,1,8,0:0:0:0:
256,192,24549,1,8,0:0:0:0:
256,192,24630,1,0,0:0:0:0:
256,192,24792,1,8,0:0:0:0:
256,192,24954,1,0,0:0:0:0:
256,192,25116,1,8,0:0:0:0:
256,192,25198,1,0,0:0:0:0:
256,192,25279,1,0,0:0:0:0:
256,192,25360,1,0,0:0:0:0:
256,192,25441,1,0,0:0:0:0:
256,192,25603,1,0,0:0:0:0:
256,192,25765,1,12,0:0:0:0:
256,192,26089,1,8,0:0:0:0:
256,192,26252,1,0,0:0:0:0:
256,192,26333,1,0,0:0:0:0:
256,192,26414,1,8,0:0:0:0:
256,192,26576,1,0,0:0:0:0:
256,192,26738,1,8,0:0:0:0:
256,192,26900,1,0,0:0:0:0:
256,192,27062,1,8,0:0:0:0:
256,192,27144,1,8,0:0:0:0:
256,192,27225,1,0,0:0:0:0:
256,192,27387,1,8,0:0:0:0:
256,192,27549,1,0,0:0:0:0:
256,192,27711,1,8,0:0:0:0:
256,192,27792,1,0,0:0:0:0:
256,192,27873,1,0,0:0:0:0:
256,192,27954,1,0,0:0:0:0:
256,192,28035,1,8,0:0:0:0:
256,192,28198,1,0,0:0:0:0:
256,192,28279,1,0,0:0:0:0:
256,192,28360,1,8,0:0:0:0:
256,192,28684,1,8,0:0:0:0:
256,192,28846,1,0,0:0:0:0:
256,192,29008,1,8,0:0:0:0:
256,192,29089,1,0,0:0:0:0:
256,192,29171,1,0,0:0:0:0:
256,192,29252,1,0,0:0:0:0:
256,192,29333,1,8,0:0:0:0:
256,192,29495,1,0,0:0:0:0:
256,192,29657,1,8,0:0:0:0:
256,192,29738,1,8,0:0:0:0:
256,192,29819,1,0,0:0:0:0:
256,192,29981,1,8,0:0:0:0:
256,192,30144,1,0,0:0:0:0:
256,192,30306,1,8,0:0:0:0:
256,192,30387,1,0,0:0:0:0:
256,192,30468,1,0,0:0:0:0:
256,192,30549,1,0,0:0:0:0:
256,192,30630,1,0,0:0:0:0:
256,192,30792,1,0,0:0:0:0:
256,192,30954,1,8,0:0:0:0:
256,192,31279,1,8,0:0:0:0:
256,192,31441,1,0,0:0:0:0:
256,192,31522,1,0,0:0:0:0:
256,192,31603,1,8,0:0:0:0:
256,192,31765,1,0,0:0:0:0:
256,192,31927,1,8,0:0:0:0:
256,192,32089,1,0,0:0:0:0:
256,192,32252,1,8,0:0:0:0:
256,192,32333,1,8,0:0:0:0:
256,192,32414,1,0,0:0:0:0:
256,192,32576,1,8,0:0:0:0:
256,192,32738,1,0,0:0:0:0:
256,192,32900,1,8,0:0:0:0:
256,192,32981,1,0,0:0:0:0:
256,192,33062,1,0,0:0:0:0:
256,192,33144,1,0,0:0:0:0:
256,192,33225,1,8,0:0:0:0:
256,192,33387,1,0,0:0:0:0:
256,192,33549,1,12,0:0:0:0:
256,192,33873,1,8,0:0:0:0:
256,192,34035,1,0,0:0:0:0:
256,192,34198,1,12,0:0:0:0:
256,192,34360,1,0,0:0:0:0:
256,192,34522,1,8,0:0:0:0:
256,192,34684,1,0,0:0:0:0:
256,192,34846,1,12,0:0:0:0:
256,192,35008,1,12,0:0:0:0:
256,192,35171,1,4,0:0:0:0:
256,192,35333,1,12,0:0:0:0:
256,192,35495,1,4,0:0:0:0:
256,192,35657,1,0,0:0:0:0:
256,192,35738,1,0,0:0:0:0:
256,192,35819,1,8,0:0:0:0:
256,192,36144,1,12,0:0:0:0:
256,192,36468,1,8,0:0:0:0:
256,192,36630,1,8,0:0:0:0:
256,192,36792,1,0,0:0:0:0:
256,192,37116,1,0,0:0:0:0:
256,192,37441,1,8,0:0:0:0:
256,192,37765,1,0,0:0:0:0:
256,192,38089,1,8,0:0:0:0:
256,192,38252,1,0,0:0:0:0:
256,192,38414,1,8,0:0:0:0:
256,192,38576,1,0,0:0:0:0:
256,192,38738,1,8,0:0:0:0:
256,192,39062,1,0,0:0:0:0:
256,192,39387,1,8,0:0:0:0:
256,192,39711,1,0,0:0:0:0:
256,192,40035,1,8,0:0:0:0:
256,192,40360,1,0,0:0:0:0:
256,192,40684,1,8,0:0:0:0:
256,192,41008,1,0,0:0:0:0:
256,192,41171,1,0,0:0:0:0:
256,192,41333,1,8,0:0:0:0:
256,192,41657,1,8,0:0:0:0:
256,192,41819,1,0,0:0:0:0:
256,192,41981,1,0,0:0:0:0:
256,192,42306,1,0,0:0:0:0:
256,192,42630,1,8,0:0:0:0:
256,192,42954,1,0,0:0:0:0:
256,192,43279,1,0,0:0:0:0:
256,192,43603,1,0,0:0:0:0:
256,192,43765,1,0,0:0:0:0:
256,192,43927,1,8,0:0:0:0:
256,192,44252,1,0,0:0:0:0:
256,192,44576,1,8,0:0:0:0:
256,192,44900,1,0,0:0:0:0:
256,192,45225,1,8,0:0:0:0:
256,192,45549,1,0,0:0:0:0:
256,192,45711,1,8,0:0:0:0:
256,192,45873,1,0,0:0:0:0:
256,192,45954,1,0,0:0:0:0:
256,192,46035,1,8,0:0:0:0:
256,192,46198,1,8,0:0:0:0:
256,192,46360,1,0,0:0:0:0:
256,192,46522,1,12,0:0:0:0:
256,192,46846,1,0,0:0:0:0:
256,192,47008,1,8,0:0:0:0:
256,192,47171,1,0,0:0:0:0:
256,192,47495,1,0,0:0:0:0:
256,192,47819,1,8,0:0:0:0:
256,192,48144,1,0,0:0:0:0:
256,192,48468,1,8,0:0:0:0:
256,192,48630,1,0,0:0:0:0:
256,192,48792,1,8,0:0:0:0:
256,192,48954,1,0,0:0:0:0:
256,192,49116,1,8,0:0:0:0:
256,192,49441,1,0,0:0:0:0:
256,192,49765,1,8,0:0:0:0:
256,192,50089,1,0,0:0:0:0:
256,192,50414,1,8,0:0:0:0:
256,192,50738,1,0,0:0:0:0:
256,192,51062,1,8,0:0:0:0:
256,192,51387,1,0,0:0:0:0:
256,192,51549,1,0,0:0:0:0:
256,192,51711,1,8,0:0:0:0:
256,192,52035,1,8,0:0:0:0:
256,192,52198,1,0,0:0:0:0:
256,192,52360,1,0,0:0:0:0:
256,192,52684,1,0,0:0:0:0:
256,192,53008,1,8,0:0:0:0:
256,192,53333,1,8,0:0:0:0:
256,192,53495,1,0,0:0:0:0:
256,192,53657,1,0,0:0:0:0:
256,192,53981,1,0,0:0:0:0:
256,192,54306,1,8,0:0:0:0:
256,192,54630,1,0,0:0:0:0:
256,192,54792,1,0,0:0:0:0:
256,192,54954,1,8,0:0:0:0:
256,192,55279,1,0,0:0:0:0:
256,192,55603,1,8,0:0:0:0:
256,192,55927,1,0,0:0:0:0:
256,192,56089,1,8,0:0:0:0:
256,192,56252,1,0,0:0:0:0:
256,192,56333,1,0,0:0:0:0:
256,192,56414,1,8,0:0:0:0:
256,192,56576,1,8,0:0:0:0:
256,192,56738,1,0,0:0:0:0:
256,192,56900,1,4,0:0:0:0:
256,192,57387,1,0,0:0:0:0:
256,192,57549,1,8,0:0:0:0:
256,192,57630,1,0,0:0:0:0:
256,192,57711,1,0,0:0:0:0:
256,192,57873,1,8,0:0:0:0:
256,192,58198,1,8,0:0:0:0:
256,192,58522,1,0,0:0:0:0:
256,192,58684,1,0,0:0:0:0:
256,192,58846,1,8,0:0:0:0:
256,192,58927,1,8,0:0:0:0:
256,192,59008,1,8,0:0:0:0:
256,192,59171,1,0,0:0:0:0:
256,192,59333,1,0,0:0:0:0:
256,192,59495,1,8,0:0:0:0:
256,192,59819,1,0,0:0:0:0:
256,192,59900,1,0,0:0:0:0:
256,192,59981,1,0,0:0:0:0:
256,192,60144,1,8,0:0:0:0:
256,192,60306,1,0,0:0:0:0:
256,192,60387,1,0,0:0:0:0:
256,192,60468,1,8,0:0:0:0:
256,192,60792,1,8,0:0:0:0:
256,192,61116,1,0,0:0:0:0:
256,192,61279,1,8,0:0:0:0:
256,192,61441,1,8,0:0:0:0:
256,192,61522,1,8,0:0:0:0:
256,192,61603,1,8,0:0:0:0:
256,192,61765,1,0,0:0:0:0:
256,192,61927,1,0,0:0:0:0:
256,192,62089,1,8,0:0:0:0:
256,192,62576,1,0,0:0:0:0:
256,192,62738,1,8,0:0:0:0:
256,192,62819,1,0,0:0:0:0:
256,192,62900,1,0,0:0:0:0:
256,192,63062,1,8,0:0:0:0:
256,192,63387,1,8,0:0:0:0:
256,192,63711,1,0,0:0:0:0:
256,192,63873,1,0,0:0:0:0:
256,192,64035,1,8,0:0:0:0:
256,192,64116,1,8,0:0:0:0:
256,192,64198,1,8,0:0:0:0:
256,192,64360,1,0,0:0:0:0:
256,192,64522,1,0,0:0:0:0:
256,192,64684,1,8,0:0:0:0:
256,192,64846,1,0,0:0:0:0:
256,192,64927,1,0,0:0:0:0:
256,192,65008,1,0,0:0:0:0:
256,192,65171,1,0,0:0:0:0:
256,192,65333,1,8,0:0:0:0:
256,192,65495,1,0,0:0:0:0:
256,192,65576,1,0,0:0:0:0:
256,192,65657,1,0,0:0:0:0:
256,192,65819,1,0,0:0:0:0:
256,192,65981,1,12,0:0:0:0:
256,192,66144,1,12,0:0:0:0:
256,192,66306,1,4,0:0:0:0:
256,192,66468,1,12,0:0:0:0:
256,192,66630,1,4,0:0:0:0:
256,192,66954,1,12,0:0:0:0:
256,192,67279,1,4,0:0:0:0:
256,192,67441,1,0,0:0:0:0:
256,192,67522,1,0,0:0:0:0:
256,192,67603,1,8,0:0:0:0:
256,192,67765,1,0,0:0:0:0:
256,192,67927,1,8,0:0:0:0:
256,192,68008,1,8,0:0:0:0:
256,192,68089,1,8,0:0:0:0:
256,192,68252,1,0,0:0:0:0:
256,192,68414,1,8,0:0:0:0:
256,192,68576,1,8,0:0:0:0:
256,192,68657,1,0,0:0:0:0:
256,192,68738,1,0,0:0:0:0:
256,192,68900,1,8,0:0:0:0:
256,192,69062,1,0,0:0:0:0:
256,192,69225,1,8,0:0:0:0:
256,192,69549,1,8,0:0:0:0:
256,192,69711,1,0,0:0:0:0:
256,192,69873,1,8,0:0:0:0:
256,192,70035,1,0,0:0:0:0:
256,192,70116,1,0,0:0:0:0:
256,192,70198,1,8,0:0:0:0:
256,192,70360,1,0,0:0:0:0:
256,192,70522,1,8,0:0:0:0:
256,192,70603,1,0,0:0:0:0:
256,192,70684,1,0,0:0:0:0:
256,192,70765,1,0,0:0:0:0:
256,192,70846,1,0,0:0:0:0:
256,192,71008,1,0,0:0:0:0:
256,192,71171,1,8,0:0:0:0:
256,192,71333,1,0,0:0:0:0:
256,192,71414,1,0,0:0:0:0:
256,192,71495,1,8,0:0:0:0:
256,192,71657,1,0,0:0:0:0:
256,192,71819,1,8,0:0:0:0:
256,192,71981,1,0,0:0:0:0:
256,192,72062,1,0,0:0:0:0:
256,192,72144,1,0,0:0:0:0:
256,192,72225,1,0,0:0:0:0:
256,192,72306,1,0,0:0:0:0:
256,192,72468,1,8,0:0:0:0:
256,192,72792,1,8,0:0:0:0:
256,192,72954,1,0,0:0:0:0:
256,192,73116,1,8,0:0:0:0:
256,192,73198,1,0,0:0:0:0:
256,192,73279,1,0,0:0:0:0:
256,192,73441,1,0,0:0:0:0:
256,192,73603,1,8,0:0:0:0:
256,192,73765,1,8,0:0:0:0:
256,192,73846,1,8,0:0:0:0:
256,192,73927,1,0,0:0:0:0:
256,192,74089,1,8,0:0:0:0:
256,192,74252,1,0,0:0:0:0:
256,192,74414,1,8,0:0:0:0:
256,192,74576,1,0,0:0:0:0:
256,192,74657,1,0,0:0:0:0:
256,192,74738,1,8,0:0:0:0:
256,192,74900,1,0,0:0:0:0:
256,192,75062,1,8,0:0:0:0:
256,192,75225,1,0,0:0:0:0:
256,192,75306,1,0,0:0:0:0:
256,192,75387,1,8,0:0:0:0:
256,192,75549,1,0,0:0:0:0:
256,192,75711,1,8,0:0:0:0:
256,192,75792,1,0,0:0:0:0:
256,192,75873,1,0,0:0:0:0:
256,192,76035,1,8,0:0:0:0:
256,192,76198,1,0,0:0:0:0:
256,192,76360,1,8,0:0:0:0:
256,192,76522,1,8,0:0:0:0:
256,192,76603,1,0,0:0:0:0:
256,192,76684,1,8,0:0:0:0:
256,192,76846,1,0,0:0:0:0:
256,192,77008,1,8,0:0:0:0:
256,192,77089,1,8,0:0:0:0:
256,192,77171,1,0,0:0:0:0:
256,192,77252,1,0,0:0:0:0:
256,192,77333,1,8,0:0:0:0:
256,192,77495,1,0,0:0:0:0:
256,192,77657,1,12,0:0:0:0:
256,192,77981,1,8,0:0:0:0:
256,192,78144,1,0,0:0:0:0:
256,192,78306,1,8,0:0:0:0:
256,192,78387,1,8,0:0:0:0:
256,192,78468,1,8,0:0:0:0:
256,192,78630,1,0,0:0:0:0:
256,192,78792,1,8,0:0:0:0:
256,192,78954,1,8,0:0:0:0:
256,192,79035,1,8,0:0:0:0:
256,192,79116,1,0,0:0:0:0:
256,192,79279,1,8,0:0:0:0:
256,192,79441,1,0,0:0:0:0:
256,192,79603,1,8,0:0:0:0:
256,192,79765,1,0,0:0:0:0:
256,192,79846,1,0,0:0:0:0:
256,192,79927,1,8,0:0:0:0:
256,192,80089,1,0,0:0:0:0:
256,192,80252,1,8,0:0:0:0:
256,192,80414,1,0,0:0:0:0:
256,192,80576,1,8,0:0:0:0:
256,192,80657,1,0,0:0:0:0:
256,192,80738,1,0,0:0:0:0:
256,192,80900,1,8,0:0:0:0:
256,192,80981,1,0,0:0:0:0:
256,192,81062,1,0,0:0:0:0:
256,192,81144,1,0,0:0:0:0:
256,192,81225,1,0,0:0:0:0:
256,192,81387,1,8,0:0:0:0:
256,192,81549,1,8,0:0:0:0:
256,192,81630,1,8,0:0:0:0:
256,192,81711,1,0,0:0:0:0:
256,192,81873,1,8,0:0:0:0:
256,192,81954,1,0,0:0:0:0:
256,192,82035,1,0,0:0:0:0:
256,192,82198,1,8,0:0:0:0:
256,192,82360,1,0,0:0:0:0:
256,192,82441,1,0,0:0:0:0:
256,192,82522,1,0,0:0:0:0:
256,192,82603,1,0,0:0:0:0:
256,192,82684,1,0,0:0:0:0:
256,192,82846,1,8,0:0:0:0:
256,192,83171,1,8,0:0:0:0:
256,192,83333,1,0,0:0:0:0:
256,192,83495,1,8,0:0:0:0:
256,192,83657,1,0,0:0:0:0:
256,192,83738,1,0,0:0:0:0:
256,192,83819,1,0,0:0:0:0:
256,192,83981,1,8,0:0:0:0:
256,192,84144,1,8,0:0:0:0:
256,192,84306,1,0,0:0:0:0:
256,192,84468,1,8,0:0:0:0:
256,192,84549,1,0,0:0:0:0:
256,192,84630,1,0,0:0:0:0:
256,192,84792,1,8,0:0:0:0:
256,192,84954,1,0,0:0:0:0:
256,192,85116,1,8,0:0:0:0:
256,192,85279,1,0,0:0:0:0:
256,192,85441,1,8,0:0:0:0:
256,192,85522,1,0,0:0:0:0:
256,192,85603,1,0,0:0:0:0:
256,192,85684,1,0,0:0:0:0:
256,192,85765,1,0,0:0:0:0:
256,192,85927,1,0,0:0:0:0:
256,192,86089,1,8,0:0:0:0:
256,192,86171,1,0,0:0:0:0:
256,192,86252,1,0,0:0:0:0:
256,192,86414,1,8,0:0:0:0:
256,192,86738,1,12,0:0:0:0:
256,192,87387,1,8,0:0:0:0:
256,192,88035,1,4,0:0:0:0:
256,192,88360,1,8,0:0:0:0:
256,192,88522,1,0,0:0:0:0:
256,192,88684,1,8,0:0:0:0:
256,192,88846,1,0,0:0:0:0:
256,192,88927,1,0,0:0:0:0:
256,192,89008,1,8,0:0:0:0:
256,192,89171,1,0,0:0:0:0:
256,192,89333,1,8,0:0:0:0:
256,192,89414,1,0,0:0:0:0:
256,192,89495,1,0,0:0:0:0:
256,192,89657,1,8,0:0:0:0:
256,192,89819,1,0,0:0:0:0:
256,192,89981,1,8,0:0:0:0:
256,192,90062,1,0,0:0:0:0:
256,192,90144,1,0,0:0:0:0:
256,192,90306,1,8,0:0:0:0:
256,192,90468,1,0,0:0:0:0:
256,192,90549,1,0,0:0:0:0:
256,192,90630,1,8,0:0:0:0:
256,192,90954,1,8,0:0:0:0:
256,192,91116,1,0,0:0:0:0:
256,192,91279,1,8,0:0:0:0:
256,192,91360,1,0,0:0:0:0:
256,192,91441,1,0,0:0:0:0:
256,192,91603,1,8,0:0:0:0:
256,192,91765,1,0,0:0:0:0:
256,192,91927,1,8,0:0:0:0:
256,192,92008,1,8,0:0:0:0:
256,192,92089,1,0,0:0:0:0:
256,192,92252,1,8,0:0:0:0:
256,192,92414,1,0,0:0:0:0:
256,192,92495,1,0,0:0:0:0:
256,192,92576,1,8,0:0:0:0:
256,192,92657,1,8,0:0:0:0:
256,192,92738,1,0,0:0:0:0:
256,192,92900,1,0,0:0:0:0:
256,192,93062,1,0,0:0:0:0:
256,192,93225,1,12,0:0:0:0:
256,192,93549,1,8,0:0:0:0:
256,192,93711,1,0,0:0:0:0:
256,192,93792,1,0,0:0:0:0:
256,192,93873,1,8,0:0:0:0:
256,192,94035,1,0,0:0:0:0:
256,192,94198,1,8,0:0:0:0:
256,192,94360,1,0,0:0:0:0:
256,192,94522,1,8,0:0:0:0:
256,192,94603,1,8,0:0:0:0:
256,192,94684,1,0,0:0:0:0:
256,192,94846,1,8,0:0:0:0:
256,192,95008,1,0,0:0:0:0:
256,192,95171,1,8,0:0:0:0:
256,192,95252,1,0,0:0:0:0:
256,192,95333,1,0,0:0:0:0:
256,192,95414,1,0,0:0:0:0:
256,192,95495,1,8,0:0:0:0:
256,192,95657,1,0,0:0:0:0:
256,192,95819,1,12,0:0:0:0:
256,192,96144,1,8,0:0:0:0:
256,192,96306,1,0,0:0:0:0:
256,192,96468,1,12,0:0:0:0:
256,192,96630,1,0,0:0:0:0:
256,192,96792,1,8,0:0:0:0:
256,192,96954,1,0,0:0:0:0:
256,192,97116,1,12,0:0:0:0:
256,192,97279,1,12,0:0:0:0:
256,192,97441,1,4,0:0:0:0:
256,192,97603,1,12,0:0:0:0:
256,192,97765,1,4,0:0:0:0:
256,192,97927,1,0,0:0:0:0:
256,192,98008,1,0,0:0:0:0:
256,192,98089,1,8,0:0:0:0:
256,192,98414,1,12,0:0:0:0:
256,192,98738,1,8,0:0:0:0:
256,192,98900,1,0,0:0:0:0:
256,192,99062,1,0,0:0:0:0:
256,192,99387,1,0,0:0:0:0:
256,192,99711,1,8,0:0:0:0:
256,192,100035,1,0,0:0:0:0:
256,192,100198,1,8,0:0:0:0:
256,192,100360,1,8,0:0:0:0:
256,192,100522,1,0,0:0:0:0:
256,192,100684,1,8,0:0:0:0:
256,192,101008,1,8,0:0:0:0:
256,192,101333,1,0,0:0:0:0:
256,192,101657,1,8,0:0:0:0:
256,192,101981,1,0,0:0:0:0:
256,192,102306,1,8,0:0:0:0:
256,192,102630,1,0,0:0:0:0:
256,192,102954,1,8,0:0:0:0:
256,192,103279,1,0,0:0:0:0:
256,192,103441,1,0,0:0:0:0:
256,192,103603,1,8,0:0:0:0:
256,192,103927,1,8,0:0:0:0:
256,192,104089,1,0,0:0:0:0:
256,192,104252,1,0,0:0:0:0:
256,192,104576,1,0,0:0:0:0:
256,192,104900,1,8,0:0:0:0:
256,192,105225,1,0,0:0:0:0:
256,192,105549,1,0,0:0:0:0:
256,192,105873,1,0,0:0:0:0:
256,192,106035,1,0,0:0:0:0:
256,192,106198,1,8,0:0:0:0:
256,192,106522,1,0,0:0:0:0:
256,192,106846,1,8,0:0:0:0:
256,192,107171,1,0,0:0:0:0:
256,192,107495,1,8,0:0:0:0:
256,192,107819,1,0,0:0:0:0:
256,192,107981,1,8,0:0:0:0:
256,192,108144,1,0,0:0:0:0:
256,192,108225,1,0,0:0:0:0:
256,192,108306,1,8,0:0:0:0:
256,192,108468,1,8,0:0:0:0:
256,192,108630,1,0,0:0:0:0:
256,192,108792,1,12,0:0:0:0:
256,192,109116,1,0,0:0:0:0:
256,192,109279,1,8,0:0:0:0:
256,192,109441,1,0,0:0:0:0:
256,192,109765,1,0,0:0:0:0:
256,192,110089,1,8,0:0:0:0:
256,192,110414,1,0,0:0:0:0:
256,192,110576,1,8,0:0:0:0:
256,192,110738,1,8,0:0:0:0:
256,192,110900,1,0,0:0:0:0:
256,192,111062,1,8,0:0:0:0:
256,192,111387,1,8,0:0:0:0:
256,192,111711,1,0,0:0:0:0:
256,192,112035,1,0,0:0:0:0:
256,192,112360,1,0,0:0:0:0:
256,192,112684,1,8,0:0:0:0:
256,192,113008,1,0,0:0:0:0:
256,192,113333,1,8,0:0:0:0:
256,192,113657,1,0,0:0:0:0:
256,192,113819,1,0,0:0:0:0:
256,192,113981,1,8,0:0:0:0:
256,192,114306,1,8,0:0:0:0:
256,192,114468,1,0,0:0:0:0:
256,192,114630,1,0,0:0:0:0:
256,192,114954,1,0,0:0:0:0:
256,192,115279,1,8,0:0:0:0:
256,192,115603,1,8,0:0:0:0:
256,192,115765,1,0,0:0:0:0:
256,192,115927,1,0,0:0:0:0:
256,192,116252,1,0,0:0:0:0:
256,192,116576,1,8,0:0:0:0:
256,192,116900,1,0,0:0:0:0:
256,192,117062,1,0,0:0:0:0:
256,192,117225,1,8,0:0:0:0:
256,192,117549,1,0,0:0:0:0:
256,192,117873,1,8,0:0:0:0:
256,192,118198,1,0,0:0:0:0:
256,192,118360,1,8,0:0:0:0:
256,192,118522,1,0,0:0:0:0:
256,192,118603,1,0,0:0:0:0:
256,192,118684,1,8,0:0:0:0:
256,192,118846,1,8,0:0:0:0:
256,192,119008,1,0,0:0:0:0:
256,192,119171,1,4,0:0:0:0:
256,192,119657,1,0,0:0:0:0:
256,192,119819,1,8,0:0:0:0:
256,192,119900,1,0,0:0:0:0:
256,192,119981,1,0,0:0:0:0:
256,192,120144,1,8,0:0:0:0:
256,192,120468,1,8,0:0:0:0:
256,192,120792,1,0,0:0:0:0:
256,192,120954,1,0,0:0:0:0:
256,192,121116,1,8,0:0:0:0:
256,192,121198,1,8,0:0:0:0:
256,192,121279,1,8,0:0:0:0:
256,192,121441,1,8,0:0:0:0:
256,192,121603,1,0,0:0:0:0:
256,192,121765,1,8,0:0:0:0:
256,192,122089,1,0,0:0:0:0:
256,192,122252,1,0,0:0:0:0:
256,192,122414,1,8,0:0:0:0:
256,192,122495,1,0,0:0:0:0:
256,192,122576,1,0,0:0:0:0:
256,192,122738,1,8,0:0:0:0:
256,192,123062,1,8,0:0:0:0:
256,192,123387,1,0,0:0:0:0:
256,192,123549,1,8,0:0:0:0:
256,192,123711,1,8,0:0:0:0:
256,192,123792,1,8,0:0:0:0:
256,192,123873,1,8,0:0:0:0:
256,192,124035,1,0,0:0:0:0:
256,192,124198,1,0,0:0:0:0:
256,192,124360,1,8,0:0:0:0:
256,192,124846,1,0,0:0:0:0:
256,192,125008,1,8,0:0:0:0:
256,192,125089,1,0,0:0:0:0:
256,192,125171,1,0,0:0:0:0:
256,192,125333,1,8,0:0:0:0:
256,192,125657,1,8,0:0:0:0:
256,192,125981,1,0,0:0:0:0:
256,192,126144,1,0,0:0:0:0:
256,192,126306,1,8,0:0:0:0:
256,192,126387,1,8,0:0:0:0:
256,192,126468,1,8,0:0:0:0:
256,192,126630,1,8,0:0:0:0:
256,192,126792,1,0,0:0:0:0:
256,192,126954,1,8,0:0:0:0:
256,192,127116,1,0,0:0:0:0:
256,192,127198,1,0,0:0:0:0:
256,192,127279,1,0,0:0:0:0:
256,192,127441,1,0,0:0:0:0:
256,192,127603,1,8,0:0:0:0:
256,192,127765,1,0,0:0:0:0:
256,192,127846,1,0,0:0:0:0:
256,192,127927,1,0,0:0:0:0:
256,192,128089,1,0,0:0:0:0:
256,192,128252,1,12,0:0:0:0:
256,192,128414,1,12,0:0:0:0:
256,192,128576,1,4,0:0:0:0:
256,192,128738,1,12,0:0:0:0:
256,192,128900,1,4,0:0:0:0:
256,192,129225,1,12,0:0:0:0:
256,192,129549,1,4,0:0:0:0:
256,192,129711,1,0,0:0:0:0:
256,192,129792,1,0,0:0:0:0:
256,192,129873,1,8,0:0:0:0:
256,192,130035,1,0,0:0:0:0:
256,192,130198,1,8,0:0:0:0:
256,192,130279,1,8,0:0:0:0:
256,192,130360,1,8,0:0:0:0:
256,192,130441,1,8,0:0:0:0:
256,192,130522,1,0,0:0:0:0:
256,192,130684,1,8,0:0:0:0:
256,192,130846,1,8,0:0:0:0:
256,192,130927,1,0,0:0:0:0:
256,192,131008,1,0,0:0:0:0:
256,192,131171,1,8,0:0:0:0:
256,192,131333,1,0,0:0:0:0:
256,192,131495,1,8,0:0:0:0:
256,192,131819,1,8,0:0:0:0:
256,192,131981,1,0,0:0:0:0:
256,192,132144,1,8,0:0:0:0:
256,192,132225,1,8,0:0:0:0:
256,192,132306,1,0,0:0:0:0:
256,192,132468,1,8,0:0:0:0:
256,192,132630,1,0,0:0:0:0:
256,192,132792,1,8,0:0:0:0:
256,192,132873,1,8,0:0:0:0:
256,192,132954,1,8,0:0:0:0:
256,192,133035,1,8,0:0:0:0:
256,192,133116,1,0,0:0:0:0:
256,192,133279,1,0,0:0:0:0:
256,192,133441,1,8,0:0:0:0:
256,192,133603,1,0,0:0:0:0:
256,192,133684,1,0,0:0:0:0:
256,192,133765,1,8,0:0:0:0:
256,192,133927,1,0,0:0:0:0:
256,192,134089,1,8,0:0:0:0:
256,192,134252,1,0,0:0:0:0:
256,192,134333,1,0,0:0:0:0:
256,192,134414,1,0,0:0:0:0:
256,192,134495,1,0,0:0:0:0:
256,192,134576,1,0,0:0:0:0:
256,192,134738,1,8,0:0:0:0:
256,192,135062,1,8,0:0:0:0:
256,192,135225,1,0,0:0:0:0:
256,192,135387,1,8,0:0:0:0:
256,192,135468,1,8,0:0:0:0:
256,192,135549,1,8,0:0:0:0:
256,192,135711,1,0,0:0:0:0:
256,192,135873,1,8,0:0:0:0:
256,192,136035,1,8,0:0:0:0:
256,192,136116,1,8,0:0:0:0:
256,192,136198,1,0,0:0:0:0:
256,192,136360,1,8,0:0:0:0:
256,192,136522,1,0,0:0:0:0:
256,192,136684,1,8,0:0:0:0:
256,192,136846,1,0,0:0:0:0:
256,192,136927,1,0,0:0:0:0:
256,192,137008,1,8,0:0:0:0:
256,192,137171,1,0,0:0:0:0:
256,192,137333,1,8,0:0:0:0:
256,192,137414,1,0,0:0:0:0:
256,192,137495,1,0,0:0:0:0:
256,192,137657,1,8,0:0:0:0:
256,192,137819,1,0,0:0:0:0:
256,192,137981,1,8,0:0:0:0:
256,192,138062,1,8,0:0:0:0:
256,192,138144,1,0,0:0:0:0:
256,192,138306,1,8,0:0:0:0:
256,192,138468,1,0,0:0:0:0:
256,192,138630,1,8,0:0:0:0:
256,192,138792,1,8,0:0:0:0:
256,192,138873,1,0,0:0:0:0:
256,192,138954,1,8,0:0:0:0:
256,192,139116,1,0,0:0:0:0:
256,192,139279,1,8,0:0:0:0:
256,192,139360,1,8,0:0:0:0:
256,192,139441,1,0,0:0:0:0:
256,192,139522,1,0,0:0:0:0:
256,192,139603,1,8,0:0:0:0:
256,192,139765,1,0,0:0:0:0:
256,192,139927,1,12,0:0:0:0:
256,192,140252,1,8,0:0:0:0:
256,192,140414,1,0,0:0:0:0:
256,192,140576,1,8,0:0:0:0:
256,192,140657,1,8,0:0:0:0:
256,192,140738,1,8,0:0:0:0:
256,192,140819,1,8,0:0:0:0:
256,192,140900,1,0,0:0:0:0:
256,192,141062,1,8,0:0:0:0:
256,192,141225,1,8,0:0:0:0:
256,192,141306,1,0,0:0:0:0:
256,192,141387,1,0,0:0:0:0:
256,192,141549,1,8,0:0:0:0:
256,192,141630,1,8,0:0:0:0:
256,192,141711,1,0,0:0:0:0:
256,192,141873,1,8,0:0:0:0:
256,192,142035,1,0,0:0:0:0:
256,192,142116,1,0,0:0:0:0:
256,192,142198,1,8,0:0:0:0:
256,192,142360,1,0,0:0:0:0:
256,192,142522,1,8,0:0:0:0:
256,192,142684,1,0,0:0:0:0:
256,192,142846,1,8,0:0:0:0:
256,192,142927,1,0,0:0:0:0:
256,192,143008,1,0,0:0:0:0:
256,192,143171,1,8,0:0:0:0:
256,192,143333,1,0,0:0:0:0:
256,192,143414,1,0,0:0:0:0:
256,192,143495,1,0,0:0:0:0:
256,192,143657,1,8,0:0:0:0:
256,192,143819,1,12,0:0:0:0:
256,192,144144,1,12,0:0:0:0:
256,192,144468,1,12,0:0:0:0:
256,192,144630,1,0,0:0:0:0:
256,192,144711,1,0,0:0:0:0:
256,192,144792,1,0,0:0:0:0:
256,192,144873,1,0,0:0:0:0:
256,192,144954,1,0,0:0:0:0:
256,192,145116,1,8,0:0:0:0:
256,192,145441,1,8,0:0:0:0:
256,192,145603,1,0,0:0:0:0:
256,192,145765,1,8,0:0:0:0:
256,192,145846,1,8,0:0:0:0:
256,192,145927,1,8,0:0:0:0:
256,192,146008,1,8,0:0:0:0:
256,192,146089,1,0,0:0:0:0:
256,192,146252,1,0,0:0:0:0:
256,192,146414,1,8,0:0:0:0:
256,192,146495,1,8,0:0:0:0:
256,192,146576,1,0,0:0:0:0:
256,192,146738,1,8,0:0:0:0:
256,192,146900,1,0,0:0:0:0:
256,192,146981,1,0,0:0:0:0:
256,192,147062,1,8,0:0:0:0:
256,192,147225,1,0,0:0:0:0:
256,192,147387,1,8,0:0:0:0:
256,192,147549,1,0,0:0:0:0:
256,192,147711,1,8,0:0:0:0:
256,192,147792,1,0,0:0:0:0:
256,192,147873,1,0,0:0:0:0:
256,192,147954,1,0,0:0:0:0:
256,192,148035,1,0,0:0:0:0:
256,192,148198,1,0,0:0:0:0:
256,192,148360,1,8,0:0:0:0:
256,192,148441,1,0,0:0:0:0:
256,192,148522,1,0,0:0:0:0:
256,192,148684,1,8,0:0:0:0:
256,192,149008,1,12,0:0:0:0:
256,192,149657,1,8,0:0:0:0:
256,192,150306,1,4,0:0:0:0:
256,192,150630,1,0,0:0:0:0:
256,192,150954,1,8,0:0:0:0:
256,192,151279,1,8,0:0:0:0:
256,192,151603,1,12,0:0:0:0:
256,192,151927,1,0,0:0:0:0:
256,192,152089,1,0,0:0:0:0:
256,192,152252,1,0,0:0:0:0:
256,192,152576,1,8,0:0:0:0:
256,192,152900,1,12,0:0:0:0:
256,192,153225,1,0,0:0:0:0:
256,192,153549,1,0,0:0:0:0:
256,192,153873,1,8,0:0:0:0:
256,192,154198,1,12,0:0:0:0:
256,192,154846,1,8,0:0:0:0:
256,192,155495,1,4,0:0:0:0:
256,192,156144,1,8,0:0:0:0:
256,192,156468,1,8,0:0:0:0:
256,192,156792,1,12,0:0:0:0:
256,192,157116,1,0,0:0:0:0:
256,192,157279,1,0,0:0:0:0:
256,192,157441,1,0,0:0:0:0:
256,192,157765,1,0,0:0:0:0:
256,192,158089,1,12,0:0:0:0:
256,192,158414,1,0,0:0:0:0:
256,192,158738,1,0,0:0:0:0:
256,192,159387,1,12,0:0:0:0:
256,192,159711,1,0,0:0:0:0:
256,192,159873,1,0,0:0:0:0:
256,192,160035,1,8,0:0:0:0:
256,192,160198,1,8,0:0:0:0:
256,192,160360,1,0,0:0:0:0:
256,192,160684,1,12,0:0:0:0:
256,192,160846,1,0,0:0:0:0:
256,192,161008,1,0,0:0:0:0:
256,192,161333,1,8,0:0:0:0:
256,192,161657,1,8,0:0:0:0:
256,192,161819,1,0,0:0:0:0:
256,192,161981,1,12,0:0:0:0:
256,192,162144,1,0,0:0:0:0:
256,192,162306,1,0,0:0:0:0:
256,192,162630,1,8,0:0:0:0:
256,192,162954,1,8,0:0:0:0:
256,192,163279,1,12,0:0:0:0:
256,192,163441,1,0,0:0:0:0:
256,192,163603,1,0,0:0:0:0:
256,192,163927,1,8,0:0:0:0:
256,192,164089,1,0,0:0:0:0:
256,192,164252,1,8,0:0:0:0:
256,192,164414,1,0,0:0:0:0:
256,192,164576,1,12,0:0:0:0:
256,192,164900,1,8,0:0:0:0:
256,192,165062,1,8,0:0:0:0:
256,192,165225,1,8,0:0:0:0:
256,192,165387,1,0,0:0:0:0:
256,192,165549,1,8,0:0:0:0:
256,192,165873,1,12,0:0:0:0:
256,192,166198,1,8,0:0:0:0:
256,192,166360,1,0,0:0:0:0:
256,192,166522,1,8,0:0:0:0:
256,192,166684,1,0,0:0:0:0:
256,192,166846,1,8,0:0:0:0:
256,192,167171,1,12,0:0:0:0:
256,192,167495,1,8,0:0:0:0:
256,192,167657,1,8,0:0:0:0:
256,192,167819,1,8,0:0:0:0:
256,192,168144,1,8,0:0:0:0:
256,192,168468,1,12,0:0:0:0:
256,192,169116,1,8,0:0:0:0:
256,192,169441,1,0,0:0:0:0:
256,192,169765,1,12,0:0:0:0:
256,192,170089,1,12,0:0:0:0:
256,192,170576,1,12,0:0:0:0:
256,192,171062,1,12,0:0:0:0:
256,192,171225,1,0,0:0:0:0:
256,192,171306,1,0,0:0:0:0:
256,192,171387,1,8,0:0:0:0:
256,192,171549,1,0,0:0:0:0:
256,192,171711,1,8,0:0:0:0:
256,192,171792,1,8,0:0:0:0:
256,192,171873,1,8,0:0:0:0:
256,192,172035,1,0,0:0:0:0:
256,192,172198,1,8,0:0:0:0:
256,192,172360,1,8,0:0:0:0:
256,192,172522,1,0,0:0:0:0:
256,192,172684,1,8,0:0:0:0:
256,192,172765,1,0,0:0:0:0:
256,192,172846,1,0,0:0:0:0:
256,192,173008,1,8,0:0:0:0:
256,192,173333,1,8,0:0:0:0:
256,192,173414,1,0,0:0:0:0:
256,192,173495,1,8,0:0:0:0:
256,192,173657,1,8,0:0:0:0:
256,192,173819,1,0,0:0:0:0:
256,192,173900,1,0,0:0:0:0:
256,192,173981,1,8,0:0:0:0:
256,192,174144,1,0,0:0:0:0:
256,192,174306,1,8,0:0:0:0:
256,192,174387,1,0,0:0:0:0:
256,192,174468,1,0,0:0:0:0:
256,192,174549,1,0,0:0:0:0:
256,192,174630,1,0,0:0:0:0:
256,192,174792,1,8,0:0:0:0:
256,192,174954,1,8,0:0:0:0:
256,192,175035,1,8,0:0:0:0:
256,192,175116,1,0,0:0:0:0:
256,192,175279,1,8,0:0:0:0:
256,192,175441,1,0,0:0:0:0:
256,192,175603,1,8,0:0:0:0:
256,192,175684,1,8,0:0:0:0:
256,192,175765,1,8,0:0:0:0:
256,192,175846,1,8,0:0:0:0:
256,192,175927,1,0,0:0:0:0:
256,192,176089,1,0,0:0:0:0:
256,192,176171,1,0,0:0:0:0:
256,192,176252,1,8,0:0:0:0:
256,192,176576,1,8,0:0:0:0:
256,192,176738,1,0,0:0:0:0:
256,192,176900,1,8,0:0:0:0:
256,192,176981,1,8,0:0:0:0:
256,192,177062,1,0,0:0:0:0:
256,192,177225,1,0,0:0:0:0:
256,192,177387,1,8,0:0:0:0:
256,192,177549,1,8,0:0:0:0:
256,192,177711,1,0,0:0:0:0:
256,192,177873,1,8,0:0:0:0:
256,192,178035,1,0,0:0:0:0:
256,192,178116,1,0,0:0:0:0:
256,192,178198,1,8,0:0:0:0:
256,192,178360,1,0,0:0:0:0:
256,192,178522,1,8,0:0:0:0:
256,192,178603,1,8,0:0:0:0:
256,192,178684,1,0,0:0:0:0:
256,192,178846,1,8,0:0:0:0:
256,192,179008,1,0,0:0:0:0:
256,192,179171,1,8,0:0:0:0:
256,192,179252,1,0,0:0:0:0:
256,192,179333,1,0,0:0:0:0:
256,192,179495,1,8,0:0:0:0:
256,192,179657,1,0,0:0:0:0:
256,192,179738,1,0,0:0:0:0:
256,192,179819,1,8,0:0:0:0:
256,192,179900,1,0,0:0:0:0:
256,192,179981,1,0,0:0:0:0:
256,192,180144,1,8,0:0:0:0:
256,192,180306,1,0,0:0:0:0:
256,192,180387,1,0,0:0:0:0:
256,192,180468,1,0,0:0:0:0:
256,192,180549,1,0,0:0:0:0:
256,192,180630,1,0,0:0:0:0:
256,192,180792,1,8,0:0:0:0:
256,192,181279,1,0,0:0:0:0:
256,192,181441,1,0,0:0:0:0:
256,192,182089,1,8,0:0:0:0:
256,192,182738,1,0,0:0:0:0:
256,192,183062,1,0,0:0:0:0:
256,192,183387,1,0,0:0:0:0:
256,192,183711,1,0,0:0:0:0:
256,192,183873,1,0,0:0:0:0:
256,192,184035,1,0,0:0:0:0:
256,192,184360,1,0,0:0:0:0:
256,192,184684,1,8,0:0:0:0:
256,192,185171,1,0,0:0:0:0:
256,192,185333,1,8,0:0:0:0:
256,192,185657,1,0,0:0:0:0:
256,192,185981,1,0,0:0:0:0:
256,192,186306,1,8,0:0:0:0:
256,192,186468,1,0,0:0:0:0:
256,192,186630,1,0,0:0:0:0:
256,192,187279,1,8,0:0:0:0:
256,192,187927,1,0,0:0:0:0:
256,192,188252,1,0,0:0:0:0:
256,192,188576,1,0,0:0:0:0:
256,192,188900,1,0,0:0:0:0:
256,192,189062,1,0,0:0:0:0:
256,192,189225,1,12,0:0:0:0:
256,192,189387,1,12,0:0:0:0:
256,192,189549,1,12,0:0:0:0:
256,192,189873,1,12,0:0:0:0:
256,192,190035,1,12,0:0:0:0:
256,192,190198,1,12,0:0:0:0:
256,192,190360,1,0,0:0:0:0:
256,192,190441,1,0,0:0:0:0:
256,192,190522,1,8,0:0:0:0:
256,192,190603,1,0,0:0:0:0:
256,192,190684,1,0,0:0:0:0:
256,192,190846,1,8,0:0:0:0:
256,192,191008,1,0,0:0:0:0:
256,192,191171,1,8,0:0:0:0:
256,192,191252,1,8,0:0:0:0:
256,192,191333,1,0,0:0:0:0:
256,192,191414,1,0,0:0:0:0:
256,192,191495,1,8,0:0:0:0:
256,192,191657,1,8,0:0:0:0:
256,192,191819,1,4,0:0:0:0:
256,192,192144,1,12,0:0:0:0:
256,192,192468,1,8,0:0:0:0:
256,192,192549,1,8,0:0:0:0:
256,192,192630,1,0,0:0:0:0:
256,192,192792,1,0,0:0:0:0:
256,192,192954,1,8,0:0:0:0:
256,192,193116,1,8,0:0:0:0:
256,192,193198,1,8,0:0:0:0:
256,192,193279,1,0,0:0:0:0:
256,192,193360,1,0,0:0:0:0:
256,192,193441,1,8,0:0:0:0:
256,192,193603,1,0,0:0:0:0:
256,192,193765,1,8,0:0:0:0:
256,192,193927,1,0,0:0:0:0:
256,192,194089,1,8,0:0:0:0:
256,192,194171,1,0,0:0:0:0:
256,192,194252,1,0,0:0:0:0:
256,192,194414,1,8,0:0:0:0:
256,192,194576,1,0,0:0:0:0:
256,192,194657,1,0,0:0:0:0:
256,192,194738,1,8,0:0:0:0:
256,192,194900,1,0,0:0:0:0:
256,192,195062,1,8,0:0:0:0:
256,192,195144,1,8,0:0:0:0:
256,192,195225,1,8,0:0:0:0:
256,192,195387,1,0,0:0:0:0:
256,192,195549,1,8,0:0:0:0:
256,192,195711,1,8,0:0:0:0:
256,192,195792,1,0,0:0:0:0:
256,192,195873,1,0,0:0:0:0:
256,192,195954,1,0,0:0:0:0:
256,192,196035,1,8,0:0:0:0:
256,192,196198,1,0,0:0:0:0:
256,192,196360,1,8,0:0:0:0:
256,192,196441,1,8,0:0:0:0:
256,192,196522,1,8,0:0:0:0:
256,192,196603,1,8,0:0:0:0:
256,192,196684,1,8,0:0:0:0:
256,192,197008,1,8,0:0:0:0:
256,192,197171,1,0,0:0:0:0:
256,192,197252,1,0,0:0:0:0:
256,192,197333,1,8,0:0:0:0:
256,192,197495,1,0,0:0:0:0:
256,192,197657,1,8,0:0:0:0:
256,192,197738,1,8,0:0:0:0:
256,192,197819,1,8,0:0:0:0:
256,192,197981,1,0,0:0:0:0:
256,192,198144,1,8,0:0:0:0:
256,192,198306,1,8,0:0:0:0:
256,192,198387,1,8,0:0:0:0:
256,192,198468,1,0,0:0:0:0:
256,192,198549,1,0,0:0:0:0:
256,192,198630,1,8,0:0:0:0:
256,192,198792,1,0,0:0:0:0:
256,192,198954,1,8,0:0:0:0:
256,192,199116,1,0,0:0:0:0:
256,192,199198,1,0,0:0:0:0:
256,192,199279,1,8,0:0:0:0:
256,192,199441,1,0,0:0:0:0:
256,192,199603,1,8,0:0:0:0:
256,192,199684,1,8,0:0:0:0:
256,192,199765,1,0,0:0:0:0:
256,192,199927,1,8,0:0:0:0:
256,192,200089,1,0,0:0:0:0:
256,192,200252,1,8,0:0:0:0:
256,192,200333,1,8,0:0:0:0:
256,192,200414,1,0,0:0:0:0:
256,192,200495,1,0,0:0:0:0:
256,192,200576,1,8,0:0:0:0:
256,192,200738,1,0,0:0:0:0:
256,192,200900,1,8,0:0:0:0:
256,192,201062,1,8,0:0:0:0:
256,192,201144,1,0,0:0:0:0:
256,192,201225,1,8,0:0:0:0:
256,192,201387,1,8,0:0:0:0:
256,192,201549,1,8,0:0:0:0:
256,192,201630,1,8,0:0:0:0:
256,192,201711,1,0,0:0:0:0:
256,192,201792,1,0,0:0:0:0:
256,192,201873,1,8,0:0:0:0:
256,192,201954,1,8,0:0:0:0:
256,192,202035,1,0,0:0:0:0:
256,192,202198,1,12,0:0:0:0:
256,192,202522,1,8,0:0:0:0:
256,192,202684,1,0,0:0:0:0:
256,192,202846,1,8,0:0:0:0:
256,192,202927,1,8,0:0:0:0:
256,192,203008,1,8,0:0:0:0:
256,192,203089,1,8,0:0:0:0:
256,192,203171,1,0,0:0:0:0:
256,192,203333,1,8,0:0:0:0:
256,192,203495,1,8,0:0:0:0:
256,192,203576,1,0,0:0:0:0:
256,192,203657,1,0,0:0:0:0:
256,192,203738,1,0,0:0:0:0:
256,192,203819,1,8,0:0:0:0:
256,192,203981,1,0,0:0:0:0:
256,192,204144,1,8,0:0:0:0:
256,192,204306,1,0,0:0:0:0:
256,192,204387,1,0,0:0:0:0:
256,192,204468,1,8,0:0:0:0:
256,192,204630,1,0,0:0:0:0:
256,192,204792,1,8,0:0:0:0:
256,192,204954,1,0,0:0:0:0:
256,192,205035,1,0,0:0:0:0:
256,192,205116,1,8,0:0:0:0:
256,192,205279,1,0,0:0:0:0:
256,192,205441,1,8,0:0:0:0:
256,192,205522,1,8,0:0:0:0:
256,192,205603,1,8,0:0:0:0:
256,192,205684,1,8,0:0:0:0:
256,192,205765,1,0,0:0:0:0:
256,192,205927,1,8,0:0:0:0:
256,192,206089,1,8,0:0:0:0:
256,192,206171,1,8,0:0:0:0:
256,192,206252,1,0,0:0:0:0:
256,192,206333,1,0,0:0:0:0:
256,192,206414,1,8,0:0:0:0:
256,192,206576,1,0,0:0:0:0:
256,192,206738,1,8,0:0:0:0:
256,192,206819,1,8,0:0:0:0:
256,192,206900,1,8,0:0:0:0:
256,192,206981,1,8,0:0:0:0:
256,192,207062,1,8,0:0:0:0:
256,192,207387,1,8,0:0:0:0:
256,192,207549,1,0,0:0:0:0:
256,192,207630,1,0,0:0:0:0:
256,192,207711,1,8,0:0:0:0:
256,192,207873,1,0,0:0:0:0:
256,192,208035,1,8,0:0:0:0:
256,192,208116,1,8,0:0:0:0:
256,192,208198,1,8,0:0:0:0:
256,192,208360,1,0,0:0:0:0:
256,192,208522,1,8,0:0:0:0:
256,192,208684,1,8,0:0:0:0:
256,192,208765,1,8,0:0:0:0:
256,192,208846,1,0,0:0:0:0:
256,192,208927,1,0,0:0:0:0:
256,192,209008,1,8,0:0:0:0:
256,192,209171,1,0,0:0:0:0:
256,192,209333,1,8,0:0:0:0:
256,192,209495,1,0,0:0:0:0:
256,192,209657,1,8,0:0:0:0:
256,192,209819,1,0,0:0:0:0:
256,192,209981,1,8,0:0:0:0:
256,192,210062,1,8,0:0:0:0:
256,192,210144,1,8,0:0:0:0:
256,192,210225,1,8,0:0:0:0:
256,192,210306,1,0,0:0:0:0:
256,192,210468,1,0,0:0:0:0:
256,192,210630,1,8,0:0:0:0:
256,192,210711,1,8,0:0:0:0:
256,192,210792,1,8,0:0:0:0:
256,192,210873,1,8,0:0:0:0:
256,192,210954,1,8,0:0:0:0:
256,192,211279,1,12,0:0:0:0:
256,192,211927,1,8,0:0:0:0:
256,192,212576,1,4,0:0:0:0:
256,192,212900,1,8,0:0:0:0:
256,192,213062,1,0,0:0:0:0:
256,192,213225,1,8,0:0:0:0:
256,192,213306,1,0,0:0:0:0:
256,192,213387,1,0,0:0:0:0:
256,192,213549,1,8,0:0:0:0:
256,192,213711,1,0,0:0:0:0:
256,192,213873,1,8,0:0:0:0:
256,192,214035,1,0,0:0:0:0:
256,192,214116,1,0,0:0:0:0:
256,192,214198,1,8,0:0:0:0:
256,192,214360,1,0,0:0:0:0:
256,192,214522,1,8,0:0:0:0:
256,192,214603,1,8,0:0:0:0:
256,192,214684,1,0,0:0:0:0:
256,192,214765,1,0,0:0:0:0:
256,192,214846,1,8,0:0:0:0:
256,192,215008,1,0,0:0:0:0:
256,192,215171,1,8,0:0:0:0:
256,192,215333,1,0,0:0:0:0:
256,192,215414,1,0,0:0:0:0:
256,192,215495,1,8,0:0:0:0:
256,192,215657,1,0,0:0:0:0:
256,192,215819,1,8,0:0:0:0:
256,192,215900,1,0,0:0:0:0:
256,192,215981,1,0,0:0:0:0:
256,192,216062,1,0,0:0:0:0:
256,192,216144,1,8,0:0:0:0:
256,192,216306,1,0,0:0:0:0:
256,192,216468,1,8,0:0:0:0:
256,192,216549,1,8,0:0:0:0:
256,192,216630,1,0,0:0:0:0:
256,192,216711,1,0,0:0:0:0:
256,192,216792,1,8,0:0:0:0:
256,192,216954,1,0,0:0:0:0:
256,192,217116,1,8,0:0:0:0:
256,192,217198,1,0,0:0:0:0:
256,192,217279,1,0,0:0:0:0:
256,192,217360,1,0,0:0:0:0:
256,192,217441,1,0,0:0:0:0:
256,192,217603,1,8,0:0:0:0:
256,192,217765,1,4,0:0:0:0:
256,192,218089,1,8,0:0:0:0:
256,192,218252,1,0,0:0:0:0:
256,192,218414,1,8,0:0:0:0:
256,192,218495,1,0,0:0:0:0:
256,192,218576,1,0,0:0:0:0:
256,192,218738,1,8,0:0:0:0:
256,192,218900,1,0,0:0:0:0:
256,192,219062,1,8,0:0:0:0:
256,192,219225,1,0,0:0:0:0:
256,192,219306,1,0,0:0:0:0:
256,192,219387,1,8,0:0:0:0:
256,192,219549,1,0,0:0:0:0:
256,192,219711,1,8,0:0:0:0:
256,192,219792,1,8,0:0:0:0:
256,192,219873,1,0,0:0:0:0:
256,192,219954,1,0,0:0:0:0:
256,192,220035,1,8,0:0:0:0:
256,192,220198,1,0,0:0:0:0:
256,192,220360,1,12,0:0:0:0:
256,192,220522,1,0,0:0:0:0:
256,192,220684,1,8,0:0:0:0:
256,192,220846,1,0,0:0:0:0:
256,192,221008,1,12,0:0:0:0:
256,192,221171,1,0,0:0:0:0:
256,192,221333,1,8,0:0:0:0:
256,192,221495,1,0,0:0:0:0:
256,192,221657,1,12,0:0:0:0:
256,192,221819,1,12,0:0:0:0:
256,192,221981,1,4,0:0:0:0:
256,192,222144,1,12,0:0:0:0:
256,192,222306,1,4,0:0:0:0:
256,192,222468,1,0,0:0:0:0:
256,192,222549,1,0,0:0:0:0:
256,192,222630,1,8,0:0:0:0:
256,192,222792,1,0,0:0:0:0:
256,192,222954,1,12,0:0:0:0:
256,192,223279,1,8,0:0:0:0:
256,192,223441,1,0,0:0:0:0:
256,192,223603,1,8,0:0:0:0:
256,192,223684,1,8,0:0:0:0:
256,192,223765,1,0,0:0:0:0:
256,192,223927,1,0,0:0:0:0:
256,192,224089,1,8,0:0:0:0:
256,192,224252,1,8,0:0:0:0:
256,192,224333,1,8,0:0:0:0:
256,192,224414,1,0,0:0:0:0:
256,192,224495,1,0,0:0:0:0:
256,192,224576,1,8,0:0:0:0:
256,192,224738,1,0,0:0:0:0:
256,192,224900,1,8,0:0:0:0:
256,192,225062,1,0,0:0:0:0:
256,192,225225,1,8,0:0:0:0:
256,192,225387,1,0,0:0:0:0:
256,192,225549,1,8,0:0:0:0:
256,192,225711,1,0,0:0:0:0:
256,192,225792,1,0,0:0:0:0:
256,192,225873,1,8,0:0:0:0:
256,192,226035,1,0,0:0:0:0:
256,192,226198,1,8,0:0:0:0:
256,192,226279,1,8,0:0:0:0:
256,192,226360,1,8,0:0:0:0:
256,192,226441,1,8,0:0:0:0:
256,192,226522,1,0,0:0:0:0:
256,192,226684,1,0,0:0:0:0:
256,192,226846,1,8,0:0:0:0:
256,192,226927,1,8,0:0:0:0:
256,192,227008,1,0,0:0:0:0:
256,192,227171,1,8,0:0:0:0:
256,192,227333,1,0,0:0:0:0:
256,192,227495,1,8,0:0:0:0:
256,192,227576,1,8,0:0:0:0:
256,192,227657,1,8,0:0:0:0:
256,192,227819,1,8,0:0:0:0:
256,192,227981,1,0,0:0:0:0:
256,192,228144,1,8,0:0:0:0:
256,192,228468,1,8,0:0:0:0:
256,192,228630,1,0,0:0:0:0:
256,192,228792,1,8,0:0:0:0:
256,192,228873,1,8,0:0:0:0:
256,192,228954,1,0,0:0:0:0:
256,192,229116,1,0,0:0:0:0:
256,192,229279,1,8,0:0:0:0:
256,192,229441,1,8,0:0:0:0:
256,192,229522,1,8,0:0:0:0:
256,192,229603,1,0,0:0:0:0:
256,192,229684,1,0,0:0:0:0:
256,192,229765,1,8,0:0:0:0:
256,192,229927,1,0,0:0:0:0:
256,192,230089,1,8,0:0:0:0:
256,192,230252,1,0,0:0:0:0:
256,192,230333,1,0,0:0:0:0:
256,192,230414,1,8,0:0:0:0:
256,192,230576,1,0,0:0:0:0:
256,192,230738,1,8,0:0:0:0:
256,192,230900,1,0,0:0:0:0:
256,192,230981,1,0,0:0:0:0:
256,192,231062,1,8,0:0:0:0:
256,192,231225,1,0,0:0:0:0:
256,192,231387,1,8,0:0:0:0:
256,192,231468,1,8,0:0:0:0:
256,192,231549,1,8,0:0:0:0:
256,192,231711,1,8,0:0:0:0:
256,192,231873,1,0,0:0:0:0:
256,192,232035,1,8,0:0:0:0:
256,192,232198,1,0,0:0:0:0:
256,192,232279,1,0,0:0:0:0:
256,192,232360,1,8,0:0:0:0:
256,192,232522,1,0,0:0:0:0:
256,192,232684,1,8,0:0:0:0:
256,192,232765,1,8,0:0:0:0:
256,192,232846,1,8,0:0:0:0:
256,192,232927,1,0,0:0:0:0:
256,192,233008,1,8,0:0:0:0:
256,192,233171,1,0,0:0:0:0:
256,192,233333,1,12,0:0:0:0:
256,192,233657,1,8,0:0:0:0:
256,192,233819,1,0,0:0:0:0:
256,192,233981,1,8,0:0:0:0:
256,192,234062,1,8,0:0:0:0:
256,192,234144,1,0,0:0:0:0:
256,192,234306,1,0,0:0:0:0:
256,192,234468,1,8,0:0:0:0:
256,192,234630,1,8,0:0:0:0:
256,192,234711,1,8,0:0:0:0:
256,192,234792,1,0,0:0:0:0:
256,192,234873,1,0,0:0:0:0:
256,192,234954,1,8,0:0:0:0:
256,192,235116,1,0,0:0:0:0:
256,192,235279,1,8,0:0:0:0:
256,192,235360,1,0,0:0:0:0:
256,192,235441,1,0,0:0:0:0:
256,192,235603,1,8,0:0:0:0:
256,192,235765,1,0,0:0:0:0:
256,192,235927,1,8,0:0:0:0:
256,192,236089,1,0,0:0:0:0:
256,192,236252,1,8,0:0:0:0:
256,192,236414,1,0,0:0:0:0:
256,192,236576,1,8,0:0:0:0:
256,192,236657,1,0,0:0:0:0:
256,192,236738,1,0,0:0:0:0:
256,192,236819,1,0,0:0:0:0:
256,192,236900,1,0,0:0:0:0:
256,192,237062,1,0,0:0:0:0:
256,192,237225,1,8,0:0:0:0:
256,192,237306,1,8,0:0:0:0:
256,192,237387,1,0,0:0:0:0:
256,192,237468,1,0,0:0:0:0:
256,192,237549,1,8,0:0:0:0:
256,192,237711,1,0,0:0:0:0:
256,192,237873,1,8,0:0:0:0:
256,192,237954,1,0,0:0:0:0:
256,192,238035,1,0,0:0:0:0:
256,192,238198,1,8,0:0:0:0:
256,192,238360,1,0,0:0:0:0:
256,192,238522,1,8,0:0:0:0:
256,192,238846,1,8,0:0:0:0:
256,192,239008,1,0,0:0:0:0:
256,192,239171,1,8,0:0:0:0:
256,192,239252,1,8,0:0:0:0:
256,192,239333,1,8,0:0:0:0:
256,192,239495,1,0,0:0:0:0:
256,192,239657,1,8,0:0:0:0:
256,192,239819,1,8,0:0:0:0:
256,192,239900,1,8,0:0:0:0:
256,192,239981,1,0,0:0:0:0:
256,192,240062,1,0,0:0:0:0:
256,192,240144,1,8,0:0:0:0:
256,192,240306,1,0,0:0:0:0:
256,192,240468,1,8,0:0:0:0:
256,192,240549,1,0,0:0:0:0:
256,192,240630,1,0,0:0:0:0:
256,192,240792,1,8,0:0:0:0:
256,192,240954,1,0,0:0:0:0:
256,192,241116,1,8,0:0:0:0:
256,192,241198,1,0,0:0:0:0:
256,192,241279,1,0,0:0:0:0:
256,192,241360,1,0,0:0:0:0:
256,192,241441,1,8,0:0:0:0:
256,192,241603,1,0,0:0:0:0:
256,192,241765,1,8,0:0:0:0:
256,192,241846,1,8,0:0:0:0:
256,192,241927,1,0,0:0:0:0:
256,192,242008,1,0,0:0:0:0:
256,192,242089,1,8,0:0:0:0:
256,192,242252,1,0,0:0:0:0:
256,192,242414,1,12,0:0:0:0:
160,94,243062,2,0,L|202:96,8,41.9999987182618
256,192,244035,1,8,0:0:0:0:
256,192,244116,1,8,0:0:0:0:
256,192,244198,1,8,0:0:0:0:
256,192,244279,1,8,0:0:0:0:
256,192,244360,1,8,0:0:0:0:
256,192,244684,12,0,246792,0:0:0:0:
256,192,246954,5,0,0:0:0:0:
256,192,247279,1,0,0:0:0:0:
256,192,247603,1,8,0:0:0:0:
256,192,247927,1,0,0:0:0:0:
256,192,248089,1,0,0:0:0:0:
256,192,248252,1,8,0:0:0:0:
256,192,248576,1,0,0:0:0:0:
256,192,248900,1,8,0:0:0:0:
256,192,249225,1,0,0:0:0:0:
256,192,249387,1,0,0:0:0:0:
256,192,249549,1,8,0:0:0:0:
256,192,249873,1,0,0:0:0:0:
256,192,250198,1,8,0:0:0:0:
256,192,250522,1,0,0:0:0:0:
256,192,250846,1,8,0:0:0:0:
256,192,251008,1,0,0:0:0:0:
256,192,251171,1,0,0:0:0:0:
256,192,251495,1,8,0:0:0:0:
256,192,251819,1,0,0:0:0:0:
256,192,252144,1,8,0:0:0:0:
256,192,252306,1,0,0:0:0:0:
256,192,252468,1,0,0:0:0:0:
256,192,252792,1,8,0:0:0:0:
256,192,253116,1,0,0:0:0:0:
256,192,253279,1,0,0:0:0:0:
256,192,253441,1,8,0:0:0:0:
256,192,253765,1,0,0:0:0:0:
256,192,254089,1,8,0:0:0:0:
256,192,254414,1,0,0:0:0:0:
256,192,254576,1,0,0:0:0:0:
256,192,254738,1,8,0:0:0:0:
256,192,255062,1,0,0:0:0:0:
256,192,255387,1,8,0:0:0:0:
256,192,255711,1,0,0:0:0:0:
256,192,256035,1,8,0:0:0:0:
256,192,256198,1,0,0:0:0:0:
256,192,256360,1,0,0:0:0:0:
256,192,256684,1,8,0:0:0:0:
256,192,257008,1,0,0:0:0:0:
256,192,257171,1,0,0:0:0:0:
256,192,257333,1,8,0:0:0:0:
256,192,257495,1,0,0:0:0:0:
256,192,257657,1,0,0:0:0:0:
256,192,257981,1,8,0:0:0:0:
256,192,258306,1,0,0:0:0:0:
256,192,258468,1,0,0:0:0:0:
256,192,258630,1,8,0:0:0:0:
256,192,258954,1,0,0:0:0:0:
256,192,259279,1,8,0:0:0:0:
256,192,259603,1,0,0:0:0:0:
256,192,259765,1,0,0:0:0:0:
256,192,259927,1,8,0:0:0:0:
256,192,260252,1,0,0:0:0:0:
256,192,260576,1,8,0:0:0:0:
256,192,260900,1,0,0:0:0:0:
256,192,261225,1,8,0:0:0:0:
256,192,261387,1,0,0:0:0:0:
256,192,261549,1,0,0:0:0:0:
256,192,261873,1,8,0:0:0:0:
256,192,262198,1,0,0:0:0:0:
256,192,262522,1,8,0:0:0:0:
256,192,262684,1,0,0:0:0:0:
256,192,262846,1,0,0:0:0:0:
256,192,263171,1,8,0:0:0:0:
256,192,263495,1,0,0:0:0:0:
256,192,263657,1,0,0:0:0:0:
256,192,263819,1,8,0:0:0:0:
256,192,264144,1,0,0:0:0:0:
256,192,264468,1,8,0:0:0:0:
256,192,264792,1,0,0:0:0:0:
256,192,264954,1,0,0:0:0:0:
256,192,265116,1,8,0:0:0:0:
256,192,265441,1,0,0:0:0:0:
256,192,265765,1,8,0:0:0:0:
256,192,266089,1,0,0:0:0:0:
256,192,266414,1,8,0:0:0:0:
256,192,266576,1,0,0:0:0:0:
256,192,266738,1,0,0:0:0:0:
256,192,267062,1,8,0:0:0:0:
256,192,267387,1,0,0:0:0:0:
256,192,267711,1,8,0:0:0:0:
256,192,267873,1,0,0:0:0:0:
256,192,268035,1,0,0:0:0:0:
