osu file format v14

[General]
AudioFilename: audio.mp3
AudioLeadIn: 0
PreviewTime: 74524
Countdown: 0
SampleSet: Soft
StackLeniency: 0.7
Mode: 0
LetterboxInBreaks: 0
WidescreenStoryboard: 0

[Editor]
DistanceSpacing: 0.6
BeatDivisor: 4
GridSize: 4
TimelineZoom: 4.299998

[Metadata]
Title:Hokori Yuki
TitleUnicode:埃雪
Artist:paraoka feat. haru*nya
ArtistUnicode:paraoka feat. haru*nya
Creator:Xilver15
Version:BabeLisM
Source:
Tags:dust snow funk jazz fusion progressive electronic waltz synth pop ぱらおか はるにゃ バベリズム 麹町養蚕館 koujimachi yousankan ongen doujin c78 comiket comic market paranoid masaoka パラノイド正岡 other instrumental adlib
BeatmapID:3340750
BeatmapSetID:1636932

[Difficulty]
HPDrainRate:5
CircleSize:4.7
OverallDifficulty:8.5
ApproachRate:9
SliderMultiplier:2
SliderTickRate:0.5

[Events]
//Background and Video events
0,0,"bg.png",0,0
//Break Periods
//Storyboard Layer 0 (Background)
//Storyboard Layer 1 (Fail)
//Storyboard Layer 2 (Pass)
//Storyboard Layer 3 (Foreground)
//Storyboard Layer 4 (Overlay)
//Storyboard Sound Samples

[TimingPoints]
326,458.015267175572,9,2,1,40,1,0
8341,-142.857142857143,9,2,1,40,0,0
16585,-100.0000000001,9,2,1,40,0,0
25058,-200.0000000002,9,2,1,40,0,0
41318,-125.000000000125,9,2,1,40,0,0
41547,-100,9,2,1,50,0,0
44180,-71.4285714285714,9,2,1,50,0,0
44753,-100,9,2,1,50,0,0
48303,-71.4285714285714,9,2,1,50,0,0
49333,-100,9,2,1,50,0,0
52654,-71.4285714285714,9,2,1,50,0,0
53226,-100,9,2,1,50,0,0
58035,-142.857142857143,9,2,1,40,0,0
64791,-71.4285714285714,9,2,1,40,0,0
65593,-100,9,2,1,40,0,0
66280,-80,9,2,1,50,0,0
69944,-100,9,2,1,50,0,0
70402,-100,9,2,1,40,0,0
70860,-80,9,2,1,40,0,0
72921,-142.857142857143,9,2,1,40,0,0
73264,-66.6666666666667,9,2,1,40,0,0
74066,-100,9,2,1,40,0,0
74524,-50,9,2,1,70,0,1
90555,-62.5000000000626,9,2,1,70,0,0
91013,-57.1428571428571,9,2,1,70,0,1
92616,-50,9,2,1,70,0,1
92959,-66.6666666666667,9,2,1,70,0,1
93417,-50,9,2,1,70,0,1
105211,-100,9,2,1,70,0,1
105784,-50,9,2,1,70,0,1
107501,-50,9,2,1,60,0,0
107845,-66.6666666666667,9,2,1,60,0,0
109104,-100,9,2,1,60,0,0
109906,-66.6666666666667,9,2,1,60,0,0
111165,-100,9,2,1,60,0,0
111623,-50,9,2,1,60,0,0
111967,-66.6666666666667,9,2,1,60,0,0
113226,-100,9,2,1,60,0,0
113684,-66.6666666666667,9,2,1,60,0,0
114257,-50,9,2,1,60,0,0
116089,-66.6666666666667,9,2,1,60,0,0
119180,-100,9,2,1,60,0,0
119867,-50,9,2,1,60,0,0
120211,-66.6666666666667,9,2,1,60,0,0
121471,-100,9,2,1,60,0,0
122501,-50,9,2,1,60,0,0
123761,-100.0000000001,9,2,1,60,0,0
123990,-50,9,2,1,60,0,0
124333,-66.6666666666667,9,2,1,60,0,0
125135,-100,9,2,1,60,0,0
126394,-57.1428571428571,9,2,1,60,0,0
126623,-66.6666666666667,9,2,1,60,0,0
127196,-100,9,2,1,60,0,0
128112,-57.1428571428571,9,2,1,60,0,0
128570,-66.6666666666667,9,2,1,60,0,0
129257,-100,9,2,1,60,0,0
130173,-66.6666666666667,9,2,1,60,0,0
131661,-71.4285714285714,9,2,1,60,0,0
132234,-57.1428571428571,9,2,1,60,0,0
133379,-66.6666666666667,9,2,1,60,0,0
133837,-100,9,2,1,60,0,0
134638,-57.1428571428571,9,2,1,60,0,0
134867,-66.6666666666667,9,2,1,60,0,0
135440,-100,9,2,1,60,0,0
136700,-57.1428571428571,9,2,1,60,0,0
136929,-66.6666666666667,9,2,1,60,0,0
137501,-100,9,2,1,70,0,0
138875,-66.6666666666667,9,2,1,70,0,0
140249,-57.1428571428571,9,2,1,60,0,0
140478,-50,9,2,1,70,0,0
140936,-100,9,2,1,60,0,0
142883,-57.1428571428571,9,2,1,60,0,0
143341,-100,9,2,1,60,0,0
144600,-50,9,2,1,60,0,0
144944,-66.6666666666667,9,2,1,60,0,0
145974,-100,9,2,1,60,0,0
146661,-50,9,2,1,60,0,0
147005,-66.6666666666667,9,2,1,60,0,0
147463,-100,9,2,1,60,0,0
148722,-50,9,2,1,60,0,0
149066,-66.6666666666667,9,2,1,60,0,0
152845,-50,9,2,1,60,0,0
153188,-66.6666666667334,9,2,1,60,0,0
153646,-100,9,2,1,60,0,0
154906,-66.6666666667334,9,2,1,70,0,1
155249,-57.1428571428571,9,2,1,70,0,1
155707,-50,9,2,1,70,0,1
156967,-57.1428571428571,9,2,1,60,0,0
158570,-100,9,2,1,60,0,0
159371,-66.6666666666667,9,2,1,60,0,0
159829,-100,9,2,1,60,0,0
161089,-57.1428571428571,9,2,1,60,0,0
161432,-66.6666666666667,9,2,1,60,0,0
163493,-57.1428571428571,9,2,1,60,0,0
164982,-100.0000000001,9,2,1,60,0,0
165211,-57.1428571428571,9,2,1,60,0,0
165555,-66.6666666666667,9,2,1,60,0,0
166356,-95.2380952380953,9,2,1,60,0,0
167272,-57.1428571428571,9,2,1,60,0,0
167616,-71.4285714285714,9,2,1,60,0,0
168074,-95.2380952380953,9,2,1,60,0,0
169333,-57.1428571428571,9,2,1,60,0,0
169677,-71.4285714285714,9,2,1,60,0,0
170135,-95.2380952380953,9,2,1,60,0,0
171852,-71.4285714285714,9,2,1,60,0,0
172539,-90.9090909091819,9,2,1,60,0,0
173455,-50.0000000000428,9,2,1,60,0,0
181585,-100.000000000111,9,2,1,60,0,0
181700,-50.0000000000491,9,2,1,60,0,0
182158,-66.6666666667407,9,2,1,60,0,0
182501,-83.3333333334258,9,2,1,60,0,0
183303,-100.000000000098,9,2,1,60,0,0
183761,-83.3333333334258,9,2,1,50,0,0
185822,-100.000000000111,9,2,1,50,0,0
187425,-125.000000000123,9,2,1,50,0,0
187883,-166.66666666681,9,2,1,40,0,0
189944,-50.00000000005,9,2,1,70,0,1
190058,-50.00000000005,9,2,1,70,0,0
192005,-100.0000000001,9,2,1,60,0,0
194066,-100.0000000001,9,2,1,70,0,1
194409,-50.00000000005,9,2,1,70,0,1
195669,-66.6666666667334,9,2,1,70,0,1
196127,-100.0000000001,9,2,1,60,0,1
197730,-142.857142857286,9,2,1,60,0,1
198188,-50.00000000005,9,2,1,70,0,0
200249,-80.00000000008,9,2,1,60,0,0
201394,-100.0000000001,9,2,1,60,0,0
201852,-142.857142857286,9,2,1,60,0,0
202310,-142.857142857286,9,2,1,70,0,1
202654,-50.00000000005,9,2,1,70,0,1
204371,-80.00000000008,9,2,1,60,0,1
205631,-100.0000000001,9,2,1,60,0,1
206432,-50.00000000005,9,2,1,70,0,0
208264,-80,9,2,1,70,0,0
208608,-80,9,2,1,80,0,1
208837,-50.00000000005,9,2,1,80,0,1
209066,-50.00000000005,9,2,1,80,0,0
209638,-66.6666666667334,9,2,1,80,0,0
210096,-100.0000000001,9,2,1,50,0,0
210555,-100.0000000001,9,2,1,70,0,1
210898,-50.00000000005,9,2,1,70,0,1
212158,-66.6666666667334,9,2,1,70,0,1
212616,-100.0000000001,9,2,1,70,0,1
213074,-66.6666666667334,9,2,1,70,0,1
213875,-142.857142857286,9,2,1,70,0,1
214677,-50.00000000005,9,2,1,70,0,0
216738,-66.6666666667334,9,2,1,60,0,0
218341,-142.857142857286,9,2,1,60,0,0
218799,-142.857142857286,9,2,1,70,0,1
219142,-50.00000000005,9,2,1,70,0,1
220860,-100.0000000001,9,2,1,70,0,1
221318,-66.6666666667334,9,2,1,70,0,1
222463,-142.857142857286,9,2,1,70,0,1
222921,-50.00000000005,9,2,1,60,0,0
224066,-66.6666666667334,9,2,1,60,0,0
224524,-142.857142857286,9,2,1,60,0,0
225325,-66.6666666667334,9,2,1,60,0,0
225784,-83.3333333334167,9,2,1,60,0,0
226585,-142.857142857286,9,2,1,60,0,0
227043,-66.6666666667334,9,2,1,60,0,0
228188,-80.00000000008,9,2,1,60,0,0
228646,-142.857142857286,9,2,1,60,0,0
229448,-66.6666666667334,9,2,1,60,0,0
230822,-95.2380952380953,9,2,1,60,0,0
231165,-50.00000000005,9,2,1,60,0,0
232310,-66.6666666667334,9,2,1,60,0,0
232768,-142.857142857286,9,2,1,60,0,0
233226,-57.1428571428571,9,2,1,60,0,0
233799,-100.0000000001,9,2,1,60,0,0
234829,-142.857142857286,9,2,1,60,0,0
235287,-57.1428571428571,9,2,1,60,0,0
236089,-100.0000000001,9,2,1,60,0,0
237348,-66.6666666666667,9,2,1,60,0,0
237806,-80,9,2,1,60,0,0
238951,-100,9,2,1,60,0,0
239409,-50,9,2,1,70,0,1
239753,-66.6666666666667,9,2,1,70,0,1
241471,-50.0000000000429,9,2,1,70,0,1
241814,-66.6666666667407,9,2,1,70,0,1
243532,-50.0000000000556,9,2,1,70,0,1
243875,-66.6666666667407,9,2,1,70,0,1
247654,-50.0000000000681,9,2,1,70,0,1
247997,-66.6666666667407,9,2,1,70,0,1
249715,-50.0000000000556,9,2,1,70,0,1
250058,-66.6666666667577,9,2,1,70,0,1
251776,-50.0000000000429,9,2,1,70,0,1
252119,-66.6666666667407,9,2,1,70,0,1
254180,-50.0000000000681,9,2,1,70,0,1
254409,-66.6666666667334,9,2,1,70,0,1
255898,-40.00000000004,9,2,1,70,0,0
257501,-66.6666666667334,9,2,1,70,0,0
257959,-50.00000000005,9,2,1,70,0,0
258303,-66.6666666667334,9,2,1,70,0,0
260020,-40.00000000004,9,2,1,70,0,0
261623,-66.6666666667334,9,2,1,70,0,0
262654,-50.00000000005,9,2,1,70,0,0
262883,-66.6666666667334,9,2,1,70,0,0
263684,-83.3333333334167,9,2,1,70,0,0
264142,-40.00000000004,9,2,1,70,0,0
265745,-66.6666666667334,9,2,1,70,0,0
266203,-50.00000000005,9,2,1,70,0,0
266547,-66.6666666667334,9,2,1,70,0,0
268264,-40.00000000004,9,2,1,70,0,0
269867,-66.6666666667334,9,2,1,70,0,0
270325,-100.0000000001,9,2,1,70,0,0
270898,-50.00000000005,9,2,1,70,0,0
271127,-66.6666666667334,9,2,1,70,0,0
272387,-40.00000000004,9,2,1,70,0,0
273990,-66.6666666667334,9,2,1,70,0,0
274448,-50.00000000005,9,2,1,70,0,0
274791,-66.6666666667334,9,2,1,70,0,0
276509,-50.00000000005,9,2,1,60,0,0
278112,-66.6666666667334,9,2,1,60,0,0
278570,-50.00000000005,9,2,1,60,0,0
279142,-66.6666666667334,9,2,1,60,0,0
280173,-83.3333333334167,9,2,1,60,0,0
280631,-66.6666666667334,9,2,1,50,0,0
282234,-100.0000000001,9,2,1,50,0,0
282692,-50.00000000005,9,2,1,50,0,0
283035,-66.6666666667334,9,2,1,50,0,0
283493,-83.3333333334167,9,2,1,50,0,0
284295,-100.0000000001,9,2,1,40,0,0
286356,-66.6666666667334,9,2,1,70,0,0
286814,-66.6666666667334,9,2,1,60,0,1
286929,-66.6666666667334,9,2,1,60,0,0
287387,-80,9,2,1,60,0,0
287730,-80,9,2,1,60,0,1
287845,-50,9,2,1,60,0,1
287959,-50.00000000005,9,2,1,60,0,0
288646,-66.6666666666667,9,2,1,60,0,0
288875,-50.00000000005,9,2,1,70,0,1
289677,-66.6666666666667,9,2,1,70,0,1
313379,-50.00000000005,9,2,1,70,0,1
313608,-50.00000000005,9,2,1,60,0,0
313837,-50.00000000005,9,2,1,50,0,0
314409,-100.0000000001,9,2,1,50,0,0
317501,-100.0000000001,9,2,1,50,0,1
317959,-100.0000000001,9,2,1,50,0,0
318303,-50.00000000005,9,2,1,40,0,0
318646,-55.5555555556112,9,2,1,40,0,0
318990,-66.6666666667334,9,2,1,40,0,0
319333,-83.3333333334167,9,2,1,40,0,0
319677,-100.0000000001,9,2,1,40,0,0
320020,-142.857142857286,9,2,1,40,0,0
320364,-166.666666666834,9,2,1,40,0,0
320707,-200.0000000002,9,2,1,40,0,0
320936,-166.666666666834,9,2,1,40,0,0
322768,-200.0000000002,9,2,1,40,0,0

[Colours]
Combo1 : 168,213,200
Combo2 : 148,163,189
Combo3 : 168,213,177
Combo4 : 194,214,235
Combo5 : 255,179,222
Combo6 : 255,179,184
Combo7 : 234,176,3
Combo8 : 246,209,58

[HitObjects]
18,382,326,117,8,3:0:0:0:
31,346,440,1,0,3:0:0:0:
14,313,555,1,0,3:0:0:0:
30,278,669,1,10,3:2:0:0:
122,378,898,1,0,3:0:0:0:
135,351,1013,1,0,3:0:0:0:
123,324,1127,1,8,3:0:0:0:
221,326,1356,1,0,3:0:0:0:
209,299,1471,1,10,3:2:0:0:
222,272,1585,1,0,3:0:0:0:
217,243,1700,1,2,3:2:0:0:
227,215,1814,1,0,3:0:0:0:
217,186,1929,1,8,3:0:0:0:
339,309,2158,1,10,3:2:0:0:
316,286,2272,1,0,3:0:0:0:
332,258,2387,5,8,3:0:0:0:
313,230,2501,1,0,3:0:0:0:
325,197,2616,1,0,3:0:0:0:
311,171,2730,1,10,3:2:0:0:
464,299,2959,1,0,3:0:0:0:
452,272,3074,1,0,3:0:0:0:
466,246,3188,1,8,3:0:0:0:
373,239,3417,1,0,3:0:0:0:
361,212,3532,1,10,3:2:0:0:
374,185,3646,1,0,3:0:0:0:
369,156,3761,1,2,3:2:0:0:
379,128,3875,1,0,3:0:0:0:
369,99,3990,1,8,3:0:0:0:
248,199,4219,1,10,3:2:0:0:
262,174,4333,1,0,3:0:0:0:
263,142,4448,5,8,3:0:0:0:
249,117,4562,1,0,3:0:0:0:
263,90,4677,1,0,3:0:0:0:
251,66,4791,1,10,3:2:0:0:
164,236,5020,1,0,3:0:0:0:
150,211,5135,1,0,3:0:0:0:
164,184,5249,1,8,3:0:0:0:
34,211,5478,1,0,3:0:0:0:
22,184,5593,1,10,3:2:0:0:
35,157,5707,1,0,3:0:0:0:
30,128,5822,1,2,3:2:0:0:
40,100,5936,1,0,3:0:0:0:
30,71,6051,1,8,3:0:0:0:
157,200,6280,1,10,3:2:0:0:
168,179,6394,1,0,3:0:0:0:
156,156,6509,5,8,3:0:0:0:
144,138,6623,1,0,3:0:0:0:
155,109,6738,1,0,3:0:0:0:
143,81,6852,1,10,3:2:0:0:
254,293,7081,1,0,3:0:0:0:
233,274,7196,1,0,3:0:0:0:
244,243,7310,1,8,3:0:0:0:
243,228,7425,1,2,3:2:0:0:
261,195,7539,1,10,3:2:0:0:
226,172,7654,1,10,3:2:0:0:
339,184,7883,69,2,3:2:0:0:
342,159,7997,1,0,3:0:0:0:
328,137,8112,1,8,3:0:0:0:
336,113,8226,1,2,3:2:0:0:
333,87,8341,2,0,L|339:65,3,17.4999999999999,10|2|2|2,3:2|3:2|3:2|3:2,2:0:0:0:
365,63,8570,5,10,1:3:0:0:
416,62,8684,1,0,3:0:0:0:
457,42,8799,1,0,3:0:0:0:
506,59,8913,1,10,3:2:0:0:
411,169,9142,1,0,3:0:0:0:
438,157,9257,1,0,3:0:0:0:
466,166,9371,1,8,3:0:0:0:
304,227,9600,1,0,3:0:0:0:
333,232,9715,1,10,3:2:0:0:
360,220,9829,1,0,3:0:0:0:
388,229,9944,1,2,3:2:0:0:
417,223,10058,1,0,3:0:0:0:
446,228,10173,1,8,3:0:0:0:
337,327,10402,1,10,3:2:0:0:
366,322,10516,1,0,3:0:0:0:
395,328,10631,5,8,3:0:0:0:
423,319,10745,1,0,3:0:0:0:
450,331,10860,1,0,3:0:0:0:
479,326,10974,1,10,3:2:0:0:
286,242,11203,1,0,3:0:0:0:
315,237,11318,1,0,3:0:0:0:
344,243,11432,1,8,3:0:0:0:
304,156,11661,1,0,3:0:0:0:
333,151,11776,1,10,3:2:0:0:
362,157,11890,1,0,3:0:0:0:
390,148,12005,1,2,3:2:0:0:
417,160,12119,1,0,3:0:0:0:
446,155,12234,1,8,3:0:0:0:
191,89,12463,1,10,3:2:0:0:
220,84,12577,1,0,3:0:0:0:
250,84,12692,5,2,1:2:0:0:
235,120,12806,1,0,3:0:0:0:
253,155,12921,1,0,3:0:0:0:
237,191,13035,1,10,3:2:0:0:
127,157,13264,1,0,3:0:0:0:
114,184,13379,1,0,3:0:0:0:
126,211,13493,1,8,3:0:0:0:
351,116,13722,1,0,3:0:0:0:
363,143,13837,1,10,3:2:0:0:
350,170,13951,1,0,3:0:0:0:
355,199,14066,1,2,3:2:0:0:
345,227,14180,1,0,3:0:0:0:
355,256,14295,1,8,3:0:0:0:
207,178,14524,1,10,3:2:0:0:
219,205,14638,1,0,3:0:0:0:
205,231,14753,69,8,3:0:0:0:
211,260,14867,1,0,3:0:0:0:
201,289,14982,1,0,3:0:0:0:
210,317,15096,1,10,3:2:0:0:
88,143,15325,1,0,3:0:0:0:
117,169,15440,1,0,3:0:0:0:
94,193,15555,1,8,3:0:0:0:
107,202,15669,1,2,3:2:0:0:
75,223,15784,1,10,3:2:0:0:
104,249,15898,1,10,3:2:0:0:
217,89,16127,1,2,3:2:0:0:
212,104,16242,1,0,3:0:0:0:
218,119,16356,1,8,3:0:0:0:
212,133,16471,1,0,3:0:0:0:
220,154,16585,2,0,L|236:186,3,24.9999999999749,10|0|0|0,3:2|3:0|3:0|3:0,2:0:0:0:
186,229,16814,5,2,1:2:0:0:
135,215,16929,1,0,3:0:0:0:
85,233,17043,1,0,3:0:0:0:
32,215,17158,1,10,3:2:0:0:
145,134,17387,1,0,3:0:0:0:
111,121,17501,1,0,3:0:0:0:
79,136,17616,1,8,3:0:0:0:
228,43,17845,1,0,3:0:0:0:
194,30,17959,1,10,3:2:0:0:
162,45,18074,1,0,3:0:0:0:
128,36,18188,1,2,3:2:0:0:
94,46,18303,1,0,3:0:0:0:
63,28,18417,1,8,3:0:0:0:
291,143,18646,1,10,3:2:0:0:
257,130,18761,1,0,3:0:0:0:
225,145,18875,5,8,3:0:0:0:
191,136,18990,1,0,3:0:0:0:
157,146,19104,1,0,3:0:0:0:
126,128,19219,1,10,3:2:0:0:
165,230,19448,1,0,3:0:0:0:
131,240,19562,1,0,3:0:0:0:
100,222,19677,1,8,3:0:0:0:
247,325,19906,1,0,3:0:0:0:
213,312,20020,1,10,3:2:0:0:
181,327,20135,1,0,3:0:0:0:
147,318,20249,1,2,3:2:0:0:
113,328,20364,1,0,3:0:0:0:
82,310,20478,1,8,3:0:0:0:
335,227,20707,1,10,3:2:0:0:
301,214,20822,1,0,3:0:0:0:
254,232,20936,5,2,1:2:0:0:
266,198,21051,1,0,3:0:0:0:
256,169,21165,1,0,3:0:0:0:
269,144,21280,1,10,3:2:0:0:
156,233,21509,1,0,3:0:0:0:
148,200,21623,1,0,3:0:0:0:
157,168,21738,1,8,3:0:0:0:
46,253,21967,1,0,3:0:0:0:
53,220,22081,1,10,3:2:0:0:
44,188,22196,1,0,3:0:0:0:
56,160,22310,1,2,3:2:0:0:
41,133,22425,1,0,3:0:0:0:
58,108,22539,1,8,3:0:0:0:
178,192,22768,1,10,3:2:0:0:
185,159,22883,1,0,3:0:0:0:
176,127,22997,69,8,3:0:0:0:
188,99,23112,1,0,3:0:0:0:
173,72,23226,1,0,3:0:0:0:
190,47,23341,1,10,3:2:0:0:
285,190,23570,1,0,3:0:0:0:
322,174,23684,1,0,3:0:0:0:
291,145,23799,1,8,3:0:0:0:
304,134,23913,1,0,3:0:0:0:
276,104,24028,1,8,3:2:0:0:
306,84,24142,1,10,3:2:0:0:
423,110,24371,1,2,3:2:0:0:
418,125,24486,1,0,3:0:0:0:
424,140,24600,1,8,3:0:0:0:
418,154,24715,1,0,3:0:0:0:
426,175,24829,2,0,L|427:201,3,24.9999999999749,10|0|0|0,3:2|3:0|3:0|3:0,2:0:0:0:
453,222,25058,6,0,L|453:263,1,24.999999999975,2|0,1:2|3:0,2:0:0:0:
346,180,25287,1,2,3:2:0:0:
346,192,25402,1,8,3:2:0:0:
378,253,25516,2,0,L|378:294,1,24.999999999975,2|0,3:2|3:0,2:0:0:0:
304,329,25745,1,0,3:0:0:0:
272,268,25860,2,0,L|272:227,1,24.999999999975,2|0,3:2|2:0,2:0:0:0:
215,332,26089,1,8,3:0:0:0:
155,294,26203,2,0,L|154:269,1,24.999999999975,10|0,3:2|3:0,2:0:0:0:
24,284,26432,1,2,3:2:0:0:
24,272,26547,1,0,3:0:0:0:
79,227,26661,2,0,L|79:192,1,24.999999999975,2|0,3:2|3:0,2:0:0:0:
154,219,26890,1,8,3:2:0:0:
154,207,27005,1,0,3:0:0:0:
128,141,27119,6,0,L|128:109,1,24.999999999975,2|0,1:2|3:0,2:0:0:0:
194,82,27348,1,2,3:2:0:0:
194,94,27463,1,8,3:2:0:0:
224,160,27577,2,0,L|224:192,1,24.999999999975,2|0,3:2|3:0,2:0:0:0:
236,261,27806,1,0,3:0:0:0:
297,210,27921,2,0,L|297:178,1,24.999999999975,2|0,3:2|3:0,2:0:0:0:
355,254,28150,1,8,3:0:0:0:
301,297,28264,2,0,L|301:329,1,24.999999999975,10|0,3:2|3:0,2:0:0:0:
443,246,28493,5,2,3:2:0:0:
442,257,28608,1,0,3:0:0:0:
404,312,28722,2,0,L|404:344,1,24.999999999975,2|0,1:2|3:0,2:0:0:0:
425,85,28951,1,8,3:2:0:0:
425,97,29066,1,0,3:0:0:0:
394,161,29180,2,0,L|394:193,1,24.999999999975,2|0,1:2|3:0,2:0:0:0:
323,192,29409,1,2,3:2:0:0:
323,204,29524,1,8,3:2:0:0:
267,146,29638,2,0,L|266:105,1,24.999999999975,2|0,3:2|3:0,2:0:0:0:
213,204,29867,1,2,3:2:0:0:
270,251,29982,2,0,L|269:292,1,24.999999999975,8|0,3:0|3:0,2:0:0:0:
198,307,30211,1,2,3:2:0:0:
141,260,30325,2,0,L|142:219,1,24.999999999975,8|0,3:2|3:0,2:0:0:0:
78,194,30555,1,2,3:2:0:0:
78,182,30669,1,0,3:0:0:0:
27,127,30784,2,0,L|28:93,1,24.999999999975,8|0,3:0|3:0,2:0:0:0:
72,45,31013,1,8,3:2:0:0:
72,33,31127,1,0,3:0:0:0:
154,14,31242,69,2,1:2:0:0:
154,29,31356,1,0,3:0:0:0:
130,101,31471,1,2,3:2:0:0:
201,136,31585,2,0,L|201:107,1,24.999999999975,8|2,3:2|3:2,2:0:0:0:
133,179,31814,1,0,3:0:0:0:
133,191,31929,1,0,3:0:0:0:
78,237,32043,6,0,L|78:265,1,24.999999999975,2|0,3:2|3:0,2:0:0:0:
152,277,32272,1,8,3:0:0:0:
206,234,32387,2,0,L|205:203,1,24.999999999975,10|0,3:2|3:0,2:0:0:0:
271,168,32616,1,2,3:2:0:0:
271,183,32730,1,0,3:0:0:0:
339,120,32845,2,0,L|338:145,1,24.999999999975,2|0,1:2|3:0,2:0:0:0:
407,196,33074,2,0,L|407:179,2,16.66666666665,8|0|0,3:2|3:0|3:0,2:0:0:0:
465,120,33303,5,2,1:2:0:0:
122,179,36852,5,2,1:2:0:0:
345,75,37425,69,2,1:2:0:0:
335,218,40974,5,8,3:0:0:0:
207,331,41318,6,0,L|212:343,4,13.33333333332,8|0|0|0|0,1:3|3:0|3:0|3:0|3:0,2:0:0:0:
163,306,41547,6,0,P|153:283|135:267,1,50,2|0,1:2|2:0,2:0:0:0:
93,355,41776,1,0,3:0:0:0:
85,348,41890,1,8,3:2:0:0:
21,319,42005,2,0,L|23:269,1,50,2|0,3:2|2:0,2:0:0:0:
38,201,42234,1,0,3:0:0:0:
26,132,42348,2,0,P|16:108|-1:90,1,50,0|0,1:0|2:0,2:0:0:0:
34,14,42577,1,0,3:0:0:0:
53,14,42692,2,0,P|56:38|67:61,1,50,8|0,3:2|2:0,2:0:0:0:
106,137,42921,1,0,3:0:0:0:
118,141,43035,1,2,3:2:0:0:
148,68,43150,2,0,P|171:61|189:44,1,50,2|0,1:2|2:0,2:0:0:0:
272,29,43379,1,8,3:2:0:0:
242,87,43493,1,0,3:0:0:0:
312,84,43608,70,0,P|335:77|358:66,1,50,0|0,1:0|2:0,2:0:0:0:
343,161,43837,1,0,3:0:0:0:
376,153,43951,1,8,3:2:0:0:
411,155,44066,1,2,3:2:0:0:
477,187,44180,2,0,B|495:162|495:162|476:124,1,70,0|0,1:0|2:0,2:0:0:0:
280,17,44409,2,0,B|268:46|268:46|282:83,1,70,8|0,3:0|2:0,2:0:0:0:
335,139,44638,1,0,3:0:0:0:
282,193,44753,2,0,L|288:242,2,50,8|0|0,3:2|3:0|3:0,2:0:0:0:
321,306,45096,1,2,3:2:0:0:
392,323,45211,2,0,L|397:273,1,50,0|0,1:0|2:0,2:0:0:0:
394,188,45440,1,8,3:2:0:0:
467,187,45555,1,0,3:0:0:0:
455,115,45669,6,0,L|409:95,1,50,2|0,1:2|2:0,2:0:0:0:
330,47,45898,1,0,3:0:0:0:
308,53,46013,1,8,3:2:0:0:
293,73,46127,2,0,P|310:91|330:104,1,50,2|0,3:2|2:0,2:0:0:0:
265,198,46356,1,0,3:0:0:0:
341,199,46471,2,0,P|352:180|330:183,1,50,0|0,1:0|2:0,2:0:0:0:
211,100,46700,2,0,P|228:118|248:131,1,50,0|8,3:0|3:2,2:0:0:0:
265,229,46929,1,0,2:0:0:0:
246,245,47043,1,0,3:0:0:0:
220,243,47158,1,2,3:2:0:0:
153,232,47272,2,0,P|141:207|136:179,1,50,2|0,1:2|2:0,2:0:0:0:
107,60,47501,1,8,3:2:0:0:
101,130,47616,1,0,3:0:0:0:
34,116,47730,6,0,P|14:100|1:80,1,50,0|0,1:0|2:0,2:0:0:0:
9,242,47959,1,0,3:0:0:0:
26,228,48074,1,8,3:2:0:0:
45,217,48188,1,2,3:2:0:0:
142,274,48303,2,0,P|111:272|120:242,1,70,0|0,1:0|2:0,2:0:0:0:
176,184,48532,2,0,P|208:183|204:214,1,70,8|0,3:0|2:0,2:0:0:0:
268,252,48761,1,0,3:0:0:0:
332,290,48875,1,8,3:2:0:0:
364,288,48990,1,0,3:0:0:0:
388,272,49104,1,0,3:0:0:0:
396,244,49219,1,2,3:2:0:0:
464,203,49333,2,0,P|452:182|450:155,1,50,0|0,1:0|2:0,2:0:0:0:
378,138,49562,2,0,L|370:123,3,16.6666666666667,8|0|0|0,3:2|3:0|3:0|3:0,2:0:0:0:
377,59,49791,6,0,L|349:12,2,50,2|0|0,1:2|2:0|3:0,2:0:0:0:
429,140,50135,1,8,3:2:0:0:
355,159,50249,2,0,P|337:143|319:125,1,50,2|0,3:2|2:0,2:0:0:0:
247,88,50478,1,0,3:0:0:0:
229,158,50593,2,0,L|263:193,1,50,0|0,1:0|2:0,2:0:0:0:
316,243,50822,1,0,3:0:0:0:
261,285,50936,2,0,P|241:269|224:251,1,50,8|0,3:2|2:0,2:0:0:0:
151,212,51165,1,0,3:0:0:0:
146,225,51280,1,2,3:2:0:0:
154,292,51394,2,0,L|180:334,1,50,2|0,1:2|2:0,2:0:0:0:
24,328,51623,1,8,3:2:0:0:
92,344,51738,1,0,3:0:0:0:
72,272,51852,70,0,P|67:248|59:225,1,50,0|0,1:0|2:0,2:0:0:0:
1,178,52081,1,0,3:0:0:0:
12,164,52196,1,8,3:2:0:0:
30,97,52310,2,0,L|15:39,1,50,2|0,3:2|2:0,2:0:0:0:
98,54,52539,1,2,3:2:0:0:
141,173,52654,2,0,P|114:155|132:129,1,70,0|0,1:0|2:0,2:0:0:0:
178,57,52883,1,0,3:0:0:0:
191,80,52997,1,8,3:2:0:0:
215,94,53112,1,0,3:0:0:0:
285,119,53226,2,0,P|309:115|331:104,1,50,0|2,3:0|3:2,2:0:0:0:
381,43,53455,1,0,1:0:0:0:
374,242,53684,1,8,3:2:0:0:
336,179,53799,1,0,3:0:0:0:
384,258,53913,6,0,P|398:238|409:216,1,50,2|0,1:2|2:0,2:0:0:0:
448,61,54142,1,0,3:0:0:0:
461,59,54257,1,8,3:2:0:0:
499,134,54371,2,0,P|486:155|476:178,1,50,2|0,3:2|2:0,2:0:0:0:
490,259,54600,1,0,3:0:0:0:
440,316,54715,2,0,P|416:320|392:327,1,50,0|0,1:0|2:0,2:0:0:0:
290,318,54944,1,0,3:0:0:0:
321,271,55058,1,8,3:2:0:0:
329,219,55173,1,0,2:0:0:0:
353,226,55287,1,0,3:0:0:0:
378,220,55402,1,2,3:2:0:0:
404,209,55516,2,0,L|379:252,1,50,2|0,1:2|2:0,2:0:0:0:
279,331,55745,1,8,3:2:0:0:
348,353,55860,1,0,3:0:0:0:
281,300,55974,6,0,P|287:276|297:253,1,50,0|0,1:0|2:0,2:0:0:0:
471,290,56203,1,0,3:0:0:0:
461,295,56318,1,8,3:2:0:0:
402,344,56432,2,0,L|352:352,1,50,2|0,3:2|2:0,2:0:0:0:
277,334,56661,1,2,3:2:0:0:
259,324,56776,1,0,1:0:0:0:
253,304,56890,1,0,3:0:0:0:
259,284,57005,1,8,3:2:0:0:
286,207,57119,2,0,P|280:183|267:162,1,50,8|0,3:2|3:0,2:0:0:0:
183,130,57348,1,0,3:0:0:0:
164,123,57463,1,2,3:2:0:0:
156,49,57577,2,0,L|203:33,1,50,0|0,1:0|2:0,2:0:0:0:
330,20,57806,2,0,L|365:24,2,33.3333333333333,8|0|0,3:2|2:0|2:0,3:0:0:0:
298,87,58035,6,0,L|250:101,1,35,6|0,1:2|3:0,2:0:0:0:
223,29,58264,1,2,3:2:0:0:
195,31,58379,1,8,3:2:0:0:
172,40,58493,2,0,L|182:73,1,35,2|0,3:2|3:0,2:0:0:0:
90,11,58722,1,0,3:0:0:0:
81,29,58837,2,0,L|69:70,1,35,8|0,3:0|3:0,2:0:0:0:
11,106,59066,1,0,3:0:0:0:
0,128,59180,1,8,3:2:0:0:
2,152,59295,1,0,3:0:0:0:
14,172,59409,1,2,3:2:0:0:
36,181,59524,1,0,3:0:0:0:
60,179,59638,2,0,L|109:166,1,35,8|2,3:0|3:2,2:0:0:0:
165,176,59867,1,8,3:2:0:0:
174,165,59982,1,0,3:0:0:0:
230,110,60096,70,0,L|264:97,1,35,8|0,3:0|3:0,2:0:0:0:
287,80,60325,1,8,3:0:0:0:
352,34,60440,2,0,L|386:25,1,35,8|2,3:2|3:2,2:0:0:0:
462,24,60669,1,2,3:2:0:0:
483,47,60784,1,0,3:0:0:0:
489,75,60898,2,0,P|486:102|481:126,1,35,8|0,3:0|3:0,2:0:0:0:
436,161,61127,1,0,3:0:0:0:
422,177,61242,1,8,3:2:0:0:
414,196,61356,1,0,3:0:0:0:
410,216,61471,2,0,L|421:250,1,35,2|0,3:2|3:0,2:0:0:0:
481,301,61700,1,8,3:0:0:0:
335,351,61929,1,8,3:2:0:0:
353,340,62043,1,2,3:2:0:0:
373,336,62158,6,0,L|358:304,1,35,8|0,3:0|3:0,2:0:0:0:
346,277,62387,1,0,3:0:0:0:
407,238,62501,2,0,P|417:223|424:208,1,35,8|2,3:2|3:2,2:0:0:0:
350,178,62730,1,0,3:0:0:0:
329,174,62845,1,2,3:2:0:0:
310,180,62959,2,0,P|291:187|280:198,1,35,8|0,3:0|3:0,2:0:0:0:
357,102,63188,1,0,3:0:0:0:
371,81,63303,1,8,3:2:0:0:
392,68,63417,1,0,3:0:0:0:
414,58,63532,1,2,3:2:0:0:
438,54,63646,1,0,3:0:0:0:
462,59,63761,2,0,L|459:93,1,35,8|0,3:0|3:0,2:0:0:0:
458,183,63990,1,10,3:2:0:0:
507,233,64104,1,0,3:0:0:0:
466,287,64219,5,8,3:0:0:0:
456,312,64333,1,0,3:0:0:0:
435,321,64448,1,2,3:2:0:0:
413,315,64562,1,8,3:2:0:0:
398,301,64677,1,2,3:2:0:0:
341,250,64791,2,0,P|356:226|327:231,1,70,2|0,1:3|2:0,2:0:0:0:
279,316,65020,2,0,P|250:309|272:290,1,70,2|0,1:2|2:0,2:0:0:0:
180,277,65249,1,8,3:2:0:0:
205,210,65364,1,8,3:0:0:0:
115,232,65478,1,0,1:0:0:0:
184,301,65593,6,0,L|183:283,3,16.6666666666667,2|0|0|0,1:3|3:0|3:0|3:0,3:0:0:0:
129,203,65822,70,0,L|131:183,9,16.6666666666667,2|0|0|0|0|0|0|0|0|0,1:3|3:0|3:0|3:0|3:0|3:0|3:0|3:0|3:0|3:0,3:0:0:0:
20,274,66280,6,0,P|34:253|3:257,1,62.5,2|0,1:2|3:0,2:0:0:0:
30,169,66509,1,2,3:2:0:0:
39,162,66623,1,0,3:0:0:0:
131,187,66738,2,0,P|112:178|137:164,1,62.5,10|0,3:2|3:0,2:0:0:0:
146,84,66967,1,10,3:2:0:0:
227,136,67081,2,0,P|243:114|216:113,1,62.5,8|0,3:0|3:0,2:0:0:0:
255,34,67310,1,0,3:0:0:0:
325,73,67425,1,10,3:2:0:0:
334,67,67539,1,0,3:0:0:0:
415,15,67654,2,0,P|404:38|428:32,1,62.5,8|8,3:0|3:0,2:0:0:0:
509,28,67883,1,2,1:2:0:0:
507,38,67997,1,2,3:2:0:0:
464,96,68112,1,2,3:2:0:0:
467,104,68226,1,8,3:2:0:0:
512,161,68341,1,0,1:0:0:0:
490,261,68455,6,0,P|483:239|502:258,1,62.5,8|0,1:2|3:0,2:0:0:0:
399,170,68684,2,0,P|413:180|386:194,1,62.5,10|0,3:2|3:0,2:0:0:0:
395,276,68913,1,2,3:2:0:0:
389,283,69028,1,10,3:2:0:0:
290,227,69142,2,0,P|313:209|285:207,1,62.5,0|0,1:0|3:0,2:0:0:0:
232,274,69371,1,0,3:0:0:0:
221,269,69486,1,10,1:2:0:0:
177,204,69600,1,0,3:0:0:0:
166,209,69715,1,2,1:2:0:0:
155,206,69829,1,0,3:0:0:0:
80,243,69944,2,0,L|60:246,3,16.6666666666667,10|0|0|0,1:3|3:0|3:0|3:0,3:0:0:0:
0,335,70173,1,10,1:2:0:0:
70,317,70287,1,0,3:0:0:0:
139,351,70402,5,2,1:2:0:0:
151,346,70516,1,0,3:0:0:0:
168,346,70631,1,2,3:2:0:0:
182,342,70745,1,0,3:0:0:0:
171,269,70860,2,0,P|189:251|163:247,1,62.5,10|0,3:2|3:0,2:0:0:0:
255,292,71089,1,8,3:2:0:0:
284,191,71203,2,0,P|271:207|300:220,1,62.5,8|0,3:0|2:0,2:0:0:0:
372,236,71432,1,0,3:0:0:0:
368,151,71547,1,10,3:2:0:0:
375,140,71661,1,0,3:0:0:0:
456,156,71776,2,0,P|448:185|475:176,1,62.5,2|0,3:2|3:0,2:0:0:0:
505,243,72005,1,2,1:2:0:0:
499,249,72119,1,8,3:2:0:0:
433,280,72234,1,2,3:2:0:0:
439,287,72348,1,2,3:2:0:0:
439,354,72463,69,2,1:2:0:0:
426,361,72577,1,0,3:0:0:0:
411,361,72692,1,2,3:2:0:0:
395,356,72806,1,0,3:0:0:0:
333,333,72921,2,0,L|324:293,1,35,2|0,1:3|2:0,2:0:0:0:
251,273,73150,1,0,3:0:0:0:
198,163,73264,6,0,P|185:194|218:208,1,75,10|0,1:2|2:0,2:0:0:0:
232,88,73493,5,2,3:2:0:0:
353,141,73608,6,0,P|354:105|319:104,1,75,10|0,1:2|3:0,2:0:0:0:
436,174,73837,69,2,1:3:0:0:
442,170,73894,5,0,3:0:0:0:
446,164,73951,5,0,3:0:0:0:
397,254,74066,2,0,L|392:229,2,25,2|0|0,1:3|3:0|3:0,2:0:0:0:
467,286,74295,1,0,3:0:0:0:
467,286,74409,1,8,3:0:0:0:
236,384,74524,6,1,P|197:384|216:339,1,100,6|0,1:2|2:0,2:0:0:0:
334,351,74753,2,1,P|356:319|312:308,1,100,2|0,1:2|3:2,2:0:0:0:
205,332,74982,1,2,1:2:0:0:
307,303,75096,1,2,1:2:0:0:
198,330,75211,1,0,2:0:0:0:
307,296,75325,2,0,P|319:258|280:272,1,100,2|0,1:2|3:0,2:0:0:0:
193,326,75555,2,1,P|154:321|189:296,1,100,0|0,1:0|3:0,2:0:0:0:
174,277,75784,1,0,3:0:0:0:
269,244,75898,1,2,1:2:0:0:
179,281,76013,1,0,3:0:0:0:
275,248,76127,2,0,P|313:236|280:211,1,100,2|0,1:2|3:0,2:0:0:0:
206,220,76356,1,2,1:2:0:0:
207,212,76471,1,0,3:0:0:0:
172,163,76585,70,0,B|186:182|212:186|212:186|210:155|184:146,1,100,8|0,1:3|2:0,2:0:0:0:
120,222,76814,1,2,1:2:0:0:
239,143,76929,1,2,1:2:0:0:
117,219,77043,1,0,3:0:0:0:
231,140,77158,2,0,P|234:96|197:110,1,100,2|0,1:2|2:0,2:0:0:0:
115,217,77387,2,0,P|74:224|83:180,1,100,0|0,1:0|2:0,2:0:0:0:
131,135,77616,1,2,1:2:0:0:
197,84,77730,2,0,P|227:111|190:111,1,100,2|0,1:2|2:0,2:0:0:0:
131,58,77959,1,2,1:2:0:0:
131,58,78074,1,0,3:0:0:0:
41,148,78188,2,0,P|72:124|36:126,1,100,0|0,1:0|2:0,2:0:0:0:
56,37,78417,1,0,1:0:0:0:
51,32,78532,1,0,3:0:0:0:
1,163,78646,6,0,B|-9:152|-8:134|-8:134|22:152|24:191,1,100,6|0,1:2|2:0,2:0:0:0:
120,258,78875,2,0,P|108:219|143:236,1,100,2|0,1:2|3:2,2:0:0:0:
30,218,79104,1,2,3:2:0:0:
17,329,79219,2,0,P|9:292|40:316,1,100,2|0,1:2|2:0,2:0:0:0:
116,323,79448,2,0,B|117:343|138:353|138:353|139:329|112:300,1,100,2|0,1:2|3:0,2:0:0:0:
70,204,79677,2,0,B|56:186|33:190|33:190|45:211|83:220,1,100,0|0,1:0|3:0,2:0:0:0:
188,286,79906,1,0,3:0:0:0:
113,211,80020,1,2,1:2:0:0:
193,281,80135,1,0,3:0:0:0:
119,207,80249,2,0,P|114:166|153:183,1,100,2|0,1:2|3:0,2:0:0:0:
215,207,80478,1,0,1:0:0:0:
220,202,80593,1,0,3:0:0:0:
268,285,80707,6,0,B|294:283|311:256|311:256|281:251|263:269,1,100,8|0,3:0|2:0,2:0:0:0:
214,117,80936,1,2,3:2:0:0:
305,181,81051,1,2,1:2:0:0:
218,121,81165,1,0,3:0:0:0:
305,181,81280,2,0,P|344:188|328:145,1,100,2|0,1:2|2:0,2:0:0:0:
223,116,81509,2,0,P|202:82|243:85,1,100,0|0,1:0|2:0,2:0:0:0:
67,158,81738,5,8,1:2:0:0:
119,116,81852,1,2,3:2:0:0:
184,134,81967,1,0,3:0:0:0:
235,91,82081,1,8,3:0:0:0:
297,116,82196,1,8,3:0:0:0:
356,86,82310,2,0,B|371:74|401:78|401:78|386:104|360:106,1,100,2|0,1:2|2:0,2:0:0:0:
381,183,82539,1,10,3:2:0:0:
377,172,82654,1,0,3:0:0:0:
347,314,82768,70,1,B|336:294|354:273|354:273|330:264|323:230,1,100,4|0,1:2|2:0,2:0:0:0:
247,202,82997,1,0,3:0:0:0:
190,239,83112,1,8,3:2:0:0:
124,225,83226,1,2,3:2:0:0:
170,168,83341,1,2,1:2:0:0:
173,159,83455,1,0,3:0:0:0:
179,151,83570,2,1,B|156:142|154:126|154:126|118:135|94:107,2,100,8|0|0,3:0|3:0|3:0,2:0:0:0:
56,177,83913,2,0,P|13:172|39:143,1,100,8|0,3:2|3:0,2:0:0:0:
86,38,84142,1,2,1:2:0:0:
34,80,84257,1,8,3:2:0:0:
153,50,84371,2,1,P|190:47|158:23,1,100,8|0,3:0|2:0,2:0:0:0:
112,112,84600,1,8,3:2:0:0:
112,112,84715,1,0,3:0:0:0:
146,171,84829,5,0,1:2:0:0:
121,237,84944,1,0,3:0:0:0:
213,146,85058,1,0,3:0:0:0:
190,222,85173,2,0,P|231:229|216:187,1,100,8|0,3:2|3:0,2:0:0:0:
312,308,85402,2,0,P|271:300|302:272,1,100,2|0,1:2|3:0,2:0:0:0:
357,172,85631,2,0,P|315:168|338:207,1,100,8|0,3:0|2:0,2:0:0:0:
374,263,85860,1,0,3:0:0:0:
444,249,85974,2,0,P|478:229|434:213,1,100,8|2,3:2|3:2,2:0:0:0:
382,336,86203,1,2,1:2:0:0:
387,331,86318,1,0,3:0:0:0:
314,321,86432,2,0,B|281:302|279:266|279:266|294:281|294:293,1,100,8|0,3:0|3:0,2:0:0:0:
350,239,86661,1,8,1:2:0:0:
413,259,86776,1,0,3:0:0:0:
394,186,86890,6,1,P|421:158|380:153,1,100,0|0,1:0|3:0,2:0:0:0:
347,260,87119,1,8,3:0:0:0:
347,260,87234,1,8,3:2:0:0:
280,265,87348,2,0,B|253:274|224:266|224:266|241:250|263:251,1,100,2|0,3:2|3:0,2:0:0:0:
313,201,87577,1,2,3:2:0:0:
360,116,87692,2,1,B|338:136|312:130|312:130|326:102|350:98,1,100,0|0,1:0|2:0,2:0:0:0:
200,167,87921,2,0,P|238:162|212:195,1,100,8|8,3:0|3:2,2:0:0:0:
274,45,88150,1,0,3:2:0:0:
172,99,88264,1,8,3:0:0:0:
270,53,88379,1,0,3:0:0:0:
167,104,88493,2,1,B|146:124|123:130|123:130|132:103|155:96,1,100,8|0,3:0|2:0,2:0:0:0:
204,29,88722,1,8,3:2:0:0:
199,24,88837,1,0,3:0:0:0:
128,52,88951,5,0,1:3:0:0:
84,107,89066,1,0,3:0:0:0:
81,176,89180,1,2,1:2:0:0:
98,244,89295,2,0,P|68:278|20:266,1,100,8|0,3:2|3:2,2:0:0:0:
82,154,89524,2,1,P|48:127|74:87,1,100,8|0,3:0|3:0,2:0:0:0:
208,72,89753,2,1,P|168:79|188:46,1,100,8|0,3:0|3:0,2:0:0:0:
290,88,89982,1,8,3:2:0:0:
294,99,90096,1,2,3:2:0:0:
364,135,90211,69,0,3:0:0:0:
431,129,90325,5,8,3:0:0:0:
476,79,90440,5,0,3:0:0:0:
305,189,90555,6,0,L|299:150,2,39.9999999999599,0|0|0,1:2|2:0|2:0,2:0:0:0:
390,229,90784,1,8,3:2:0:0:
390,229,90898,1,0,3:0:0:0:
502,51,91013,70,0,B|531:35|531:35|476:32,1,87.5000000000001,4|0,1:0|2:0,2:0:0:0:
333,65,91242,2,0,B|372:35|372:35|334:31,1,87.5000000000001,0|8,1:0|1:2,2:0:0:0:
505,184,91471,2,0,B|474:186|439:176|430:161|430:161|437:155|437:155|421:138|386:125|359:136,1,175,2|0,3:2|3:0,2:0:0:0:
265,140,91814,2,0,B|238:112|238:78|238:78|229:62,2,87.5000000000001,8|0|0,3:0|2:0|3:0,2:0:0:0:
104,111,92158,1,10,1:2:0:0:
158,55,92272,1,0,3:0:0:0:
201,104,92387,1,2,1:2:0:0:
246,72,92501,1,0,3:0:0:0:
270,84,92616,2,0,B|217:105|217:105|260:121,1,100,8|0,3:0|2:0,2:0:0:0:
253,191,92845,1,8,3:2:0:0:
253,191,92959,2,0,L|260:236,1,37.5,2|0,3:2|2:0,2:0:0:0:
286,293,93074,5,2,1:2:0:0:
324,348,93188,1,0,3:0:0:0:
389,365,93303,1,2,1:3:0:0:
451,345,93417,2,0,P|481:321|439:319,1,100,8|0,1:2|1:2,2:0:0:0:
342,318,93646,2,0,B|318:327|292:318|292:318|310:294|334:289,1,100,2|0,1:2|2:0,2:0:0:0:
450,239,93875,2,0,P|481:271|445:273,1,100,8|0,3:0|2:0,2:0:0:0:
381,256,94104,1,0,1:0:0:0:
311,280,94219,2,0,B|285:264|278:235|278:235|297:234|316:254,1,100,8|0,3:2|3:0,2:0:0:0:
378,181,94448,1,2,1:2:0:0:
322,215,94562,1,0,3:0:0:0:
443,204,94677,2,0,P|479:189|443:167,1,100,8|0,1:3|2:0,2:0:0:0:
369,163,94906,1,10,1:2:0:0:
369,163,95020,1,0,3:0:0:0:
415,92,95135,6,0,P|377:81|413:66,1,100,6|0,1:2|3:0,2:0:0:0:
446,5,95364,1,2,1:2:0:0:
381,24,95478,1,8,3:2:0:0:
313,18,95593,2,0,P|275:15|305:39,1,100,2|0,3:2|1:0,2:0:0:0:
354,85,95822,1,0,3:0:0:0:
319,139,95936,2,0,P|350:111|310:117,1,100,8|0,1:3|2:0,2:0:0:0:
246,22,96165,2,0,P|213:46|256:55,1,100,8|10,1:3|1:2,2:0:0:0:
239,138,96394,1,0,3:0:0:0:
170,45,96509,1,0,1:0:0:0:
235,143,96623,1,0,3:0:0:0:
170,45,96738,2,0,P|203:63|177:32,1,100,2|2,1:2|2:0,2:0:0:0:
157,132,96967,1,8,1:2:0:0:
158,133,97081,1,0,3:0:0:0:
66,89,97196,2,0,P|96:59|63:61,1,100,8|0,1:3|2:0,2:0:0:0:
106,156,97425,5,2,1:2:0:0:
52,234,97539,1,8,1:2:0:0:
114,159,97654,1,2,3:2:0:0:
52,241,97768,2,0,P|39:274|83:258,1,100,0|0,1:2|2:0,2:0:0:0:
122,201,97997,2,0,P|129:160|91:178,1,100,8|0,1:3|2:0,2:0:0:0:
215,165,98226,2,0,P|246:189|248:147,1,100,8|8,1:2|3:0,2:0:0:0:
170,259,98455,1,0,3:0:0:0:
219,309,98570,1,0,1:0:0:0:
273,271,98684,1,2,3:2:0:0:
327,307,98799,2,0,P|288:306|319:277,1,100,8|0,1:3|2:0,2:0:0:0:
401,335,99028,2,0,L|397:295,3,33.3333333333333,8|0|0|0,3:2|2:0|3:0|3:0,2:0:0:0:
395,177,99257,70,0,B|363:210|363:210|416:221,1,100,6|0,1:2|2:0,2:0:0:0:
290,138,99486,2,0,B|302:104|302:104|243:140,1,100,0|8,1:0|1:2,2:0:0:0:
482,87,99715,2,0,B|504:77|501:64|501:64|432:33|355:42|355:42|361:50|370:55,1,200,2|0,3:2|3:0,2:0:0:0:
493,211,100058,2,0,P|514:177|472:181,1,100,8|0,3:0|2:0,2:0:0:0:
410,159,100287,1,0,3:0:0:0:
368,213,100402,2,0,P|328:219|349:187,1,100,10|0,1:2|3:0,2:0:0:0:
350,256,100631,1,2,1:2:0:0:
410,222,100745,1,0,3:0:0:0:
478,258,100860,2,0,P|433:260|455:229,1,100,8|0,3:0|2:0,2:0:0:0:
397,330,101089,1,8,3:2:0:0:
397,330,101203,1,2,3:2:0:0:
326,340,101318,5,0,1:2:0:0:
258,322,101432,1,2,3:2:0:0:
267,256,101547,1,8,3:0:0:0:
209,223,101661,2,0,P|189:189|227:199,1,100,8|0,1:2|3:2,2:0:0:0:
356,293,101890,2,0,B|360:305|379:308|379:308|365:269|330:251,1,100,2|0,1:2|2:0,2:0:0:0:
237,172,102119,2,0,P|257:146|258:189,1,100,8|0,1:3|2:0,2:0:0:0:
325,225,102348,1,0,1:0:0:0:
392,214,102463,1,8,3:2:0:0:
348,163,102577,1,0,3:0:0:0:
411,142,102692,2,0,P|374:122|417:111,1,100,2|0,1:2|2:0,2:0:0:0:
485,110,102921,1,8,1:3:0:0:
485,110,103035,1,0,3:0:0:0:
461,41,103150,1,10,1:2:0:0:
394,50,103264,1,0,3:0:0:0:
347,96,103379,6,0,P|310:79|346:53,1,100,6|0,1:2|3:0,2:0:0:0:
281,4,103608,1,2,1:2:0:0:
238,83,103722,2,0,P|202:68|238:56,1,100,8|2,3:2|1:2,2:0:0:0:
115,3,103951,2,0,P|142:35|104:25,1,100,0|0,1:0|2:0,2:0:0:0:
146,152,104180,2,0,P|114:123|158:127,1,100,8|0,1:3|2:0,2:0:0:0:
60,80,104409,1,8,1:3:0:0:
5,116,104524,1,10,1:2:0:0:
43,170,104638,1,0,3:0:0:0:
3,218,104753,2,0,B|-1:236|18:245|18:245|24:200|-1:178,1,100,0|0,1:0|3:0,2:0:0:0:
143,254,104982,2,0,B|106:263|86:235|86:235|105:227|121:236,1,100,0|0,1:0|2:0,2:0:0:0:
47,307,105211,2,0,L|4:314,2,33.3333333333333,8|0|0,1:2|3:0|3:0,3:0:0:0:
100,327,105440,5,8,3:0:0:0:
164,305,105555,1,2,3:2:0:0:
230,309,105669,1,8,3:0:0:0:
292,335,105784,2,0,P|322:360|282:363,1,100,8|0,1:2|3:2,2:0:0:0:
159,310,106013,2,0,P|133:343|175:339,1,100,0|0,1:0|2:0,2:0:0:0:
242,275,106242,2,0,P|269:246|225:249,1,100,8|0,1:3|2:0,2:0:0:0:
113,253,106471,1,8,1:2:0:0:
165,208,106585,1,8,3:0:0:0:
160,199,106700,1,0,3:0:0:0:
161,189,106814,1,0,1:0:0:0:
183,125,106929,1,0,3:0:0:0:
189,112,107043,1,0,1:0:0:0:
223,57,107158,1,0,2:0:0:0:
293,31,107272,1,8,3:2:0:0:
361,45,107387,1,0,3:0:0:0:
405,94,107501,70,0,B|380:112|335:116|317:139,2,100,6|0|0,1:2|2:0|1:0,2:0:0:0:
508,177,107845,2,0,P|471:178|442:155,1,75,8|2,1:2|3:2,2:0:0:0:
472,288,108074,2,0,P|437:269|435:231,1,75,2|0,3:2|3:0,2:0:0:0:
374,357,108303,2,0,P|351:330|358:294,1,75,8|0,3:0|2:0,2:0:0:0:
368,267,108532,1,0,3:0:0:0:
329,208,108646,1,10,1:2:0:0:
361,144,108761,1,0,3:0:0:0:
368,70,108875,1,2,1:2:0:0:
370,46,108990,1,0,3:0:0:0:
385,29,109104,2,0,P|408:37|428:51,2,50,8|0|8,3:0|2:0|3:2,2:0:0:0:
360,19,109448,1,2,3:2:0:0:
330,28,109562,5,2,1:2:0:0:
286,73,109677,1,0,3:0:0:0:
286,135,109791,1,2,1:3:0:0:
320,188,109906,2,0,P|346:211|381:203,1,75,8|0,1:2|1:2,2:0:0:0:
256,246,110135,2,0,P|247:281|269:310,1,75,2|0,1:3|2:0,2:0:0:0:
160,204,110364,2,0,P|133:225|153:252,1,75,0|0,1:0|2:0,2:0:0:0:
73,169,110593,1,0,1:0:0:0:
95,102,110707,1,8,3:2:0:0:
163,82,110822,1,0,3:0:0:0:
232,70,110936,1,2,1:2:0:0:
260,75,111051,1,0,2:0:0:0:
280,67,111165,2,0,B|317:67|330:88|330:122|330:122|341:113,1,100,8|10,1:3|1:2,2:0:0:0:
421,104,111509,1,0,3:0:0:0:
476,16,111623,6,0,L|375:32,2,100,6|0|2,1:2|3:0|1:2,2:0:0:0:
434,81,111967,2,0,P|415:109|453:119,1,75,8|2,3:2|1:2,2:0:0:0:
495,136,112196,1,0,3:0:0:0:
408,156,112310,1,2,3:2:0:0:
483,191,112425,2,0,P|445:202|406:198,1,75,8|0,1:3|2:0,2:0:0:0:
353,236,112654,1,8,1:3:0:0:
348,227,112768,1,10,1:2:0:0:
479,297,112883,1,0,3:0:0:0:
414,263,112997,1,0,1:0:0:0:
468,209,113112,1,0,3:0:0:0:
404,183,113226,2,0,P|406:157|410:131,1,50,0|0,1:0|2:0,2:0:0:0:
423,59,113455,1,8,1:2:0:0:
428,52,113570,1,0,3:0:0:0:
348,76,113684,6,0,P|316:69|320:34,1,75,8|0,1:3|2:0,2:0:0:0:
205,50,113913,1,0,1:0:0:0:
91,16,114028,1,8,1:2:0:0:
206,61,114142,1,0,3:2:0:0:
79,28,114257,2,0,P|39:25|64:-9,1,100,0|0,1:0|2:0,2:0:0:0:
199,75,114486,2,0,B|227:85|240:103|240:103|204:93|187:99,1,100,8|0,1:3|2:0,2:0:0:0:
32,105,114715,1,8,1:2:0:0:
102,108,114829,1,8,3:0:0:0:
3,166,114944,1,0,3:0:0:0:
8,173,115058,1,0,1:0:0:0:
76,173,115173,1,2,3:2:0:0:
39,236,115287,2,0,B|23:257|23:257|55:242|98:244,1,100,8|0,1:3|2:0,2:0:0:0:
168,246,115516,1,8,3:2:0:0:
181,244,115631,1,0,3:0:0:0:
195,323,115745,70,0,B|167:315|127:329|96:312,2,100,6|0|0,1:2|2:0|1:0,2:0:0:0:
321,348,116089,2,0,P|283:341|266:309,1,75,8|2,1:2|3:2,2:0:0:0:
225,187,116318,2,0,P|231:226|209:263,1,75,2|0,3:2|3:0,2:0:0:0:
195,122,116547,2,0,P|163:112|181:85,1,75,8|0,3:0|2:0,2:0:0:0:
92,32,116776,1,0,3:0:0:0:
109,55,116890,1,10,1:2:0:0:
136,67,117005,1,0,3:0:0:0:
201,43,117119,2,0,P|235:48|230:13,1,75,2|0,1:2|3:0,2:0:0:0:
314,13,117348,1,8,3:0:0:0:
314,13,117463,1,0,2:0:0:0:
428,19,117577,2,0,B|407:39|382:32|382:32|403:10,1,75,8|2,3:2|3:2,2:0:0:0:
317,94,117806,5,2,1:2:0:0:
302,162,117921,1,0,3:0:0:0:
335,223,118035,1,2,1:3:0:0:
402,252,118150,2,0,P|432:260|473:244,1,75,8|0,1:2|1:2,2:0:0:0:
381,355,118379,2,0,L|342:292,1,75,2|0,1:3|2:0,2:0:0:0:
275,308,118608,2,0,P|262:330|220:354,1,75,0|0,1:0|2:0,2:0:0:0:
363,243,118837,1,0,1:0:0:0:
296,245,118951,1,10,3:2:0:0:
235,274,119066,1,0,3:0:0:0:
182,319,119180,2,0,P|159:328|135:334,1,50,8|0,3:0|2:0,2:0:0:0:
41,274,119409,2,0,L|90:277,1,50,0|0,1:0|2:0,2:0:0:0:
165,251,119638,1,10,3:2:0:0:
176,246,119753,1,0,3:0:0:0:
224,167,119867,6,0,P|237:213|263:269,2,100,6|0|2,1:2|3:0|1:2,2:0:0:0:
340,304,120211,2,0,P|353:268|328:239,1,75,8|2,3:2|1:2,2:0:0:0:
356,178,120440,1,0,1:0:0:0:
421,198,120555,1,0,3:0:0:0:
454,136,120669,2,0,B|437:147|421:118|445:100|477:100,1,75,8|0,1:3|2:0,2:0:0:0:
482,30,120898,2,0,B|453:23|424:33|407:56,1,75,8|10,1:3|1:2,2:0:0:0:
347,68,121127,1,0,3:0:0:0:
337,72,121242,1,0,1:0:0:0:
328,77,121356,1,0,3:0:0:0:
290,135,121471,2,0,L|240:132,1,50,0|0,1:0|2:0,2:0:0:0:
244,37,121700,1,8,1:2:0:0:
237,45,121814,1,0,3:0:0:0:
117,55,121929,2,0,L|166:60,1,50,8|0,1:3|2:0,2:0:0:0:
214,159,122158,5,2,1:2:0:0:
83,138,122272,1,8,3:2:0:0:
205,167,122387,1,2,3:2:0:0:
74,144,122501,2,0,B|46:133|23:136|23:136|43:118|67:121,1,100,8|0,3:0|2:0,2:0:0:0:
202,175,122730,2,0,B|226:185|251:187|251:187|226:200|203:199,1,100,8|0,3:0|2:0,2:0:0:0:
124,206,122959,1,8,1:2:0:0:
39,236,123074,2,0,B|17:232|-1:210|-1:210|26:206|49:214,1,100,8|0,3:0|3:0,2:0:0:0:
96,285,123303,1,0,1:0:0:0:
105,286,123417,1,2,3:2:0:0:
181,282,123532,2,0,B|204:289|223:308|223:308|196:315|176:305,1,100,8|0,3:0|3:0,2:0:0:0:
116,201,123761,2,0,L|110:177,3,16.66666666665,8|0|0|0,3:2|2:0|2:0|3:0,2:0:0:0:
72,165,123990,70,0,L|54:63,2,100,6|0|0,1:2|2:0|1:0,2:0:0:0:
0,259,124333,2,0,P|-5:295|26:298,1,75,8|2,1:2|3:2,2:0:0:0:
109,351,124562,2,0,P|125:316|104:288,1,75.0000028610231,2|0,3:2|3:0,2:0:0:0:
172,228,124791,2,0,B|132:214|145:172|173:171,1,75,8|0,3:0|2:0,2:0:0:0:
185,147,125020,1,0,3:0:0:0:
145,80,125135,2,0,L|154:29,1,50,10|0,3:2|3:0,2:0:0:0:
71,0,125364,1,2,1:2:0:0:
63,10,125478,1,0,3:0:0:0:
57,19,125593,2,0,B|69:72,1,50,8|0,3:0|2:0,2:0:0:0:
26,136,125822,2,0,L|18:105,3,16.6666666666667,8|0|2|0,3:2|2:0|3:2|2:0,2:0:0:0:
29,176,126051,5,2,1:2:0:0:
97,176,126165,1,0,3:0:0:0:
153,224,126280,1,2,1:3:0:0:
222,211,126394,2,0,P|256:183|299:182,1,87.5000000000001,8|0,1:2|1:2,2:0:0:0:
351,227,126623,2,0,B|381:238|408:220|404:195,1,75,2|0,1:3|2:0,2:0:0:0:
487,227,126852,2,0,P|512:210|482:200,1,75,0|0,1:0|2:0,2:0:0:0:
448,310,127081,1,0,1:0:0:0:
462,331,127196,2,0,L|515:332,1,50,10|0,3:2|3:0,2:0:0:0:
363,325,127425,2,0,L|310:331,1,50,8|0,3:0|3:0,2:0:0:0:
382,296,127654,1,8,1:3:0:0:
374,262,127768,1,0,2:0:0:0:
324,208,127883,1,10,1:2:0:0:
356,147,127997,1,0,3:0:0:0:
379,119,128112,6,0,P|362:80|321:68,2,87.5000000000001,6|0|2,1:2|3:0|1:2,2:0:0:0:
463,105,128455,1,8,3:2:0:0:
386,143,128570,2,0,P|348:137|311:126,1,75,2|0,1:2|1:0,2:0:0:0:
248,80,128799,1,0,2:0:0:0:
213,148,128913,2,0,P|178:131|158:101,1,75,8|0,1:3|2:0,2:0:0:0:
95,133,129142,1,8,1:3:0:0:
76,156,129257,2,0,P|54:153|67:136,1,50,10|0,1:2|3:0,2:0:0:0:
16,66,129486,1,0,1:0:0:0:
29,67,129600,1,0,3:0:0:0:
99,49,129715,2,0,P|124:43|147:31,2,50,0|0|8,1:0|2:0|1:2,2:0:0:0:
235,35,130058,1,0,3:0:0:0:
353,64,130173,22,0,B|337:62|319:67|319:67|329:55|359:46,1,75,8|0,1:3|2:0,2:0:0:0:
464,87,130402,1,0,1:0:0:0:
506,207,130516,6,0,P|472:216|485:190,1,75,8|0,1:2|3:2,2:0:0:0:
365,164,130745,102,0,P|372:135|387:163,1,75,0|0,1:0|2:0,2:0:0:0:
317,239,130974,6,0,P|292:257|297:226,1,75,8|0,1:3|2:0,2:0:0:0:
206,160,131203,102,0,P|217:127|237:155,1,75,8|8,1:2|3:0,2:0:0:0:
146,251,131432,6,0,B|118:273|97:226|130:214,1,75,2|8,3:2|3:0,2:0:0:0:
4,160,131661,102,0,P|33:157|23:185,2,70,2|0|0,3:2|2:0|2:0,2:0:0:0:
53,77,132005,1,8,3:2:0:0:
59,68,132119,1,0,3:0:0:0:
134,100,132234,54,0,L|217:73,2,87.5000000000001,6|0|0,1:2|2:0|1:0,2:0:0:0:
0,148,132577,2,0,B|15:131|39:128|39:128|48:128|48:128|72:124|79:115,1,87.5000000000001,8|2,1:2|3:2,2:0:0:0:
15,246,132806,2,0,B|15:222|30:204|30:204|35:196|35:196|50:177|49:168,1,87.5000000000001,2|0,3:2|3:0,2:0:0:0:
74,334,133035,2,0,B|61:313|64:291|64:291|67:279|67:279|70:256|63:249,1,87.5000000000001,8|0,3:0|2:0,2:0:0:0:
145,354,133264,1,0,3:0:0:0:
235,324,133379,2,0,P|206:306|214:267,1,75,10|0,1:2|3:0,2:0:0:0:
122,274,133608,1,2,1:2:0:0:
119,261,133722,1,0,3:0:0:0:
119,248,133837,2,0,B|110:198,1,50,8|0,3:0|2:0,2:0:0:0:
168,147,134066,1,8,3:2:0:0:
176,151,134180,1,2,3:2:0:0:
249,153,134295,5,2,1:2:0:0:
271,213,134409,1,0,2:0:0:0:
245,273,134524,1,2,1:3:0:0:
186,303,134638,2,0,P|151:294|175:266,1,87.5000000000001,8|0,1:2|1:2,2:0:0:0:
261,325,134867,2,0,P|292:338|265:349,1,75,2|0,1:3|2:0,2:0:0:0:
313,244,135096,2,0,P|303:220|334:235,1,75,0|0,1:0|2:0,2:0:0:0:
401,244,135325,1,0,1:0:0:0:
459,205,135440,2,0,B|450:156,1,50,8|0,3:2|3:0,2:0:0:0:
400,115,135669,1,2,1:2:0:0:
395,124,135784,1,0,2:0:0:0:
324,143,135898,2,0,B|315:192,1,50,8|0,1:3|2:0,2:0:0:0:
270,236,136127,1,10,1:2:0:0:
262,241,136242,1,0,2:0:0:0:
251,244,136356,5,6,1:2:0:0:
189,223,136471,1,0,3:0:0:0:
161,163,136585,1,2,1:2:0:0:
187,100,136700,2,0,P|202:71|210:106,1,87.5000000000001,8|2,3:2|1:2,2:0:0:0:
119,110,136929,2,0,P|80:128|46:130,1,75,0|2,3:0|1:2,2:0:0:0:
6,203,137158,2,0,P|44:201|74:227,1,75,8|0,1:3|2:0,2:0:0:0:
92,245,137387,1,8,3:0:0:0:
153,281,137501,2,0,L|212:272,1,50,10|0,3:2|3:0,2:0:0:0:
273,266,137730,1,0,1:0:0:0:
285,266,137845,1,0,3:0:0:0:
347,307,137959,2,0,L|389:278,1,50,0|0,1:0|2:0,2:0:0:0:
447,233,138188,2,0,L|479:224,2,33.3333333333333,0|0|0,1:0|3:0|3:0,2:0:0:0:
422,225,138417,37,8,1:3:0:0:
393,166,138532,1,0,3:0:0:0:
330,150,138646,1,10,3:2:0:0:
266,175,138761,1,0,3:0:0:0:
247,241,138875,102,0,B|242:260|257:276|257:276|278:259|274:243,1,75,8|0,1:3|2:0,2:0:0:0:
346,300,139104,1,0,3:0:0:0:
454,264,139219,6,0,B|468:252|472:240|469:230|461:221|461:221|447:227|440:240,1,75,8|0,3:0|3:2,2:0:0:0:
358,137,139448,102,0,B|332:155|343:175|366:181|380:173|381:158,1,75,10|0,3:2|3:0,2:0:0:0:
290,256,139677,6,0,B|297:233|275:225|238:246|258:270,1,75,0|0,1:0|3:0,2:0:0:0:
172,212,139906,1,0,3:0:0:0:
120,283,140020,101,0,1:0:0:0:
109,283,140135,1,0,3:0:0:0:
28,254,140249,6,0,L|19:226,4,29.1666666666667,2|0|0|0|0,3:2|3:0|3:0|3:0|3:0,2:0:0:0:
67,169,140478,38,0,L|43:71,2,100,6|0|0,1:2|2:0|1:0,2:0:0:0:
91,189,140822,1,8,1:2:0:0:
78,310,140936,2,0,P|96:288|109:265,1,50,2|2,3:2|3:2,2:0:0:0:
177,256,141165,1,0,3:0:0:0:
170,181,141280,2,0,P|195:168|230:164,1,50,8|0,3:0|2:0,2:0:0:0:
250,159,141509,1,0,3:0:0:0:
320,170,141623,2,0,P|334:147|343:119,1,50,10|0,1:2|3:0,2:0:0:0:
376,52,141852,1,2,1:2:0:0:
383,61,141967,1,0,3:0:0:0:
446,106,142081,2,0,P|440:128|423:158,1,50,8|0,3:0|2:0,2:0:0:0:
398,298,142310,1,8,3:2:0:0:
418,264,142425,1,2,3:2:0:0:
374,262,142539,5,2,1:2:0:0:
310,242,142654,1,0,3:0:0:0:
309,172,142768,1,2,1:3:0:0:
267,117,142883,2,0,P|249:78|206:73,1,87.5000000000001,8|0,1:2|1:2,2:0:0:0:
337,28,143112,1,2,1:3:0:0:
351,27,143226,1,0,3:0:0:0:
366,31,143341,2,0,L|346:80,1,50,0|0,1:0|2:0,2:0:0:0:
387,185,143570,1,0,1:0:0:0:
374,191,143684,2,0,P|380:167|401:138,1,50,8|0,3:2|3:0,2:0:0:0:
442,70,143913,1,2,3:2:0:0:
457,60,144028,1,0,3:0:0:0:
476,62,144142,2,0,P|479:86|475:116,1,50,8|0,2:3|2:0,2:0:0:0:
511,225,144371,1,10,1:2:0:0:
506,242,144486,1,0,3:0:0:0:
497,251,144600,6,0,P|469:231|447:166,2,100,6|0|2,1:2|3:0|1:2,2:0:0:0:
424,46,144944,2,0,L|395:120,1,75,8|2,3:2|1:2,2:0:0:0:
361,178,145173,1,0,1:0:0:0:
348,186,145287,1,0,2:0:0:0:
332,186,145402,2,0,P|314:147|321:117,1,75,8|0,1:3|2:0,2:0:0:0:
279,65,145631,1,8,1:3:0:0:
217,37,145745,1,10,1:2:0:0:
149,37,145860,1,0,3:0:0:0:
91,73,145974,2,0,L|100:125,1,50,0|0,1:0|3:0,2:0:0:0:
69,212,146203,1,0,1:0:0:0:
70,200,146318,1,0,2:0:0:0:
153,187,146432,1,8,1:2:0:0:
98,137,146547,1,0,3:0:0:0:
167,117,146661,6,0,B|237:113|200:84|262:89,2,100,8|0|0,1:3|2:0|1:0,2:0:0:0:
124,238,147005,2,0,P|149:205|179:193,1,75,8|0,1:2|3:2,2:0:0:0:
266,149,147234,1,0,1:0:0:0:
207,190,147348,1,0,3:0:0:0:
284,139,147463,2,0,P|304:129|325:108,1,50,8|0,1:3|2:0,2:0:0:0:
339,92,147692,1,8,1:2:0:0:
369,31,147806,2,0,P|394:31|422:37,1,50,8|0,3:0|3:0,2:0:0:0:
508,64,148035,1,0,1:0:0:0:
494,66,148150,1,2,3:2:0:0:
478,72,148264,2,0,L|441:112,1,50,8|0,1:3|2:0,2:0:0:0:
440,192,148493,1,8,3:2:0:0:
442,211,148608,1,0,3:0:0:0:
455,227,148722,70,0,B|468:200|494:190|512:143,2,100,6|0|0,1:2|2:0|1:0,2:0:0:0:
409,299,149066,2,0,P|372:301|347:274,1,75,8|2,1:2|3:2,2:0:0:0:
292,209,149295,2,0,P|252:209|232:243,1,75,2|0,3:2|3:0,2:0:0:0:
139,318,149524,2,0,L|214:308,1,75,8|0,3:0|2:0,2:0:0:0:
241,302,149753,1,0,3:0:0:0:
308,312,149867,2,0,P|343:312|341:279,1,75,10|0,1:2|3:0,2:0:0:0:
378,222,150096,1,2,1:2:0:0:
429,208,150211,1,0,3:0:0:0:
445,158,150325,1,8,3:0:0:0:
410,118,150440,1,0,2:0:0:0:
358,130,150555,2,0,P|327:115|346:93,1,75,8|2,3:2|3:2,2:0:0:0:
291,45,150784,5,2,1:2:0:0:
223,61,150898,1,0,2:0:0:0:
170,103,151013,1,2,1:3:0:0:
161,168,151127,2,0,P|200:176|240:179,1,75,8|0,1:2|1:2,2:0:0:0:
337,186,151356,2,0,L|261:170,1,75,2|0,1:3|2:0,2:0:0:0:
75,229,151585,2,0,P|110:226|150:220,1,75,0|0,1:0|2:0,2:0:0:0:
224,242,151814,1,0,1:0:0:0:
192,164,151929,2,0,P|201:126|169:116,1,75,8|0,3:2|3:0,2:0:0:0:
102,115,152158,1,2,1:2:0:0:
92,98,152272,1,0,2:0:0:0:
88,77,152387,2,0,P|98:45|131:21,1,75,8|0,1:3|2:0,2:0:0:0:
188,55,152616,1,10,1:2:0:0:
241,100,152730,1,0,3:0:0:0:
281,44,152845,6,0,P|328:42|380:13,1,100,6|0,1:2|3:0,2:0:0:0:
410,9,153074,1,2,1:2:0:0:
482,12,153188,2,0,B|452:5|452:5|489:51,1,74.9999999999249,8|2,3:2|1:2,2:0:0:0:
492,158,153417,2,0,B|521:138|521:138|502:102,1,74.9999999999249,0|0,1:0|2:0,2:0:0:0:
408,90,153646,2,0,B|417:142,1,50,8|0,1:3|2:0,2:0:0:0:
437,212,153875,1,8,3:0:0:0:
442,232,153990,1,10,3:2:0:0:
455,248,154104,1,0,3:0:0:0:
474,256,154219,2,0,P|481:279|483:310,1,50,0|0,3:0|3:0,2:0:0:0:
428,349,154448,1,0,1:0:0:0:
415,358,154562,1,0,2:0:0:0:
290,297,154677,1,8,1:2:0:0:
335,354,154791,1,0,3:0:0:0:
239,350,154906,6,0,B|212:349|212:349|200:355|200:355|165:349,1,74.9999999999249,6|0,1:2|2:0,2:0:0:0:
37,315,155135,69,0,1:0:0:0:
100,218,155249,2,0,B|62:207|32:221|32:221|53:229,1,87.5000000000001,8|0,1:2|3:2,2:0:0:0:
181,199,155478,5,0,1:0:0:0:
170,206,155593,1,8,3:0:0:0:
221,79,155707,2,0,P|208:117|237:98,1,100,8|0,1:3|2:0,2:0:0:0:
328,235,155936,2,0,P|289:232|322:199,1,100,8|8,1:2|3:0,2:0:0:0:
357,66,156165,5,8,3:0:0:0:
327,127,156280,1,0,1:0:0:0:
413,108,156394,1,8,3:0:0:0:
444,282,156509,2,0,B|417:248|410:218|410:218|413:239|409:255,1,100,8|0,1:3|2:0,2:0:0:0:
416,52,156738,1,8,3:2:0:0:
508,14,156852,1,0,3:0:0:0:
425,28,156967,6,0,B|459:108,2,87.5000000000001,4|0|0,1:0|2:0|1:0,2:0:0:0:
511,204,157310,2,0,B|488:186|488:169|488:169|491:163|491:163|491:147|466:130,1,87.5000000000001,8|2,1:2|3:2,2:0:0:0:
453,323,157539,2,0,B|442:295|451:280|451:280|458:275|458:275|464:263|451:234,1,87.5000000000001,2|0,3:2|3:0,2:0:0:0:
345,350,157768,2,0,B|348:322|362:314|362:314|368:313|368:313|380:306|382:277,1,87.5000000000001,8|0,3:0|2:0,2:0:0:0:
387,240,157997,1,0,3:0:0:0:
250,283,158112,2,0,P|292:277|292:240,1,87.5000000000001,10|0,1:2|3:0,2:0:0:0:
305,175,158341,1,2,1:2:0:0:
314,167,158455,1,0,3:0:0:0:
379,127,158570,2,0,L|371:77,1,50,8|0,3:0|2:0,2:0:0:0:
307,37,158799,1,8,3:2:0:0:
300,40,158913,1,2,3:2:0:0:
240,67,159028,69,2,1:2:0:0:
188,108,159142,1,2,3:2:0:0:
170,172,159257,1,2,1:3:0:0:
168,237,159371,2,0,P|206:233|242:218,1,75,8|0,1:2|1:2,2:0:0:0:
324,152,159600,2,0,P|338:187|314:217,1,75,2|0,1:3|2:0,2:0:0:0:
360,283,159829,2,0,P|375:267|406:255,1,50,8|0,1:3|2:0,2:0:0:0:
401,164,160058,1,0,1:0:0:0:
401,164,160173,1,8,3:2:0:0:
404,98,160287,1,0,3:0:0:0:
462,68,160402,2,0,P|477:91|495:114,1,50,2|0,1:2|2:0,2:0:0:0:
472,171,160631,1,8,1:3:0:0:
477,181,160745,1,0,2:0:0:0:
460,243,160860,1,10,1:2:0:0:
485,303,160974,1,0,3:0:0:0:
465,368,161089,6,0,P|425:351|405:313,1,87.5000000000001,6|0,1:2|3:0,2:0:0:0:
398,291,161318,1,2,1:2:0:0:
324,225,161432,2,0,B|309:236|307:260|307:260|329:259|339:241,1,75,8|2,3:2|1:2,2:0:0:0:
396,155,161661,2,0,B|410:144|420:122|420:122|401:130|384:129,1,75,0|0,1:0|2:0,2:0:0:0:
285,117,161890,2,0,P|271:142|307:147,1,75,8|0,1:3|2:0,2:0:0:0:
263,54,162119,1,8,1:3:0:0:
254,39,162234,1,10,1:2:0:0:
238,31,162348,1,0,3:0:0:0:
169,49,162463,1,0,1:0:0:0:
123,106,162577,1,0,3:0:0:0:
141,174,162692,2,0,P|166:173|217:162,1,75,0|0,1:0|2:0,2:0:0:0:
232,252,162921,1,8,1:2:0:0:
241,248,163035,1,0,3:0:0:0:
301,196,163150,38,0,B|282:180|282:162|299:143|318:142|321:148,1,75,8|0,1:3|2:0,2:0:0:0:
405,137,163379,1,0,1:0:0:0:
496,233,163493,2,0,P|454:248|442:216,1,87.5000000000001,8|0,1:2|3:2,2:0:0:0:
358,231,163722,1,2,3:2:0:0:
291,174,163837,6,0,B|274:157|278:141|296:132|315:119|330:130|322:147,1,87.5000000000001,0|8,3:0|1:3,2:0:0:0:
262,260,164066,1,0,3:0:0:0:
182,226,164180,2,0,B|152:238|128:214|134:187|155:179,1,87.5000000000001,8|0,3:2|3:0,2:0:0:0:
110,112,164409,1,0,3:0:0:0:
105,119,164524,1,0,1:0:0:0:
11,142,164638,2,0,P|44:173|27:208,2,87.5000000000001,8|0|2,3:0|3:2|3:2,2:0:0:0:
52,46,164982,2,0,L|63:68,3,16.66666666665,8|0|0|0,3:2|3:0|3:0|3:0,2:0:0:0:
205,50,165211,38,0,B|187:61|176:74|176:74|146:79|117:98,2,87.5000000000001,6|0|0,1:2|2:0|1:0,2:0:0:0:
55,206,165555,2,0,P|88:205|115:175,1,75,8|2,1:2|3:2,2:0:0:0:
191,166,165784,2,0,P|215:138|252:128,1,75,2|0,3:2|3:0,2:0:0:0:
275,30,166013,2,0,P|288:61|319:86,1,75,8|0,3:0|2:0,2:0:0:0:
344,97,166242,1,0,3:0:0:0:
404,27,166356,2,0,L|422:83,1,52.5,10|0,1:2|3:0,2:0:0:0:
489,108,166585,1,2,1:2:0:0:
479,110,166700,1,0,3:0:0:0:
481,182,166814,2,0,P|459:188|435:204,1,52.5,8|0,3:0|2:0,2:0:0:0:
347,174,167043,1,8,3:2:0:0:
343,189,167158,2,0,P|340:202|339:216,1,26.25,2|0,3:2|3:0,2:0:0:0:
333,282,167272,6,0,B|303:288|279:248|252:256,2,87.5000000000001,2|0|2,1:2|2:0|1:3,2:0:0:0:
226,351,167616,2,0,P|214:318|187:297,1,70,8|0,1:2|1:2,2:0:0:0:
188,228,167845,1,2,1:3:0:0:
127,252,167959,1,0,3:0:0:0:
99,312,168074,2,0,P|78:326|58:313,1,52.5,0|0,1:0|2:0,2:0:0:0:
15,260,168303,1,0,1:0:0:0:
54,204,168417,2,0,L|46:148,1,52.5,8|0,3:2|3:0,2:0:0:0:
47,120,168646,1,2,1:2:0:0:
62,55,168761,1,0,3:0:0:0:
125,29,168875,2,0,B|166:17|197:45|197:45|205:30|232:29,1,105,8|10,1:3|1:2,2:0:0:0:
287,52,169219,1,0,3:0:0:0:
231,102,169333,6,0,P|267:128|307:146,1,87.5000000000001,6|0,1:2|3:0,2:0:0:0:
332,153,169562,1,2,1:2:0:0:
391,104,169677,2,0,P|415:79|445:60,1,70,8|2,3:2|1:2,2:0:0:0:
481,124,169906,1,0,1:0:0:0:
477,134,170020,1,0,3:0:0:0:
463,206,170135,2,0,P|437:199|414:186,1,52.5,8|0,1:3|2:0,2:0:0:0:
391,172,170364,1,8,1:3:0:0:
404,261,170478,1,10,1:2:0:0:
389,273,170593,1,0,3:0:0:0:
370,276,170707,1,0,1:0:0:0:
321,328,170822,1,0,3:0:0:0:
245,332,170936,2,0,B|222:365|224:284|179:266,1,105,0|8,1:0|1:2,2:0:0:0:
106,286,171280,1,0,3:0:0:0:
73,217,171394,37,6,1:2:0:0:
86,204,171509,1,0,3:0:0:0:
94,188,171623,1,8,1:3:0:0:
98,168,171738,1,2,3:0:0:0:
41,119,171852,102,0,P|14:124|-1:174,1,70,10|0,3:2|3:0,2:0:0:0:
10,48,172081,5,0,3:0:0:0:
140,29,172196,2,0,L|73:7,1,70,8|0,1:3|3:0,2:0:0:0:
180,98,172425,101,2,1:2:0:0:
284,16,172539,2,0,P|258:19|237:37,1,54.9999999999449,10|0,1:2|2:0,2:0:0:0:
313,97,172768,5,2,3:2:0:0:
415,50,172883,2,0,P|390:31|363:24,2,54.9999999999449,2|0|0,3:2|1:0|2:0,2:0:0:0:
487,122,173226,102,0,L|481:94,2,27.4999999999725,8|0|0,1:2|3:0|3:0,2:0:0:0:
512,222,173455,54,0,P|474:206|515:198,1,99.9999999999144,6|0,1:2|2:0,2:0:0:0:
434,115,173684,2,0,P|466:91|428:83,1,99.999999999889,2|10,1:2|3:2,2:0:0:0:
391,234,173913,2,0,B|362:246|340:237|340:237|352:211|386:209,1,99.999999999889,2|2,3:2|1:2,2:0:0:0:
288,175,174142,1,0,2:0:0:0:
337,120,174257,2,0,B|368:133|388:123|388:123|376:97|342:95,1,99.9999999998874,2|0,1:2|3:0,2:0:0:0:
296,182,174486,1,0,1:0:0:0:
215,228,174600,2,0,B|191:228|179:202|179:202|201:193|230:205,1,99.999999999889,8|0,3:2|3:0,2:0:0:0:
273,85,174829,1,2,1:2:0:0:
230,118,174944,1,0,3:0:0:0:
230,78,175058,1,2,1:2:0:0:
189,87,175173,1,0,3:0:0:0:
128,155,175287,2,0,B|104:169|81:155|81:155|97:132|129:141,1,99.999999999889,10|0,1:2|3:0,2:0:0:0:
175,44,175516,6,0,P|140:35|180:19,1,99.999999999889,8|0,1:3|2:0,2:0:0:0:
148,137,175745,1,2,3:2:0:0:
89,22,175860,1,10,1:2:0:0:
144,147,175974,1,0,3:0:0:0:
74,32,176089,2,0,B|52:39|27:42|27:42|55:53|80:44,1,99.999999999889,2|0,1:2|2:0,2:0:0:0:
188,139,176318,2,0,B|197:160|211:181|211:181|185:167|175:143,1,99.999999999889,0|0,1:0|2:0,2:0:0:0:
0,91,176547,2,0,B|29:78|49:80|49:80|76:28,1,99.999999999889,2|10,1:2|1:2,2:0:0:0:
20,161,176776,1,0,2:0:0:0:
44,179,176890,1,2,1:2:0:0:
12,192,177005,1,0,3:0:0:0:
169,168,177119,2,0,B|146:182|123:176|123:176|98:184|88:212,1,99.999999999889,0|0,1:0|2:0,2:0:0:0:
36,280,177348,1,8,1:2:0:0:
47,282,177463,1,0,3:0:0:0:
140,260,177577,6,0,B|163:242|191:239|191:239|161:273,1,99.999999999889,6|0,1:2|2:0,2:0:0:0:
107,327,177806,1,2,1:2:0:0:
114,326,177921,1,8,3:2:0:0:
45,361,178035,2,0,B|12:351|-3:326|-3:326|20:323|39:333,1,99.9999999998874,2|2,3:2|1:2,2:0:0:0:
169,364,178264,1,0,2:0:0:0:
222,323,178379,2,0,B|229:343|259:344|259:344|261:317|226:306,1,99.999999999889,2|0,1:2|3:0,2:0:0:0:
325,314,178608,1,0,1:0:0:0:
378,350,178722,1,8,3:2:0:0:
426,306,178837,1,0,3:0:0:0:
420,298,178951,1,2,1:2:0:0:
414,234,179066,1,0,3:0:0:0:
350,223,179180,2,0,B|332:242|306:244|306:244|311:217|340:211,1,99.999999999889,2|0,1:2|3:0,2:0:0:0:
412,172,179409,1,8,1:2:0:0:
402,167,179524,1,0,3:0:0:0:
478,96,179638,6,0,P|506:60|468:48,1,99.999999999889,8|0,3:0|2:0,2:0:0:0:
400,94,179867,1,2,3:2:0:0:
272,55,179982,1,10,1:2:0:0:
390,97,180096,1,0,3:0:0:0:
289,62,180211,2,0,B|330:55|341:31|341:31|323:44|292:47,1,99.999999999889,2|0,1:2|2:0,2:0:0:0:
178,42,180440,2,0,B|137:49|125:72|125:72|144:60|175:57,1,99.999999999889,0|0,1:0|2:0,2:0:0:0:
294,75,180669,2,0,B|334:53|334:53|361:54|384:33,1,99.9999999998636,8|2,3:2|3:2,2:0:0:0:
190,138,180898,1,0,3:0:0:0:
305,173,181013,1,8,3:0:0:0:
184,149,181127,1,8,3:0:0:0:
313,190,181242,2,0,P|334:158|299:172,1,99.999999999889,2|0,1:2|2:0,2:0:0:0:
236,244,181471,1,10,3:2:0:0:
231,235,181528,1,0,3:0:0:0:
223,227,181585,2,0,P|214:216|203:211,1,24.9999999999723,0|0,3:0|3:0,2:0:0:0:
246,332,181700,70,0,B|265:247|210:218|210:218|197:270|242:287,1,199.999999999804,4|2,1:2|3:0,2:0:0:0:
335,342,182043,1,0,2:0:0:0:
403,299,182158,2,0,P|388:271|354:241,1,74.9999999999167,8|2,3:2|3:0,2:0:0:0:
482,215,182387,1,0,3:0:0:0:
412,187,182501,2,0,P|438:173|461:154,1,59.9999999999334,10|0,3:0|2:0,2:0:0:0:
476,76,182730,1,0,3:0:0:0:
415,42,182845,2,0,P|429:67|451:88,2,59.999999999941,8|2|0,3:2|3:2|3:0,2:0:0:0:
349,160,183188,1,8,3:2:0:0:
351,88,183303,2,0,P|308:66|255:48,1,99.999999999902,10|2,3:0|3:0,2:0:0:0:
250,152,183646,1,0,3:0:0:0:
129,141,183761,6,0,P|157:132|184:118,1,59.9999999999334,2|0,1:2|2:0,2:0:0:0:
356,59,183990,1,2,3:0:0:0:
299,104,184104,2,0,P|274:98|242:83,1,59.9999999999334,0|10,3:0|3:2,2:0:0:0:
211,207,184333,1,10,3:0:0:0:
228,202,184448,1,0,2:0:0:0:
245,200,184562,2,0,P|271:186|298:175,1,59.9999999999334,8|0,3:0|2:0,2:0:0:0:
324,164,184791,1,10,3:0:0:0:
408,62,184906,2,0,P|394:91|389:118,1,59.9999999999334,8|0,3:2|3:0,2:0:0:0:
465,112,185135,1,10,3:0:0:0:
464,127,185249,1,0,3:0:0:0:
455,203,185364,2,0,B|434:252|397:261|397:261|386:278|389:299,1,119.999999999882,10|10,3:0|3:2,2:0:0:0:
330,231,185707,1,0,3:0:0:0:
305,304,185822,6,0,P|309:329|317:353,1,49.9999999999445,0|0,1:0|2:0,2:0:0:0:
193,374,186051,1,10,3:0:0:0:
215,365,186165,1,0,3:0:0:0:
232,346,186280,2,0,P|239:327|241:296,1,49.9999999999445,10|10,3:2|3:0,2:0:0:0:
239,264,186509,1,0,2:0:0:0:
171,233,186623,2,0,L|161:183,1,49.9999999999445,8|0,3:0|2:0,2:0:0:0:
233,161,186852,1,10,3:0:0:0:
256,128,186967,1,10,3:2:0:0:
294,119,187081,1,2,3:2:0:0:
333,123,187196,1,8,3:0:0:0:
351,115,187310,1,0,3:0:0:0:
419,106,187425,2,0,P|454:87|470:51,1,79.9999999999213,10|10,3:0|3:2,2:0:0:0:
431,0,187768,1,0,2:0:0:0:
365,81,187883,6,0,L|394:73,1,29.9999999999742,0|0,1:0|2:0,2:0:0:0:
478,94,188112,1,0,3:0:0:0:
482,104,188226,1,0,2:0:0:0:
479,115,188341,2,0,L|450:106,2,29.9999999999666,10|0|0,3:2|2:0|2:0,2:0:0:0:
342,176,188684,2,0,L|399:159,1,59.9999999999408,0|8,1:0|3:2,2:0:0:0:
497,198,189028,2,0,L|453:193,1,29.9999999999666,0|0,3:0|2:0,2:0:0:0:
367,258,189257,1,0,3:0:0:0:
373,267,189371,69,0,2:0:0:0:
384,271,189486,2,0,L|451:256,1,59.9999999999408,8|8,3:0|3:2,2:0:0:0:
398,344,189829,1,0,3:0:0:0:
326,325,189944,6,0,B|298:341|272:326|272:326|293:310|319:311,1,99.9999999999,6|0,1:2|2:0,2:0:0:0:
388,262,190173,2,0,B|416:246|441:260|441:260|421:277|395:276,1,99.9999999999,0|8,1:0|1:2,2:0:0:0:
254,250,190402,2,0,P|215:259|235:225,1,99.9999999999,2|2,3:2|3:2,2:0:0:0:
321,240,190631,1,0,3:0:0:0:
339,171,190745,2,0,P|348:133|314:152,1,99.9999999999,8|0,3:0|2:0,2:0:0:0:
171,189,190974,2,0,B|202:177|210:141|210:141|187:141|178:159,1,99.9999999999,0|10,3:0|1:2,2:0:0:0:
266,99,191203,1,0,3:0:0:0:
227,16,191318,2,0,B|196:28|187:63|187:63|211:64|220:46,1,99.9999999999,2|0,1:2|3:0,2:0:0:0:
98,109,191547,1,8,3:0:0:0:
132,45,191661,1,0,2:0:0:0:
95,120,191776,2,0,B|77:153|77:153|72:127|83:93,1,99.9999999999,8|2,3:2|3:2,2:0:0:0:
8,6,192005,6,0,P|27:21|40:42,1,49.99999999995,6|0,1:2|2:0,2:0:0:0:
12,93,192234,1,0,1:0:0:0:
35,112,192348,1,8,1:2:0:0:
11,124,192463,1,2,3:2:0:0:
61,123,192577,2,0,L|34:165,1,49.99999999995,2|0,3:2|3:0,2:0:0:0:
30,230,192806,2,0,P|40:207|54:187,1,49.99999999995,8|0,3:0|2:0,2:0:0:0:
95,199,193035,1,0,3:0:0:0:
142,187,193150,2,0,P|139:212|133:236,1,49.99999999995,10|0,1:2|3:0,2:0:0:0:
97,283,193379,1,2,1:2:0:0:
92,292,193493,1,0,3:0:0:0:
82,353,193608,2,0,P|122:324|146:281,1,99.9999999999,8|8,3:0|3:2,2:0:0:0:
199,355,193951,1,2,3:2:0:0:
271,350,194066,5,6,1:2:0:0:
282,279,194180,1,0,3:0:0:0:
238,224,194295,1,0,3:0:0:0:
172,198,194409,2,0,P|139:215|175:209,1,99.9999999999,8|2,1:2|3:2,2:0:0:0:
227,156,194638,1,2,3:2:0:0:
235,155,194753,1,0,3:0:0:0:
288,202,194867,2,0,P|320:216|302:174,1,99.9999999999,8|0,3:0|2:0,2:0:0:0:
177,134,195096,2,0,P|154:100|197:104,1,99.9999999999,0|10,3:0|1:2,2:0:0:0:
259,61,195325,1,0,3:0:0:0:
322,139,195440,1,2,1:2:0:0:
254,66,195555,1,0,3:0:0:0:
318,144,195669,2,0,P|352:124|338:95,1,74.9999999999249,8|0,3:0|2:0,2:0:0:0:
321,25,195898,1,8,3:2:0:0:
327,23,196013,1,2,3:2:0:0:
394,49,196127,70,0,P|414:40|436:22,1,49.99999999995,6|0,1:2|2:0,2:0:0:0:
489,79,196356,1,0,1:0:0:0:
482,86,196471,1,8,1:2:0:0:
450,149,196585,2,0,L|401:135,1,49.99999999995,2|2,3:2|3:2,2:0:0:0:
338,126,196814,1,0,3:0:0:0:
241,199,196929,2,0,L|289:186,1,49.99999999995,8|0,3:0|2:0,2:0:0:0:
352,207,197158,1,0,3:0:0:0:
441,255,197272,2,0,P|432:229|420:209,1,49.99999999995,10|0,1:2|3:0,2:0:0:0:
413,330,197501,1,2,1:2:0:0:
405,326,197616,1,0,3:0:0:0:
339,311,197730,2,0,P|327:279|306:248,1,69.9999999999299,8|8,3:0|3:2,2:0:0:0:
366,204,198074,1,2,3:2:0:0:
472,177,198188,6,0,B|441:159|441:159|515:172,1,99.9999999999,6|0,1:2|2:0,2:0:0:0:
438,57,198417,2,0,B|463:83|463:83|396:48,1,99.9999999999,0|8,1:0|1:2,2:0:0:0:
364,149,198646,2,0,B|338:150|310:141|310:141|333:122|353:129,1,99.9999999999,2|2,3:2|3:2,2:0:0:0:
333,58,198875,1,0,3:0:0:0:
218,20,198990,2,0,B|245:18|273:27|273:27|249:47|228:41,1,99.9999999999,8|0,3:0|2:0,2:0:0:0:
255,114,199219,1,0,3:0:0:0:
196,151,199333,2,0,P|154:145|179:114,1,99.9999999999,10|0,1:2|3:0,2:0:0:0:
139,24,199562,2,0,P|97:30|122:61,1,99.9999999999,2|0,1:2|3:0,2:0:0:0:
91,132,199791,1,8,3:0:0:0:
85,141,199906,1,0,2:0:0:0:
41,204,200020,1,8,3:2:0:0:
116,203,200135,1,2,3:2:0:0:
30,243,200249,6,0,P|54:222|85:221,1,62.4999999999375,6|0,1:2|2:0,2:0:0:0:
158,252,200478,1,0,1:0:0:0:
125,249,200593,2,0,P|100:229|81:203,1,62.4999999999375,8|2,1:2|3:2,2:0:0:0:
46,196,200822,2,0,P|34:168|53:143,1,62.4999999999375,2|0,3:2|3:0,2:0:0:0:
20,97,201051,2,0,P|54:92|84:97,1,62.4999999999375,8|0,3:0|2:0,2:0:0:0:
120,73,201280,1,0,3:0:0:0:
141,80,201394,2,0,L|117:123,1,49.99999999995,10|0,1:2|3:0,2:0:0:0:
136,206,201623,1,2,1:2:0:0:
129,212,201738,1,0,3:0:0:0:
0,231,201852,2,0,B|23:218|29:202|29:202|43:199|55:192,1,69.9999999999299,8|8,3:0|3:2,2:0:0:0:
15,306,202196,1,2,3:2:0:0:
70,353,202310,5,6,1:2:0:0:
139,342,202425,1,0,3:0:0:0:
170,280,202539,1,0,3:0:0:0:
146,208,202654,2,0,B|142:192|112:181|112:181|120:214|147:237,1,99.9999999999,8|2,1:2|3:2,2:0:0:0:
240,297,202883,2,0,B|244:313|273:323|273:323|266:291|239:268,1,99.9999999999,2|0,3:2|3:0,2:0:0:0:
194,141,203112,2,0,B|204:174|236:185|236:185|229:151|222:151,1,99.9999999999,8|0,3:0|2:0,2:0:0:0:
304,221,203341,1,0,3:0:0:0:
324,127,203455,2,0,B|279:106|279:106|314:141,1,99.9999999999,10|0,1:2|3:0,2:0:0:0:
420,144,203684,1,2,1:2:0:0:
389,226,203799,1,0,3:0:0:0:
429,149,203913,2,0,B|453:165|476:163|476:163|467:140|440:133,1,99.9999999999,8|0,3:0|2:0,2:0:0:0:
458,309,204142,1,8,3:2:0:0:
478,240,204257,1,2,3:2:0:0:
472,324,204371,6,0,P|442:334|411:338,1,62.4999999999375,0|0,1:0|2:0,2:0:0:0:
382,334,204600,1,0,3:0:0:0:
308,348,204715,2,0,P|278:356|258:335,1,62.4999999999375,8|0,3:2|3:0,2:0:0:0:
218,277,204944,1,2,3:2:0:0:
276,226,205058,2,0,P|300:239|312:269,1,62.4999999999375,2|0,3:2|2:0,2:0:0:0:
213,268,205287,1,0,1:0:0:0:
147,293,205402,2,0,P|120:272|127:240,1,62.4999999999375,8|0,3:0|2:0,2:0:0:0:
70,165,205631,2,0,P|68:191|57:212,1,49.99999999995,2|0,3:2|3:0,2:0:0:0:
106,105,205860,2,0,P|109:78|134:64,2,50,0|0|0,3:0|2:0|1:0,2:0:0:0:
34,78,206203,1,8,3:2:0:0:
27,73,206318,1,2,3:2:0:0:
84,26,206432,54,0,B|110:28|131:18|131:18|107:6|83:13,1,99.9999999999,4|0,1:2|2:0,2:0:0:0:
62,110,206661,1,0,1:0:0:0:
164,53,206776,1,8,1:2:0:0:
57,115,206890,1,2,3:2:0:0:
164,53,207005,2,0,B|181:38|210:44|210:44|189:60|183:86,1,99.9999999999,2|0,3:2|3:0,2:0:0:0:
52,120,207234,2,0,B|34:134|5:128|5:128|26:112|32:86,1,99.9999999999,8|0,3:0|2:0,2:0:0:0:
127,132,207463,1,0,3:0:0:0:
210,159,207577,2,0,P|234:128|195:132,1,99.9999999999,10|0,1:2|3:0,2:0:0:0:
79,208,207806,1,2,1:2:0:0:
149,212,207921,1,0,3:0:0:0:
79,217,208035,2,0,P|40:212|71:188,1,99.9999999999,8|0,3:0|2:0,2:0:0:0:
195,262,208264,2,0,P|167:275|136:279,1,62.5,8|2,3:2|3:2,2:0:0:0:
70,302,208493,1,2,1:2:0:0:
223,351,208608,69,10,1:3:0:0:
155,313,208722,1,0,3:0:0:0:
163,238,208837,2,0,P|203:237|177:268,1,99.9999999999,8|2,1:2|3:2,2:0:0:0:
326,272,209066,2,0,P|287:264|304:299,1,99.9999999999,2|0,3:2|3:0,2:0:0:0:
276,133,209295,1,8,3:0:0:0:
258,198,209409,1,0,2:0:0:0:
211,151,209524,1,0,3:0:0:0:
322,184,209638,2,0,B|357:166|357:166|352:151|347:124,1,74.9999999999249,10|0,1:2|3:0,2:0:0:0:
319,70,209867,1,2,1:2:0:0:
329,62,209982,1,0,3:0:0:0:
465,245,210096,2,0,B|447:230|437:205|448:183|448:183|428:172|421:153,1,99.9999999999,8|8,3:0|3:2,2:0:0:0:
442,91,210440,1,2,3:2:0:0:
372,61,210555,37,6,1:2:0:0:
317,95,210669,1,0,2:0:0:0:
300,158,210784,1,0,1:0:0:0:
318,222,210898,2,0,P|356:226|327:204,1,99.9999999999,8|2,1:2|3:2,2:0:0:0:
290,337,211127,1,2,3:2:0:0:
293,321,211242,1,0,3:0:0:0:
247,234,211356,2,0,P|212:250|250:256,1,99.9999999999,8|0,3:0|2:0,2:0:0:0:
313,187,211585,1,0,3:0:0:0:
256,127,211700,2,0,B|233:134|214:158|214:158|247:163|266:141,1,99.9999999999,10|0,1:2|3:0,2:0:0:0:
111,181,211929,1,2,1:2:0:0:
177,217,212043,1,0,3:0:0:0:
105,179,212158,2,0,P|89:152|120:149,1,74.9999999999249,8|0,3:0|2:0,2:0:0:0:
150,90,212387,1,8,3:2:0:0:
154,81,212501,1,2,3:2:0:0:
267,61,212616,6,0,P|244:70|223:84,1,49.99999999995,2|0,1:2|2:0,2:0:0:0:
206,153,212845,1,0,1:0:0:0:
215,158,212959,1,8,1:2:0:0:
222,231,213074,38,0,P|206:254|240:253,1,74.9999999999249,2|2,3:2|3:2,2:0:0:0:
307,255,213303,1,0,3:0:0:0:
338,337,213417,2,0,P|352:305|381:276,1,74.9999999999249,8|0,3:0|2:0,2:0:0:0:
370,195,213646,2,0,P|333:193|344:167,1,74.9999999999249,0|10,3:0|1:2,2:0:0:0:
368,105,213875,2,0,P|384:94|402:87,2,34.9999999999649,0|0|0,3:0|2:0|3:0,2:0:0:0:
410,26,214219,1,8,3:0:0:0:
410,26,214333,1,0,2:0:0:0:
462,73,214448,1,8,3:2:0:0:
506,28,214562,1,2,3:2:0:0:
447,138,214677,54,0,B|422:120|420:92|420:92|449:97|462:123,1,99.9999999999,2|0,1:2|3:2,2:0:0:0:
452,207,214906,1,0,1:0:0:0:
381,167,215020,1,8,1:2:0:0:
457,212,215135,2,0,B|482:229|483:258|483:258|454:253|441:226,1,99.9999999999,2|2,3:2|3:2,2:0:0:0:
378,239,215364,1,0,3:0:0:0:
395,303,215478,2,0,B|410:322|409:349|409:349|394:330|368:322,1,99.9999999999,8|0,3:0|2:0,2:0:0:0:
304,296,215707,1,0,3:0:0:0:
332,210,215822,2,0,B|303:193|273:206|273:206|286:223|309:227,1,99.9999999999,10|0,1:2|3:0,2:0:0:0:
295,298,216051,1,2,1:2:0:0:
235,260,216165,1,0,3:0:0:0:
219,325,216280,1,8,3:0:0:0:
223,335,216394,1,0,2:0:0:0:
152,295,216509,2,0,B|116:286|115:246|115:246|146:260,1,99.9999999999,8|2,3:2|3:2,2:0:0:0:
32,200,216738,6,0,P|69:188|104:180,1,74.9999999999249,2|0,1:2|2:0,2:0:0:0:
136,173,216967,1,0,1:0:0:0:
216,144,217081,1,8,1:2:0:0:
150,97,217196,1,2,3:2:0:0:
216,154,217310,2,0,P|248:140|277:109,1,74.9999999999249,2|0,3:2|3:0,2:0:0:0:
231,52,217539,2,0,P|245:25|285:44,1,74.9999999999249,8|0,3:0|2:0,2:0:0:0:
313,45,217768,1,0,3:0:0:0:
350,116,217883,2,0,P|383:95|397:59,1,74.9999999999249,10|0,1:2|3:0,2:0:0:0:
470,44,218112,1,2,1:2:0:0:
474,53,218226,1,0,3:0:0:0:
478,129,218341,2,0,P|446:144|418:170,1,69.9999999999299,8|8,3:0|3:2,2:0:0:0:
403,250,218684,1,2,3:2:0:0:
338,226,218799,5,6,1:2:0:0:
340,294,218913,1,0,2:0:0:0:
294,343,219028,1,0,1:0:0:0:
228,360,219142,2,0,B|206:382|177:366|177:366|192:337|217:345,1,99.9999999999,8|2,1:2|3:2,2:0:0:0:
257,284,219371,1,2,3:2:0:0:
233,215,219486,1,0,3:0:0:0:
271,283,219600,2,0,B|283:311|315:306|315:306|312:275|286:273,1,99.9999999999,8|0,3:0|2:0,2:0:0:0:
224,207,219829,1,0,3:0:0:0:
176,268,219944,2,0,B|145:286|120:276|120:276|142:266|154:253,1,99.9999999999,10|0,1:2|3:0,2:0:0:0:
133,182,220173,1,2,1:2:0:0:
143,181,220287,1,0,3:0:0:0:
275,155,220402,1,8,3:0:0:0:
214,190,220516,1,0,2:0:0:0:
284,163,220631,2,0,B|309:173|338:159|338:159|320:137|299:145,1,99.9999999999,8|2,3:2|3:2,2:0:0:0:
97,71,220860,6,0,P|111:91|132:104,1,49.99999999995,2|0,1:2|2:0,2:0:0:0:
207,102,221089,1,0,1:0:0:0:
220,101,221203,1,8,1:2:0:0:
286,81,221318,2,0,P|272:46|239:30,1,74.9999999999249,2|2,3:2|3:2,2:0:0:0:
339,18,221547,1,0,3:0:0:0:
407,41,221661,2,0,P|450:21|492:9,2,74.9999999999249,8|0|0,3:0|2:0|3:0,2:0:0:0:
473,88,222005,1,10,1:2:0:0:
474,101,222119,1,0,3:0:0:0:
445,164,222234,1,2,1:2:0:0:
500,202,222348,1,0,3:0:0:0:
454,256,222463,2,0,P|430:280|399:296,1,69.9999999999299,8|8,3:0|3:2,2:0:0:0:
334,274,222806,1,2,3:2:0:0:
284,329,222921,70,0,P|264:288|231:243,2,99.9999999999,6|0|0,1:2|3:0|1:0,2:0:0:0:
129,269,223264,2,0,B|184:289|148:308|201:332,1,99.9999999999,8|2,1:2|3:2,2:0:0:0:
193,167,223493,2,0,B|230:211|189:210|224:258,1,99.9999999999,2|0,3:2|3:0,2:0:0:0:
302,107,223722,2,0,B|312:164|277:142|283:202,1,99.9999999999,8|0,3:0|2:0,2:0:0:0:
290,267,223951,1,0,3:0:0:0:
355,272,224066,2,0,P|387:244|405:216,1,74.9999999999249,10|0,1:2|3:0,2:0:0:0:
436,160,224295,1,2,1:2:0:0:
433,146,224409,1,0,3:0:0:0:
453,75,224524,2,0,P|423:74|382:60,1,69.9999999999299,8|8,3:0|3:2,2:0:0:0:
321,37,224867,1,2,3:2:0:0:
254,49,224982,5,2,1:2:0:0:
205,100,225096,1,0,3:0:0:0:
198,173,225211,1,0,1:0:0:0:
252,217,225325,2,0,P|284:197|292:162,1,74.9999999999249,8|2,1:2|3:2,2:0:0:0:
244,228,225555,1,2,3:2:0:0:
237,238,225669,1,0,3:0:0:0:
173,268,225784,2,0,P|147:252|124:233,2,59.99999999994,8|0|0,3:0|2:0|3:0,2:0:0:0:
234,305,226127,1,10,1:2:0:0:
307,305,226242,1,0,3:0:0:0:
359,262,226356,1,2,1:2:0:0:
366,252,226471,1,0,3:0:0:0:
423,302,226585,2,0,P|437:270|443:235,1,69.9999999999299,8|8,3:0|3:2,2:0:0:0:
444,208,226929,1,2,3:2:0:0:
512,114,227043,6,0,B|495:128|480:130|480:130|472:128|472:128|444:146,2,74.9999999999249,6|0|0,1:2|3:0|1:0,2:0:0:0:
376,151,227387,2,0,P|341:154|327:122,1,74.9999999999249,8|2,1:2|3:2,2:0:0:0:
364,21,227616,2,0,P|393:46|403:84,1,74.9999999999249,2|0,3:2|3:0,2:0:0:0:
298,56,227845,2,0,P|258:55|226:42,1,74.9999999999249,8|0,3:0|2:0,2:0:0:0:
196,27,228074,1,0,3:0:0:0:
129,43,228188,2,0,P|98:32|75:13,2,62.4999999999375,10|0|2,1:2|3:0|1:2,2:0:0:0:
110,115,228532,1,0,3:0:0:0:
0,59,228646,2,0,P|26:86|41:118,1,69.9999999999299,8|8,3:0|3:2,2:0:0:0:
18,185,228990,1,2,3:2:0:0:
24,191,229104,1,2,1:2:0:0:
55,262,229219,37,2,3:2:0:0:
126,276,229333,1,0,1:0:0:0:
189,238,229448,2,0,P|202:209|170:208,1,74.9999999999249,8|2,1:2|3:2,2:0:0:0:
257,155,229677,1,2,3:2:0:0:
260,149,229791,1,0,3:0:0:0:
282,234,229906,101,8,3:0:0:0:
353,240,230020,1,0,3:0:0:0:
355,172,230135,2,0,P|363:136|359:99,1,74.9999999999249,8|10,3:2|1:2,2:0:0:0:
338,321,230364,5,2,3:2:0:0:
403,331,230478,1,2,1:2:0:0:
432,272,230593,2,0,P|437:240|473:205,1,74.9999999999249,0|8,3:0|3:0,2:0:0:0:
461,136,230822,2,0,L|454:83,2,52.5,0|8|2,3:0|3:2|3:2,2:0:0:0:
385,63,231165,38,0,B|358:62|340:40|340:40|322:22|294:20,2,99.9999999999,6|0|0,1:2|2:0|1:0,2:0:0:0:
356,220,231509,2,0,B|375:200|367:169|367:169|367:140|387:131,1,99.9999999999,8|2,1:2|3:2,2:0:0:0:
221,214,231738,2,0,B|246:206|257:177|257:177|275:152|295:153,1,99.9999999999,2|0,3:2|3:0,2:0:0:0:
107,144,231967,2,0,B|131:152|156:132|156:132|178:124|203:132,1,99.9999999999,8|0,3:0|2:0,2:0:0:0:
127,71,232196,1,0,3:0:0:0:
11,86,232310,2,0,P|44:69|68:41,1,74.9999999999249,10|0,1:2|3:0,2:0:0:0:
0,158,232539,1,2,1:2:0:0:
5,163,232654,1,0,3:0:0:0:
16,234,232768,2,0,B|32:245|32:263|32:263|51:265|64:275,1,69.9999999999299,8|8,3:0|3:2,2:0:0:0:
132,280,233112,1,2,3:2:0:0:
125,355,233226,6,0,P|162:348|196:314,1,87.5000000000001,2|0,1:2|3:0,2:0:0:0:
303,366,233455,2,0,P|293:333|261:341,1,87.5000000000001,0|8,1:0|3:2,2:0:0:0:
201,298,233684,1,2,3:2:0:0:
261,265,233799,2,0,P|275:244|292:226,1,49.99999999995,2|0,3:2|3:0,2:0:0:0:
198,229,234028,2,0,P|183:208|166:190,1,49.99999999995,8|0,3:0|2:0,2:0:0:0:
245,164,234257,1,0,3:0:0:0:
176,120,234371,2,0,P|195:105|220:98,1,49.99999999995,10|0,1:2|3:0,2:0:0:0:
287,87,234600,1,2,1:2:0:0:
302,92,234715,1,0,3:0:0:0:
344,153,234829,2,0,B|377:143|377:143|394:112,1,69.9999999999299,8|8,3:0|3:2,2:0:0:0:
423,42,235173,1,2,3:2:0:0:
462,152,235287,6,0,P|484:121|497:68,2,87.5000000000001,2|0|0,1:2|3:0|1:0,2:0:0:0:
445,246,235631,2,0,P|406:243|424:210,1,87.5000000000001,8|2,1:2|3:2,2:0:0:0:
328,240,235860,1,2,3:2:0:0:
346,176,235974,1,0,3:0:0:0:
325,253,236089,2,0,P|301:260|276:263,1,49.99999999995,8|0,3:0|2:0,2:0:0:0:
247,268,236318,1,0,3:0:0:0:
183,300,236432,2,0,P|155:291|133:286,1,49.99999999995,10|0,1:2|3:0,2:0:0:0:
62,263,236661,1,2,1:2:0:0:
66,247,236776,1,0,3:0:0:0:
76,236,236890,2,0,P|95:229|118:208,1,49.99999999995,8|0,3:0|2:0,2:0:0:0:
53,154,237119,2,0,L|53:120,2,33.3333333333,10|0|0,1:2|3:0|3:0,2:0:0:0:
84,137,237348,6,0,P|94:111|132:76,1,75,8|0,1:3|3:0,2:0:0:0:
208,36,237577,1,0,1:0:0:0:
156,77,237692,1,8,1:2:0:0:
276,67,237806,2,0,P|299:57|330:32,2,62.5,2|2|0,3:2|3:2|3:0,2:0:0:0:
227,122,238150,2,0,P|242:138|281:152,1,62.5,8|0,3:0|2:0,2:0:0:0:
310,150,238379,1,0,3:0:0:0:
409,195,238493,2,0,L|348:215,1,62.5,10|0,1:2|3:0,2:0:0:0:
310,273,238722,1,2,1:2:0:0:
294,276,238837,1,0,3:0:0:0:
279,277,238951,2,0,P|255:269|231:262,1,50,8|0,3:0|2:0,2:0:0:0:
176,327,239180,2,0,L|170:311,3,16.6666666666667,8|0|0|2,3:2|3:0|3:0|3:2,2:0:0:0:
45,375,239409,54,0,B|38:390|38:390|101:363|101:363|74:355,1,100,4|0,1:2|2:0,2:0:0:0:
105,328,239638,1,0,3:0:0:0:
24,334,239753,2,0,P|53:313|93:307,1,75,8|0,3:2|2:0,2:0:0:0:
0,322,239982,2,0,P|24:296|62:294,1,75,2|0,3:2|2:0,2:0:0:0:
92,257,240211,2,0,L|18:268,1,75,2|0,1:2|2:0,2:0:0:0:
0,244,240440,2,0,P|27:230|73:228,1,75,0|8,3:0|3:2,2:0:0:0:
43,204,240669,1,2,3:2:0:0:
14,196,240784,1,2,3:2:0:0:
44,178,240898,1,0,3:0:0:0:
0,171,241013,2,0,P|29:156|71:152,1,75,0|0,1:0|2:0,2:0:0:0:
39,125,241242,1,8,2:0:0:0:
28,113,241356,1,0,2:0:0:0:
66,76,241471,2,0,B|71:62|71:62|41:80|-2:81|-2:81|9:91,1,99.9999999999142,0|0,1:0|2:0,2:0:0:0:
159,370,241700,101,2,3:2:0:0:
98,348,241814,2,0,P|135:350|172:357,1,74.9999999999167,8|0,3:2|3:0,2:0:0:0:
202,310,242043,2,0,P|153:318|119:322,1,74.9999999999167,2|0,2:0|2:0,2:0:0:0:
228,279,242272,2,0,P|193:288|161:309,1,74.9999999999167,0|0,1:0|3:0,2:0:0:0:
162,280,242501,1,0,3:0:0:0:
126,259,242616,1,8,3:2:0:0:
162,243,242730,1,2,3:2:0:0:
103,228,242845,2,0,L|181:206,1,74.9999999999167,2|0,3:2|2:0,2:0:0:0:
215,180,243074,2,0,P|186:187|141:188,1,74.9999999999167,0|0,1:0|2:0,2:0:0:0:
134,155,243303,1,8,3:2:0:0:
142,141,243417,1,0,2:0:0:0:
203,357,243532,6,0,B|198:373|198:373|265:360|265:360|240:349,1,99.9999999998888,2|0,1:2|2:0,2:0:0:0:
244,325,243761,1,0,3:0:0:0:
166,325,243875,2,0,B|201:311|237:303,1,74.9999999999167,8|0,3:2|2:0,2:0:0:0:
290,281,244104,2,0,P|264:278|209:288,1,74.9999999999167,2|0,3:2|2:0,2:0:0:0:
321,269,244333,2,0,P|291:264|246:242,1,74.9999999999167,0|0,1:2|2:0,2:0:0:0:
171,245,244562,2,0,P|201:240|246:218,2,74.9999999999167,0|8|2,3:0|3:2|3:2,2:0:0:0:
205,215,244906,1,0,1:0:0:0:
200,199,245020,1,0,3:0:0:0:
268,170,245135,2,0,P|227:174|193:171,1,74.9999999999167,2|0,1:2|2:0,2:0:0:0:
154,140,245364,2,0,L|202:129,2,49.9999999999445,8|0|0,3:2|3:0|3:0,2:0:0:0:
278,110,245593,2,0,P|251:104|189:97,1,74.9999999999167,8|0,2:3|2:0,2:0:0:0:
322,355,245822,101,2,3:2:0:0:
242,341,245936,1,8,3:2:0:0:
328,342,246051,1,0,2:0:0:0:
236,330,246165,2,0,P|206:309|231:289,1,74.9999999999167,2|0,3:2|2:0,2:0:0:0:
331,321,246394,2,0,P|303:302|262:290,1,74.9999999999167,0|0,1:0|2:0,2:0:0:0:
210,266,246623,2,0,L|286:256,2,74.9999999999167,8|2|0,2:0|2:0|3:0,2:0:0:0:
291,232,246967,1,0,1:0:0:0:
305,213,247081,1,0,2:0:0:0:
289,184,247196,2,0,P|260:195|226:229,1,74.9999999999167,0|0,1:0|2:0,2:0:0:0:
226,168,247425,2,0,L|246:153,3,24.9999999999722,10|0|0|0,3:2|2:0|2:0|2:0,2:0:0:0:
127,363,247654,6,0,B|119:373|119:373|40:349|40:349|30:360,1,99.9999999998638,4|0,1:2|2:0,2:0:0:0:
23,334,247883,1,0,3:0:0:0:
148,321,247997,2,0,P|110:322|75:334,1,74.9999999999167,8|0,2:0|2:0,2:0:0:0:
20,313,248226,2,0,P|57:313|92:301,1,74.9999999999167,2|0,3:2|2:0,2:0:0:0:
142,269,248455,2,0,P|114:281|76:304,1,74.9999999999167,0|0,1:0|2:0,2:0:0:0:
55,286,248684,1,0,3:0:0:0:
123,271,248799,2,0,P|97:256|48:259,1,74.9999999999167,8|0,2:0|3:0,2:0:0:0:
85,225,249028,1,0,1:0:0:0:
62,197,249142,1,0,2:0:0:0:
152,216,249257,2,0,P|113:210|81:195,1,74.9999999999167,2|0,1:2|2:0,2:0:0:0:
74,169,249486,1,8,3:2:0:0:
75,148,249600,1,0,2:0:0:0:
265,345,249715,102,0,B|281:356|281:356|185:362,1,99.9999999998888,2|0,1:2|2:0,2:0:0:0:
227,312,249944,1,0,3:0:0:0:
166,323,250058,2,0,P|201:307|236:298,1,74.9999999998976,8|0,3:2|3:0,2:0:0:0:
133,290,250287,2,0,L|208:280,1,74.9999999998976,2|0,3:2|2:0,2:0:0:0:
263,280,250516,2,0,P|234:269|185:258,1,74.9999999998976,0|0,1:0|2:0,2:0:0:0:
136,243,250745,2,0,P|166:237|216:245,1,74.9999999998976,2|8,3:2|2:0,2:0:0:0:
176,216,250974,1,0,3:2:0:0:
209,202,251089,1,2,3:2:0:0:
180,180,251203,1,0,2:0:0:0:
135,162,251318,2,0,P|163:162|212:170,1,74.9999999998976,0|0,1:0|3:0,2:0:0:0:
179,139,251547,1,10,3:2:0:0:
189,128,251661,1,0,2:0:0:0:
300,366,251776,6,0,B|281:365|281:365|219:359|219:359|247:338,1,99.9999999999142,6|0,1:2|2:0,2:0:0:0:
307,334,252005,1,2,3:2:0:0:
193,309,252119,2,0,P|227:318|260:338,1,74.9999999999167,8|0,3:2|2:0,2:0:0:0:
315,287,252348,2,0,L|242:308,1,74.9999999999167,2|0,3:2|2:0,2:0:0:0:
198,256,252577,2,0,P|236:283|268:290,2,74.9999999999167,0|0|2,1:0|2:0|3:2,2:0:0:0:
266,264,252921,1,8,2:0:0:0:
280,256,253035,1,0,2:0:0:0:
205,234,253150,1,2,3:2:0:0:
286,225,253264,1,0,2:0:0:0:
214,197,253379,2,0,P|259:203|303:217,1,74.9999999999167,0|0,1:0|2:0,2:0:0:0:
266,178,253608,1,8,2:0:0:0:
247,163,253722,1,0,2:0:0:0:
298,153,253837,2,0,P|268:140|224:130,1,74.9999999999167,8|0,2:3|2:0,2:0:0:0:
406,365,254066,101,2,3:2:0:0:
302,343,254180,2,0,B|316:339|316:339|375:360|375:360|347:364,1,99.9999999998638,8|2,3:2|2:0,2:0:0:0:
413,309,254409,2,0,P|370:315|338:323,1,74.9999999999249,2|0,2:0|2:0,2:0:0:0:
293,280,254638,2,0,P|332:290|368:291,1,74.9999999999167,0|0,1:0|3:0,2:0:0:0:
413,274,254867,2,0,P|404:241|369:241,1,74.9999999999167,8|0,2:0|1:0,2:0:0:0:
299,257,255096,1,0,2:0:0:0:
341,241,255211,1,2,3:2:0:0:
301,222,255325,1,0,2:0:0:0:
383,196,255440,6,0,P|351:179|305:172,1,74.9999999999167,2|0,1:2|2:0,2:0:0:0:
358,131,255669,1,8,2:0:0:0:
358,114,255784,1,0,2:0:0:0:
0,267,255898,70,0,P|42:293|32:241,1,124.999999999875,6|0,1:2|2:0,2:0:0:0:
101,204,256127,1,0,1:0:0:0:
36,156,256242,2,0,B|13:127|-18:130|-18:130|-15:159|33:172,1,124.999999999875,8|2,1:2|3:2,2:0:0:0:
156,144,256471,2,0,B|190:159|216:140|216:140|200:117|151:128,1,124.999999999875,2|0,3:2|3:0,2:0:0:0:
104,72,256700,2,0,B|116:57|118:34|118:34|89:35|61:53|55:84,1,124.999999999875,8|0,3:0|2:0,2:0:0:0:
185,38,256929,1,0,3:0:0:0:
268,93,257043,2,0,B|308:111|337:99|337:99|319:82|286:76,1,124.999999999875,10|0,1:2|3:0,2:0:0:0:
284,5,257272,1,2,1:2:0:0:
295,9,257387,1,0,3:0:0:0:
369,26,257501,2,0,P|400:38|417:9,1,74.9999999999249,8|0,3:0|2:0,2:0:0:0:
505,72,257730,2,0,P|469:77|436:107,1,74.9999999999249,8|2,3:2|3:2,2:0:0:0:
395,334,257959,38,0,B|383:343|383:343|316:361|316:361|337:340,1,99.9999999999,0|0,1:0|3:0,2:0:0:0:
399,301,258188,1,2,3:2:0:0:
299,320,258303,2,0,P|331:301|366:288,1,74.9999999999249,8|0,3:2|2:0,2:0:0:0:
431,250,258532,2,0,L|350:271,1,74.9999999999249,2|0,3:2|2:0,2:0:0:0:
300,284,258761,2,0,P|301:255|341:242,1,75,0|0,1:0|2:0,2:0:0:0:
395,214,258990,2,0,P|364:223|317:227,1,75,0|10,3:0|3:2,2:0:0:0:
316,189,259219,1,0,3:0:0:0:
323,171,259333,1,2,3:2:0:0:
337,160,259448,1,0,3:0:0:0:
279,161,259562,2,0,P|300:137|347:126,1,75,0|0,1:0|2:0,2:0:0:0:
343,93,259791,2,0,L|266:110,1,75,8|0,3:2|3:0,2:0:0:0:
38,354,260020,86,0,B|-3:324|-3:324|74:342,1,124.999999999875,6|0,1:2|2:0,2:0:0:0:
135,323,260249,1,0,1:0:0:0:
51,235,260364,2,0,B|34:221|13:227|13:227|40:267|89:260,1,124.999999999875,8|0,1:2|2:0,2:0:0:0:
170,267,260593,2,0,B|201:267|245:280|245:280|202:256,1,124.999999999875,2|0,3:2|3:0,2:0:0:0:
67,149,260822,2,0,B|38:156|18:161|18:161|70:165|91:180,1,124.999999999875,8|0,3:0|2:0,2:0:0:0:
152,201,261051,1,0,3:0:0:0:
218,176,261165,2,0,P|263:190|233:154,1,124.999999999875,10|0,1:2|3:0,2:0:0:0:
137,118,261394,1,2,1:2:0:0:
153,110,261509,1,0,3:0:0:0:
207,73,261623,2,0,P|240:69|233:36,1,74.9999999999249,8|0,3:0|2:0,2:0:0:0:
305,99,261852,2,0,L|363:81,2,49.9999999999499,8|0|0,3:2|3:0|3:0,2:0:0:0:
339,20,262081,118,0,P|376:13|413:17,1,74.9999999999249,2|0,1:2|2:0,2:0:0:0:
243,325,262310,5,0,1:0:0:0:
149,349,262425,1,8,1:2:0:0:
251,317,262539,1,2,3:2:0:0:
137,339,262654,2,0,B|85:329|85:329|130:313,1,99.9999999999,2|0,3:2|3:0,2:0:0:0:
223,287,262883,2,0,P|180:295|148:295,1,74.9999999999249,8|0,3:0|2:0,2:0:0:0:
84,290,263112,2,0,P|119:281|148:254,1,74.9999999999249,0|10,3:0|1:2,2:0:0:0:
174,230,263341,1,0,3:0:0:0:
139,213,263455,1,2,1:2:0:0:
179,191,263570,1,0,3:0:0:0:
84,211,263684,2,0,P|115:197|141:194,1,59.99999999994,8|0,3:0|2:0,2:0:0:0:
150,155,263913,2,0,L|123:166,3,19.99999999998,8|0|0|2,3:2|2:0|2:0|3:2,2:0:0:0:
297,19,264142,86,0,B|287:36|271:47|271:47|309:48|356:24,1,124.999999999875,6|0,1:2|2:0,2:0:0:0:
390,86,264371,1,0,1:0:0:0:
336,133,264486,2,0,P|287:142|317:110,1,124.999999999875,8|2,1:2|3:2,2:0:0:0:
451,56,264715,2,0,P|494:71|460:76,1,124.999999999875,2|0,3:2|3:0,2:0:0:0:
353,242,264944,2,0,B|320:250|286:231|286:231|318:230|348:206,1,124.999999999875,8|0,3:0|2:0,2:0:0:0:
395,179,265173,1,0,3:0:0:0:
475,175,265287,2,0,B|491:166|506:169|506:169|499:193|499:193|493:211|475:227|459:231|442:225,1,124.999999999875,10|0,1:2|3:0,2:0:0:0:
412,270,265516,1,2,1:2:0:0:
419,275,265631,1,0,3:0:0:0:
499,297,265745,2,0,P|469:324|435:334,1,74.9999999999249,8|0,3:0|2:0,2:0:0:0:
300,337,265974,2,0,P|341:346|375:333,1,74.9999999999249,8|2,3:2|3:2,2:0:0:0:
41,367,266203,38,0,B|52:373|52:373|122:368|122:368|108:359,1,99.9999999999,2|0,1:2|2:0,2:0:0:0:
56,338,266432,1,0,1:0:0:0:
147,319,266547,2,0,P|109:320|74:335,1,74.9999999999249,8|2,1:2|3:2,2:0:0:0:
19,325,266776,2,0,P|59:312|92:322,1,74.9999999999249,2|0,3:2|3:0,2:0:0:0:
154,283,267005,2,0,P|114:293|81:305,1,75,8|0,3:0|2:0,2:0:0:0:
22,290,267234,2,0,P|50:278|88:254,1,75,0|10,3:0|1:2,2:0:0:0:
63,249,267463,1,0,3:0:0:0:
41,227,267577,1,2,1:2:0:0:
71,210,267692,1,0,3:0:0:0:
112,187,267806,2,0,P|84:178|34:176,1,75,8|0,3:0|2:0,2:0:0:0:
11,143,268035,2,0,L|86:135,1,75,8|2,3:2|3:2,2:0:0:0:
335,371,268264,86,0,B|302:352|264:340|264:340|293:339|319:323,1,124.999999999875,6|0,1:2|2:0,2:0:0:0:
290,263,268493,1,0,1:0:0:0:
371,270,268608,2,0,B|396:203|396:203|355:239,1,124.999999999875,8|2,1:2|3:2,2:0:0:0:
224,285,268837,2,0,B|183:298|158:270|158:270|182:245|205:262,1,124.999999999875,2|0,3:2|3:0,2:0:0:0:
271,193,269066,2,0,B|285:129|285:129|266:160|238:182,1,124.999999999875,8|0,3:0|2:0,2:0:0:0:
182,188,269295,1,0,3:0:0:0:
127,233,269409,2,0,B|89:232|61:187|61:187|83:204|105:205,1,124.999999999875,10|0,1:2|3:0,2:0:0:0:
137,116,269638,1,2,1:2:0:0:
139,97,269753,1,0,3:0:0:0:
133,77,269867,2,0,P|99:66|53:67,1,74.9999999999249,8|0,3:0|2:0,2:0:0:0:
36,132,270096,1,8,3:2:0:0:
46,125,270211,1,2,3:2:0:0:
36,50,270325,2,0,P|15:28|-9:11,1,49.99999999995,2|0,1:2|2:0,2:0:0:0:
414,5,270555,5,0,1:0:0:0:
295,38,270669,1,8,1:2:0:0:
419,11,270784,1,2,3:2:0:0:
284,53,270898,2,0,B|302:65|302:65|364:51|364:51|356:40,1,99.9999999999,2|0,3:2|2:0,2:0:0:0:
437,79,271127,2,0,P|405:78|364:66,1,74.9999999999249,8|0,3:0|2:0,2:0:0:0:
280,96,271356,2,0,P|313:84|346:61,1,74.9999999999249,0|10,3:0|1:2,2:0:0:0:
367,106,271585,1,0,3:0:0:0:
329,127,271700,1,2,1:2:0:0:
362,140,271814,1,0,3:0:0:0:
298,161,271929,2,0,P|335:153|370:138,1,75,8|0,3:0|2:0,2:0:0:0:
396,192,272158,2,0,P|365:167|339:138,1,75,8|2,3:2|3:2,2:0:0:0:
152,373,272387,86,0,B|117:349|69:345|69:345|89:338|112:338,1,124.999999999875,6|0,1:2|2:0,2:0:0:0:
223,368,272616,1,0,1:0:0:0:
274,318,272730,2,0,B|318:334|318:334|266:276,1,124.999999999875,8|2,1:2|3:2,2:0:0:0:
101,267,272959,2,0,B|63:295|63:295|140:284,1,124.999999999875,2|0,3:2|3:0,2:0:0:0:
239,242,273188,2,0,B|258:242|286:215|286:215|258:226|217:223,1,124.999999999875,8|0,3:0|2:0,2:0:0:0:
144,213,273417,1,0,3:0:0:0:
203,152,273532,2,0,P|243:125|195:123,1,124.999999999875,10|0,1:2|3:0,2:0:0:0:
72,205,273761,1,2,1:2:0:0:
58,199,273875,1,0,3:0:0:0:
33,126,273990,2,0,P|34:89|56:55,1,74.9999999999249,8|0,3:0|2:0,2:0:0:0:
174,53,274219,2,0,P|160:21|126:29,1,74.9999999999249,8|2,3:2|3:2,2:0:0:0:
411,37,274448,38,0,B|401:43|401:43|323:53|323:53|311:68,1,99.9999999999,2|0,1:2|2:0,2:0:0:0:
415,82,274677,1,0,1:0:0:0:
304,107,274791,2,0,P|343:96|373:77,1,74.9999999999249,8|2,1:2|3:2,2:0:0:0:
268,141,275020,2,0,P|304:131|341:122,1,74.9999999999249,2|0,3:2|3:0,2:0:0:0:
390,133,275249,2,0,B|402:140|410:164|410:164|396:164|372:149,1,75,8|0,3:0|2:0,2:0:0:0:
319,167,275478,2,0,P|324:199|355:186,1,75,0|10,3:0|1:2,2:0:0:0:
381,205,275707,1,0,3:0:0:0:
355,229,275822,1,2,1:2:0:0:
392,243,275936,1,0,3:0:0:0:
353,273,276051,2,0,P|383:269|426:251,1,75,8|0,3:0|2:0,2:0:0:0:
381,317,276280,2,0,P|353:310|321:277,1,75,8|2,3:2|3:2,2:0:0:0:
310,37,276509,86,0,B|313:27|299:11|299:11|334:18|355:51,1,99.9999999999,6|0,1:2|2:0,2:0:0:0:
378,116,276738,1,0,1:0:0:0:
283,107,276852,2,0,P|305:142|264:140,1,99.9999999999,8|2,1:2|3:2,2:0:0:0:
229,63,277081,2,0,B|195:58|182:29|182:29|205:26|221:43,1,99.9999999999,2|0,3:2|3:0,2:0:0:0:
153,144,277310,2,0,B|197:137|197:137|140:176,1,99.9999999999,8|0,3:0|2:0,2:0:0:0:
135,80,277539,1,0,3:0:0:0:
63,97,277654,2,0,B|29:52|29:52|52:62|74:62,1,99.9999999999,10|0,1:2|3:0,2:0:0:0:
8,154,277883,1,2,1:2:0:0:
5,166,277997,1,0,3:0:0:0:
69,185,278112,2,0,B|94:219|94:219|77:211|60:211,1,74.9999999999249,8|0,3:0|2:0,2:0:0:0:
0,257,278341,2,0,L|58:284,2,49.9999999999499,8|0|0,3:2|3:0|3:0,2:0:0:0:
91,336,278570,118,0,B|80:323|80:323|18:321|18:321|0:301,1,99.9999999999,2|0,1:2|2:0,2:0:0:0:
59,58,278799,5,0,1:0:0:0:
159,39,278913,1,8,1:2:0:0:
47,45,279028,1,2,3:2:0:0:
150,35,279142,2,0,P|118:52|80:61,1,74.9999999999249,2|0,3:2|3:0,2:0:0:0:
191,78,279371,2,0,B|164:78|164:78|143:67|116:70,1,74.9999999999249,8|0,3:0|2:0,2:0:0:0:
39,73,279600,2,0,P|75:81|94:112,1,74.9999999999249,0|10,3:0|1:2,2:0:0:0:
110,127,279829,1,0,3:0:0:0:
84,152,279944,1,2,1:2:0:0:
120,160,280058,1,0,3:0:0:0:
47,174,280173,2,0,P|74:168|107:170,1,59.99999999994,8|0,3:0|2:0,2:0:0:0:
111,203,280402,2,0,P|102:208|92:211,3,19.99999999998,8|0|0|0,3:2|2:0|2:0|2:0,2:0:0:0:
284,59,280631,86,0,B|298:64|317:68|317:68|301:50|284:46,1,74.9999999999249,6|0,1:2|2:0,2:0:0:0:
350,91,280860,1,0,1:0:0:0:
332,129,280974,2,0,P|335:154|370:135,1,74.9999999999249,8|2,1:2|3:2,2:0:0:0:
401,162,281203,2,0,B|422:149|429:129|429:129|405:131|383:152,1,74.9999999999249,2|0,3:2|3:0,2:0:0:0:
404,193,281432,2,0,B|394:196|380:213|380:213|400:218|421:207,1,74.9999999999249,8|0,3:0|2:0,2:0:0:0:
444,211,281661,1,0,3:0:0:0:
433,238,281776,2,0,P|433:268|453:246,1,74.9999999999249,10|0,1:2|3:0,2:0:0:0:
457,275,282005,1,2,1:2:0:0:
475,280,282119,1,0,3:0:0:0:
480,299,282234,2,0,P|466:318|445:335,1,49.99999999995,8|0,3:0|2:0,2:0:0:0:
415,343,282463,2,0,P|437:349|464:350,1,49.99999999995,8|2,3:2|3:2,2:0:0:0:
331,43,282692,38,0,B|335:31|335:31|413:49|413:49|383:65,1,99.9999999999,2|0,1:2|2:0,2:0:0:0:
409,94,282921,1,0,1:0:0:0:
348,106,283035,2,0,P|331:79|364:74,1,74.9999999999249,8|2,1:2|3:2,2:0:0:0:
416,126,283264,2,0,P|379:130|340:127,1,74.9999999999249,2|0,3:2|3:0,2:0:0:0:
323,143,283493,2,0,P|350:159|378:165,1,59.99999999994,8|0,3:0|2:0,2:0:0:0:
375,177,283722,1,0,3:0:0:0:
408,198,283837,2,0,P|374:199|348:202,1,59.99999999994,10|0,1:2|3:0,2:0:0:0:
404,217,284066,1,2,1:2:0:0:
374,230,284180,1,0,3:0:0:0:
401,259,284295,2,0,P|380:252|352:245,1,49.99999999995,8|0,3:0|2:0,2:0:0:0:
339,279,284524,2,0,P|360:294|397:301,1,49.99999999995,8|2,3:2|3:2,2:0:0:0:
113,34,284753,86,0,P|103:51|121:40,1,49.99999999995,2|0,1:2|2:0,2:0:0:0:
142,31,284982,1,0,1:0:0:0:
66,34,285096,2,0,P|75:52|94:77,1,49.99999999995,8|2,1:2|3:2,2:0:0:0:
64,107,285325,2,0,P|64:83|43:71,1,49.99999999995,2|0,3:2|3:0,2:0:0:0:
29,119,285555,2,0,B|15:119|15:119|49:145,1,49.99999999995,8|0,3:0|2:0,2:0:0:0:
26,176,285784,1,0,3:0:0:0:
51,205,285898,2,0,P|24:221|5:225,1,49.99999999995,10|0,1:2|3:0,2:0:0:0:
34,256,286127,1,2,1:2:0:0:
35,271,286242,1,0,3:0:0:0:
18,299,286356,2,0,P|56:286|83:260,1,74.9999999999249,8|0,3:0|2:0,2:0:0:0:
28,337,286585,2,0,P|44:330|59:316,2,37.4999999999625,8|0|2,3:2|2:0|3:2,2:0:0:0:
211,329,286814,37,2,1:2:0:0:
123,312,286929,5,8,3:0:0:0:
344,129,287158,5,2,3:2:0:0:
337,131,287215,1,0,3:0:0:0:
330,133,287272,1,2,3:2:0:0:
269,25,287387,2,0,L|255:86,1,62.5,0|10,3:0|3:2,2:0:0:0:
174,35,287616,69,8,3:0:0:0:
170,42,287730,101,0,1:0:0:0:
65,13,287845,6,0,P|51:54|94:59,1,99.9999999999,2|8,1:2|3:0,2:0:0:0:
27,157,288074,1,2,3:2:0:0:
152,110,288188,1,8,3:0:0:0:
99,155,288303,1,8,3:2:0:0:
175,181,288417,2,0,P|144:197|80:211,1,99.9999999999,10|0,3:2|2:0,2:0:0:0:
35,294,288646,2,0,P|60:289|83:282,2,50,8|0|0,1:3|3:0|3:0,2:0:0:0:
177,297,288875,102,0,B|192:296|207:286|207:286|190:314|153:325,1,99.9999999999,6|0,1:2|2:0,2:0:0:0:
457,361,289104,21,0,1:0:0:0:
471,367,289219,1,8,1:2:0:0:
486,368,289333,1,2,3:2:0:0:
487,334,289448,1,2,3:2:0:0:
460,269,289562,1,0,3:0:0:0:
404,207,289677,2,0,P|380:188|411:184,1,75,8|0,3:0|2:0,2:0:0:0:
328,344,289906,1,0,3:0:0:0:
341,363,290020,1,10,1:2:0:0:
356,375,290135,1,0,3:0:0:0:
375,378,290249,1,2,1:2:0:0:
376,352,290364,1,0,3:0:0:0:
350,292,290478,1,8,3:0:0:0:
287,248,290593,1,0,2:0:0:0:
220,222,290707,2,0,P|196:203|225:188,1,75,8|2,3:2|3:2,2:0:0:0:
239,101,290936,1,2,1:2:0:0:
208,373,291165,5,0,1:0:0:0:
223,380,291280,1,8,1:2:0:0:
245,374,291394,1,2,3:2:0:0:
227,338,291509,1,2,3:2:0:0:
169,303,291623,1,0,3:0:0:0:
130,244,291738,2,0,P|102:233|128:216,1,75,8|0,3:0|2:0,2:0:0:0:
77,359,291967,1,0,3:0:0:0:
91,373,292081,1,10,1:2:0:0:
106,381,292196,1,0,3:0:0:0:
125,378,292310,1,2,1:2:0:0:
109,342,292425,1,0,3:0:0:0:
53,307,292539,1,8,3:0:0:0:
20,245,292654,1,0,2:0:0:0:
25,170,292768,2,0,P|6:152|39:146,1,75,8|0,3:2|3:0,2:0:0:0:
76,69,292997,5,6,1:2:0:0:
137,366,293112,6,0,P|161:365|136:350,1,75,2|0,2:0|1:0,2:0:0:0:
69,355,293341,1,8,1:2:0:0:
116,279,293455,2,0,P|84:281|98:253,1,75,2|2,3:2|3:2,2:0:0:0:
18,261,293684,1,0,3:0:0:0:
72,158,293799,2,0,P|105:170|82:187,1,75,8|0,3:0|2:0,2:0:0:0:
6,178,294028,1,0,3:0:0:0:
37,88,294142,2,0,P|6:101|20:74,1,75,10|0,1:2|3:0,2:0:0:0:
72,17,294371,1,2,3:2:0:0:
67,22,294486,1,0,3:0:0:0:
131,64,294600,2,0,P|158:72|138:48,1,75,8|0,3:0|2:0,2:0:0:0:
258,19,294829,2,0,L|206:6,2,50,8|0|0,3:2|3:0|3:0,2:0:0:0:
319,51,295058,70,0,P|352:58|329:83,1,75,2|0,1:2|2:0,2:0:0:0:
415,12,295287,1,0,1:0:0:0:
410,17,295402,1,8,1:2:0:0:
481,85,295516,2,0,P|451:84|475:64,1,75,2|2,3:2|3:2,2:0:0:0:
394,128,295745,1,0,3:0:0:0:
457,164,295860,2,0,B|476:168|488:184|488:184|465:192|451:187,1,75,8|0,3:0|2:0,2:0:0:0:
372,196,296089,1,0,3:0:0:0:
374,291,296203,2,0,B|354:288|341:272|341:272|364:262|380:267,1,75,10|0,1:2|3:0,2:0:0:0:
465,342,296432,1,2,1:2:0:0:
454,362,296547,1,0,3:0:0:0:
441,368,296661,1,8,3:0:0:0:
413,326,296776,1,0,2:0:0:0:
405,257,296890,2,0,P|404:225|385:245,1,75,8|2,3:2|3:2,2:0:0:0:
442,151,297119,1,6,1:2:0:0:
44,273,297348,5,0,1:0:0:0:
29,280,297463,1,8,1:2:0:0:
12,282,297577,1,2,3:2:0:0:
9,239,297692,1,2,3:2:0:0:
28,173,297806,1,0,3:0:0:0:
69,113,297921,2,0,B|73:106|92:94|92:94|69:102|48:102,1,75,8|0,3:0|2:0,2:0:0:0:
128,315,298150,1,0,3:0:0:0:
114,321,298264,1,10,1:2:0:0:
99,324,298379,1,0,3:0:0:0:
84,325,298493,1,2,1:2:0:0:
86,288,298608,1,0,3:0:0:0:
134,233,298722,1,8,3:0:0:0:
198,193,298837,1,0,2:0:0:0:
269,166,298951,2,0,B|277:152|292:143|292:143|270:140|251:151,1,75,8|0,3:2|2:0,2:0:0:0:
243,59,299180,1,2,1:2:0:0:
280,369,299409,5,0,1:0:0:0:
262,379,299524,1,8,1:2:0:0:
243,373,299638,1,2,3:2:0:0:
256,319,299753,1,2,3:2:0:0:
301,266,299867,1,0,3:0:0:0:
363,228,299982,2,0,B|370:222|384:218|384:218|356:218|335:203,1,75,8|0,3:0|2:0,2:0:0:0:
446,344,300211,1,0,3:0:0:0:
430,362,300325,1,10,1:2:0:0:
412,375,300440,1,0,3:0:0:0:
391,377,300555,1,2,1:2:0:0:
380,335,300669,1,0,3:0:0:0:
396,274,300784,1,8,3:0:0:0:
430,216,300898,1,0,2:0:0:0:
462,152,301013,2,0,B|474:154|487:154|487:154|471:129|448:126,1,75,8|0,3:2|2:0,2:0:0:0:
445,49,301242,5,6,1:2:0:0:
474,365,301356,70,0,P|447:352|476:340,1,75,0|0,2:0|1:0,2:0:0:0:
396,291,301585,1,8,1:2:0:0:
479,229,301700,2,0,P|494:254|466:244,1,75,2|2,3:2|3:2,2:0:0:0:
412,197,301929,1,0,3:0:0:0:
339,230,302043,2,0,B|320:227|312:200|312:200|336:200|349:214,1,75,8|0,3:0|2:0,2:0:0:0:
361,135,302272,1,0,3:0:0:0:
267,101,302387,2,0,B|282:115|286:132|286:132|263:132|250:115,1,75,10|0,1:2|3:0,2:0:0:0:
204,175,302616,1,2,1:2:0:0:
199,170,302730,1,0,3:0:0:0:
162,93,302845,2,0,P|161:62|187:79,1,75,8|0,3:0|2:0,2:0:0:0:
84,111,303074,2,0,L|35:100,2,50,8|0|0,3:2|3:0|3:0,2:0:0:0:
96,121,303303,6,0,P|72:93|52:52,1,75,2|0,1:2|2:0,2:0:0:0:
40,31,303532,1,0,1:0:0:0:
140,14,303646,2,0,P|113:30|144:37,1,75,10|2,3:2|3:2,2:0:0:0:
171,109,303875,1,2,3:2:0:0:
177,109,303990,1,0,3:0:0:0:
243,71,304104,2,0,P|269:52|239:48,1,75,8|0,3:0|2:0,2:0:0:0:
243,162,304333,1,0,3:0:0:0:
133,188,304448,2,0,B|123:188|115:197|115:197|143:204|170:190,1,75,10|0,1:2|3:0,2:0:0:0:
157,268,304677,1,2,1:2:0:0:
164,269,304791,1,0,3:0:0:0:
272,278,304906,2,0,P|236:276|262:253,1,75,8|0,3:0|2:0,2:0:0:0:
205,356,305135,1,8,3:2:0:0:
191,358,305173,2,0,L|162:352,2,25,0|0|2,2:0|2:0|3:2,2:0:0:0:
95,351,305364,1,6,1:2:0:0:
477,252,305593,5,0,1:0:0:0:
468,272,305707,1,8,1:2:0:0:
455,283,305822,1,2,3:2:0:0:
424,231,305936,1,2,3:2:0:0:
421,161,306051,1,0,3:0:0:0:
460,101,306165,2,0,P|480:85|450:87,1,75,8|0,3:0|2:0,2:0:0:0:
306,237,306394,1,0,3:0:0:0:
313,258,306509,1,10,1:2:0:0:
324,277,306623,1,0,3:0:0:0:
337,285,306738,1,2,1:2:0:0:
365,258,306852,1,0,3:0:0:0:
375,198,306967,1,8,3:0:0:0:
336,141,307081,1,0,2:0:0:0:
271,103,307196,2,0,P|247:85|279:77,1,75,8|2,3:2|3:2,2:0:0:0:
313,15,307425,1,2,1:2:0:0:
202,279,307654,5,0,1:0:0:0:
189,300,307768,1,8,1:2:0:0:
176,309,307883,1,2,3:2:0:0:
147,264,307997,1,2,3:2:0:0:
165,194,308112,1,0,3:0:0:0:
220,143,308226,2,0,P|244:127|214:118,1,75,8|0,3:0|2:0,2:0:0:0:
89,300,308455,1,0,3:0:0:0:
82,317,308570,1,10,1:2:0:0:
71,336,308684,1,0,3:0:0:0:
58,344,308799,1,2,1:2:0:0:
30,317,308913,1,0,3:0:0:0:
20,257,309028,1,8,3:0:0:0:
59,200,309142,1,0,2:0:0:0:
124,162,309257,2,0,P|148:144|116:136,1,75,8|2,3:2|3:2,2:0:0:0:
82,74,309486,1,2,1:2:0:0:
45,299,309600,70,0,P|17:295|37:263,1,75,2|0,3:2|1:0,2:0:0:0:
111,269,309829,1,8,1:2:0:0:
68,182,309944,2,0,P|98:188|73:205,1,75,2|2,3:2|3:2,2:0:0:0:
156,147,310173,1,0,3:0:0:0:
213,233,310287,2,0,B|197:227|190:208|190:208|206:219|228:221,1,75,8|0,3:0|2:0,2:0:0:0:
227,145,310516,1,0,3:0:0:0:
291,120,310631,2,0,P|319:108|300:131,1,75,10|0,1:2|3:0,2:0:0:0:
369,182,310860,1,2,1:2:0:0:
374,177,310974,1,0,3:0:0:0:
435,95,311089,2,0,P|460:108|438:137,1,75,8|0,3:0|2:0,2:0:0:0:
450,206,311318,2,0,L|493:179,2,50,8|0|0,3:2|3:0|3:0,2:0:0:0:
438,201,311547,6,0,P|429:171|461:149,1,75,2|0,1:2|2:0,2:0:0:0:
486,68,311776,1,0,1:0:0:0:
422,51,311890,1,8,1:2:0:0:
376,104,312005,2,0,P|342:97|359:72,1,75,2|2,3:2|3:2,2:0:0:0:
277,127,312234,1,0,3:0:0:0:
257,30,312348,2,0,P|290:35|268:56,1,75,8|0,3:0|2:0,2:0:0:0:
191,48,312577,1,0,3:0:0:0:
170,135,312692,2,0,P|138:131|157:105,1,75,10|0,1:2|3:0,2:0:0:0:
123,14,312921,1,2,1:2:0:0:
98,31,313035,1,0,3:0:0:0:
81,56,313150,1,8,3:0:0:0:
72,84,313264,1,0,2:0:0:0:
90,150,313379,2,0,L|80:191,3,33.3333333333,8|0|2|0,1:2|3:2|3:2|3:2,3:2:0:0:
23,216,313608,5,6,1:2:0:0:
468,359,313837,5,2,3:2:0:0:
453,372,313951,1,0,2:0:0:0:
440,373,314066,1,2,3:2:0:0:
430,341,314180,1,0,2:0:0:0:
460,289,314295,1,0,3:0:0:0:
510,250,314409,2,0,P|529:245|512:239,1,49.99999999995,8|0,3:0|2:0,2:0:0:0:
350,305,314638,1,0,2:0:0:0:
341,316,314753,1,2,3:2:0:0:
332,330,314867,1,0,2:0:0:0:
324,343,314982,1,2,3:2:0:0:
322,312,315096,1,0,2:0:0:0:
349,279,315211,1,2,3:0:0:0:
391,252,315325,1,0,3:0:0:0:
451,224,315440,2,0,P|471:218|455:206,1,49.99999999995,2|0,3:2|2:0,2:0:0:0:
467,118,315669,1,8,3:0:0:0:
237,314,315898,69,2,3:2:0:0:
222,327,316013,1,0,2:0:0:0:
209,328,316127,1,2,3:2:0:0:
199,296,316242,1,0,2:0:0:0:
229,244,316356,1,0,3:0:0:0:
282,205,316471,2,0,P|301:200|284:194,1,49.99999999995,8|0,3:0|2:0,2:0:0:0:
124,325,316700,1,0,2:0:0:0:
113,341,316814,1,2,3:2:0:0:
99,352,316929,1,0,2:0:0:0:
87,355,317043,1,2,3:2:0:0:
85,315,317158,1,0,2:0:0:0:
110,271,317272,1,2,3:0:0:0:
162,241,317387,1,0,3:0:0:0:
228,234,317501,86,0,P|239:230|233:220,3,24.999999999975,2|0|0|0,3:2|2:0|2:0|2:0,2:0:0:0:
124,176,317730,5,6,1:2:0:0:
506,111,317959,5,2,3:2:0:0:
467,32,318074,1,0,3:0:0:0:
409,75,318188,1,2,3:2:0:0:
373,24,318303,2,0,P|402:50|362:51,1,99.9999999999,0|0,3:0|2:0,2:0:0:0:
338,79,318532,1,2,3:2:0:0:
269,83,318646,2,0,P|247:56|283:66,1,89.9999999999099,0|0,2:0|2:0,2:0:0:0:
275,118,318875,1,2,3:2:0:0:
284,181,318990,2,0,P|313:175|288:158,1,74.9999999999249,0|0,2:0|2:0,2:0:0:0:
251,183,319219,1,2,3:2:0:0:
221,182,319333,2,0,P|198:183|218:169,1,59.99999999994,0|0,2:0|2:0,2:0:0:0:
198,226,319562,1,2,3:2:0:0:
207,269,319677,2,0,P|198:249|213:254,1,49.99999999995,0|0,2:0|2:0,2:0:0:0:
162,274,319906,1,2,3:2:0:0:
130,267,320020,2,0,P|119:277|133:282,1,34.9999999999649,0|0,2:0|2:0,2:0:0:0:
117,306,320249,1,2,3:2:0:0:
91,331,320364,2,0,P|104:326|103:339,1,29.9999999999699,0|0,2:0|2:0,2:0:0:0:
70,337,320593,1,2,3:2:0:0:
62,353,320707,2,0,P|48:354|60:361,1,24.999999999975,0|0,2:0|2:0,2:0:0:0:
41,365,320936,6,0,P|30:325|10:279,1,89.9999999999096,2|0,2:0|2:0,2:0:0:0:
31,192,321394,2,0,L|20:163,1,29.9999999999699,0|0,3:0|2:0,2:0:0:0:
217,220,321623,2,0,P|199:179|175:141,1,89.9999999999096,2|0,2:0|2:0,2:0:0:0:
193,44,322081,2,0,L|184:31,4,9.99999999998996,0|0|0|0|0,3:0|3:0|3:0|3:0|3:0,2:0:0:0:
341,88,322310,2,0,B|367:93|398:62|384:25|373:28,1,89.9999999999096,2|0,1:2|2:0,2:0:0:0:
419,243,322768,6,0,B|437:179|511:191|535:271|444:364|352:363|246:324|176:286|146:232|129:184|142:111|107:64|56:27|10:19,1,699.9999999993,2|0,3:2|2:0,2:0:0:0:
