osu file format v14

[General]
AudioFilename: audio.mp3
AudioLeadIn: 2000
PreviewTime: 20780
Countdown: 0
SampleSet: Soft
StackLeniency: 0.7
Mode: 0
LetterboxInBreaks: 0
WidescreenStoryboard: 1

[Editor]
Bookmarks: 41867,42084,42193,42301,42519,42627,42736,42881,43026,43098,43171,43243,43316,43461,43606,43823,43932,44040,44113,44258,44330,44475,44584,44693,44874,45055,45164,45236,45345,45490,45562,45780,45997,46106,46359,46432,46504,46649,46758,46867,46975,47084,47301,47410,47519,47627,47736,47845,47953,48171,48280,48461,48569,48678,48751,48859,48968,49040,49113,49258,49367,49475,49530,49584,49638,49693,49747,49801,49856,49910,50127,50236,50345,50562,50635,50743,50888,50997,51106,51178,51251,51323,51395,51468,51577,51685,51867,51939,52011,52084,52138,52193,52247,52301,52736,52845,52917,52990,53062,53171,53280,53461,53569,53642,53714,53823,53932,54040,54185,54294,54366,54475,54584,54693,54874,55019,55200,55381,55490,55598,55707,55888,55997,56106,56214,56323,56540,56649,56866,56921,56975,57084,57193,57301,57519,57682,57845,57899,57953,58008,58062,58116,58171,58225,58280,58334,58388,58497,58606,58751,58895,59040,59113,59258,59330,59403,59656,59910,60236,60309,60381,60453,60598,60671,60743,60924,61033,61142,61214,61323,61377,61432,61504,61540,61722,61866,61975,62120,62193,62247,62301,62410,62555,62736,93180,93267,93354,93441,93528,93615,93701,93875,93962,94049,164732,164805,164877,165022,165131,165267,165402,165529,165783,165928,166055,166181,166326,166435,166571,166707,166843,205347,205434,205521,205608,205695,205782,205868,206042,206129,206216
DistanceSpacing: 1.2
BeatDivisor: 12
GridSize: 4
TimelineZoom: 4.400003

[Metadata]
Title:Free Waltz
TitleUnicode:フリーワルツ
Artist:paraoka feat. haru*nya
ArtistUnicode:paraoka feat. haru*nya
Creator:Xilver15
Version:Hard
Source:
Tags:progressive jazz fusion rock bossa nova japanese koujimachi yousankan ongen doujin c78 comiket ぱらおか バベリズム 麹町養蚕館 Paranoid Masaoka パラノイド正岡
BeatmapID:3214999
BeatmapSetID:1496500

[Difficulty]
HPDrainRate:4
CircleSize:4
OverallDifficulty:6
ApproachRate:7.5
SliderMultiplier:2
SliderTickRate:0.5

[Events]
//Background and Video events
0,0,"bg.png",0,0
//Break Periods
//Storyboard Layer 0 (Background)
//Storyboard Layer 1 (Fail)
//Storyboard Layer 2 (Pass)
//Storyboard Layer 3 (Foreground)
//Storyboard Layer 4 (Overlay)
//Storyboard Sound Samples

[TimingPoints]
128,434.782608695211,3,2,1,50,1,0
5345,-250,3,2,1,50,0,0
10562,-125,3,2,1,50,0,0
20997,-111.111111111111,3,2,1,60,0,1
41867,434.782608695652,3,2,1,50,1,0
42301,-106.666666666666,3,2,1,50,0,0
43606,-200.000000000003,3,2,1,50,0,0
43932,-109.090909090908,3,2,1,50,0,0
48171,-100,3,2,1,50,0,0
52084,-50,3,2,1,50,0,0
52736,-100,3,2,1,50,0,0
62736,-100,3,2,1,60,0,0
81649,379.746835443038,3,2,1,60,1,0
82028,357.142857142857,3,2,1,60,1,0
82572,347.826086956522,3,2,1,60,1,0
83615,347.826086956522,15,2,1,60,1,1
83788,-166.666666666667,15,2,1,70,0,1
91788,-100,15,2,1,70,0,1
92658,-129.87013383345,15,2,1,70,0,1
93701,-142.857142857143,15,2,1,70,0,1
94745,-100,15,2,1,70,0,1
96484,-142.857142857143,15,2,1,70,0,1
103093,468.75,3,2,1,60,1,0
103405,394.736842105263,3,2,1,60,1,0
104067,421.792618629174,4,2,1,60,1,0
104479,434.782608695652,3,2,1,50,1,0
109044,-111.111111111111,3,2,1,50,0,0
124913,-83.3333333333333,3,2,1,50,0,0
125348,-125,3,2,2,70,0,1
126652,-125,3,2,3,70,0,1
127305,-125,3,2,4,70,0,1
127957,-125,3,2,4,60,0,0
128174,-125,3,2,1,60,0,0
128826,-125,3,2,1,60,0,0
130565,-125,3,2,2,70,0,1
131544,-125,3,2,1,70,0,1
131870,-125,3,2,3,70,0,1
132522,-125,3,2,4,70,0,1
133174,-125,3,2,4,60,0,0
133391,-125,3,2,1,60,0,0
135783,-125,3,2,1,50,0,0
156652,-125,3,2,1,60,0,0
169913,-125,3,2,1,40,0,0
171000,-125,3,2,1,60,0,0
171218,-125,3,2,1,50,0,0
171870,-125,3,2,1,60,0,0
193826,379.746835443038,3,2,1,60,1,0
194205,357.142857142857,3,2,1,60,1,0
194443,-166.666666666667,3,2,1,60,0,0
194740,347.826086956522,6,2,1,60,1,0
194740,-250.000000000001,6,2,1,60,0,0
195782,347.826086956522,15,2,1,60,1,1
195955,-166.666666666667,15,2,1,70,0,1
198738,-100,15,2,1,70,0,1
199608,-166.666666666667,15,2,1,70,0,1
204825,-125,15,2,1,70,0,1
206912,-166.666666666667,15,2,1,70,0,1
211086,-100,15,2,1,70,0,1
211782,-166.666666666667,15,2,1,70,0,1
221173,-166.666666666667,15,2,1,40,0,0
221868,-166.666666666667,15,2,1,70,0,0
227086,-166.666666666667,15,2,1,70,0,1
236129,-166.666666666667,15,2,1,60,0,0

[Colours]
Combo1 : 255,198,28
Combo2 : 96,150,255
Combo3 : 255,115,0
Combo4 : 28,105,255
Combo5 : 138,255,100
Combo6 : 255,179,222

[HitObjects]
73,35,128,85,2,2:0:0:0:
29,96,1432,1,2,2:0:0:0:
73,157,2736,1,2,2:0:0:0:
149,138,4041,1,2,2:0:0:0:
145,59,4693,1,2,2:0:0:0:
268,78,5345,6,0,B|293:32|340:31|340:31|391:55|446:37,1,200,2|0,2:0|0:0,0:0:0:0:
489,154,6649,2,0,P|400:208|302:202,1,200,2|0,2:0|0:0,0:0:0:0:
189,168,7954,2,0,B|259:169|296:237|296:237|279:310,1,200,2|0,2:0|0:0,0:0:0:0:
160,298,9258,1,2,2:0:0:0:
100,196,9910,1,8,2:3:0:0:
110,178,10019,2,0,L|106:168,8,10,0|0|0|0|0|0|0|0|0,3:0|3:0|3:0|3:0|3:0|3:0|3:0|3:0|3:0,3:0:0:0:
124,121,10562,6,0,P|92:70|44:34,2,120,2|2|2,1:2|3:2|3:2,2:0:0:0:
174,186,11432,1,0,0:0:0:0:
233,111,11649,1,0,3:0:0:0:
321,71,11867,6,0,L|452:36,2,120,2|2|2,1:2|3:2|3:2,2:0:0:0:
447,117,12736,1,0,0:0:0:0:
374,170,12954,1,0,3:0:0:0:
382,263,13171,38,0,P|429:302|500:284,2,120,2|2|2,1:2|3:2|3:2,2:0:0:0:
335,346,14041,1,0,0:0:0:0:
292,273,14258,1,0,3:0:0:0:
255,195,14475,6,0,B|271:174|304:165|304:165|312:133|295:103,1,120,2|0,1:2|3:0,2:0:0:0:
212,72,14910,1,0,3:0:0:0:
128,136,15127,2,0,L|118:117,10,20,8|0|0|0|0|0|0|0|8|0|0,1:3|3:0|3:0|3:0|3:0|3:0|3:0|3:0|3:0|3:0|3:0,3:0:0:0:
90,137,15780,6,0,P|72:81|91:-2,2,120,2|2|2,1:2|3:2|3:2,2:0:0:0:
104,168,16649,1,0,3:0:0:0:
24,208,16867,1,8,2:3:0:0:
0,292,17084,6,0,P|27:292|81:271,1,80,2|0,1:2|2:0,2:0:0:0:
104,264,17410,1,2,3:2:0:0:
112,236,17519,2,0,L|108:193,2,40,0|0|2,2:0|2:0|3:2,0:0:0:0:
160,324,17954,1,0,3:0:0:0:
235,288,18171,1,8,2:3:0:0:
328,312,18388,38,0,P|326:257|388:241,1,120,2|2,1:2|3:2,2:0:0:0:
420,240,18823,2,0,P|429:229|436:191,2,40,0|0|2,2:0|2:0|3:2,0:0:0:0:
368,152,19258,1,0,3:0:0:0:
392,76,19475,1,8,2:3:0:0:
456,32,19693,6,0,P|450:70|415:84,1,80,2|0,1:2|2:0,0:0:0:0:
492,140,20127,1,0,3:0:0:0:
440,208,20345,2,0,L|423:172,2,40,2|0|8,1:2|3:0|3:0,0:0:0:0:
412,300,20780,1,8,2:3:0:0:
412,300,20888,1,0,3:0:0:0:
412,300,20997,6,1,P|378:265|362:220,1,89.9999972534181,6|8,1:2|3:2,2:0:0:0:
316,159,21432,2,1,L|373:146,1,45,0|0,1:0|3:0,2:0:0:0:
392,140,21649,1,8,3:0:0:0:
464,48,21867,2,0,B|432:38|432:38|398:47|362:77,1,90.0000000000001,8|0,1:3|3:0,2:0:0:0:
304,72,22193,1,0,2:0:0:0:
303,72,22301,6,1,P|258:70|214:58,1,90.0000000000001,10|8,1:3|3:2,2:0:0:0:
128,32,22736,1,0,3:0:0:0:
128,32,22845,1,0,1:0:0:0:
128,32,22954,1,8,3:0:0:0:
56,104,23171,1,8,1:3:0:0:
152,128,23388,1,0,3:0:0:0:
224,188,23606,38,1,P|256:163|276:115,1,90.0000000000001,10|8,1:3|3:2,2:0:0:0:
332,48,24041,2,0,L|294:6,2,45,0|0|8,1:0|3:0|3:0,0:0:0:0:
424,24,24475,1,8,1:3:0:0:
480,96,24693,1,0,3:0:0:0:
472,200,24910,6,1,B|429:176|409:139|409:139|365:116,1,135,10|10,1:3|3:0,2:0:0:0:
340,108,25345,1,8,3:0:0:0:
296,208,25562,2,0,P|287:183|284:160,2,44.999998626709,10|0|0,1:3|3:0|3:0,3:0:0:0:
375,234,25997,1,8,3:0:0:0:
394,264,26106,1,0,3:0:0:0:
402,298,26214,6,1,P|370:317|316:324,1,90.0000000000001,6|8,1:2|3:2,2:0:0:0:
244,340,26649,1,0,1:0:0:0:
168,340,26867,2,0,P|154:314|150:281,1,45,8|0,3:0|2:0,2:0:0:0:
128,268,27084,2,0,P|148:238|154:174,1,90.0000000000001,8|0,1:3|3:0,2:0:0:0:
8,148,27519,6,1,L|114:125,1,90.0000000000001,10|8,1:3|3:2,2:0:0:0:
189,41,27954,2,0,P|180:69|181:95,1,45,0|0,1:0|3:0,0:0:0:0:
196,120,28171,2,0,P|255:116|269:48,1,135,10|8,1:3|3:0,0:0:0:0:
254,11,28606,1,10,1:3:0:0:
361,47,28823,37,0,1:3:0:0:
408,120,29041,1,10,3:2:0:0:
408,120,29149,1,0,3:0:0:0:
408,120,29258,2,1,P|422:99|431:75,2,44.999998626709,2|0|8,1:3|3:0|3:0,2:0:0:0:
376,192,29693,1,8,1:3:0:0:
300,212,29910,1,2,3:2:0:0:
232,176,30127,6,1,P|231:117|289:127,1,135,10|8,1:3|3:0,2:0:0:0:
328,116,30562,1,0,0:0:0:0:
356,44,30780,2,0,P|403:38|437:6,1,90.0000000000001,10|0,1:2|1:0,0:0:0:0:
480,72,31214,1,8,3:0:0:0:
479,84,31323,1,0,3:0:0:0:
478,95,31432,6,1,P|434:129|386:123,1,90.0000000000001,6|8,1:2|3:2,2:0:0:0:
336,97,31867,2,0,L|278:123,1,45,0|0,1:0|3:0,0:0:0:0:
285,148,32084,2,0,L|227:174,1,45,10|0,1:3|2:0,2:0:0:0:
262,194,32301,2,0,B|235:204|235:204|199:202|177:182,1,90.0000000000001,10|0,1:3|1:3,2:0:0:0:
120,126,32736,5,10,1:3:0:0:
33,137,32954,1,8,3:2:0:0:
33,137,33062,1,0,3:0:0:0:
33,137,33171,2,0,P|41:159|40:181,2,45,0|0|8,1:0|3:0|3:0,0:0:0:0:
48,252,33606,1,8,1:3:0:0:
120,272,33823,1,0,3:0:0:0:
196,260,34041,38,1,B|211:242|211:242|198:202|163:201,1,90.0000000000001,10|8,1:3|3:2,2:0:0:0:
192,128,34475,2,0,P|173:114|156:88,2,44.999998626709,0|0|8,1:0|3:0|3:0,0:0:0:0:
216,36,34910,1,8,1:3:0:0:
296,24,35127,1,0,3:0:0:0:
368,40,35345,6,1,B|378:80|338:110|338:110|320:140|299:151,1,134.999995880127,10|10,1:3|3:0,2:0:0:0:
276,180,35780,1,8,3:0:0:0:
356,208,35997,2,0,P|370:198|391:173,2,44.999998626709,10|0|0,1:3|3:0|3:0,3:0:0:0:
396,276,36432,1,8,3:0:0:0:
417,281,36541,1,0,3:0:0:0:
437,276,36649,5,6,1:2:0:0:
296,340,36867,2,0,P|308:321|338:303,2,45,8|0|0,3:2|3:0|1:0,0:0:0:0:
236,252,37301,1,8,3:0:0:0:
308,232,37519,1,8,1:3:0:0:
356,172,37736,2,0,L|404:158,1,45,0|0,3:0|3:0,0:0:0:0:
464,88,37954,6,1,B|436:83|436:83|408:113|430:143,1,89.9999972534181,10|10,1:3|3:2,2:0:0:0:
440,160,38280,1,0,0:0:0:0:
452,172,38388,1,0,1:0:0:0:
336,244,38606,2,0,P|339:181|279:166,1,135,10|8,1:3|3:0,0:0:0:0:
248,176,39041,1,10,1:3:0:0:
212,88,39258,37,0,1:3:0:0:
124,80,39475,1,8,3:2:0:0:
124,80,39584,1,0,3:0:0:0:
124,80,39693,2,1,P|120:58|126:34,2,44.999998626709,2|0|8,1:3|3:0|3:0,2:0:0:0:
124,168,40127,2,0,B|114:193|114:193|83:209|76:241,1,90.0000000000001,8|2,1:3|3:2,2:0:0:0:
132,304,40562,6,0,B|192:290|192:290|202:295|202:295|260:273,1,135,10|10,1:3|1:3,0:0:0:0:
288,260,40997,2,0,P|286:233|273:209,1,45,0|0,1:0|3:0,3:0:0:0:
260,184,41214,1,10,1:3:0:0:
244,151,41323,1,0,3:0:0:0:
255,116,41432,1,8,1:3:0:0:
308,52,41649,1,10,1:2:0:0:
400,60,41867,1,4,1:2:0:0:
388,232,42301,38,0,P|347:202|327:160,2,93.7500000000006,0|0|2,0:0|3:0|1:2,0:0:0:0:
476,236,43026,1,0,3:0:0:0:
416,320,43316,1,10,3:0:0:0:
300,340,43606,6,1,P|277:331|252:330,1,49.9999999999992,1|8,3:0|2:3,0:0:0:0:
236,331,43932,2,0,B|204:313|207:278|207:278|232:251|224:210,1,137.500000000001,2|0,2:3|3:0,2:0:0:0:
216,203,44330,2,0,P|165:193|145:146,1,106.944441724707,0|8,1:0|1:3,2:0:0:0:
280,44,45055,70,0,P|288:66|289:99,1,45.8333333333338,0|2,3:0|1:3,0:0:0:0:
365,103,45345,2,0,B|338:122|338:122|341:135|341:135|318:157|323:176,1,91.6666666666676,8|8,2:3|3:0,2:0:0:0:
402,220,45780,2,0,P|343:246|270:245,1,137.499996503194,2|8,1:3|2:3,2:0:0:0:
152,208,46359,6,0,P|152:183|174:143,1,61.1111111111117,0|0,1:0|3:0,0:0:0:0:
244,132,46649,1,2,3:2:0:0:
265,106,46758,1,0,3:0:0:0:
265,74,46867,1,2,3:2:0:0:
188,36,47084,1,4,1:2:0:0:
73,211,47519,69,0,3:0:0:0:
85,290,47736,1,10,3:0:0:0:
157,323,47953,1,8,3:0:0:0:
236,322,48171,2,1,B|230:287|282:276|256:181,2,133.333333333333,2|0|0,1:3|3:0|3:0,2:0:0:0:
385,330,49040,6,0,P|426:303|455:259,1,100,0|2,3:0|1:2,0:0:0:0:
468,228,49367,1,0,3:0:0:0:
480,196,49475,2,0,L|503:182,6,25,0|0|0|0|0|0|0,3:0|3:0|3:0|3:0|3:0|3:0|3:0,3:0:0:0:
497,148,49910,1,6,1:2:0:0:
416,88,50127,69,0,3:0:0:0:
336,116,50345,2,1,P|310:156|262:188,1,100,2|0,1:3|3:0,2:0:0:0:
248,192,50635,2,1,P|231:177|142:178,1,116.666666666667,8|0,3:0|1:3,2:0:0:0:
60,120,51178,1,10,1:3:0:0:
172,56,51577,5,8,1:3:0:0:
260,36,51867,1,2,1:3:0:0:
336,88,52084,2,0,P|358:76|377:60,4,50,0|0|0|0|4,3:0|3:0|3:0|3:0|1:2,0:0:0:0:
476,304,52736,70,0,B|495:282|495:282|501:253|484:206,2,100,0|0|2,1:0|0:0|3:2,2:0:0:0:
420,104,53461,2,0,P|413:142|402:175,1,66.6666666666667,0|8,1:0|3:0,0:0:0:0:
396,185,53714,1,2,1:3:0:0:
352,260,53932,2,0,B|301:270|301:270|252:260|252:260|189:276,1,166.666666666667,0|2,1:0|2:0,2:0:0:0:
98,317,54366,6,0,P|88:295|83:270,2,50,0|2|8,3:0|3:2|1:3,0:0:0:0:
114,269,54693,2,0,P|167:224|193:150,1,150,8|8,3:0|1:3,2:0:0:0:
25,233,55200,2,0,P|21:210|-1:154,1,83.3333333333333,0|8,3:0|3:0,0:0:0:0:
6,104,55490,69,2,1:2:0:0:
80,43,55707,1,8,3:0:0:0:
218,46,55997,1,0,3:0:0:0:
300,96,56214,2,0,P|357:82|438:34,1,150,2|0,1:2|1:3,0:0:0:0:
472,80,56649,2,0,P|441:118|392:157,1,100,8|8,3:0|3:0,2:0:0:0:
432,188,56975,2,0,P|382:203|334:206,1,100,10|8,1:3|3:0,0:0:0:0:
256,334,57519,1,4,1:2:0:0:
130,289,57809,2,0,B|218:272|204:297|294:268,1,166.666666666667,0|0,0:0|3:0,0:0:0:0:
297,218,58280,6,0,P|272:214|239:196,2,50,0|8|8,3:0|1:3|3:0,0:0:0:0:
169,137,58606,2,0,P|182:114|208:83,2,66.6666666666667,8|2|8,2:3|3:2|2:3,2:0:0:0:
322,89,59113,2,0,P|390:82|456:44,1,133.333333333333,10|8,1:3|3:0,2:0:0:0:
506,133,59656,1,10,1:3:0:0:
482,231,59910,69,2,3:2:0:0:
387,273,60127,2,0,P|345:288|278:262,1,116.666666666667,8|0,3:0|3:0,2:0:0:0:
249,184,60453,2,0,P|215:127|151:121,1,133.333333333333,10|2,1:3|3:2,2:0:0:0:
47,124,60924,2,0,P|19:119|-5:108,2,50,2|2|0,3:2|3:2|2:0,0:0:0:0:
47,72,61214,2,0,P|98:66|143:40,1,100,8|0,3:0|3:0,0:0:0:0:
225,31,61540,1,10,3:0:0:0:
278,253,61866,2,0,P|297:240|314:218,1,50,2|0,1:3|3:0,2:0:0:0:
350,207,62120,2,0,B|400:197|425:158|425:158|421:104,1,133.333333333333,0|0,3:0|2:0,0:0:0:0:
423,81,62555,1,10,2:3:0:0:
336,112,62736,22,1,B|312:98|277:101|277:101|242:88|221:55,1,133.333333333333,4|0,1:2|2:0,2:0:0:0:
212,23,63098,1,8,3:0:0:0:
114,102,63388,2,1,P|62:100|20:81,2,100,2|8|0,1:3|3:0|3:0,2:0:0:0:
138,203,64040,5,2,1:3:0:0:
214,275,64258,1,8,3:0:0:0:
228,266,64366,1,0,3:0:0:0:
251,262,64475,2,1,L|310:271,1,50,10|0,2:3|2:0,2:0:0:0:
313,275,64693,1,12,2:3:0:0:
345,202,64910,2,1,L|408:200,1,50,2|0,1:2|2:0,2:0:0:0:
450,184,65127,2,1,L|381:182,1,50,2|0,3:2|2:0,2:0:0:0:
387,89,65345,6,1,B|359:103|324:106|324:106|286:91|286:91|279:72|280:53,1,133.333333333333,4|0,1:2|2:0,2:0:0:0:
272,44,65707,1,8,3:0:0:0:
159,185,65997,2,1,P|152:127|122:92,2,100,2|0|0,1:3|0:0|0:0,2:0:0:0:
252,260,66649,6,0,P|275:247|284:222,4,50,2|0|8|2|0,1:3|3:0|2:3|3:2|0:0,0:0:0:0:
160,320,67301,2,0,L|134:272,3,50,10|0|0|2,1:3|0:0|0:0|3:2,2:0:0:0:
108,260,67736,1,8,3:0:0:0:
0,188,67953,38,0,L|53:169,1,50,4|0,1:2|0:0,2:0:0:0:
86,167,68171,1,2,3:2:0:0:
86,167,68280,1,0,3:0:0:0:
86,167,68388,1,8,3:0:0:0:
200,192,68606,2,0,P|226:186|249:102,1,100,2|0,1:3|2:0,2:0:0:0:
296,20,68968,2,0,P|275:85|300:95,1,100,8|0,3:0|2:0,2:0:0:0:
360,84,69258,5,2,1:3:0:0:
441,61,69475,2,0,P|449:46|452:30,3,33.3333333333333,0|0|0|2,3:0|3:0|3:0|1:2,0:0:0:0:
497,118,69910,2,0,L|506:149,4,33.3333333333333,8|0|0|6|0,2:3|2:0|2:0|3:0|3:0,2:0:0:0:
415,141,70345,1,6,3:0:0:0:
468,240,70562,5,4,1:2:0:0:
385,315,70780,2,0,P|374:293|370:266,2,50,2|0|8,3:2|3:0|3:0,0:0:0:0:
264,356,71214,2,0,B|266:326|266:326|222:258|275:195,1,166.666666666667,2|8,1:3|3:0,2:0:0:0:
280,176,71649,1,0,0:0:0:0:
248,56,71866,1,2,1:3:0:0:
271,65,71975,1,0,3:0:0:0:
286,84,72084,1,8,2:3:0:0:
380,48,72301,2,0,P|396:74|402:98,1,50,8|0,1:3|2:0,2:0:0:0:
385,129,72519,2,0,P|380:144|384:160,3,33.3333333333333,8|8|0|10,1:3|3:0|3:0|1:3,0:0:0:0:
466,198,72953,1,2,3:2:0:0:
370,260,73171,6,0,B|342:274|307:277|307:277|269:262|269:262|262:243|263:224,1,133.333333333333,6|0,1:2|3:0,2:0:0:0:
262,202,73533,1,8,3:0:0:0:
202,321,73823,2,0,B|166:293|166:293|134:244|145:189|145:189|126:170,1,166.666666666667,10|8,1:3|1:3,0:0:0:0:
58,72,74475,2,0,P|32:84|10:86,2,50,10|0|8,1:3|2:0|3:0,2:0:0:0:
149,30,74910,1,10,1:3:0:0:
178,134,75127,1,2,3:2:0:0:
178,134,75236,1,0,2:0:0:0:
178,134,75345,1,2,1:2:0:0:
243,58,75562,1,2,3:2:0:0:
335,18,75780,38,0,P|397:22|448:70,1,133.333333333333,4|0,1:2|3:0,2:0:0:0:
460,99,76142,1,8,2:3:0:0:
496,196,76432,2,0,B|404:208|404:208|385:185|385:185|327:171,1,166.666666666667,2|8,1:3|2:3,2:0:0:0:
235,255,77084,6,0,L|212:198,3,50,10|0|8|0,1:3|3:0|3:0|3:0,0:0:0:0:
324,280,77519,1,10,2:3:0:0:
416,264,77736,1,8,3:0:0:0:
416,264,77845,1,0,2:0:0:0:
416,264,77953,1,8,1:3:0:0:
448,184,78171,1,8,3:0:0:0:
408,112,78388,5,4,1:2:0:0:
332,69,78606,2,0,L|343:12,3,50,2|2|8|8,1:2|1:2|2:3|2:3,0:0:0:0:
316,81,79040,1,2,1:3:0:0:
276,156,79258,1,10,3:2:0:0:
368,156,79475,1,10,3:2:0:0:
448,209,79693,5,2,1:3:0:0:
450,233,79801,1,8,2:3:0:0:
443,257,79910,2,0,L|392:221,1,50,12|12,2:3|3:0,0:0:0:0:
311,308,80127,2,0,L|386:293,2,50,12|8|8,3:0|2:3|2:3,0:0:0:0:
281,228,80562,1,2,1:3:0:0:
201,274,80780,1,8,2:3:0:0:
160,344,80997,38,0,B|108:334|67:347|67:347|57:326|32:320,1,133.333333333333,4|0,1:2|2:0,3:0:0:0:
20,308,81359,1,8,2:3:0:0:
78,233,81649,2,0,P|117:146|69:63,1,200,2|8,1:3|3:0,2:0:0:0:
191,187,82572,5,2,1:3:0:0:
145,301,82919,1,8,1:3:0:0:
253,356,83267,1,12,1:3:0:0:
347,346,83615,37,6,1:2:0:0:
386,273,83788,2,0,P|414:261|443:253,2,59.9999999999999,0|8|2,3:0|3:0|3:2,2:0:0:0:
318,238,84310,1,10,1:2:0:0:
305,161,84484,1,0,3:0:0:0:
322,86,84658,1,8,3:0:0:0:
388,38,84832,5,0,3:0:0:0:
475,155,85180,1,8,3:0:0:0:
476,272,85528,1,8,1:3:0:0:
464,281,85615,1,0,3:0:0:0:
449,284,85701,2,0,P|430:287|419:286,1,29.9999999999999,8|0,3:0|3:0,2:0:0:0:
393,278,85875,2,0,P|370:260|359:228,1,59.9999999999999,4|8,3:0|3:0,0:0:0:0:
328,152,86223,69,4,1:2:0:0:
305,70,86397,2,0,P|328:48|356:39,2,59.9999999999999,0|4|8,3:0|3:0|3:0,2:0:0:0:
241,129,86919,1,10,1:2:0:0:
154,124,87093,2,0,P|134:107|121:73,1,59.9999999999999,2|0,3:2|3:0,2:0:0:0:
15,42,87441,2,0,B|-3:75|23:108|23:108|47:116|58:141,1,120,10|8,1:3|1:3,2:0:0:0:
117,201,87962,1,8,2:3:0:0:
45,241,88136,5,10,3:2:0:0:
86,351,88484,70,0,L|61:326,3,29.9999999999999,4|8|8|0,3:0|3:0|3:0|3:0,0:0:0:0:
183,345,88832,5,4,1:2:0:0:
177,255,89006,1,0,3:0:0:0:
99,209,89180,2,0,P|79:194|66:159,1,59.9999999999999,8|2,3:0|3:2,2:0:0:0:
43,83,89528,1,10,1:2:0:0:
124,44,89701,1,0,3:0:0:0:
213,48,89875,1,8,3:0:0:0:
297,79,90049,69,0,3:0:0:0:
167,125,90397,1,8,3:0:0:0:
179,216,90745,1,8,1:3:0:0:
179,234,90832,1,0,3:0:0:0:
171,249,90919,2,0,P|156:247|142:241,1,29.9999999999999,8|0,3:0|2:0,2:0:0:0:
36,319,91093,2,0,P|58:299|68:271,1,59.9999999999999,4|8,3:0|3:0,0:0:0:0:
92,187,91441,5,4,1:2:0:0:
39,118,91615,1,0,3:0:0:0:
73,45,91788,2,0,B|118:31|118:31|126:34|126:34|174:21,1,100,4|8,3:0|3:0,0:0:0:0:
247,43,92136,1,10,1:2:0:0:
326,20,92310,1,8,3:0:0:0:
340,168,92658,70,2,B|380:140|428:151|428:151|471:128|469:108,2,153.999995300295,4|0|8,1:2|0:0|1:2,2:1:0:0:
441,304,93701,2,0,P|447:289|444:269,3,35,12|0|0|0,3:0|0:0|0:0|0:0,0:0:0:0:
429,315,94049,5,4,1:2:0:0:
345,283,94223,1,0,3:0:0:0:
253,301,94397,1,8,3:0:0:0:
184,250,94571,1,2,3:2:0:0:
118,298,94745,2,0,B|89:295|69:308|69:308|47:312|20:298,2,100,10|0|8,1:2|3:0|3:0,0:0:0:0:
112,211,95267,69,0,3:0:0:0:
23,159,95615,1,8,3:0:0:0:
49,52,95962,1,8,1:3:0:0:
156,93,96310,1,8,3:0:0:0:
156,93,96397,1,8,3:0:0:0:
156,93,96484,2,0,P|175:85|194:60,1,35,0|0,1:2|0:0,0:0:0:0:
210,57,96658,1,2,1:3:0:0:
294,42,96832,6,0,P|328:41|361:29,1,69.9999999999999,0|8,1:0|3:0,0:0:0:0:
465,44,97180,1,10,1:2:0:0:
471,142,97354,2,0,P|436:142|407:123,2,69.9999999999999,0|0|0,1:2|1:0|3:0,2:0:0:0:
431,234,97875,2,0,P|378:212|322:148,1,140,10|12,1:2|3:0,0:0:0:0:
252,127,98397,1,0,1:0:0:0:
258,210,98571,69,10,3:2:0:0:
128,249,98919,6,0,P|122:231|112:216,3,35,4|8|8|0,3:0|3:0|3:0|3:0,0:0:0:0:
90,213,99267,69,4,1:2:0:0:
78,129,99441,1,0,3:0:0:0:
144,76,99615,2,0,P|163:111|170:141,1,69.9999978637696,8|2,3:0|3:2,2:0:0:0:
184,225,99962,1,10,1:2:0:0:
264,249,100136,1,0,3:0:0:0:
346,233,100310,1,8,3:0:0:0:
407,175,100484,5,0,3:0:0:0:
377,344,100832,1,8,3:0:0:0:
497,297,101180,1,8,1:3:0:0:
497,297,101267,1,0,3:0:0:0:
497,297,101354,2,0,L|464:270,1,35
451,227,101528,2,0,P|439:195|440:160,1,69.9999999999999,8|0,3:0|0:0,0:0:0:0:
465,69,101875,1,2,1:3:0:0:
386,54,102049,70,0,P|351:53|322:34,1,69.9999999999999,0|8,1:0|3:0,0:0:0:0:
252,62,102397,1,10,1:2:0:0:
192,109,102571,1,2,1:2:0:0:
209,183,102745,2,0,P|223:182|243:178,2,35,0|0|8,1:0|1:0|1:3,2:0:0:0:
429,169,103093,22,0,B|401:185|376:181|376:181|364:188|364:188|336:185|309:205,1,100,4|0,1:2|2:0,2:0:0:0:
329,225,103405,2,0,P|336:235|346:243,8,25,8|0|0|0|8|0|0|0|0,3:2|3:0|3:0|0:0|3:0|3:0|3:0|3:0|3:0,3:0:0:0:
270,352,104067,2,0,P|258:312|227:261,1,100,8|2,1:3|3:2,2:0:0:0:
133,269,104479,5,6,1:2:0:0:
185,190,104696,1,0,2:0:0:0:
165,103,104913,1,2,3:2:0:0:
77,58,105131,2,0,B|43:54|30:33|30:33|26:10|3:0,2,100,10|8|0,2:3|2:3|2:0,2:0:0:0:
43,150,105783,5,0,1:0:0:0:
124,174,106000,1,2,2:0:0:0:
153,168,106109,1,0,0:0:0:0:
177,150,106218,1,2,2:0:0:0:
222,77,106435,1,8,2:3:0:0:
310,85,106652,2,0,P|329:79|352:58,2,50,2|0|2,2:3|2:0|2:0,2:0:0:0:
263,156,107087,5,0,1:0:0:0:
343,167,107305,1,2,2:0:0:0:
362,167,107413,1,2,2:0:0:0:
381,158,107522,1,2,2:0:0:0:
432,92,107739,1,10,2:3:0:0:
501,139,107957,2,0,B|508:163|499:186|499:186|477:201|474:235,1,100,0|0,3:0|2:0,0:0:0:0:
439,331,108392,38,0,P|429:308|416:292,2,50,10|0|2,1:3|3:0|3:2,0:0:0:0:
318,298,108826,1,8,1:3:0:0:
297,313,108935,1,0,3:0:0:0:
299,338,109044,2,0,P|321:339|342:336,4,45,10|0|2|0|8,1:3|3:0|1:2|3:0|3:0,0:0:0:0:
268,248,109696,5,4,1:2:0:0:
334,192,109913,1,2,2:0:0:0:
412,225,110131,2,0,P|426:182|432:137,1,90.0000000000001,0|10,2:0|2:3,0:0:0:0:
372,81,110565,1,2,2:0:0:0:
268,113,110783,1,8,2:3:0:0:
177,54,111000,5,0,1:0:0:0:
63,81,111218,1,2,2:0:0:0:
68,98,111326,1,0,2:0:0:0:
82,108,111435,1,2,2:0:0:0:
98,192,111652,2,0,P|68:224|25:235,2,90.0000000000001,8|2|8,2:3|3:0|2:3,0:0:0:0:
214,183,112305,5,0,1:0:0:0:
296,138,112522,1,8,3:0:0:0:
148,47,112739,2,0,P|182:80|226:84,1,90.0000000000001,2|8,3:2|3:0,0:0:0:0:
300,54,113174,1,10,3:0:0:0:
386,32,113392,1,8,3:0:0:0:
475,59,113609,38,0,P|473:79|460:102,3,45,10|0|8|0,1:3|3:0|3:0|3:0,0:0:0:0:
429,144,114044,2,0,P|444:165|460:175,3,45,8|0|2|12,3:0|3:0|3:2|3:0,0:0:0:0:
482,210,114479,2,0,B|492:257|470:299,1,90.0000000000001,2|8,3:0|3:0,0:0:0:0:
396,332,114913,5,6,1:2:0:0:
311,368,115131,1,0,2:0:0:0:
252,299,115348,1,2,3:2:0:0:
302,224,115565,1,10,2:3:0:0:
391,226,115783,1,8,2:3:0:0:
403,202,115892,1,0,2:0:0:0:
400,175,116000,1,0,2:0:0:0:
329,127,116218,5,0,1:0:0:0:
384,56,116435,2,0,P|398:38|420:29,2,45,2|0|2,2:0|2:0|2:0,0:0:0:0:
294,44,116870,1,8,2:3:0:0:
238,117,117087,2,0,P|212:88|202:34,1,90.0000000000001,2|2,2:3|2:0,2:0:0:0:
111,35,117522,5,0,1:0:0:0:
73,116,117739,1,2,2:0:0:0:
76,138,117848,1,2,2:0:0:0:
90,154,117957,1,2,2:0:0:0:
173,180,118174,1,10,2:3:0:0:
109,236,118392,1,0,3:0:0:0:
21,240,118609,1,0,2:0:0:0:
58,150,118826,38,0,P|52:132|37:109,2,45,10|0|2,1:3|3:0|3:2,0:0:0:0:
140,20,119261,1,8,1:3:0:0:
148,40,119370,1,0,3:0:0:0:
151,62,119479,2,0,P|137:82|115:95,4,45,10|0|2|0|8,1:3|3:0|1:2|3:0|3:0,0:0:0:0:
220,121,120131,5,4,1:2:0:0:
285,65,120348,1,2,2:0:0:0:
307,65,120457,1,0,3:0:0:0:
327,56,120565,1,0,2:0:0:0:
416,68,120783,1,8,3:0:0:0:
460,148,121000,2,0,P|482:145|503:136,2,45,0|0|2,2:0|0:0|3:2,0:0:0:0:
352,228,121435,6,0,P|360:207|382:187,3,45.0000000000001,2|0|0|2,1:2|2:0|3:2|3:2,0:0:0:0:
336,264,121870,1,2,3:2:0:0:
252,216,122087,1,8,3:0:0:0:
240,124,122305,1,2,3:2:0:0:
172,68,122522,2,0,P|150:64|127:65,1,45,8|0,3:0|2:0,2:0:0:0:
63,103,122739,6,0,L|37:55,3,45,6|0|0|8,1:2|3:0|3:0|1:3,0:0:0:0:
139,92,123174,2,0,P|160:106|169:124,1,45,0|0,3:0|3:0,0:0:0:0:
178,167,123392,2,0,P|175:189|164:208,1,45,6|0,1:3|2:0,2:0:0:0:
146,235,123609,2,0,P|131:252|108:259,1,45,10|0,1:3|3:0,0:0:0:0:
72,263,123826,1,8,3:0:0:0:
207,328,124044,38,0,L|117:339,1,90.0000000000001,10|2,1:3|1:3,0:0:0:0:
315,346,124479,2,0,L|420:333,1,90.0000000000001,2|8,1:3|3:0,0:0:0:0:
248,232,124913,2,0,B|219:192|232:149|232:149|241:176|262:189,1,120,8|2,1:3|3:2,0:0:0:0:
280,207,125239,1,0,2:0:0:0:
312,216,125348,6,0,P|350:205|382:178,2,80,6|0|0,1:2|3:0|3:0,2:0:0:0:
468,168,126000,1,8,3:0:0:0:
440,88,126218,1,4,3:0:0:0:
492,24,126435,1,0,3:0:0:0:
392,12,126652,5,2,3:2:0:0:
321,65,126870,2,0,P|303:58|287:46,2,40,0|0|8,3:0|3:0|3:0,0:0:0:0:
356,142,127305,1,10,3:2:0:0:
434,121,127522,1,8,3:0:0:0:
432,202,127739,1,0,3:0:0:0:
479,268,127957,6,0,B|460:323|460:323|400:310|368:349,1,160,8|0,1:3|3:0,2:0:0:0:
288,357,128609,1,8,3:0:0:0:
207,347,128826,1,2,3:2:0:0:
214,322,128935,1,0,3:0:0:0:
230,304,129044,1,2,3:2:0:0:
313,270,129261,38,0,P|329:259|343:244,4,40,0|0|0|0|2,1:0|3:0|2:0|3:0|3:2,0:0:0:0:
334,160,129913,1,8,3:0:0:0:
247,133,130131,2,0,P|228:126|211:114,2,40,2|0|2,3:2|3:0|3:2,0:0:0:0:
301,235,130565,6,0,P|270:262|219:264,1,80,6|0,1:2|3:0,2:0:0:0:
89,263,131000,2,0,P|117:234|154:223,1,80,0|8,3:0|3:0,0:0:0:0:
81,160,131435,1,4,3:0:0:0:
77,136,131544,1,2,3:2:0:0:
61,117,131652,1,0,3:0:0:0:
102,49,131870,5,2,3:2:0:0:
170,97,132087,2,0,P|188:89|205:78,2,40,0|0|8,3:0|3:0|3:0,2:0:0:0:
129,173,132522,1,10,3:2:0:0:
77,234,132739,1,8,3:0:0:0:
124,298,132957,1,0,3:0:0:0:
197,317,133174,6,0,P|165:289|127:277,1,80,8|2,1:3|3:2,2:0:0:0:
50,243,133609,1,0,3:0:0:0:
45,159,133826,1,8,3:0:0:0:
51,140,133935,1,0,3:0:0:0:
65,125,134044,1,2,3:2:0:0:
123,67,134261,37,2,3:2:0:0:
211,82,134479,2,0,P|231:78|248:68,4,40,0|0|8|0|2,1:0|0:0|3:0|3:0|3:2,0:0:0:0:
330,40,135131,1,8,3:0:0:0:
411,70,135348,1,2,3:2:0:0:
437,70,135457,1,0,3:0:0:0:
460,59,135565,1,2,3:2:0:0:
482,158,135783,6,1,P|442:168|371:130,1,120,4|0,1:2|3:0,2:0:0:0:
362,139,136218,2,0,P|360:178|375:219,1,80,0|8,3:0|3:0,0:0:0:0:
408,288,136652,2,0,P|417:306|429:322,2,40,2|0|8,3:2|3:0|3:0,0:0:0:0:
336,356,137087,6,1,P|329:321|307:281,1,80,0|10,1:2|3:2,2:0:0:0:
227,355,137522,1,0,3:0:0:0:
157,309,137739,1,0,3:0:0:0:
141,290,137848,1,8,3:0:0:0:
142,266,137957,1,2,3:2:0:0:
213,217,138174,1,8,3:0:0:0:
288,165,138392,6,1,P|270:130|290:87,1,80,0|10,1:2|3:2,2:0:0:0:
189,126,138826,1,0,3:0:0:0:
102,75,139044,2,0,L|178:49,1,80,8|2,3:0|3:2,2:0:0:0:
193,42,139370,1,0,3:0:0:0:
207,33,139479,1,8,3:0:0:0:
291,80,139696,37,0,1:2:0:0:
392,66,139913,2,0,P|388:49|372:31,3,40,10|2|0|0,3:2|3:2|1:0|3:0,0:0:0:0:
449,58,140348,2,0,P|437:95|340:162,1,160,12|8,3:0|3:0,2:0:0:0:
266,122,141000,5,4,1:2:0:0:
178,97,141218,1,10,3:2:0:0:
96,118,141435,1,10,1:2:0:0:
45,176,141652,1,0,2:0:0:0:
47,194,141761,1,10,1:2:0:0:
55,217,141870,2,0,P|62:232|78:249,2,40,2|0|2,3:2|3:0|1:2,0:0:0:0:
139,305,142305,6,0,B|171:279|156:229|156:229|198:158,1,160,0|10,1:0|3:2,0:0:0:0:
272,129,142957,1,8,3:0:0:0:
286,41,143174,1,0,1:2:0:0:
364,94,143392,1,0,3:0:0:0:
455,119,143609,6,0,P|437:135|427:155,3,40,0|0|10|0,1:2|2:0|3:2|3:0,0:0:0:0:
433,186,144044,1,10,1:2:0:0:
423,200,144152,1,0,2:0:0:0:
420,212,144261,2,1,P|380:214|341:225,1,80,8|2,1:3|3:2,2:0:0:0:
281,293,144696,1,2,1:2:0:0:
182,334,144913,38,0,P|178:310|166:291,3,40,0|0|10|2,1:2|2:0|1:2|3:2,0:0:0:0:
153,331,145348,1,0,1:0:0:0:
141,318,145457,1,0,3:0:0:0:
133,302,145565,2,1,P|139:270|165:228,1,80,12|2,3:0|1:2,2:0:0:0:
229,159,146000,1,8,3:0:0:0:
240,64,146218,6,1,P|201:68|162:82,1,80,4|10,1:2|3:2,2:0:0:0:
91,126,146652,1,10,1:2:0:0:
123,197,146870,1,0,2:0:0:0:
120,214,146978,1,10,1:2:0:0:
113,229,147087,2,0,P|99:246|83:256,2,40,2|0|2,3:2|3:0|1:2,0:0:0:0:
135,355,147522,6,0,P|156:326|176:286,1,80,0|10,1:0|3:2,0:0:0:0:
221,215,147957,1,10,3:2:0:0:
268,138,148174,1,0,3:2:0:0:
281,127,148283,1,10,3:2:0:0:
296,119,148392,1,0,1:2:0:0:
391,106,148609,1,0,3:0:0:0:
477,180,148826,6,1,B|483:164|479:149|479:149|467:171|445:193|423:199|405:195,1,120,0|0,1:2|3:0,2:0:0:0:
403,205,149261,2,0,P|405:229|412:244,2,40,2|0|8,3:2|2:0|1:3,0:0:0:0:
351,282,149696,1,2,3:2:0:0:
338,268,149805,1,0,3:0:0:0:
321,264,149913,1,8,1:3:0:0:
268,336,150131,38,0,P|232:288|202:236,1,120,0|0,1:0|1:0,0:0:0:0:
125,248,150565,1,8,3:0:0:0:
111,236,150674,1,8,3:0:0:0:
102,220,150783,2,0,P|97:201|99:181,2,40,10|2|2,2:0|3:2|1:2,0:0:0:0:
96,140,151109,1,0,3:0:0:0:
130,108,151218,1,0,1:0:0:0:
209,65,151435,5,4,1:2:0:0:
292,65,151652,1,10,3:2:0:0:
250,134,151870,1,10,1:2:0:0:
294,210,152087,1,0,2:0:0:0:
302,218,152196,1,10,1:2:0:0:
313,221,152305,2,0,P|335:221|352:214,2,40,2|0|2,3:2|3:0|1:2,0:0:0:0:
245,305,152739,6,0,B|203:324|146:303|146:303|180:299|207:270,1,160,0|10,1:0|3:2,0:0:0:0:
140,224,153392,1,8,3:0:0:0:
215,198,153609,1,0,1:2:0:0:
219,119,153826,1,0,3:0:0:0:
270,51,154044,6,0,P|259:35|243:23,3,40,0|0|8|0,1:0|3:0|3:2|3:0,0:0:0:0:
285,64,154478,1,0,3:0:0:0:
296,73,154587,1,2,3:2:0:0:
311,77,154696,1,8,1:3:0:0:
393,77,154913,1,2,1:2:0:0:
352,153,155131,1,2,3:2:0:0:
273,191,155348,38,0,P|286:209|289:227,3,40,4|0|10|0,1:2|3:0|3:2|3:0,0:0:0:0:
283,241,155783,1,8,1:3:0:0:
288,256,155892,1,0,3:0:0:0:
300,265,156000,1,8,1:3:0:0:
438,276,156218,2,0,L|423:253,3,26.6666666666667,12|8|8|8,1:3|3:0|3:0|3:0,0:0:0:0:
468,191,156652,6,2,P|462:157|418:127,2,80,6|8|0,1:2|3:0|0:0,2:1:0:0:
342,94,157305,1,10,1:3:0:0:
340,194,157522,1,2,1:2:0:0:
321,212,157631,1,0,3:0:0:0:
296,215,157739,1,8,3:0:0:0:
209,173,157957,6,0,P|208:152|221:135,4,40,10|0|2|0|12,1:2|3:0|3:2|3:0|3:0,0:0:0:0:
131,183,158609,1,12,3:0:0:0:
100,103,158826,1,10,1:3:0:0:
167,48,159044,1,8,3:0:0:0:
278,46,159261,6,0,B|257:78|257:78|301:84,1,80,10|10,1:3|1:3,0:0:0:0:
341,104,159587,2,0,B|384:111|384:111|410:77,1,80,0|0,3:2|2:0,0:0:0:0:
443,41,159913,1,10,1:2:0:0:
468,141,160131,1,8,1:3:0:0:
457,162,160239,1,0,3:0:0:0:
465,184,160348,1,2,3:2:0:0:
421,270,160565,38,0,L|389:233,3,40,10|8|8|12,1:3|3:0|3:0|3:0,0:0:0:0:
375,235,161000,1,2,3:2:0:0:
314,160,161218,2,0,P|320:140|314:120,1,40,10|0,1:2|0:0,0:0:0:0:
292,74,161435,2,0,L|265:60,6,20,8|0|10|0|2|0|0,3:0|0:0|2:3|3:0|1:2|3:0|3:0,0:0:0:0:
232,55,161870,53,0,1:0:0:0:
136,48,162522,1,0,1:0:0:0:
80,125,163174,1,0,1:0:0:0:
178,127,163826,1,0,1:3:0:0:
63,161,164261,2,0,P|70:185|73:215,1,53.3333333333333,12|8,3:0|3:0,0:0:0:0:
72,242,164478,5,4,1:2:0:0:
156,252,164732,69,12,3:0:0:0:
232,204,165022,5,2,1:3:0:0:
320,236,165267,70,0,P|326:215|328:186,1,50,0|0,1:0|3:0,0:0:0:0:
331,157,165529,1,12,3:0:0:0:
455,61,165783,6,0,P|474:102|500:157,1,100,12|10,1:3|3:0,0:0:0:0:
409,178,166326,1,10,3:0:0:0:
331,203,166571,2,0,P|306:203|285:191,1,50,10|0,3:0|3:0,0:0:0:0:
240,128,166843,1,2,3:2:0:0:
313,104,167087,70,0,L|337:72,3,40,12|8|8|8,1:3|3:0|3:0|3:0,0:0:0:0:
375,62,167522,1,2,1:2:0:0:
296,12,167739,1,14,3:0:0:0:
232,56,167957,1,8,3:0:0:0:
144,56,168174,6,0,L|137:31,2,20,10|0|0,3:0|0:0|2:0,2:0:0:0:
128,32,168392,1,0,1:0:0:0:
56,100,168609,1,2,1:2:0:0:
80,171,168826,2,0,P|78:190|71:209,1,40,8|0,1:3|2:0,2:0:0:0:
56,252,169044,70,1,B|50:279|50:279|105:260,1,80,2|0,1:3|2:0,2:0:0:0:
144,260,169370,2,1,B|189:257|189:257|220:239,1,80,8|0,3:0|2:0,2:0:0:0:
256,216,169696,1,4,1:2:0:0:
256,192,169805,12,2,171000,1:2:0:0:
41,134,171218,5,0,2:0:0:0:
53,154,171326,1,2,3:2:0:0:
57,177,171435,1,2,3:2:0:0:
42,251,171652,1,2,2:0:0:0:
77,325,171870,1,2,3:2:0:0:
206,337,172196,1,0,2:0:0:0:
222,321,172305,70,0,P|221:305|213:281,2,40,4|0|8,1:2|3:0|3:0,0:0:0:0:
292,268,172631,2,0,L|295:227,2,40,12|0|0,3:0|3:0|3:0,2:0:0:0:
362,301,172957,1,12,3:0:0:0:
436,260,173174,1,8,3:0:0:0:
426,174,173392,1,0,3:0:0:0:
491,112,173609,6,0,B|466:110|456:90|456:90|453:71|436:54,1,80,12|0,1:3|3:0,0:0:0:0:
428,32,173935,1,2,3:2:0:0:
368,96,174152,1,8,3:0:0:0:
344,105,174261,2,0,P|307:93|269:64,1,80,10|0,1:3|1:3,0:0:0:0:
192,56,174696,1,8,2:3:0:0:
248,156,174913,6,1,P|211:171|169:170,1,80,4|0,1:2|0:0,2:0:0:0:
100,152,175203,1,0,2:0:0:0:
20,315,175565,2,1,B|56:282|52:313|91:273,1,80,2|0,1:3|2:0,2:0:0:0:
152,236,175928,1,8,3:0:0:0:
200,312,176218,5,2,1:3:0:0:
286,288,176435,2,0,L|262:241,4,40,8|0|10|0|12,3:0|3:0|2:3|2:0|2:3,0:0:0:0:
380,273,177087,1,2,1:2:0:0:
366,258,177196,1,0,2:0:0:0:
364,238,177305,1,2,3:2:0:0:
505,151,177522,6,1,B|476:153|476:153|457:162|457:162|392:170,1,106.666666666667,4|0,1:2|2:0,2:0:0:0:
323,200,177884,2,0,B|266:209|266:209|279:183,1,80,8|0,3:0|2:0,2:0:0:0:
302,117,178174,1,2,1:3:0:0:
204,75,178536,1,8,3:0:0:0:
99,184,178826,6,0,P|114:172|120:149,3,40,2|0|8|2,1:3|3:0|2:3|3:2,0:0:0:0:
76,189,179261,1,0,0:0:0:0:
12,252,179478,2,0,P|30:288|37:328,1,80,10|0,1:3|0:0,2:0:0:0:
112,348,179805,2,0,P|144:332|171:295,1,80,2|0,3:2|0:0,0:0:0:0:
264,288,180131,38,0,P|234:257|214:193,1,106.666666666667,4|0,1:2|2:0,2:0:0:0:
216,172,180493,1,8,3:0:0:0:
168,92,180783,2,0,L|151:45,2,40,2|0|0,1:3|0:0|2:0,2:0:0:0:
248,56,181145,2,0,P|270:54|299:34,1,53.3333333333333,8|0,3:0|0:0,2:0:0:0:
384,76,181435,6,0,P|375:37|416:27,2,80,2|0|2,1:3|3:0|1:2,2:0:0:0:
458,140,181978,1,0,0:0:0:0:
448,152,182087,2,0,P|423:151|401:144,1,40,8|0,2:3|2:0,2:0:0:0:
334,133,182305,1,6,3:0:0:0:
311,141,182413,1,0,0:0:0:0:
300,162,182522,1,6,3:0:0:0:
292,236,182739,6,1,P|313:273|354:275,1,80,4|0,1:2|2:0,2:0:0:0:
428,260,183102,1,8,3:0:0:0:
312,348,183392,2,0,P|269:348|241:321,1,80,2|0,1:3|2:0,2:0:0:0:
200,264,183754,1,8,3:0:0:0:
80,136,184044,5,2,1:3:0:0:
74,156,184152,1,0,3:0:0:0:
74,172,184261,2,0,P|76:194|90:217,1,40,8|0,2:3|3:0,0:0:0:0:
124,272,184478,1,8,1:3:0:0:
48,316,184696,1,8,1:3:0:0:
128,351,184913,2,0,P|166:343|206:339,1,80,10|2,1:3|3:2,2:0:0:0:
296,336,185348,37,6,1:2:0:0:
377,279,185565,2,0,L|417:273,3,26.6666666666667,8|0|8|0,3:0|3:0|3:0|2:0,0:0:0:0:
296,232,186000,2,0,P|276:233|257:227,2,40,10|0|0,1:3|3:0|3:0,0:0:0:0:
376,176,186363,2,0,B|368:195|368:195|424:176,1,80,8|0,1:3|3:0,2:0:0:0:
468,100,186652,5,10,1:3:0:0:
480,80,186761,1,0,2:0:0:0:
480,52,186870,2,0,P|466:37|448:29,1,40,8|0,3:0|2:0,2:0:0:0:
357,20,187087,1,10,1:3:0:0:
366,42,187196,1,0,2:0:0:0:
370,65,187305,1,2,3:2:0:0:
370,88,187413,1,0,2:0:0:0:
359,109,187522,2,0,P|348:132|334:148,1,40,2|0,1:2|3:0,0:0:0:0:
320,152,187739,1,2,3:2:0:0:
252,216,187957,5,4,1:2:0:0:
156,248,188247,1,0,3:0:0:0:
72,200,188609,2,0,P|56:166|83:140,1,80,2|2,1:3|3:2,2:0:0:0:
164,136,188971,1,8,2:3:0:0:
192,36,189261,6,0,P|172:26|155:12,3,40,10|0|8|0,1:3|3:0|3:0|3:0,0:0:0:0:
229,55,189696,1,10,2:3:0:0:
314,60,189913,1,8,3:0:0:0:
393,24,190131,1,8,1:3:0:0:
487,59,190348,1,8,3:0:0:0:
497,146,190565,37,4,1:2:0:0:
448,232,190783,2,0,P|438:214|420:200,3,40,2|2|8|8,1:2|1:2|2:3|2:3,0:0:0:0:
464,268,191218,2,0,P|421:252|394:227,2,80,2|10|10,1:3|3:2|3:2,2:0:0:0:
303,290,191870,5,2,1:3:0:0:
292,278,191978,1,8,2:3:0:0:
286,261,192087,2,0,P|281:241|283:221,1,40,12|12,2:3|3:0,0:0:0:0:
322,153,192305,2,0,P|333:139|335:115,2,40,12|8|8,3:0|2:3|2:3,0:0:0:0:
276,54,192739,1,2,1:3:0:0:
190,49,192957,1,8,2:3:0:0:
132,112,193174,5,4,1:2:0:0:
64,192,193464,1,0,2:0:0:0:
160,256,193826,1,2,1:3:0:0:
96,336,194205,1,8,3:0:0:0:
223,362,194443,6,0,L|202:327,2,39.9999999999999,0|0|0,2:0|2:0|2:0,2:0:0:0:
231,312,194740,2,0,P|221:283|200:260,1,59.9999999999998,2|0,1:3|3:0,2:0:0:0:
220,228,195087,2,0,P|214:202|221:168,1,59.9999999999998,8|2,1:3|3:0,2:0:0:0:
248,136,195435,1,12,1:3:0:0:
300,76,195609,1,8,2:3:0:0:
380,76,195782,5,6,1:2:0:0:
448,124,195955,2,0,P|475:114|498:85,2,59.9999999999999,0|8|2,3:0|3:0|3:2,2:0:0:0:
378,162,196477,1,10,1:2:0:0:
354,236,196651,1,0,3:0:0:0:
401,298,196825,1,8,3:0:0:0:
478,303,196999,5,0,3:0:0:0:
322,356,197347,1,8,3:0:0:0:
224,244,197695,1,8,1:3:0:0:
224,244,197782,1,0,3:0:0:0:
224,244,197868,2,0,P|234:233|247:226,1,29.9999999999999,8|0,3:0|3:0,0:0:0:0:
336,216,198042,2,0,P|362:202|385:183,1,59.9999999999999,4|8,3:0|3:0,0:0:0:0:
476,132,198390,69,4,1:2:0:0:
412,88,198564,1,0,3:0:0:0:
339,105,198738,2,0,P|290:111|242:98,1,100,4|8,3:0|3:0,2:0:0:0:
167,51,199086,1,10,1:2:0:0:
84,42,199260,1,2,3:2:0:0:
3,171,199608,6,0,B|28:167|57:197|57:197|87:166|108:177,1,120,10|8,1:3|1:2,2:0:0:0:
164,125,200129,1,8,2:3:0:0:
240,156,200303,2,0,P|269:116|308:91,1,89.9999999999998,8|0,1:2|3:0,2:0:0:0:
308,79,200651,2,0,L|285:52,4,29.9999999999999,4|8|8|0|4,3:0|3:0|3:0|3:0|1:2,0:0:0:0:
388,112,201173,69,0,3:0:0:0:
391,249,201347,2,0,P|373:225|371:196,1,59.9999999999999,8|2,3:0|3:2,0:0:0:0:
296,242,201695,1,10,1:2:0:0:
271,319,201868,1,0,3:0:0:0:
192,298,202042,1,8,3:0:0:0:
212,220,202216,5,0,3:0:0:0:
37,218,202564,2,0,L|20:193,2,29.9999999999999,0|0|8,3:0|2:0|3:2,2:0:0:0:
57,121,202912,1,8,1:3:0:0:
57,121,202999,1,0,3:0:0:0:
57,121,203086,1,8,3:0:0:0:
145,138,203260,2,0,P|158:131|166:118,2,29.9999999999999,4|8|8,3:0|3:0|3:0,0:0:0:0:
192,38,203608,69,4,1:2:0:0:
281,17,203782,1,0,3:0:0:0:
353,54,203955,2,0,L|372:16,2,29.9999999999999,4|0|8,3:0|3:0|3:0,0:0:0:0:
388,128,204303,1,10,1:2:0:0:
460,160,204477,1,8,3:0:0:0:
228,218,204825,6,2,B|186:189|135:200|135:200|98:188|93:159,2,160,4|0|8,1:2|0:0|1:2,2:1:0:0:
32,56,205868,2,0,L|22:13,4,40,12|0|0|0|4,3:0|0:0|0:0|3:0|1:2,0:0:0:0:
108,84,206390,69,0,3:0:0:0:
176,32,206564,1,8,3:0:0:0:
264,32,206738,1,2,3:2:0:0:
348,48,206912,2,0,B|386:45|368:37|406:38,2,59.9999999999999,10|0|8,1:2|3:0|3:0,2:0:0:0:
392,124,207434,5,0,3:0:0:0:
288,208,207782,1,0,3:0:0:0:
184,128,208129,1,8,1:3:0:0:
232,32,208303,1,4,3:0:0:0:
214,29,208390,1,8,3:0:0:0:
196,27,208477,2,0,P|181:30|168:36,1,29.9999999999999,8|8,3:0|3:0,0:0:0:0:
80,44,208651,2,0,P|58:64|23:70,1,59.9999999999999,0|2,1:2|1:3,0:0:0:0:
31,154,208999,69,0,1:0:0:0:
100,192,209173,1,8,3:0:0:0:
108,280,209347,2,0,P|134:295|164:299,1,59.9999999999999,10|0,1:2|1:2,0:0:0:0:
264,316,209695,2,0,L|241:278,2,29.9999999999999,0|0|0,1:0|2:0|3:0,0:0:0:0:
216,224,210042,2,0,B|213:182|169:163|169:163|177:142|197:140,1,120,10|12,1:2|3:0,0:0:0:0:
224,64,210564,1,0,1:0:0:0:
304,48,210738,5,10,3:2:0:0:
432,65,211086,70,0,P|448:44|454:20,4,50,4|8|8|0|4,3:0|3:0|3:0|3:0|1:2,0:0:0:0:
360,120,211608,5,0,3:0:0:0:
263,106,211782,2,0,P|277:81|301:52,2,59.9999999999999,8|2|10,3:0|3:2|1:2,0:0:0:0:
212,172,212303,1,0,3:0:0:0:
132,160,212477,1,8,3:0:0:0:
88,96,212651,69,0,3:0:0:0:
19,196,212999,1,0,3:0:0:0:
68,312,213347,1,8,2:3:0:0:
68,312,213434,1,0,3:0:0:0:
68,312,213521,2,0,P|66:291|68:273,1,29.9999999999999,12|0,3:0|3:0,3:0:0:0:
124,227,213695,2,0,P|145:206|174:201,1,59.9999999999999,2|2,3:2|3:2,0:0:0:0:
252,240,214042,5,2,1:3:0:0:
336,244,214216,1,0,1:0:0:0:
404,296,214390,2,0,L|429:280,2,29.9999999999999,8|0|10,3:0|3:0|1:2,0:0:0:0:
472,208,214738,1,2,1:2:0:0:
388,148,214912,2,0,P|398:133|409:126,2,29.9999999999999,0|0|8,1:0|1:0|1:3,0:0:0:0:
312,84,215260,70,2,B|298:88|289:76|289:76|285:62|271:69|271:69|254:75|248:61|248:61|243:45|222:54|222:54|204:60|194:43|194:43|186:26|169:34|169:34|163:29,2,180,4|8|12,1:2|1:3|3:0,2:1:0:0:
404,52,216477,1,8,1:3:0:0:
408,68,216564,1,0,3:0:0:0:
404,84,216651,1,4,1:2:0:0:
424,168,216825,6,0,P|454:170|483:161,2,59.9999999999999,0|8|2,3:0|3:0|3:2,2:0:0:0:
348,176,217347,1,10,1:2:0:0:
281,226,217521,1,0,3:0:0:0:
293,309,217695,1,8,3:0:0:0:
373,333,217868,69,0,3:0:0:0:
192,336,218216,1,8,3:0:0:0:
224,212,218564,1,8,1:3:0:0:
224,212,218651,1,0,3:0:0:0:
223,212,218738,2,0,P|234:201|239:187,1,29.9999999999999,8|0,3:0|3:0,0:0:0:0:
257,97,218912,2,0,P|247:85|234:77,2,29.9999999999999,4|8|8,3:0|3:0|3:0,0:0:0:0:
171,131,219260,5,4,1:2:0:0:
124,52,219434,1,0,3:0:0:0:
40,64,219608,2,0,P|30:91|38:120,1,59.9999999999999,4|8,3:0|3:0,0:0:0:0:
92,184,219955,1,10,1:2:0:0:
12,248,220129,2,0,P|44:252|67:270,1,59.9999999999999,2|8,3:2|3:0,0:0:0:0:
176,328,220477,2,0,B|166:346|148:349|148:349|123:307|159:270,1,120,10|8,1:3|1:2,2:0:0:0:
216,224,220999,1,8,2:3:0:0:
296,240,221173,37,0,2:0:0:0:
416,256,221521,5,0,2:0:0:0:
484,160,221868,38,0,P|471:131|448:111,2,59.9999999999999,4|0|2,1:2|3:0|2:0,0:0:0:0:
376,136,222390,2,0,P|347:114|344:87,1,59.9999999999999,0|2,1:0|3:0,0:0:0:0:
360,16,222738,1,8,2:3:0:0:
288,188,222912,2,0,P|265:170|257:141,2,59.9999999999999,0|0|8,1:0|2:0|3:0,0:0:0:0:
178,137,223434,2,0,P|158:115|151:84,1,59.9999999999999,0|0,1:0|2:0,2:0:0:0:
200,24,223782,1,8,2:3:0:0:
72,40,223955,5,0,1:0:0:0:
39,133,224129,2,0,L|20:111,2,29.9999999999999,2|0|2,1:2|2:0|3:2,0:0:0:0:
68,213,224477,1,0,1:0:0:0:
159,210,224651,2,0,L|181:189,2,29.9999999999999,2|0|8,1:2|0:0|2:3,0:0:0:0:
121,111,224999,1,0,1:0:0:0:
190,62,225173,2,0,L|178:29,2,29.9999999999999,8|0|2,1:3|2:0|3:2,0:0:0:0:
279,42,225521,2,0,P|312:30|374:22,1,89.9999999999998,0|0,1:0|2:0,2:0:0:0:
443,11,225868,1,10,2:3:0:0:
484,84,226042,5,0,1:0:0:0:
448,164,226216,1,2,2:3:0:0:
448,164,226303,1,0,2:0:0:0:
448,164,226390,1,8,2:3:0:0:
352,165,226564,2,0,B|314:167|314:167|301:163|301:163|252:165,2,89.9999999999998,0|0|4,1:0|1:0|1:2,2:0:0:0:
380,316,227260,22,0,P|409:307|435:287,2,59.9999999999999,0|8|2,3:0|3:0|3:2,2:0:0:0:
300,319,227782,1,10,1:2:0:0:
236,276,227955,1,0,3:0:0:0:
224,192,228129,1,8,3:0:0:0:
272,128,228303,5,0,3:0:0:0:
443,136,228651,1,8,3:0:0:0:
348,206,228999,1,8,1:3:0:0:
348,206,229086,1,0,3:0:0:0:
348,206,229173,2,0,P|339:221|339:234,1,29.9999999999999,4|8,3:0|3:0,0:0:0:0:
384,320,229347,2,0,P|354:317|326:304,1,59.9999999999999,8|0,3:0|1:2,0:0:0:0:
256,256,229695,1,2,1:3:0:0:
176,288,229868,70,0,P|152:301|119:306,2,59.9999999999999,0|8|10,1:0|3:0|1:2,0:0:0:0:
160,208,230390,1,0,1:2:0:0:
21,255,230564,2,0,P|53:238|77:233,1,59.9999999999999,0|0,1:0|3:0,0:0:0:0:
48,144,230912,2,0,B|67:153|89:141|89:141|55:124|31:73,1,120,10|12,1:2|3:0,0:0:0:0:
80,16,231434,1,0,1:0:0:0:
143,81,231608,5,10,3:2:0:0:
144,192,231955,70,0,P|159:174|159:158,3,29.9999999999999,4|8|8|0,3:0|3:0|3:0|3:0,0:0:0:0:
60,256,232303,5,4,1:2:0:0:
132,272,232477,1,0,3:0:0:0:
176,332,232651,2,0,P|203:318|232:310,1,59.9999999999999,8|2,3:0|3:2,2:0:0:0:
344,272,232999,2,0,P|314:267|284:262,2,59.9999999999999,10|0|8,1:2|3:0|3:0,2:0:0:0:
412,240,233521,69,0,3:0:0:0:
465,135,233868,1,8,3:0:0:0:
388,44,234216,1,8,1:3:0:0:
388,44,234303,1,0,3:0:0:0:
388,43,234390,2,0,P|386:63|377:81,2,29.9999999999999,0|0|8,1:0|3:0|3:0,0:0:0:0:
349,166,234738,2,0,L|332:140,2,29.9999999999999,8|8|2,3:0|3:0|1:3,0:0:0:0:
280,214,235086,5,8,3:0:0:0:
280,214,235173,1,0,3:0:0:0:
280,214,235260,1,12,3:0:0:0:
203,241,235434,2,0,P|203:261|208:287,2,29.9999999999999,10|8|14,3:0|3:0|1:3,0:0:0:0:
141,194,235782,1,10,1:2:0:0:
141,194,235868,1,10,3:2:0:0:
141,194,235955,1,10,1:3:0:0:
133,106,236129,1,4,1:2:0:0:
256,192,236477,12,0,240825,3:0:0:0:
