osu file format v14

[General]
AudioFilename: audio.mp3
AudioLeadIn: 0
PreviewTime: 62139
Countdown: 0
SampleSet: Normal
StackLeniency: 0.7
Mode: 1
LetterboxInBreaks: 0
WidescreenStoryboard: 1

[Editor]
DistanceSpacing: 1.5
BeatDivisor: 4
GridSize: 32
TimelineZoom: 1

[Metadata]
Title:Boot
TitleUnicode:ブート
Artist:paraoka feat. haru*nya
ArtistUnicode:paraoka feat. haru*nya
Creator:mintong89
Version:Oni
Source:
Tags:麹町養蚕館 Koujimachi Yousankan リゾルヴ Resolve Pop Japanese
BeatmapID:2357965
BeatmapSetID:1115403

[Difficulty]
HPDrainRate:5
CircleSize:5
OverallDifficulty:5
ApproachRate:5
SliderMultiplier:1.4
SliderTickRate:1

[Events]
//Background and Video events
0,0,"Idoko.full.697440.jpg",0,5
//Break Periods
//Storyboard Layer 0 (Background)
//Storyboard Layer 1 (Fail)
//Storyboard Layer 2 (Pass)
//Storyboard Layer 3 (Foreground)
//Storyboard Layer 4 (Overlay)
//Storyboard Sound Samples

[TimingPoints]
890,625,4,1,0,25,1,0
13390,254.237288135593,4,1,0,75,1,0
14406,254.237288135593,4,1,0,75,1,0
54829,-133.333333333333,4,1,0,75,0,0
59151,-100,4,1,0,75,0,0
63219,-100,4,1,0,75,0,1
79490,-133.333333333333,4,1,0,75,0,1
85592,-100,4,1,0,75,0,1
87626,-100,4,1,0,75,0,0
128050,-133.333333333333,4,1,0,75,0,0
132372,-100,4,1,0,75,0,0
136439,-100,4,1,0,75,0,1
176100,-100,4,1,0,75,0,0
177117,-100,4,1,0,75,0,1
183219,-80,4,1,0,75,0,1
185253,-133.333333333333,4,1,0,75,0,0

[HitObjects]
174,271,890,1,0,0:0:0:0:
220,235,1827,1,0,0:0:0:0:
220,235,2140,1,8,0:0:0:0:
278,219,2765,1,8,0:0:0:0:
278,219,3077,1,0,0:0:0:0:
278,219,3390,1,8,0:0:0:0:
278,219,4327,1,8,0:0:0:0:
278,219,4640,1,0,0:0:0:0:
226,129,4952,1,8,0:0:0:0:
226,129,5265,1,0,0:0:0:0:
70,234,5890,2,0,P|135:297|484:196,1,490
256,192,8390,8,0,13077,0:0:0:0:
190,266,13390,5,8,0:0:0:0:
190,266,13644,1,8,0:0:0:0:
190,266,13898,1,8,0:0:0:0:
190,266,14152,1,8,0:0:0:0:
190,266,14216,1,8,0:0:0:0:
190,266,14279,1,8,0:0:0:0:
147,204,14406,1,4,0:0:0:0:
248,210,14660,1,8,0:0:0:0:
200,187,14787,1,0,0:0:0:0:
200,187,14914,1,0,0:0:0:0:
200,187,14978,1,0,0:0:0:0:
200,187,15041,1,0,0:0:0:0:
105,190,15168,1,8,0:0:0:0:
200,187,15295,1,0,0:0:0:0:
123,164,15422,1,8,0:0:0:0:
123,164,15550,1,0,0:0:0:0:
209,148,15677,1,0,0:0:0:0:
123,164,15804,1,8,0:0:0:0:
207,142,16058,1,0,0:0:0:0:
207,142,16122,1,0,0:0:0:0:
203,139,16185,1,8,0:0:0:0:
203,139,16312,1,0,0:0:0:0:
157,129,16439,1,8,0:0:0:0:
157,129,16567,1,0,0:0:0:0:
157,129,16694,1,8,0:0:0:0:
157,129,16821,1,0,0:0:0:0:
219,218,16948,1,8,0:0:0:0:
219,218,17011,1,8,0:0:0:0:
219,218,17075,1,0,0:0:0:0:
174,170,17202,1,0,0:0:0:0:
174,170,17329,1,8,0:0:0:0:
149,173,17456,1,0,0:0:0:0:
149,173,17520,1,0,0:0:0:0:
149,173,17583,1,8,0:0:0:0:
149,173,17711,1,0,0:0:0:0:
149,173,17838,1,8,0:0:0:0:
149,173,17965,1,0,0:0:0:0:
149,173,18092,1,0,0:0:0:0:
149,173,18219,1,8,0:0:0:0:
156,220,18473,1,4,0:0:0:0:
217,237,18728,1,8,0:0:0:0:
217,237,18855,1,0,0:0:0:0:
217,237,18982,1,0,0:0:0:0:
217,237,19045,1,0,0:0:0:0:
217,237,19109,1,0,0:0:0:0:
217,237,19236,1,8,0:0:0:0:
170,220,19363,1,0,0:0:0:0:
241,218,19490,1,8,0:0:0:0:
241,218,19617,1,0,0:0:0:0:
170,220,19744,1,0,0:0:0:0:
170,220,19872,1,8,0:0:0:0:
234,216,20126,1,0,0:0:0:0:
234,216,20189,1,0,0:0:0:0:
234,216,20253,1,8,0:0:0:0:
231,216,20380,1,0,0:0:0:0:
226,214,20507,1,0,0:0:0:0:
226,214,20634,1,0,0:0:0:0:
224,214,20761,1,8,0:0:0:0:
224,214,20889,1,8,0:0:0:0:
131,183,21016,1,0,0:0:0:0:
131,183,21079,1,0,0:0:0:0:
131,183,21143,1,0,0:0:0:0:
131,183,21270,1,8,0:0:0:0:
131,183,21397,1,8,0:0:0:0:
226,214,21524,1,0,0:0:0:0:
226,214,21588,1,0,0:0:0:0:
226,214,21651,1,8,0:0:0:0:
228,216,21778,1,0,0:0:0:0:
228,216,21905,1,8,0:0:0:0:
241,158,22033,1,0,0:0:0:0:
241,158,22160,1,8,0:0:0:0:
241,158,22223,1,8,0:0:0:0:
241,158,22287,1,8,0:0:0:0:
241,158,22414,1,8,0:0:0:0:
147,204,22541,1,4,0:0:0:0:
248,210,22795,1,8,0:0:0:0:
200,187,22922,1,0,0:0:0:0:
200,187,23050,1,0,0:0:0:0:
200,187,23113,1,0,0:0:0:0:
200,187,23177,1,0,0:0:0:0:
105,190,23304,1,8,0:0:0:0:
200,187,23431,1,0,0:0:0:0:
123,164,23558,1,8,0:0:0:0:
123,164,23685,1,0,0:0:0:0:
209,148,23812,1,0,0:0:0:0:
123,164,23939,1,8,0:0:0:0:
207,142,24194,1,0,0:0:0:0:
207,142,24257,1,0,0:0:0:0:
203,139,24321,1,8,0:0:0:0:
203,139,24448,1,0,0:0:0:0:
157,129,24575,1,8,0:0:0:0:
157,129,24702,1,0,0:0:0:0:
157,129,24829,1,8,0:0:0:0:
157,129,24956,1,0,0:0:0:0:
219,218,25083,1,8,0:0:0:0:
219,218,25147,1,8,0:0:0:0:
219,218,25211,1,0,0:0:0:0:
174,170,25338,1,0,0:0:0:0:
174,170,25465,1,8,0:0:0:0:
149,173,25592,1,0,0:0:0:0:
149,173,25655,1,0,0:0:0:0:
149,173,25719,1,8,0:0:0:0:
149,173,25846,1,0,0:0:0:0:
149,173,25973,1,8,0:0:0:0:
149,173,26100,1,0,0:0:0:0:
149,173,26228,1,0,0:0:0:0:
149,173,26355,1,8,0:0:0:0:
156,220,26609,1,4,0:0:0:0:
217,237,26863,1,8,0:0:0:0:
217,237,26990,1,0,0:0:0:0:
217,237,27117,1,0,0:0:0:0:
217,237,27181,1,0,0:0:0:0:
217,237,27244,1,0,0:0:0:0:
217,237,27372,1,8,0:0:0:0:
170,220,27499,1,0,0:0:0:0:
241,218,27626,1,8,0:0:0:0:
241,218,27753,1,0,0:0:0:0:
208,192,27817,1,0,0:0:0:0:
208,192,27880,1,8,0:0:0:0:
170,220,28007,1,8,0:0:0:0:
162,250,28134,1,0,0:0:0:0:
162,250,28261,1,8,0:0:0:0:
208,155,28643,1,4,0:0:0:0:
120,254,28770,1,8,0:0:0:0:
208,155,28897,1,0,0:0:0:0:
208,155,29024,1,8,0:0:0:0:
208,155,29151,1,0,0:0:0:0:
208,155,29278,1,8,0:0:0:0:
135,195,29405,1,8,0:0:0:0:
135,195,29469,1,8,0:0:0:0:
141,195,29533,1,0,0:0:0:0:
156,201,29660,1,6,0:0:0:0:
200,203,29787,1,0,0:0:0:0:
200,203,29914,1,0,0:0:0:0:
200,203,30041,1,6,0:0:0:0:
200,203,30295,1,6,0:0:0:0:
240,235,30677,1,4,0:0:0:0:
196,240,30931,1,8,0:0:0:0:
196,240,31058,1,0,0:0:0:0:
196,240,31185,1,0,0:0:0:0:
140,192,31249,1,0,0:0:0:0:
140,192,31312,1,0,0:0:0:0:
140,192,31439,1,8,0:0:0:0:
140,192,31567,1,0,0:0:0:0:
140,192,31821,1,0,0:0:0:0:
140,192,31948,1,8,0:0:0:0:
238,175,32202,1,0,0:0:0:0:
238,175,32329,1,0,0:0:0:0:
238,175,32456,1,8,0:0:0:0:
134,227,32711,1,0,0:0:0:0:
212,249,32838,1,0,0:0:0:0:
212,249,32965,1,8,0:0:0:0:
109,184,33092,1,8,0:0:0:0:
109,184,33155,1,8,0:0:0:0:
112,174,33219,1,0,0:0:0:0:
300,191,33346,1,0,0:0:0:0:
300,191,33473,1,8,0:0:0:0:
328,224,33728,1,0,0:0:0:0:
328,224,33855,1,0,0:0:0:0:
328,224,33982,1,8,0:0:0:0:
306,214,34109,1,8,0:0:0:0:
306,214,34236,1,0,0:0:0:0:
306,214,34300,1,0,0:0:0:0:
304,214,34363,1,0,0:0:0:0:
290,198,34490,1,8,0:0:0:0:
290,198,34617,1,8,0:0:0:0:
290,198,34744,1,0,0:0:0:0:
295,181,34999,1,8,0:0:0:0:
295,181,35126,1,0,0:0:0:0:
295,181,35253,1,8,0:0:0:0:
295,181,35317,1,8,0:0:0:0:
295,181,35380,1,8,0:0:0:0:
295,181,35507,1,0,0:0:0:0:
295,181,35634,1,8,0:0:0:0:
209,154,35889,1,0,0:0:0:0:
209,154,36016,1,8,0:0:0:0:
209,154,36270,1,0,0:0:0:0:
209,154,36397,1,0,0:0:0:0:
209,154,36524,1,8,0:0:0:0:
181,208,36778,1,8,0:0:0:0:
181,208,36905,1,0,0:0:0:0:
181,208,37033,1,8,0:0:0:0:
181,208,37160,1,0,0:0:0:0:
181,208,37287,1,8,0:0:0:0:
181,208,37350,1,8,0:0:0:0:
181,208,37414,1,0,0:0:0:0:
188,204,37541,1,8,0:0:0:0:
188,204,37668,1,0,0:0:0:0:
188,204,37795,1,8,0:0:0:0:
188,204,37922,1,0,0:0:0:0:
188,204,37986,1,0,0:0:0:0:
188,204,38050,1,8,0:0:0:0:
188,204,38177,1,0,0:0:0:0:
188,204,38304,1,8,0:0:0:0:
188,204,38558,1,8,0:0:0:0:
188,204,38685,1,0,0:0:0:0:
188,204,38812,1,4,0:0:0:0:
196,240,39067,1,8,0:0:0:0:
196,240,39194,1,0,0:0:0:0:
196,240,39321,1,0,0:0:0:0:
140,192,39384,1,0,0:0:0:0:
140,192,39448,1,0,0:0:0:0:
140,192,39575,1,8,0:0:0:0:
140,192,39702,1,0,0:0:0:0:
140,192,39956,1,0,0:0:0:0:
140,192,40083,1,8,0:0:0:0:
238,175,40338,1,0,0:0:0:0:
238,175,40465,1,0,0:0:0:0:
238,175,40592,1,8,0:0:0:0:
134,227,40846,1,0,0:0:0:0:
212,249,40973,1,0,0:0:0:0:
212,249,41100,1,8,0:0:0:0:
109,184,41228,1,8,0:0:0:0:
109,184,41291,1,8,0:0:0:0:
112,174,41355,1,0,0:0:0:0:
300,191,41482,1,0,0:0:0:0:
300,191,41609,1,8,0:0:0:0:
328,224,41863,1,0,0:0:0:0:
328,224,41990,1,0,0:0:0:0:
328,224,42117,1,8,0:0:0:0:
306,214,42244,1,8,0:0:0:0:
306,214,42372,1,0,0:0:0:0:
306,214,42435,1,0,0:0:0:0:
304,214,42499,1,0,0:0:0:0:
290,198,42626,1,8,0:0:0:0:
290,198,42753,1,8,0:0:0:0:
290,198,42880,1,0,0:0:0:0:
295,181,43134,1,8,0:0:0:0:
295,181,43261,1,0,0:0:0:0:
295,181,43389,1,8,0:0:0:0:
295,181,43452,1,8,0:0:0:0:
295,181,43516,1,8,0:0:0:0:
295,181,43643,1,0,0:0:0:0:
295,181,43770,1,8,0:0:0:0:
209,154,44024,1,0,0:0:0:0:
209,154,44151,1,8,0:0:0:0:
209,154,44405,1,0,0:0:0:0:
209,154,44533,1,0,0:0:0:0:
209,154,44660,1,8,0:0:0:0:
181,208,44914,1,8,0:0:0:0:
181,208,45041,1,0,0:0:0:0:
181,208,45168,1,8,0:0:0:0:
181,208,45295,1,0,0:0:0:0:
181,208,45422,1,8,0:0:0:0:
181,208,45486,1,8,0:0:0:0:
181,208,45550,1,0,0:0:0:0:
188,204,45677,1,8,0:0:0:0:
188,204,45804,1,0,0:0:0:0:
188,204,45931,1,8,0:0:0:0:
188,204,46058,1,0,0:0:0:0:
188,204,46122,1,0,0:0:0:0:
188,204,46185,1,8,0:0:0:0:
188,204,46312,1,0,0:0:0:0:
188,204,46439,1,8,0:0:0:0:
113,259,46694,1,0,0:0:0:0:
188,204,46948,1,4,0:0:0:0:
198,145,47202,1,8,0:0:0:0:
221,256,47456,1,0,0:0:0:0:
203,198,47583,1,0,0:0:0:0:
251,117,47711,1,8,0:0:0:0:
251,117,47965,1,8,0:0:0:0:
251,117,48092,1,8,0:0:0:0:
251,117,48219,1,0,0:0:0:0:
201,117,48346,1,8,0:0:0:0:
227,219,48473,1,0,0:0:0:0:
227,219,48600,1,0,0:0:0:0:
135,252,48664,1,0,0:0:0:0:
227,219,48728,1,8,0:0:0:0:
300,260,48982,1,0,0:0:0:0:
312,207,49236,1,8,0:0:0:0:
312,207,49321,1,8,0:0:0:0:
312,207,49405,1,8,0:0:0:0:
312,207,49490,1,8,0:0:0:0:
186,125,49744,1,0,0:0:0:0:
269,202,49829,1,0,0:0:0:0:
186,125,49914,1,0,0:0:0:0:
186,125,49999,1,0,0:0:0:0:
227,210,50253,1,6,0:0:0:0:
227,210,50507,1,6,0:0:0:0:
216,280,51016,1,0,0:0:0:0:
216,280,51270,1,8,0:0:0:0:
216,280,51524,1,0,0:0:0:0:
216,280,51651,1,0,0:0:0:0:
216,280,51778,1,8,0:0:0:0:
144,211,52033,1,8,0:0:0:0:
144,211,52160,1,0,0:0:0:0:
144,211,52287,1,8,0:0:0:0:
144,211,52414,1,0,0:0:0:0:
144,211,52541,1,8,0:0:0:0:
144,211,52605,1,8,0:0:0:0:
144,211,52668,1,0,0:0:0:0:
204,239,52795,1,8,0:0:0:0:
204,239,52922,1,0,0:0:0:0:
204,239,53050,1,0,0:0:0:0:
368,187,53304,1,0,0:0:0:0:
368,187,53389,1,0,0:0:0:0:
368,187,53473,1,0,0:0:0:0:
368,187,53558,1,0,0:0:0:0:
225,186,53812,1,8,0:0:0:0:
225,186,53939,1,8,0:0:0:0:
225,186,54067,1,4,0:0:0:0:
201,213,54829,1,8,0:0:0:0:
201,213,54956,1,0,0:0:0:0:
201,213,55083,1,8,0:0:0:0:
256,147,55338,1,8,0:0:0:0:
256,147,55465,1,8,0:0:0:0:
256,147,55719,1,8,0:0:0:0:
256,147,55973,1,8,0:0:0:0:
256,147,56228,1,8,0:0:0:0:
303,233,56355,1,0,0:0:0:0:
275,181,56482,1,0,0:0:0:0:
217,189,56609,1,8,0:0:0:0:
217,189,56736,1,8,0:0:0:0:
217,189,56863,1,0,0:0:0:0:
217,189,56990,1,8,0:0:0:0:
139,217,57117,1,4,0:0:0:0:
139,217,57372,1,8,0:0:0:0:
139,217,57499,1,8,0:0:0:0:
212,235,57753,1,8,0:0:0:0:
212,235,58007,1,8,0:0:0:0:
301,207,58134,1,0,0:0:0:0:
301,207,58261,1,8,0:0:0:0:
301,207,58516,1,8,0:0:0:0:
301,207,58770,1,8,0:0:0:0:
326,232,58897,1,0,0:0:0:0:
251,202,59151,1,6,0:0:0:0:
372,224,59405,1,0,0:0:0:0:
251,202,59533,1,6,0:0:0:0:
372,224,59787,1,0,0:0:0:0:
251,202,59914,1,6,0:0:0:0:
372,224,60168,1,0,0:0:0:0:
251,202,60295,1,6,0:0:0:0:
372,224,60550,1,0,0:0:0:0:
251,202,60677,1,6,0:0:0:0:
264,237,60931,1,0,0:0:0:0:
251,202,61185,1,6,0:0:0:0:
372,224,61439,1,0,0:0:0:0:
251,202,61567,1,6,0:0:0:0:
372,224,61821,1,0,0:0:0:0:
251,202,61948,1,6,0:0:0:0:
249,241,62202,1,4,0:0:0:0:
219,233,63219,1,4,0:0:0:0:
224,131,63473,1,8,0:0:0:0:
224,131,63600,1,0,0:0:0:0:
224,131,63728,1,0,0:0:0:0:
217,113,63791,1,0,0:0:0:0:
237,202,63855,1,0,0:0:0:0:
289,157,63982,1,8,0:0:0:0:
230,175,64109,1,0,0:0:0:0:
172,273,64236,1,8,0:0:0:0:
172,273,64300,1,8,0:0:0:0:
171,260,64363,1,0,0:0:0:0:
237,202,64490,1,8,0:0:0:0:
237,202,64617,1,0,0:0:0:0:
315,182,64744,1,0,0:0:0:0:
237,202,64872,1,0,0:0:0:0:
198,175,64935,1,0,0:0:0:0:
220,219,64999,1,8,0:0:0:0:
235,259,65253,1,8,0:0:0:0:
235,259,65380,1,8,0:0:0:0:
235,259,65507,1,0,0:0:0:0:
235,259,65634,1,8,0:0:0:0:
249,100,65761,1,0,0:0:0:0:
249,100,65889,1,0,0:0:0:0:
249,100,65952,1,0,0:0:0:0:
249,100,66016,1,8,0:0:0:0:
254,138,66143,1,8,0:0:0:0:
258,212,66270,1,0,0:0:0:0:
232,185,66333,1,0,0:0:0:0:
226,170,66397,1,8,0:0:0:0:
194,260,66524,1,0,0:0:0:0:
194,260,66651,1,8,0:0:0:0:
223,166,66778,1,0,0:0:0:0:
267,160,66905,1,0,0:0:0:0:
267,160,66969,1,0,0:0:0:0:
249,146,67033,1,8,0:0:0:0:
268,150,67287,1,4,0:0:0:0:
257,213,67541,1,8,0:0:0:0:
257,213,67668,1,0,0:0:0:0:
257,213,67795,1,0,0:0:0:0:
257,213,67859,1,0,0:0:0:0:
257,213,67922,1,0,0:0:0:0:
222,228,68050,1,8,0:0:0:0:
222,228,68177,1,0,0:0:0:0:
222,228,68304,1,8,0:0:0:0:
222,228,68367,1,8,0:0:0:0:
227,218,68431,1,0,0:0:0:0:
204,190,68558,1,0,0:0:0:0:
204,190,68685,1,8,0:0:0:0:
204,190,68812,1,0,0:0:0:0:
204,190,68939,1,8,0:0:0:0:
204,190,69003,1,8,0:0:0:0:
204,190,69067,1,8,0:0:0:0:
320,232,69321,1,8,0:0:0:0:
313,259,69448,1,0,0:0:0:0:
313,259,69575,1,0,0:0:0:0:
313,259,69702,1,8,0:0:0:0:
242,219,69829,1,0,0:0:0:0:
248,210,69893,1,0,0:0:0:0:
248,210,69956,1,8,0:0:0:0:
237,204,70083,1,0,0:0:0:0:
237,204,70211,1,8,0:0:0:0:
177,254,70338,1,0,0:0:0:0:
201,242,70401,1,0,0:0:0:0:
177,254,70465,1,8,0:0:0:0:
177,254,70592,1,0,0:0:0:0:
200,251,70655,1,0,0:0:0:0:
177,254,70719,1,8,0:0:0:0:
206,163,70846,1,0,0:0:0:0:
206,163,70973,1,8,0:0:0:0:
206,163,71037,1,8,0:0:0:0:
206,163,71100,1,8,0:0:0:0:
206,163,71228,1,8,0:0:0:0:
219,233,71355,1,4,0:0:0:0:
224,131,71609,1,8,0:0:0:0:
224,131,71736,1,0,0:0:0:0:
224,131,71863,1,0,0:0:0:0:
217,113,71927,1,0,0:0:0:0:
237,202,71990,1,0,0:0:0:0:
289,157,72117,1,8,0:0:0:0:
230,175,72244,1,0,0:0:0:0:
172,273,72372,1,8,0:0:0:0:
172,273,72435,1,8,0:0:0:0:
171,260,72499,1,0,0:0:0:0:
237,202,72626,1,8,0:0:0:0:
237,202,72753,1,0,0:0:0:0:
315,182,72880,1,0,0:0:0:0:
237,202,73007,1,0,0:0:0:0:
198,175,73071,1,0,0:0:0:0:
220,219,73134,1,8,0:0:0:0:
235,259,73389,1,8,0:0:0:0:
235,259,73516,1,8,0:0:0:0:
235,259,73643,1,0,0:0:0:0:
235,259,73770,1,8,0:0:0:0:
249,100,73897,1,0,0:0:0:0:
249,100,74024,1,0,0:0:0:0:
249,100,74088,1,0,0:0:0:0:
249,100,74151,1,8,0:0:0:0:
254,138,74278,1,8,0:0:0:0:
258,212,74405,1,0,0:0:0:0:
232,185,74469,1,0,0:0:0:0:
226,170,74533,1,8,0:0:0:0:
194,260,74660,1,0,0:0:0:0:
194,260,74787,1,8,0:0:0:0:
223,166,74914,1,0,0:0:0:0:
267,160,75041,1,0,0:0:0:0:
267,160,75105,1,0,0:0:0:0:
249,146,75168,1,8,0:0:0:0:
268,150,75422,1,4,0:0:0:0:
257,213,75677,1,8,0:0:0:0:
257,213,75804,1,0,0:0:0:0:
257,213,75931,1,0,0:0:0:0:
257,213,75994,1,0,0:0:0:0:
257,213,76058,1,0,0:0:0:0:
222,228,76185,1,8,0:0:0:0:
222,228,76312,1,0,0:0:0:0:
150,141,76439,1,0,0:0:0:0:
150,141,76503,1,0,0:0:0:0:
150,141,76567,1,8,0:0:0:0:
310,168,76694,1,0,0:0:0:0:
310,168,76821,1,8,0:0:0:0:
299,230,76948,1,0,0:0:0:0:
243,134,77075,1,0,0:0:0:0:
243,134,77202,1,8,0:0:0:0:
243,134,77266,1,8,0:0:0:0:
243,134,77329,1,0,0:0:0:0:
222,118,77456,1,4,0:0:0:0:
222,118,77711,1,0,0:0:0:0:
222,118,77838,1,8,0:0:0:0:
169,180,77965,1,0,0:0:0:0:
169,180,78028,1,0,0:0:0:0:
169,180,78092,1,8,0:0:0:0:
189,179,78219,1,0,0:0:0:0:
189,179,78346,1,8,0:0:0:0:
189,176,78473,1,6,0:0:0:0:
358,227,78600,1,0,0:0:0:0:
358,227,78728,1,0,0:0:0:0:
189,176,78855,1,6,0:0:0:0:
189,176,79109,1,6,0:0:0:0:
252,217,79490,1,4,0:0:0:0:
230,233,79744,1,0,0:0:0:0:
230,233,79872,1,8,0:0:0:0:
230,233,79999,1,0,0:0:0:0:
230,233,80253,1,8,0:0:0:0:
230,233,80380,1,0,0:0:0:0:
230,233,80507,1,0,0:0:0:0:
230,233,80571,1,0,0:0:0:0:
230,233,80634,1,0,0:0:0:0:
230,233,80761,1,8,0:0:0:0:
230,233,80889,1,0,0:0:0:0:
230,233,81016,1,8,0:0:0:0:
248,187,81270,1,8,0:0:0:0:
248,187,81397,1,0,0:0:0:0:
248,187,81524,1,0,0:0:0:0:
248,187,81778,1,0,0:0:0:0:
248,187,81905,1,0,0:0:0:0:
248,187,82033,1,8,0:0:0:0:
236,163,82287,1,8,0:0:0:0:
236,163,82414,1,0,0:0:0:0:
236,163,82541,1,8,0:0:0:0:
196,257,82795,1,8,0:0:0:0:
196,257,83050,1,8,0:0:0:0:
196,257,83177,1,8,0:0:0:0:
189,256,83240,1,8,0:0:0:0:
187,252,83304,1,8,0:0:0:0:
143,192,83558,1,4,0:0:0:0:
172,178,83812,1,8,0:0:0:0:
236,225,84067,1,0,0:0:0:0:
236,225,84321,1,8,0:0:0:0:
192,217,84448,1,0,0:0:0:0:
92,228,84575,1,0,0:0:0:0:
92,228,84702,1,0,0:0:0:0:
92,228,84766,1,0,0:0:0:0:
92,228,84829,1,0,0:0:0:0:
255,253,84956,1,0,0:0:0:0:
255,253,85083,1,8,0:0:0:0:
255,253,85211,1,8,0:0:0:0:
255,253,85338,1,0,0:0:0:0:
232,216,85592,1,6,0:0:0:0:
224,220,85846,1,6,0:0:0:0:
232,216,86100,1,6,0:0:0:0:
232,216,86355,1,6,0:0:0:0:
232,216,86609,1,6,0:0:0:0:
201,203,87626,1,4,0:0:0:0:
222,241,87880,1,8,0:0:0:0:
222,241,88007,1,0,0:0:0:0:
222,241,88134,1,0,0:0:0:0:
216,251,88198,1,0,0:0:0:0:
216,251,88261,1,0,0:0:0:0:
167,249,88389,1,8,0:0:0:0:
167,249,88516,1,0,0:0:0:0:
167,249,88770,1,0,0:0:0:0:
167,249,88897,1,8,0:0:0:0:
167,249,89024,1,8,0:0:0:0:
167,249,89278,1,0,0:0:0:0:
167,249,89342,1,0,0:0:0:0:
167,249,89405,1,8,0:0:0:0:
167,249,89533,1,0,0:0:0:0:
167,249,89660,1,8,0:0:0:0:
164,216,89787,1,0,0:0:0:0:
299,147,89914,1,8,0:0:0:0:
156,206,90041,1,8,0:0:0:0:
154,208,90168,1,8,0:0:0:0:
152,208,90232,1,8,0:0:0:0:
150,208,90295,1,0,0:0:0:0:
299,147,90422,1,8,0:0:0:0:
150,208,90550,1,0,0:0:0:0:
220,213,90804,1,0,0:0:0:0:
220,213,90867,1,0,0:0:0:0:
220,213,90931,1,8,0:0:0:0:
221,202,91058,1,0,0:0:0:0:
221,202,91185,1,8,0:0:0:0:
221,202,91312,1,0,0:0:0:0:
221,202,91376,1,0,0:0:0:0:
221,202,91439,1,8,0:0:0:0:
221,192,91694,1,8,0:0:0:0:
221,192,91821,1,8,0:0:0:0:
221,192,91948,1,0,0:0:0:0:
221,192,92075,1,8,0:0:0:0:
191,206,92202,1,0,0:0:0:0:
191,206,92266,1,0,0:0:0:0:
191,206,92329,1,0,0:0:0:0:
191,206,92456,1,8,0:0:0:0:
191,206,92583,1,8,0:0:0:0:
191,206,92711,1,0,0:0:0:0:
173,206,92838,1,8,0:0:0:0:
167,206,92901,1,8,0:0:0:0:
150,208,92965,1,0,0:0:0:0:
164,231,93092,1,8,0:0:0:0:
253,222,93346,1,0,0:0:0:0:
253,222,93410,1,0,0:0:0:0:
253,222,93473,1,8,0:0:0:0:
253,222,93600,1,0,0:0:0:0:
253,222,93728,1,8,0:0:0:0:
253,222,93855,1,0,0:0:0:0:
253,222,93982,1,8,0:0:0:0:
253,222,94109,1,0,0:0:0:0:
231,243,94363,1,0,0:0:0:0:
231,243,94490,1,8,0:0:0:0:
231,243,94617,1,0,0:0:0:0:
231,243,94744,1,0,0:0:0:0:
231,243,94808,1,0,0:0:0:0:
222,244,94872,1,0,0:0:0:0:
153,206,94999,1,8,0:0:0:0:
153,206,95126,1,8,0:0:0:0:
153,206,95253,1,0,0:0:0:0:
153,206,95380,1,0,0:0:0:0:
153,206,95444,1,0,0:0:0:0:
153,206,95507,1,8,0:0:0:0:
247,204,95634,1,0,0:0:0:0:
247,204,95761,1,4,0:0:0:0:
247,204,96016,1,8,0:0:0:0:
247,204,96143,1,0,0:0:0:0:
247,204,96270,1,0,0:0:0:0:
247,204,96333,1,0,0:0:0:0:
247,204,96397,1,8,0:0:0:0:
247,204,96524,1,0,0:0:0:0:
247,204,96651,1,8,0:0:0:0:
247,204,96905,1,8,0:0:0:0:
247,204,97033,1,0,0:0:0:0:
247,204,97160,1,8,0:0:0:0:
226,181,97414,1,8,0:0:0:0:
226,181,97541,1,8,0:0:0:0:
210,100,97795,1,8,0:0:0:0:
208,92,97880,1,8,0:0:0:0:
208,92,97965,1,8,0:0:0:0:
206,92,98050,1,8,0:0:0:0:
191,181,98304,1,0,0:0:0:0:
191,181,98389,1,0,0:0:0:0:
191,181,98473,1,0,0:0:0:0:
187,177,98558,1,0,0:0:0:0:
187,175,98812,1,8,0:0:0:0:
187,175,98897,1,8,0:0:0:0:
189,119,98982,1,8,0:0:0:0:
187,175,99067,1,8,0:0:0:0:
127,212,99321,1,0,0:0:0:0:
127,212,99384,1,0,0:0:0:0:
120,185,99448,1,8,0:0:0:0:
117,125,99575,1,0,0:0:0:0:
114,130,99702,1,8,0:0:0:0:
289,238,99829,1,4,0:0:0:0:
198,202,100083,1,8,0:0:0:0:
234,179,100211,1,0,0:0:0:0:
198,202,100338,1,0,0:0:0:0:
234,179,100401,1,0,0:0:0:0:
234,179,100465,1,0,0:0:0:0:
234,179,100592,1,8,0:0:0:0:
234,179,100719,1,8,0:0:0:0:
142,169,100846,1,0,0:0:0:0:
142,169,100910,1,0,0:0:0:0:
142,169,100973,1,8,0:0:0:0:
151,187,101100,1,8,0:0:0:0:
221,215,101228,1,0,0:0:0:0:
221,215,101355,1,0,0:0:0:0:
221,215,101482,1,8,0:0:0:0:
281,211,101736,1,8,0:0:0:0:
210,147,101863,1,4,0:0:0:0:
122,246,101990,1,8,0:0:0:0:
210,147,102117,1,0,0:0:0:0:
210,147,102244,1,8,0:0:0:0:
210,147,102372,1,0,0:0:0:0:
210,147,102499,1,8,0:0:0:0:
137,187,102626,1,8,0:0:0:0:
137,187,102689,1,8,0:0:0:0:
143,187,102753,1,0,0:0:0:0:
158,193,102880,1,6,0:0:0:0:
202,195,103007,1,0,0:0:0:0:
202,195,103134,1,0,0:0:0:0:
202,195,103261,1,6,0:0:0:0:
202,195,103516,1,6,0:0:0:0:
242,227,103897,1,4,0:0:0:0:
198,232,104151,1,8,0:0:0:0:
198,232,104278,1,0,0:0:0:0:
198,232,104405,1,0,0:0:0:0:
142,184,104469,1,0,0:0:0:0:
142,184,104533,1,0,0:0:0:0:
142,184,104660,1,8,0:0:0:0:
142,184,104787,1,0,0:0:0:0:
142,184,105041,1,0,0:0:0:0:
142,184,105168,1,8,0:0:0:0:
240,167,105422,1,0,0:0:0:0:
240,167,105550,1,0,0:0:0:0:
240,167,105677,1,8,0:0:0:0:
136,219,105931,1,0,0:0:0:0:
214,241,106058,1,0,0:0:0:0:
214,241,106185,1,8,0:0:0:0:
111,176,106312,1,8,0:0:0:0:
111,176,106376,1,8,0:0:0:0:
114,166,106439,1,0,0:0:0:0:
302,183,106567,1,0,0:0:0:0:
302,183,106694,1,8,0:0:0:0:
330,216,106948,1,0,0:0:0:0:
330,216,107075,1,0,0:0:0:0:
330,216,107202,1,8,0:0:0:0:
308,206,107329,1,8,0:0:0:0:
308,206,107456,1,0,0:0:0:0:
308,206,107520,1,0,0:0:0:0:
306,206,107583,1,0,0:0:0:0:
292,190,107711,1,8,0:0:0:0:
292,190,107838,1,8,0:0:0:0:
292,190,107965,1,0,0:0:0:0:
297,173,108219,1,8,0:0:0:0:
297,173,108346,1,0,0:0:0:0:
297,173,108473,1,8,0:0:0:0:
297,173,108537,1,8,0:0:0:0:
297,173,108600,1,8,0:0:0:0:
297,173,108728,1,0,0:0:0:0:
297,173,108855,1,8,0:0:0:0:
211,146,109109,1,0,0:0:0:0:
211,146,109236,1,8,0:0:0:0:
211,146,109490,1,0,0:0:0:0:
211,146,109617,1,0,0:0:0:0:
211,146,109744,1,8,0:0:0:0:
183,200,109999,1,8,0:0:0:0:
183,200,110126,1,0,0:0:0:0:
183,200,110253,1,8,0:0:0:0:
183,200,110380,1,0,0:0:0:0:
183,200,110507,1,8,0:0:0:0:
183,200,110571,1,8,0:0:0:0:
183,200,110634,1,0,0:0:0:0:
190,196,110761,1,8,0:0:0:0:
190,196,110889,1,0,0:0:0:0:
190,196,111016,1,8,0:0:0:0:
190,196,111143,1,0,0:0:0:0:
190,196,111206,1,0,0:0:0:0:
190,196,111270,1,8,0:0:0:0:
190,196,111397,1,0,0:0:0:0:
190,196,111524,1,8,0:0:0:0:
190,196,111778,1,8,0:0:0:0:
190,196,111905,1,0,0:0:0:0:
190,196,112033,1,4,0:0:0:0:
198,232,112287,1,8,0:0:0:0:
198,232,112414,1,0,0:0:0:0:
198,232,112541,1,0,0:0:0:0:
142,184,112605,1,0,0:0:0:0:
142,184,112668,1,0,0:0:0:0:
142,184,112795,1,8,0:0:0:0:
142,184,112922,1,0,0:0:0:0:
142,184,113177,1,0,0:0:0:0:
142,184,113304,1,8,0:0:0:0:
240,167,113558,1,0,0:0:0:0:
240,167,113685,1,0,0:0:0:0:
240,167,113812,1,8,0:0:0:0:
136,219,114067,1,0,0:0:0:0:
214,241,114194,1,0,0:0:0:0:
214,241,114321,1,8,0:0:0:0:
111,176,114448,1,8,0:0:0:0:
111,176,114511,1,8,0:0:0:0:
114,166,114575,1,0,0:0:0:0:
302,183,114702,1,0,0:0:0:0:
302,183,114829,1,8,0:0:0:0:
330,216,115083,1,0,0:0:0:0:
330,216,115211,1,0,0:0:0:0:
330,216,115338,1,8,0:0:0:0:
308,206,115465,1,8,0:0:0:0:
308,206,115592,1,0,0:0:0:0:
308,206,115655,1,0,0:0:0:0:
306,206,115719,1,0,0:0:0:0:
292,190,115846,1,8,0:0:0:0:
292,190,115973,1,8,0:0:0:0:
292,190,116100,1,0,0:0:0:0:
297,173,116355,1,8,0:0:0:0:
297,173,116482,1,0,0:0:0:0:
297,173,116609,1,8,0:0:0:0:
297,173,116672,1,8,0:0:0:0:
297,173,116736,1,8,0:0:0:0:
297,173,116863,1,0,0:0:0:0:
297,173,116990,1,8,0:0:0:0:
211,146,117244,1,0,0:0:0:0:
211,146,117372,1,8,0:0:0:0:
211,146,117626,1,0,0:0:0:0:
211,146,117753,1,0,0:0:0:0:
211,146,117880,1,8,0:0:0:0:
183,200,118134,1,8,0:0:0:0:
183,200,118261,1,0,0:0:0:0:
183,200,118389,1,8,0:0:0:0:
183,200,118516,1,0,0:0:0:0:
183,200,118643,1,8,0:0:0:0:
183,200,118706,1,8,0:0:0:0:
183,200,118770,1,0,0:0:0:0:
190,196,118897,1,8,0:0:0:0:
190,196,119024,1,0,0:0:0:0:
190,196,119151,1,8,0:0:0:0:
190,196,119278,1,0,0:0:0:0:
190,196,119342,1,0,0:0:0:0:
190,196,119405,1,8,0:0:0:0:
190,196,119533,1,0,0:0:0:0:
190,196,119660,1,8,0:0:0:0:
115,251,119914,1,0,0:0:0:0:
190,196,120168,1,4,0:0:0:0:
200,137,120422,1,8,0:0:0:0:
223,248,120677,1,0,0:0:0:0:
205,190,120804,1,0,0:0:0:0:
253,109,120931,1,8,0:0:0:0:
253,109,121185,1,8,0:0:0:0:
253,109,121312,1,8,0:0:0:0:
253,109,121439,1,0,0:0:0:0:
203,109,121567,1,8,0:0:0:0:
229,211,121694,1,0,0:0:0:0:
229,211,121821,1,0,0:0:0:0:
137,244,121884,1,0,0:0:0:0:
229,211,121948,1,8,0:0:0:0:
302,252,122202,1,0,0:0:0:0:
314,199,122456,1,8,0:0:0:0:
314,199,122541,1,8,0:0:0:0:
314,199,122626,1,8,0:0:0:0:
314,199,122711,1,8,0:0:0:0:
188,117,122965,1,0,0:0:0:0:
271,194,123050,1,0,0:0:0:0:
188,117,123134,1,0,0:0:0:0:
188,117,123219,1,0,0:0:0:0:
229,202,123473,1,6,0:0:0:0:
229,202,123728,1,6,0:0:0:0:
218,272,124236,1,0,0:0:0:0:
218,272,124490,1,8,0:0:0:0:
218,272,124744,1,0,0:0:0:0:
218,272,124872,1,0,0:0:0:0:
218,272,124999,1,8,0:0:0:0:
146,203,125253,1,8,0:0:0:0:
146,203,125380,1,0,0:0:0:0:
146,203,125507,1,8,0:0:0:0:
146,203,125634,1,0,0:0:0:0:
146,203,125761,1,8,0:0:0:0:
146,203,125825,1,8,0:0:0:0:
146,203,125889,1,0,0:0:0:0:
206,231,126016,1,8,0:0:0:0:
206,231,126143,1,0,0:0:0:0:
206,231,126270,1,0,0:0:0:0:
370,179,126524,1,0,0:0:0:0:
370,179,126609,1,0,0:0:0:0:
370,179,126694,1,0,0:0:0:0:
370,179,126778,1,0,0:0:0:0:
227,178,127033,1,8,0:0:0:0:
227,178,127160,1,8,0:0:0:0:
227,178,127287,1,4,0:0:0:0:
203,205,128050,1,8,0:0:0:0:
203,205,128177,1,0,0:0:0:0:
203,205,128304,1,8,0:0:0:0:
258,139,128558,1,8,0:0:0:0:
258,139,128685,1,8,0:0:0:0:
258,139,128939,1,8,0:0:0:0:
258,139,129194,1,8,0:0:0:0:
258,139,129448,1,8,0:0:0:0:
305,225,129575,1,0,0:0:0:0:
277,173,129702,1,0,0:0:0:0:
219,181,129829,1,8,0:0:0:0:
219,181,129956,1,8,0:0:0:0:
219,181,130083,1,0,0:0:0:0:
219,181,130211,1,8,0:0:0:0:
141,209,130338,1,4,0:0:0:0:
141,209,130592,1,8,0:0:0:0:
141,209,130719,1,8,0:0:0:0:
214,227,130973,1,8,0:0:0:0:
214,227,131228,1,8,0:0:0:0:
303,199,131355,1,0,0:0:0:0:
303,199,131482,1,8,0:0:0:0:
303,199,131736,1,8,0:0:0:0:
303,199,131990,1,8,0:0:0:0:
328,224,132117,1,0,0:0:0:0:
253,194,132372,1,6,0:0:0:0:
374,216,132626,1,0,0:0:0:0:
253,194,132753,1,6,0:0:0:0:
374,216,133007,1,0,0:0:0:0:
253,194,133134,1,6,0:0:0:0:
374,216,133389,1,0,0:0:0:0:
253,194,133516,1,6,0:0:0:0:
374,216,133770,1,0,0:0:0:0:
253,194,133897,1,6,0:0:0:0:
266,229,134151,1,0,0:0:0:0:
253,194,134405,1,6,0:0:0:0:
374,216,134660,1,0,0:0:0:0:
253,194,134787,1,6,0:0:0:0:
374,216,135041,1,0,0:0:0:0:
253,194,135168,1,6,0:0:0:0:
251,233,135422,1,4,0:0:0:0:
221,225,136439,1,4,0:0:0:0:
226,123,136694,1,8,0:0:0:0:
226,123,136821,1,0,0:0:0:0:
226,123,136948,1,0,0:0:0:0:
219,105,137011,1,0,0:0:0:0:
239,194,137075,1,0,0:0:0:0:
291,149,137202,1,8,0:0:0:0:
232,167,137329,1,0,0:0:0:0:
174,265,137456,1,8,0:0:0:0:
174,265,137520,1,8,0:0:0:0:
173,252,137583,1,0,0:0:0:0:
239,194,137711,1,8,0:0:0:0:
239,194,137838,1,0,0:0:0:0:
317,174,137965,1,0,0:0:0:0:
239,194,138092,1,0,0:0:0:0:
200,167,138155,1,0,0:0:0:0:
222,211,138219,1,8,0:0:0:0:
237,251,138473,1,8,0:0:0:0:
237,251,138600,1,8,0:0:0:0:
237,251,138728,1,0,0:0:0:0:
237,251,138855,1,8,0:0:0:0:
251,92,138982,1,0,0:0:0:0:
251,92,139109,1,0,0:0:0:0:
251,92,139172,1,0,0:0:0:0:
251,92,139236,1,8,0:0:0:0:
256,130,139363,1,8,0:0:0:0:
260,204,139490,1,0,0:0:0:0:
234,177,139554,1,0,0:0:0:0:
228,162,139617,1,8,0:0:0:0:
196,252,139744,1,0,0:0:0:0:
196,252,139872,1,8,0:0:0:0:
225,158,139999,1,0,0:0:0:0:
269,152,140126,1,0,0:0:0:0:
269,152,140189,1,0,0:0:0:0:
251,138,140253,1,8,0:0:0:0:
270,142,140507,1,4,0:0:0:0:
259,205,140761,1,8,0:0:0:0:
259,205,140889,1,0,0:0:0:0:
259,205,141016,1,0,0:0:0:0:
259,205,141079,1,0,0:0:0:0:
259,205,141143,1,0,0:0:0:0:
224,220,141270,1,8,0:0:0:0:
224,220,141397,1,0,0:0:0:0:
224,220,141524,1,8,0:0:0:0:
224,220,141588,1,8,0:0:0:0:
229,210,141651,1,0,0:0:0:0:
206,182,141778,1,0,0:0:0:0:
206,182,141905,1,8,0:0:0:0:
206,182,142033,1,0,0:0:0:0:
206,182,142160,1,8,0:0:0:0:
206,182,142223,1,8,0:0:0:0:
206,182,142287,1,8,0:0:0:0:
322,224,142541,1,8,0:0:0:0:
315,251,142668,1,0,0:0:0:0:
315,251,142795,1,0,0:0:0:0:
315,251,142922,1,8,0:0:0:0:
244,211,143050,1,0,0:0:0:0:
250,202,143113,1,0,0:0:0:0:
250,202,143177,1,8,0:0:0:0:
239,196,143304,1,0,0:0:0:0:
239,196,143431,1,8,0:0:0:0:
179,246,143558,1,0,0:0:0:0:
203,234,143622,1,0,0:0:0:0:
179,246,143685,1,8,0:0:0:0:
179,246,143812,1,0,0:0:0:0:
202,243,143876,1,0,0:0:0:0:
179,246,143939,1,8,0:0:0:0:
208,155,144067,1,0,0:0:0:0:
208,155,144194,1,8,0:0:0:0:
208,155,144257,1,8,0:0:0:0:
208,155,144321,1,8,0:0:0:0:
208,155,144448,1,8,0:0:0:0:
221,225,144575,1,4,0:0:0:0:
226,123,144829,1,8,0:0:0:0:
226,123,144956,1,0,0:0:0:0:
226,123,145083,1,0,0:0:0:0:
219,105,145147,1,0,0:0:0:0:
239,194,145211,1,0,0:0:0:0:
291,149,145338,1,8,0:0:0:0:
232,167,145465,1,0,0:0:0:0:
174,265,145592,1,8,0:0:0:0:
174,265,145655,1,8,0:0:0:0:
173,252,145719,1,0,0:0:0:0:
239,194,145846,1,8,0:0:0:0:
239,194,145973,1,0,0:0:0:0:
317,174,146100,1,0,0:0:0:0:
239,194,146228,1,0,0:0:0:0:
200,167,146291,1,0,0:0:0:0:
222,211,146355,1,8,0:0:0:0:
237,251,146609,1,8,0:0:0:0:
237,251,146736,1,8,0:0:0:0:
237,251,146863,1,0,0:0:0:0:
237,251,146990,1,8,0:0:0:0:
251,92,147117,1,0,0:0:0:0:
251,92,147244,1,0,0:0:0:0:
251,92,147308,1,0,0:0:0:0:
251,92,147372,1,8,0:0:0:0:
256,130,147499,1,8,0:0:0:0:
260,204,147626,1,0,0:0:0:0:
234,177,147689,1,0,0:0:0:0:
228,162,147753,1,8,0:0:0:0:
196,252,147880,1,0,0:0:0:0:
196,252,148007,1,8,0:0:0:0:
225,158,148134,1,0,0:0:0:0:
269,152,148261,1,0,0:0:0:0:
269,152,148325,1,0,0:0:0:0:
251,138,148389,1,8,0:0:0:0:
270,142,148643,1,4,0:0:0:0:
259,205,148897,1,8,0:0:0:0:
259,205,149024,1,0,0:0:0:0:
259,205,149151,1,0,0:0:0:0:
259,205,149215,1,0,0:0:0:0:
259,205,149278,1,0,0:0:0:0:
224,220,149405,1,8,0:0:0:0:
224,220,149533,1,0,0:0:0:0:
152,133,149660,1,0,0:0:0:0:
152,133,149723,1,0,0:0:0:0:
152,133,149787,1,8,0:0:0:0:
312,160,149914,1,0,0:0:0:0:
312,160,150041,1,8,0:0:0:0:
301,222,150168,1,0,0:0:0:0:
245,126,150295,1,0,0:0:0:0:
245,126,150422,1,8,0:0:0:0:
245,126,150486,1,8,0:0:0:0:
245,126,150550,1,0,0:0:0:0:
224,110,150677,1,4,0:0:0:0:
224,110,150931,1,8,0:0:0:0:
171,172,151185,1,0,0:0:0:0:
171,172,151312,1,8,0:0:0:0:
258,225,151439,1,8,0:0:0:0:
258,225,151567,1,0,0:0:0:0:
258,225,151821,1,0,0:0:0:0:
251,228,151948,1,8,0:0:0:0:
251,228,152075,1,0,0:0:0:0:
251,228,152202,1,8,0:0:0:0:
249,230,152329,1,8,0:0:0:0:
251,228,152393,1,8,0:0:0:0:
249,230,152456,1,8,0:0:0:0:
298,284,152583,1,8,0:0:0:0:
311,239,152711,1,4,0:0:0:0:
283,253,152965,1,8,0:0:0:0:
283,253,153092,1,0,0:0:0:0:
283,253,153219,1,8,0:0:0:0:
205,218,153346,1,0,0:0:0:0:
205,218,153473,1,8,0:0:0:0:
205,218,153600,1,0,0:0:0:0:
174,166,153728,1,8,0:0:0:0:
174,166,153855,1,0,0:0:0:0:
174,166,153918,1,0,0:0:0:0:
174,166,153982,1,8,0:0:0:0:
180,160,154109,1,8,0:0:0:0:
180,160,154236,1,0,0:0:0:0:
180,160,154363,1,0,0:0:0:0:
124,181,154490,1,8,0:0:0:0:
211,150,154744,1,8,0:0:0:0:
194,229,154872,1,8,0:0:0:0:
194,229,154999,1,0,0:0:0:0:
194,229,155126,1,8,0:0:0:0:
194,229,155253,1,0,0:0:0:0:
194,229,155317,1,0,0:0:0:0:
194,229,155380,1,0,0:0:0:0:
194,229,155507,1,8,0:0:0:0:
194,229,155634,1,0,0:0:0:0:
194,229,155761,1,8,0:0:0:0:
201,177,155889,1,0,0:0:0:0:
201,177,155952,1,0,0:0:0:0:
194,229,156016,1,8,0:0:0:0:
257,275,156143,1,8,0:0:0:0:
257,275,156270,1,0,0:0:0:0:
178,189,156397,1,0,0:0:0:0:
178,189,156524,1,8,0:0:0:0:
323,203,156778,1,4,0:0:0:0:
284,210,157033,1,8,0:0:0:0:
284,210,157160,1,0,0:0:0:0:
284,210,157287,1,0,0:0:0:0:
211,150,157350,1,0,0:0:0:0:
284,210,157414,1,8,0:0:0:0:
211,150,157541,1,8,0:0:0:0:
211,150,157668,1,0,0:0:0:0:
211,150,157795,1,8,0:0:0:0:
211,150,157922,1,0,0:0:0:0:
211,150,157986,1,0,0:0:0:0:
211,150,158050,1,8,0:0:0:0:
211,150,158177,1,8,0:0:0:0:
211,150,158304,1,0,0:0:0:0:
211,150,158431,1,0,0:0:0:0:
211,150,158558,1,8,0:0:0:0:
211,150,158812,1,8,0:0:0:0:
211,150,158939,1,8,0:0:0:0:
211,150,159067,1,0,0:0:0:0:
211,150,159194,1,8,0:0:0:0:
211,150,159321,1,0,0:0:0:0:
211,150,159384,1,0,0:0:0:0:
211,150,159448,1,8,0:0:0:0:
180,175,159575,1,8,0:0:0:0:
180,175,159702,1,0,0:0:0:0:
221,176,159829,1,8,0:0:0:0:
221,176,159956,1,0,0:0:0:0:
221,176,160020,1,0,0:0:0:0:
221,176,160083,1,0,0:0:0:0:
221,176,160211,1,8,0:0:0:0:
221,176,160338,1,0,0:0:0:0:
221,170,160465,1,8,0:0:0:0:
221,170,160528,1,8,0:0:0:0:
221,176,160592,1,8,0:0:0:0:
221,169,160846,1,4,0:0:0:0:
221,169,161100,1,8,0:0:0:0:
221,169,161228,1,0,0:0:0:0:
221,169,161355,1,8,0:0:0:0:
280,204,161482,1,0,0:0:0:0:
280,204,161545,1,0,0:0:0:0:
221,169,161609,1,8,0:0:0:0:
280,204,161736,1,8,0:0:0:0:
214,162,161863,1,0,0:0:0:0:
214,162,161990,1,0,0:0:0:0:
214,162,162054,1,0,0:0:0:0:
214,162,162117,1,8,0:0:0:0:
214,162,162244,1,8,0:0:0:0:
214,162,162499,1,0,0:0:0:0:
214,162,162626,1,8,0:0:0:0:
343,165,162880,1,8,0:0:0:0:
343,165,163007,1,8,0:0:0:0:
225,169,163134,1,0,0:0:0:0:
225,169,163261,1,8,0:0:0:0:
225,169,163389,1,0,0:0:0:0:
221,171,163452,1,0,0:0:0:0:
221,171,163516,1,8,0:0:0:0:
208,197,163643,1,0,0:0:0:0:
208,197,163770,1,8,0:0:0:0:
208,197,163897,1,0,0:0:0:0:
208,197,164024,1,8,0:0:0:0:
208,197,164088,1,8,0:0:0:0:
208,197,164151,1,8,0:0:0:0:
208,197,164278,1,8,0:0:0:0:
208,197,164405,1,0,0:0:0:0:
208,197,164533,1,0,0:0:0:0:
208,197,164660,1,8,0:0:0:0:
208,197,164914,1,4,0:0:0:0:
290,142,165168,1,8,0:0:0:0:
290,142,165295,1,0,0:0:0:0:
290,142,165359,1,0,0:0:0:0:
290,142,165422,1,8,0:0:0:0:
237,165,165550,1,8,0:0:0:0:
237,165,165677,1,0,0:0:0:0:
237,165,165804,1,8,0:0:0:0:
198,179,165931,1,0,0:0:0:0:
154,161,166058,1,0,0:0:0:0:
154,161,166185,1,8,0:0:0:0:
198,179,166312,1,0,0:0:0:0:
198,179,166376,1,0,0:0:0:0:
193,175,166439,1,8,0:0:0:0:
192,167,166567,1,0,0:0:0:0:
192,167,166694,1,8,0:0:0:0:
192,161,166948,1,4,0:0:0:0:
192,161,167202,1,8,0:0:0:0:
192,161,167329,1,0,0:0:0:0:
192,161,167456,1,8,0:0:0:0:
181,161,167520,1,8,0:0:0:0:
181,161,167583,1,0,0:0:0:0:
231,163,167711,1,8,0:0:0:0:
231,163,167838,1,0,0:0:0:0:
231,163,167965,1,6,0:0:0:0:
231,163,168092,1,0,0:0:0:0:
231,163,168219,1,0,0:0:0:0:
231,163,168346,1,6,0:0:0:0:
231,163,168600,1,6,0:0:0:0:
231,163,168982,1,4,0:0:0:0:
320,181,169236,1,8,0:0:0:0:
320,181,169490,1,0,0:0:0:0:
320,181,169617,1,0,0:0:0:0:
264,177,169744,1,8,0:0:0:0:
198,177,169999,1,0,0:0:0:0:
198,177,170126,1,0,0:0:0:0:
198,177,170189,1,0,0:0:0:0:
198,177,170253,1,8,0:0:0:0:
198,177,170380,1,0,0:0:0:0:
198,177,170507,1,8,0:0:0:0:
198,177,170634,1,0,0:0:0:0:
202,175,170761,1,0,0:0:0:0:
202,175,170825,1,0,0:0:0:0:
202,175,170889,1,8,0:0:0:0:
163,204,171016,1,8,0:0:0:0:
163,204,171270,1,0,0:0:0:0:
208,233,171524,1,8,0:0:0:0:
208,233,171651,1,8,0:0:0:0:
208,233,171778,1,0,0:0:0:0:
208,233,171905,1,8,0:0:0:0:
208,233,172033,1,0,0:0:0:0:
208,233,172160,1,8,0:0:0:0:
201,184,172287,1,0,0:0:0:0:
201,184,172350,1,0,0:0:0:0:
314,268,172414,1,0,0:0:0:0:
314,268,172478,1,0,0:0:0:0:
201,184,172541,1,0,0:0:0:0:
211,179,172668,1,0,0:0:0:0:
211,179,172795,1,8,0:0:0:0:
274,157,173050,1,4,0:0:0:0:
274,157,173304,1,8,0:0:0:0:
140,167,173558,1,0,0:0:0:0:
140,167,173685,1,0,0:0:0:0:
140,167,173812,1,8,0:0:0:0:
140,167,174067,1,8,0:0:0:0:
140,167,174194,1,0,0:0:0:0:
179,248,174321,1,8,0:0:0:0:
179,248,174448,1,0,0:0:0:0:
179,248,174575,1,0,0:0:0:0:
179,248,174639,1,0,0:0:0:0:
179,248,174702,1,0,0:0:0:0:
179,248,174829,1,8,0:0:0:0:
179,248,174956,1,0,0:0:0:0:
179,248,175083,1,6,0:0:0:0:
179,248,175338,1,6,0:0:0:0:
179,248,175592,1,6,0:0:0:0:
179,248,175846,1,6,0:0:0:0:
179,248,176100,1,6,0:0:0:0:
252,226,177117,1,0,0:0:0:0:
252,226,177181,1,0,0:0:0:0:
252,226,177244,1,0,0:0:0:0:
257,220,177372,1,8,0:0:0:0:
257,220,177499,1,0,0:0:0:0:
190,217,177626,1,8,0:0:0:0:
190,217,177689,1,8,0:0:0:0:
190,217,177753,1,0,0:0:0:0:
196,211,177880,1,8,0:0:0:0:
196,211,178007,1,0,0:0:0:0:
129,207,178134,1,0,0:0:0:0:
129,207,178261,1,0,0:0:0:0:
124,207,178325,1,0,0:0:0:0:
122,207,178389,1,8,0:0:0:0:
172,220,178516,1,0,0:0:0:0:
172,220,178643,1,8,0:0:0:0:
172,220,178770,1,8,0:0:0:0:
172,220,178897,1,0,0:0:0:0:
172,220,179024,1,0,0:0:0:0:
172,220,179151,1,6,0:0:0:0:
172,220,179405,1,6,0:0:0:0:
172,220,179660,1,6,0:0:0:0:
172,220,179914,1,6,0:0:0:0:
172,220,180168,1,6,0:0:0:0:
182,195,181185,1,6,0:0:0:0:
182,195,181439,1,6,0:0:0:0:
182,195,181694,1,6,0:0:0:0:
182,195,181948,1,6,0:0:0:0:
182,195,182202,1,6,0:0:0:0:
182,195,183219,1,6,0:0:0:0:
182,195,183473,1,6,0:0:0:0:
182,195,183728,1,6,0:0:0:0:
182,195,183982,1,6,0:0:0:0:
182,195,184236,1,6,0:0:0:0:
230,180,185253,1,4,0:0:0:0:
230,180,185507,1,8,0:0:0:0:
230,180,185634,1,8,0:0:0:0:
376,271,185761,1,0,0:0:0:0:
284,182,186016,1,8,0:0:0:0:
230,180,186143,1,8,0:0:0:0:
195,153,186397,1,0,0:0:0:0:
284,182,186524,1,8,0:0:0:0:
284,182,186778,1,8,0:0:0:0:
284,182,187033,1,8,0:0:0:0:
284,182,187160,1,0,0:0:0:0:
284,182,187287,1,8,0:0:0:0:
269,133,187541,1,0,0:0:0:0:
376,271,187668,1,0,0:0:0:0:
376,271,187795,1,8,0:0:0:0:
269,133,188050,1,0,0:0:0:0:
376,271,188177,1,8,0:0:0:0:
241,259,188431,1,8,0:0:0:0:
284,298,188558,1,0,0:0:0:0:
284,298,188812,1,8,0:0:0:0:
284,298,189067,1,8,0:0:0:0:
284,298,189194,1,0,0:0:0:0:
284,298,189321,1,8,0:0:0:0:
265,215,189575,1,0,0:0:0:0:
265,215,189702,1,0,0:0:0:0:
265,215,189829,1,8,0:0:0:0:
265,215,190083,1,0,0:0:0:0:
265,215,190211,1,8,0:0:0:0:
265,215,190465,1,8,0:0:0:0:
160,216,190592,1,0,0:0:0:0:
265,215,190846,1,8,0:0:0:0:
265,215,191100,1,8,0:0:0:0:
242,228,191228,1,0,0:0:0:0:
242,228,191355,1,8,0:0:0:0:
294,184,191609,1,0,0:0:0:0:
294,184,191736,1,8,0:0:0:0:
294,184,191863,1,8,0:0:0:0:
241,158,192117,1,0,0:0:0:0:
241,158,192244,1,8,0:0:0:0:
298,156,192499,1,8,0:0:0:0:
298,156,192626,1,0,0:0:0:0:
304,156,192880,1,8,0:0:0:0:
327,160,193389,1,8,0:0:0:0:
280,224,193643,1,0,0:0:0:0:
280,224,193770,1,0,0:0:0:0:
280,224,193897,1,8,0:0:0:0:
277,207,194151,1,0,0:0:0:0:
277,207,194278,1,8,0:0:0:0:
269,187,194533,1,8,0:0:0:0:
269,187,194660,1,0,0:0:0:0:
269,187,194914,1,8,0:0:0:0:
269,187,195168,1,8,0:0:0:0:
269,187,195295,1,0,0:0:0:0:
269,187,195422,1,0,0:0:0:0:
269,187,195677,1,0,0:0:0:0:
269,187,195804,1,0,0:0:0:0:
269,187,195931,1,8,0:0:0:0:
269,187,196185,1,0,0:0:0:0:
269,187,196312,1,8,0:0:0:0:
269,187,196567,1,0,0:0:0:0:
160,199,196694,1,0,0:0:0:0:
160,199,196948,1,8,0:0:0:0:
201,172,197202,1,8,0:0:0:0:
201,172,197329,1,0,0:0:0:0:
256,192,197456,8,0,202541,0:0:0:0:
