osu file format v14

[General]
AudioFilename: audio.mp3
AudioLeadIn: 0
PreviewTime: 62139
Countdown: 0
SampleSet: Normal
StackLeniency: 0.7
Mode: 1
LetterboxInBreaks: 0
WidescreenStoryboard: 1

[Editor]
DistanceSpacing: 1.5
BeatDivisor: 4
GridSize: 32
TimelineZoom: 1

[Metadata]
Title:Boot
TitleUnicode:ブート
Artist:paraoka feat. haru*nya
ArtistUnicode:paraoka feat. haru*nya
Creator:mintong89
Version:Muzukashii
Source:
Tags:麹町養蚕館 Koujimachi Yousankan リゾルヴ Resolve Pop Japanese
BeatmapID:2360834
BeatmapSetID:1115403

[Difficulty]
HPDrainRate:5.5
CircleSize:5
OverallDifficulty:4
ApproachRate:5
SliderMultiplier:1.4
SliderTickRate:1

[Events]
//Background and Video events
0,0,"Idoko.full.697440.jpg",0,5
//Break Periods
//Storyboard Layer 0 (Background)
//Storyboard Layer 1 (Fail)
//Storyboard Layer 2 (Pass)
//Storyboard Layer 3 (Foreground)
//Storyboard Layer 4 (Overlay)
//Storyboard Sound Samples

[TimingPoints]
890,625,4,1,0,25,1,0
13390,254.237288135593,4,1,0,75,1,0
14406,254.237288135593,4,1,0,75,1,0
54829,-133.333333333333,4,1,0,75,0,0
59151,-100,4,1,0,75,0,0
63219,-100,4,1,0,75,0,1
79490,-133.333333333333,4,1,0,75,0,1
85592,-100,4,1,0,75,0,1
87626,-100,4,1,0,75,0,0
128050,-133.333333333333,4,1,0,75,0,0
132372,-100,4,1,0,75,0,0
136439,-100,4,1,0,75,0,1
176100,-100,4,1,0,75,0,0
177117,-100,4,1,0,75,0,1
185253,-133.333333333333,4,1,0,75,0,0

[HitObjects]
202,197,890,5,0,0:0:0:0:
202,197,1827,1,0,0:0:0:0:
202,197,2140,1,8,0:0:0:0:
202,197,2765,1,8,0:0:0:0:
202,197,3077,1,0,0:0:0:0:
202,197,3390,1,8,0:0:0:0:
364,219,4327,1,8,0:0:0:0:
364,219,4640,1,0,0:0:0:0:
364,219,4952,1,8,0:0:0:0:
364,219,5265,1,0,0:0:0:0:
178,186,5890,2,0,B|525:232|525:232|373:232,1,490
256,192,8390,8,0,13077,0:0:0:0:
236,165,13390,5,8,0:0:0:0:
236,165,13644,1,8,0:0:0:0:
236,165,13898,1,8,0:0:0:0:
219,127,14152,1,8,0:0:0:0:
268,168,14279,1,8,0:0:0:0:
268,168,14406,1,4,0:0:0:0:
225,213,14660,1,8,0:0:0:0:
225,213,14914,1,0,0:0:0:0:
225,213,15041,1,0,0:0:0:0:
225,213,15168,1,8,0:0:0:0:
225,213,15295,1,0,0:0:0:0:
306,203,15550,1,0,0:0:0:0:
306,203,15677,1,8,0:0:0:0:
306,203,15804,1,0,0:0:0:0:
244,149,16058,1,0,0:0:0:0:
244,149,16185,1,8,0:0:0:0:
152,176,16439,1,8,0:0:0:0:
152,176,16694,1,0,0:0:0:0:
152,176,16948,1,8,0:0:0:0:
152,176,17075,1,8,0:0:0:0:
152,176,17202,1,0,0:0:0:0:
152,176,17329,1,8,0:0:0:0:
209,185,17583,1,0,0:0:0:0:
209,185,17711,1,8,0:0:0:0:
209,185,17965,1,8,0:0:0:0:
209,185,18219,1,8,0:0:0:0:
183,220,18473,1,4,0:0:0:0:
183,220,18728,1,8,0:0:0:0:
193,275,18982,1,0,0:0:0:0:
193,275,19109,1,0,0:0:0:0:
193,275,19236,1,8,0:0:0:0:
193,275,19363,1,0,0:0:0:0:
193,275,19617,1,0,0:0:0:0:
193,275,19744,1,8,0:0:0:0:
193,275,19872,1,0,0:0:0:0:
214,228,20126,1,0,0:0:0:0:
214,228,20253,1,8,0:0:0:0:
214,228,20507,1,0,0:0:0:0:
214,228,20761,1,8,0:0:0:0:
156,203,21016,1,0,0:0:0:0:
156,203,21143,1,0,0:0:0:0:
156,203,21270,1,8,0:0:0:0:
156,203,21397,1,8,0:0:0:0:
285,195,21778,1,8,0:0:0:0:
285,195,22033,1,8,0:0:0:0:
285,195,22160,1,8,0:0:0:0:
285,195,22223,1,8,0:0:0:0:
285,195,22287,1,8,0:0:0:0:
285,195,22414,1,8,0:0:0:0:
268,168,22541,1,4,0:0:0:0:
225,213,22795,1,8,0:0:0:0:
225,213,23050,1,0,0:0:0:0:
225,213,23177,1,0,0:0:0:0:
225,213,23304,1,8,0:0:0:0:
225,213,23431,1,0,0:0:0:0:
306,203,23685,1,0,0:0:0:0:
306,203,23812,1,8,0:0:0:0:
306,203,23939,1,0,0:0:0:0:
244,149,24194,1,0,0:0:0:0:
244,149,24321,1,8,0:0:0:0:
152,176,24575,1,8,0:0:0:0:
152,176,24829,1,0,0:0:0:0:
152,176,25083,1,8,0:0:0:0:
152,176,25211,1,8,0:0:0:0:
152,176,25338,1,0,0:0:0:0:
152,176,25465,1,8,0:0:0:0:
209,185,25719,1,0,0:0:0:0:
209,185,25846,1,8,0:0:0:0:
209,185,26100,1,8,0:0:0:0:
209,185,26355,1,8,0:0:0:0:
183,220,26609,1,4,0:0:0:0:
183,220,26863,1,8,0:0:0:0:
193,275,27117,1,0,0:0:0:0:
193,275,27244,1,0,0:0:0:0:
193,275,27372,1,8,0:0:0:0:
193,275,27499,1,0,0:0:0:0:
193,275,27753,1,0,0:0:0:0:
193,275,27880,1,8,0:0:0:0:
227,148,28007,1,8,0:0:0:0:
193,275,28134,1,0,0:0:0:0:
227,148,28261,1,8,0:0:0:0:
220,201,28643,1,4,0:0:0:0:
249,257,28770,1,8,0:0:0:0:
249,257,28897,1,0,0:0:0:0:
310,229,29024,1,8,0:0:0:0:
310,229,29151,1,0,0:0:0:0:
313,112,29278,1,8,0:0:0:0:
313,112,29405,1,0,0:0:0:0:
314,178,29660,1,6,0:0:0:0:
314,178,29787,1,0,0:0:0:0:
314,178,29914,1,0,0:0:0:0:
314,178,30041,1,6,0:0:0:0:
314,178,30295,1,6,0:0:0:0:
275,218,30677,1,4,0:0:0:0:
275,218,30931,1,8,0:0:0:0:
275,218,31185,1,0,0:0:0:0:
275,218,31312,1,0,0:0:0:0:
275,218,31439,1,8,0:0:0:0:
275,218,31567,1,0,0:0:0:0:
275,218,31821,1,0,0:0:0:0:
275,218,31948,1,8,0:0:0:0:
275,218,32202,1,0,0:0:0:0:
275,218,32329,1,0,0:0:0:0:
275,218,32456,1,8,0:0:0:0:
214,191,32711,1,0,0:0:0:0:
214,191,32965,1,8,0:0:0:0:
214,191,33219,1,0,0:0:0:0:
214,191,33473,1,8,0:0:0:0:
198,137,33728,1,0,0:0:0:0:
198,137,33855,1,0,0:0:0:0:
198,137,33982,1,8,0:0:0:0:
193,138,34109,1,8,0:0:0:0:
307,186,34236,1,0,0:0:0:0:
286,143,34744,1,0,0:0:0:0:
286,143,34999,1,8,0:0:0:0:
286,143,35253,1,0,0:0:0:0:
286,143,35380,1,0,0:0:0:0:
286,143,35507,1,8,0:0:0:0:
286,143,35634,1,8,0:0:0:0:
219,155,35889,1,0,0:0:0:0:
219,155,36016,1,8,0:0:0:0:
329,126,36270,1,8,0:0:0:0:
329,126,36397,1,0,0:0:0:0:
329,126,36524,1,8,0:0:0:0:
219,171,36778,1,8,0:0:0:0:
202,196,37033,1,0,0:0:0:0:
329,126,37287,1,8,0:0:0:0:
202,196,37541,1,0,0:0:0:0:
324,209,37795,1,8,0:0:0:0:
324,209,37922,1,0,0:0:0:0:
324,209,37986,1,0,0:0:0:0:
324,209,38050,1,0,0:0:0:0:
259,208,38177,1,8,0:0:0:0:
259,208,38304,1,0,0:0:0:0:
275,218,38812,1,4,0:0:0:0:
275,218,39067,1,8,0:0:0:0:
275,218,39321,1,0,0:0:0:0:
275,218,39448,1,0,0:0:0:0:
275,218,39575,1,8,0:0:0:0:
275,218,39702,1,0,0:0:0:0:
275,218,39956,1,0,0:0:0:0:
275,218,40083,1,8,0:0:0:0:
275,218,40338,1,0,0:0:0:0:
275,218,40465,1,0,0:0:0:0:
275,218,40592,1,8,0:0:0:0:
214,191,40846,1,0,0:0:0:0:
214,191,41100,1,8,0:0:0:0:
214,191,41355,1,0,0:0:0:0:
214,191,41609,1,8,0:0:0:0:
198,137,41863,1,0,0:0:0:0:
198,137,41990,1,0,0:0:0:0:
198,137,42117,1,8,0:0:0:0:
193,138,42244,1,8,0:0:0:0:
307,186,42372,1,0,0:0:0:0:
286,143,42880,1,0,0:0:0:0:
286,143,43134,1,8,0:0:0:0:
286,143,43389,1,0,0:0:0:0:
286,143,43516,1,0,0:0:0:0:
286,143,43643,1,8,0:0:0:0:
286,143,43770,1,8,0:0:0:0:
219,155,44024,1,0,0:0:0:0:
219,155,44151,1,8,0:0:0:0:
329,126,44405,1,8,0:0:0:0:
329,126,44533,1,0,0:0:0:0:
329,126,44660,1,8,0:0:0:0:
329,126,44787,1,0,0:0:0:0:
219,171,44914,1,8,0:0:0:0:
329,126,45168,1,0,0:0:0:0:
329,126,45422,1,8,0:0:0:0:
329,126,45677,1,0,0:0:0:0:
324,209,45931,1,8,0:0:0:0:
232,146,46058,1,8,0:0:0:0:
232,146,46122,1,8,0:0:0:0:
232,146,46185,1,8,0:0:0:0:
232,146,46312,1,0,0:0:0:0:
232,146,46439,1,6,0:0:0:0:
242,157,46948,1,4,0:0:0:0:
178,207,47202,1,8,0:0:0:0:
178,207,47456,1,0,0:0:0:0:
203,172,47711,1,8,0:0:0:0:
267,143,47965,1,0,0:0:0:0:
262,227,48092,1,0,0:0:0:0:
338,282,48219,1,8,0:0:0:0:
307,186,48346,1,8,0:0:0:0:
338,282,48473,1,0,0:0:0:0:
307,186,48728,1,8,0:0:0:0:
246,283,48982,1,0,0:0:0:0:
440,198,49236,1,0,0:0:0:0:
440,198,49363,1,0,0:0:0:0:
440,198,49490,1,0,0:0:0:0:
189,151,49744,1,0,0:0:0:0:
189,151,49829,1,0,0:0:0:0:
189,151,49914,1,0,0:0:0:0:
189,151,49999,1,0,0:0:0:0:
189,151,50253,1,6,0:0:0:0:
189,151,50507,1,6,0:0:0:0:
275,168,51016,1,0,0:0:0:0:
262,127,51270,1,8,0:0:0:0:
262,127,51524,1,0,0:0:0:0:
262,127,51651,1,0,0:0:0:0:
262,127,51778,1,8,0:0:0:0:
262,127,52033,1,0,0:0:0:0:
262,127,52160,1,0,0:0:0:0:
262,127,52287,1,8,0:0:0:0:
262,127,52414,1,8,0:0:0:0:
262,127,52541,1,0,0:0:0:0:
262,127,52795,1,8,0:0:0:0:
262,127,52922,1,0,0:0:0:0:
262,127,53050,1,0,0:0:0:0:
444,180,53304,1,0,0:0:0:0:
444,180,53389,1,0,0:0:0:0:
444,180,53473,1,0,0:0:0:0:
444,180,53558,1,0,0:0:0:0:
216,185,53812,1,8,0:0:0:0:
216,185,53939,1,8,0:0:0:0:
216,185,54067,1,4,0:0:0:0:
278,186,55083,1,0,0:0:0:0:
278,186,55338,1,8,0:0:0:0:
278,186,55465,1,8,0:0:0:0:
278,186,55719,1,8,0:0:0:0:
161,223,55973,1,8,0:0:0:0:
161,223,56228,1,8,0:0:0:0:
161,223,56482,1,8,0:0:0:0:
161,223,56609,1,8,0:0:0:0:
265,155,57117,1,0,0:0:0:0:
265,155,57372,1,8,0:0:0:0:
265,155,57499,1,8,0:0:0:0:
265,155,57753,1,8,0:0:0:0:
265,155,58007,1,8,0:0:0:0:
234,256,58261,1,8,0:0:0:0:
234,256,58516,1,8,0:0:0:0:
242,223,58770,1,8,0:0:0:0:
242,223,58897,1,0,0:0:0:0:
208,217,59151,1,6,0:0:0:0:
208,217,59533,1,6,0:0:0:0:
208,217,59914,1,6,0:0:0:0:
208,217,60295,1,6,0:0:0:0:
208,217,60677,1,6,0:0:0:0:
208,217,61185,1,6,0:0:0:0:
208,217,61567,1,6,0:0:0:0:
208,217,61948,1,6,0:0:0:0:
210,227,62202,1,4,0:0:0:0:
300,253,63219,1,4,0:0:0:0:
300,253,63473,1,8,0:0:0:0:
300,253,63728,1,0,0:0:0:0:
300,253,63855,1,0,0:0:0:0:
300,253,63982,1,8,0:0:0:0:
239,285,64109,1,0,0:0:0:0:
239,285,64363,1,0,0:0:0:0:
239,285,64490,1,8,0:0:0:0:
239,285,64617,1,0,0:0:0:0:
193,220,64872,1,0,0:0:0:0:
193,220,64999,1,8,0:0:0:0:
193,233,65253,1,0,0:0:0:0:
193,233,65380,1,0,0:0:0:0:
193,233,65507,1,8,0:0:0:0:
193,233,65634,1,0,0:0:0:0:
193,233,65761,1,8,0:0:0:0:
193,233,65889,1,8,0:0:0:0:
193,233,66016,1,0,0:0:0:0:
193,233,66143,1,8,0:0:0:0:
193,233,66524,1,8,0:0:0:0:
187,233,66778,1,8,0:0:0:0:
183,143,66905,1,0,0:0:0:0:
187,233,67033,1,8,0:0:0:0:
281,284,67287,1,4,0:0:0:0:
281,284,67541,1,8,0:0:0:0:
281,284,67795,1,0,0:0:0:0:
281,284,67922,1,0,0:0:0:0:
281,284,68050,1,8,0:0:0:0:
281,284,68177,1,0,0:0:0:0:
240,248,68431,1,0,0:0:0:0:
240,248,68558,1,8,0:0:0:0:
264,197,68685,1,0,0:0:0:0:
264,197,69067,1,8,0:0:0:0:
270,175,69321,1,8,0:0:0:0:
270,175,69448,1,8,0:0:0:0:
270,175,69575,1,0,0:0:0:0:
234,223,69702,1,0,0:0:0:0:
234,223,69829,1,8,0:0:0:0:
234,223,69956,1,8,0:0:0:0:
234,223,70083,1,0,0:0:0:0:
234,223,70211,1,8,0:0:0:0:
286,287,70592,1,8,0:0:0:0:
286,287,70846,1,8,0:0:0:0:
296,268,70973,1,8,0:0:0:0:
296,268,71037,1,8,0:0:0:0:
296,268,71100,1,8,0:0:0:0:
180,178,71228,1,8,0:0:0:0:
300,253,71355,1,4,0:0:0:0:
300,253,71609,1,8,0:0:0:0:
300,253,71863,1,0,0:0:0:0:
300,253,71990,1,0,0:0:0:0:
300,253,72117,1,8,0:0:0:0:
239,285,72244,1,0,0:0:0:0:
239,285,72499,1,0,0:0:0:0:
239,285,72626,1,8,0:0:0:0:
239,285,72753,1,0,0:0:0:0:
193,220,73007,1,0,0:0:0:0:
193,220,73134,1,8,0:0:0:0:
193,233,73389,1,0,0:0:0:0:
193,233,73516,1,0,0:0:0:0:
193,233,73643,1,8,0:0:0:0:
193,233,73770,1,0,0:0:0:0:
193,233,73897,1,8,0:0:0:0:
193,233,74024,1,8,0:0:0:0:
193,233,74151,1,0,0:0:0:0:
193,233,74278,1,8,0:0:0:0:
193,233,74660,1,8,0:0:0:0:
187,233,74914,1,8,0:0:0:0:
187,233,75041,1,0,0:0:0:0:
187,233,75168,1,8,0:0:0:0:
281,284,75422,1,4,0:0:0:0:
281,284,75677,1,8,0:0:0:0:
281,284,75931,1,0,0:0:0:0:
281,284,76058,1,0,0:0:0:0:
281,284,76185,1,8,0:0:0:0:
281,284,76312,1,0,0:0:0:0:
240,248,76567,1,0,0:0:0:0:
240,248,76694,1,8,0:0:0:0:
264,197,76821,1,0,0:0:0:0:
227,109,76948,1,8,0:0:0:0:
227,109,77075,1,8,0:0:0:0:
227,109,77139,1,8,0:0:0:0:
227,109,77202,1,8,0:0:0:0:
275,184,77329,1,8,0:0:0:0:
284,243,77456,1,4,0:0:0:0:
155,276,77711,1,0,0:0:0:0:
186,181,77838,1,8,0:0:0:0:
186,181,77965,1,0,0:0:0:0:
186,181,78092,1,8,0:0:0:0:
196,222,78219,1,0,0:0:0:0:
196,222,78473,1,6,0:0:0:0:
314,228,78600,1,0,0:0:0:0:
314,228,78728,1,0,0:0:0:0:
196,222,78855,1,6,0:0:0:0:
196,222,79109,1,6,0:0:0:0:
428,264,79490,1,4,0:0:0:0:
212,125,79872,1,0,0:0:0:0:
212,125,79999,1,8,0:0:0:0:
279,239,80253,1,0,0:0:0:0:
279,239,80380,1,8,0:0:0:0:
279,239,80507,1,0,0:0:0:0:
257,188,80761,1,8,0:0:0:0:
337,156,80889,1,0,0:0:0:0:
257,188,81016,1,8,0:0:0:0:
290,266,81143,1,0,0:0:0:0:
290,266,81270,1,8,0:0:0:0:
178,136,81524,1,0,0:0:0:0:
335,134,81778,1,8,0:0:0:0:
335,134,82033,1,0,0:0:0:0:
335,134,82287,1,8,0:0:0:0:
302,197,82541,1,0,0:0:0:0:
368,215,82668,1,8,0:0:0:0:
310,159,82795,1,0,0:0:0:0:
289,171,83050,1,8,0:0:0:0:
316,219,83558,1,4,0:0:0:0:
316,219,83812,1,8,0:0:0:0:
316,219,83939,1,0,0:0:0:0:
316,219,84067,1,8,0:0:0:0:
316,219,84321,1,8,0:0:0:0:
316,219,84575,1,0,0:0:0:0:
316,219,84702,1,8,0:0:0:0:
316,219,84829,1,0,0:0:0:0:
316,219,84956,1,8,0:0:0:0:
316,219,85083,1,0,0:0:0:0:
316,219,85338,1,8,0:0:0:0:
316,219,85592,1,6,0:0:0:0:
316,219,85846,1,6,0:0:0:0:
316,219,86100,1,6,0:0:0:0:
316,219,86355,1,6,0:0:0:0:
316,219,86609,1,6,0:0:0:0:
136,227,87626,1,4,0:0:0:0:
146,190,87880,1,8,0:0:0:0:
146,190,88134,1,0,0:0:0:0:
146,190,88261,1,0,0:0:0:0:
146,190,88389,1,8,0:0:0:0:
146,190,88516,1,8,0:0:0:0:
297,219,88770,1,0,0:0:0:0:
297,219,88897,1,8,0:0:0:0:
297,219,89024,1,8,0:0:0:0:
171,138,89278,1,0,0:0:0:0:
171,138,89405,1,8,0:0:0:0:
246,164,89660,1,0,0:0:0:0:
246,164,89914,1,8,0:0:0:0:
246,164,90168,1,8,0:0:0:0:
246,164,90295,1,8,0:0:0:0:
246,164,90422,1,0,0:0:0:0:
246,164,90550,1,8,0:0:0:0:
246,164,90931,1,8,0:0:0:0:
246,164,91185,1,8,0:0:0:0:
246,164,91312,1,0,0:0:0:0:
246,164,91439,1,8,0:0:0:0:
246,164,91694,1,4,0:0:0:0:
217,262,91948,1,8,0:0:0:0:
217,262,92202,1,8,0:0:0:0:
217,262,92329,1,0,0:0:0:0:
217,262,92456,1,8,0:0:0:0:
84,228,92711,1,8,0:0:0:0:
84,228,92838,1,0,0:0:0:0:
84,228,92965,1,8,0:0:0:0:
84,228,93092,1,0,0:0:0:0:
239,278,93346,1,0,0:0:0:0:
239,278,93473,1,8,0:0:0:0:
244,249,93600,1,8,0:0:0:0:
244,249,93728,1,0,0:0:0:0:
217,181,93982,1,8,0:0:0:0:
244,249,94109,1,8,0:0:0:0:
217,181,94490,1,8,0:0:0:0:
217,181,94617,1,0,0:0:0:0:
245,224,94744,1,0,0:0:0:0:
245,224,94808,1,0,0:0:0:0:
245,224,94872,1,0,0:0:0:0:
245,224,94999,1,8,0:0:0:0:
245,224,95253,1,8,0:0:0:0:
245,224,95380,1,0,0:0:0:0:
245,224,95507,1,8,0:0:0:0:
209,249,95761,1,4,0:0:0:0:
209,249,96016,1,8,0:0:0:0:
209,249,96270,1,0,0:0:0:0:
209,249,96397,1,0,0:0:0:0:
177,262,96524,1,8,0:0:0:0:
177,262,96651,1,8,0:0:0:0:
240,247,96905,1,8,0:0:0:0:
240,247,97033,1,0,0:0:0:0:
240,247,97160,1,8,0:0:0:0:
240,247,97541,1,8,0:0:0:0:
246,210,97795,1,8,0:0:0:0:
413,284,97922,1,8,0:0:0:0:
246,210,98050,1,8,0:0:0:0:
246,210,98304,1,8,0:0:0:0:
246,210,98389,1,8,0:0:0:0:
246,210,98473,1,8,0:0:0:0:
246,210,98558,1,8,0:0:0:0:
280,220,98812,1,8,0:0:0:0:
413,284,98939,1,8,0:0:0:0:
413,284,99067,1,8,0:0:0:0:
283,224,99321,1,0,0:0:0:0:
283,224,99448,1,0,0:0:0:0:
283,224,99575,1,8,0:0:0:0:
283,224,99639,1,8,0:0:0:0:
283,224,99702,1,8,0:0:0:0:
283,224,99829,1,4,0:0:0:0:
240,207,100083,1,8,0:0:0:0:
240,207,100338,1,0,0:0:0:0:
240,207,100465,1,0,0:0:0:0:
264,201,100592,1,8,0:0:0:0:
264,201,100719,1,0,0:0:0:0:
264,201,100973,1,8,0:0:0:0:
264,201,101228,1,8,0:0:0:0:
127,224,101482,1,8,0:0:0:0:
220,201,101863,1,4,0:0:0:0:
249,257,101990,1,8,0:0:0:0:
249,257,102117,1,0,0:0:0:0:
310,229,102244,1,8,0:0:0:0:
310,229,102372,1,0,0:0:0:0:
313,112,102499,1,8,0:0:0:0:
313,112,102626,1,0,0:0:0:0:
314,178,102880,1,6,0:0:0:0:
314,178,103007,1,0,0:0:0:0:
314,178,103134,1,0,0:0:0:0:
314,178,103261,1,6,0:0:0:0:
314,178,103516,1,6,0:0:0:0:
275,218,103897,1,4,0:0:0:0:
275,218,104151,1,8,0:0:0:0:
275,218,104405,1,0,0:0:0:0:
275,218,104533,1,0,0:0:0:0:
275,218,104660,1,8,0:0:0:0:
275,218,104787,1,0,0:0:0:0:
275,218,105041,1,0,0:0:0:0:
275,218,105168,1,8,0:0:0:0:
275,218,105422,1,0,0:0:0:0:
275,218,105550,1,0,0:0:0:0:
275,218,105677,1,8,0:0:0:0:
214,191,105931,1,0,0:0:0:0:
214,191,106185,1,8,0:0:0:0:
214,191,106439,1,0,0:0:0:0:
214,191,106694,1,8,0:0:0:0:
198,137,106948,1,0,0:0:0:0:
198,137,107075,1,0,0:0:0:0:
198,137,107202,1,8,0:0:0:0:
193,138,107329,1,8,0:0:0:0:
307,186,107456,1,0,0:0:0:0:
286,143,107965,1,0,0:0:0:0:
286,143,108219,1,8,0:0:0:0:
286,143,108473,1,0,0:0:0:0:
286,143,108600,1,0,0:0:0:0:
286,143,108728,1,8,0:0:0:0:
286,143,108855,1,8,0:0:0:0:
219,155,109109,1,0,0:0:0:0:
219,155,109236,1,8,0:0:0:0:
329,126,109490,1,8,0:0:0:0:
329,126,109617,1,0,0:0:0:0:
329,126,109744,1,8,0:0:0:0:
219,171,109999,1,8,0:0:0:0:
202,196,110253,1,0,0:0:0:0:
329,126,110507,1,8,0:0:0:0:
202,196,110761,1,0,0:0:0:0:
324,209,111016,1,8,0:0:0:0:
324,209,111143,1,0,0:0:0:0:
324,209,111206,1,0,0:0:0:0:
324,209,111270,1,0,0:0:0:0:
259,208,111397,1,8,0:0:0:0:
259,208,111524,1,0,0:0:0:0:
275,218,112033,1,4,0:0:0:0:
275,218,112287,1,8,0:0:0:0:
275,218,112541,1,0,0:0:0:0:
275,218,112668,1,0,0:0:0:0:
275,218,112795,1,8,0:0:0:0:
275,218,112922,1,0,0:0:0:0:
275,218,113177,1,0,0:0:0:0:
275,218,113304,1,8,0:0:0:0:
275,218,113558,1,0,0:0:0:0:
275,218,113685,1,0,0:0:0:0:
275,218,113812,1,8,0:0:0:0:
214,191,114067,1,0,0:0:0:0:
214,191,114321,1,8,0:0:0:0:
214,191,114575,1,0,0:0:0:0:
214,191,114829,1,8,0:0:0:0:
198,137,115083,1,0,0:0:0:0:
198,137,115211,1,0,0:0:0:0:
198,137,115338,1,8,0:0:0:0:
193,138,115465,1,8,0:0:0:0:
307,186,115592,1,0,0:0:0:0:
286,143,116100,1,0,0:0:0:0:
286,143,116355,1,8,0:0:0:0:
286,143,116609,1,0,0:0:0:0:
286,143,116736,1,0,0:0:0:0:
286,143,116863,1,8,0:0:0:0:
286,143,116990,1,8,0:0:0:0:
219,155,117244,1,0,0:0:0:0:
219,155,117372,1,8,0:0:0:0:
329,126,117626,1,8,0:0:0:0:
329,126,117753,1,0,0:0:0:0:
329,126,117880,1,8,0:0:0:0:
329,126,118007,1,0,0:0:0:0:
219,171,118134,1,8,0:0:0:0:
329,126,118389,1,0,0:0:0:0:
329,126,118643,1,8,0:0:0:0:
329,126,118897,1,0,0:0:0:0:
324,209,119151,1,8,0:0:0:0:
232,146,119278,1,8,0:0:0:0:
232,146,119342,1,8,0:0:0:0:
232,146,119405,1,8,0:0:0:0:
232,146,119533,1,0,0:0:0:0:
232,146,119660,1,6,0:0:0:0:
242,157,120168,1,4,0:0:0:0:
178,207,120422,1,8,0:0:0:0:
178,207,120677,1,0,0:0:0:0:
203,172,120931,1,8,0:0:0:0:
267,143,121185,1,0,0:0:0:0:
262,227,121312,1,0,0:0:0:0:
338,282,121439,1,8,0:0:0:0:
307,186,121567,1,8,0:0:0:0:
338,282,121694,1,0,0:0:0:0:
307,186,121948,1,8,0:0:0:0:
246,283,122202,1,0,0:0:0:0:
440,198,122456,1,0,0:0:0:0:
440,198,122583,1,0,0:0:0:0:
440,198,122711,1,0,0:0:0:0:
189,151,122965,1,0,0:0:0:0:
189,151,123050,1,0,0:0:0:0:
189,151,123134,1,0,0:0:0:0:
189,151,123219,1,0,0:0:0:0:
189,151,123473,1,6,0:0:0:0:
189,151,123728,1,6,0:0:0:0:
275,168,124236,1,0,0:0:0:0:
262,127,124490,1,8,0:0:0:0:
262,127,124744,1,0,0:0:0:0:
262,127,124872,1,0,0:0:0:0:
262,127,124999,1,8,0:0:0:0:
262,127,125253,1,0,0:0:0:0:
262,127,125380,1,0,0:0:0:0:
262,127,125507,1,8,0:0:0:0:
262,127,125634,1,8,0:0:0:0:
262,127,125761,1,0,0:0:0:0:
262,127,126016,1,8,0:0:0:0:
262,127,126143,1,0,0:0:0:0:
262,127,126270,1,0,0:0:0:0:
444,180,126524,1,0,0:0:0:0:
444,180,126609,1,0,0:0:0:0:
444,180,126694,1,0,0:0:0:0:
444,180,126778,1,0,0:0:0:0:
216,185,127033,1,8,0:0:0:0:
216,185,127160,1,8,0:0:0:0:
216,185,127287,1,4,0:0:0:0:
278,186,128304,1,0,0:0:0:0:
278,186,128558,1,8,0:0:0:0:
278,186,128685,1,8,0:0:0:0:
278,186,128939,1,8,0:0:0:0:
161,223,129194,1,8,0:0:0:0:
161,223,129448,1,8,0:0:0:0:
161,223,129702,1,8,0:0:0:0:
161,223,129829,1,8,0:0:0:0:
265,155,130338,1,0,0:0:0:0:
265,155,130592,1,8,0:0:0:0:
265,155,130719,1,8,0:0:0:0:
265,155,130973,1,8,0:0:0:0:
265,155,131228,1,8,0:0:0:0:
234,256,131482,1,8,0:0:0:0:
234,256,131736,1,8,0:0:0:0:
242,223,131990,1,8,0:0:0:0:
242,223,132117,1,0,0:0:0:0:
208,217,132372,1,6,0:0:0:0:
208,217,132753,1,6,0:0:0:0:
208,217,133134,1,6,0:0:0:0:
208,217,133516,1,6,0:0:0:0:
208,217,133897,1,6,0:0:0:0:
208,217,134405,1,6,0:0:0:0:
208,217,134787,1,6,0:0:0:0:
208,217,135168,1,6,0:0:0:0:
210,227,135422,1,4,0:0:0:0:
300,253,136439,1,4,0:0:0:0:
300,253,136694,1,8,0:0:0:0:
300,253,136948,1,0,0:0:0:0:
300,253,137075,1,0,0:0:0:0:
300,253,137202,1,8,0:0:0:0:
239,285,137329,1,0,0:0:0:0:
239,285,137583,1,0,0:0:0:0:
239,285,137711,1,8,0:0:0:0:
239,285,137838,1,0,0:0:0:0:
193,220,138092,1,0,0:0:0:0:
193,220,138219,1,8,0:0:0:0:
193,233,138473,1,0,0:0:0:0:
193,233,138600,1,0,0:0:0:0:
193,233,138728,1,8,0:0:0:0:
193,233,138855,1,0,0:0:0:0:
193,233,138982,1,8,0:0:0:0:
193,233,139109,1,8,0:0:0:0:
193,233,139236,1,0,0:0:0:0:
193,233,139363,1,8,0:0:0:0:
193,233,139744,1,8,0:0:0:0:
187,233,139999,1,8,0:0:0:0:
183,143,140126,1,0,0:0:0:0:
187,233,140253,1,8,0:0:0:0:
281,284,140507,1,4,0:0:0:0:
281,284,140761,1,8,0:0:0:0:
281,284,141016,1,0,0:0:0:0:
281,284,141143,1,0,0:0:0:0:
281,284,141270,1,8,0:0:0:0:
281,284,141397,1,0,0:0:0:0:
240,248,141651,1,0,0:0:0:0:
240,248,141778,1,8,0:0:0:0:
264,197,141905,1,0,0:0:0:0:
264,197,142287,1,8,0:0:0:0:
270,175,142541,1,8,0:0:0:0:
270,175,142668,1,8,0:0:0:0:
270,175,142795,1,0,0:0:0:0:
234,223,142922,1,0,0:0:0:0:
234,223,143050,1,8,0:0:0:0:
234,223,143177,1,8,0:0:0:0:
234,223,143304,1,0,0:0:0:0:
234,223,143431,1,8,0:0:0:0:
286,287,143812,1,8,0:0:0:0:
286,287,144067,1,8,0:0:0:0:
296,268,144194,1,8,0:0:0:0:
296,268,144257,1,8,0:0:0:0:
296,268,144321,1,8,0:0:0:0:
180,178,144448,1,8,0:0:0:0:
300,253,144575,1,4,0:0:0:0:
300,253,144829,1,8,0:0:0:0:
300,253,145083,1,0,0:0:0:0:
300,253,145211,1,0,0:0:0:0:
300,253,145338,1,8,0:0:0:0:
239,285,145465,1,0,0:0:0:0:
239,285,145719,1,0,0:0:0:0:
239,285,145846,1,8,0:0:0:0:
239,285,145973,1,0,0:0:0:0:
193,220,146228,1,0,0:0:0:0:
193,220,146355,1,8,0:0:0:0:
193,233,146609,1,0,0:0:0:0:
193,233,146736,1,0,0:0:0:0:
193,233,146863,1,8,0:0:0:0:
193,233,146990,1,0,0:0:0:0:
193,233,147117,1,8,0:0:0:0:
193,233,147244,1,8,0:0:0:0:
193,233,147372,1,0,0:0:0:0:
193,233,147499,1,8,0:0:0:0:
193,233,147880,1,8,0:0:0:0:
187,233,148134,1,8,0:0:0:0:
187,233,148261,1,0,0:0:0:0:
187,233,148389,1,8,0:0:0:0:
281,284,148643,1,4,0:0:0:0:
281,284,148897,1,8,0:0:0:0:
281,284,149151,1,0,0:0:0:0:
281,284,149278,1,0,0:0:0:0:
281,284,149405,1,8,0:0:0:0:
281,284,149533,1,0,0:0:0:0:
240,248,149787,1,0,0:0:0:0:
240,248,149914,1,8,0:0:0:0:
264,197,150041,1,0,0:0:0:0:
174,236,150422,1,8,0:0:0:0:
230,228,150677,1,0,0:0:0:0:
230,228,150931,1,8,0:0:0:0:
230,228,151185,1,8,0:0:0:0:
230,228,151312,1,8,0:0:0:0:
230,228,151439,1,0,0:0:0:0:
230,228,151567,1,8,0:0:0:0:
211,181,151948,1,8,0:0:0:0:
211,181,152202,1,8,0:0:0:0:
211,181,152329,1,8,0:0:0:0:
211,181,152393,1,8,0:0:0:0:
211,181,152456,1,8,0:0:0:0:
284,260,152711,1,6,0:0:0:0:
255,128,152965,1,8,0:0:0:0:
255,128,153219,1,8,0:0:0:0:
255,128,153346,1,0,0:0:0:0:
255,128,153473,1,8,0:0:0:0:
288,219,153728,1,8,0:0:0:0:
288,219,153855,1,0,0:0:0:0:
288,219,153982,1,8,0:0:0:0:
288,219,154109,1,0,0:0:0:0:
232,224,154363,1,0,0:0:0:0:
232,224,154490,1,8,0:0:0:0:
199,224,154744,1,8,0:0:0:0:
199,224,154872,1,0,0:0:0:0:
199,224,154999,1,8,0:0:0:0:
219,172,155253,1,8,0:0:0:0:
219,172,155380,1,0,0:0:0:0:
219,172,155507,1,8,0:0:0:0:
271,214,155634,1,0,0:0:0:0:
277,212,156016,1,8,0:0:0:0:
277,212,156270,1,8,0:0:0:0:
277,212,156397,1,8,0:0:0:0:
277,212,156461,1,8,0:0:0:0:
277,212,156524,1,8,0:0:0:0:
292,207,156778,1,6,0:0:0:0:
257,172,157033,1,8,0:0:0:0:
257,172,157287,1,8,0:0:0:0:
257,172,157414,1,0,0:0:0:0:
257,172,157541,1,8,0:0:0:0:
282,131,157668,1,0,0:0:0:0:
258,210,157922,1,0,0:0:0:0:
258,210,158050,1,8,0:0:0:0:
327,222,158177,1,0,0:0:0:0:
184,102,158431,1,0,0:0:0:0:
184,102,158558,1,8,0:0:0:0:
184,102,158812,1,8,0:0:0:0:
184,102,158939,1,0,0:0:0:0:
184,102,159067,1,8,0:0:0:0:
184,102,159321,1,8,0:0:0:0:
184,102,159448,1,0,0:0:0:0:
184,102,159575,1,8,0:0:0:0:
184,102,159702,1,0,0:0:0:0:
258,175,160083,1,8,0:0:0:0:
258,175,160338,1,8,0:0:0:0:
258,175,160465,1,0,0:0:0:0:
258,175,160592,1,8,0:0:0:0:
258,278,160655,1,8,0:0:0:0:
258,278,160719,1,8,0:0:0:0:
284,260,160846,1,6,0:0:0:0:
255,128,161100,1,8,0:0:0:0:
255,128,161355,1,8,0:0:0:0:
255,128,161482,1,0,0:0:0:0:
255,128,161609,1,8,0:0:0:0:
288,219,161863,1,8,0:0:0:0:
288,219,161990,1,0,0:0:0:0:
288,219,162117,1,8,0:0:0:0:
288,219,162244,1,0,0:0:0:0:
232,224,162499,1,0,0:0:0:0:
232,224,162626,1,8,0:0:0:0:
199,224,162880,1,8,0:0:0:0:
199,224,163007,1,0,0:0:0:0:
199,224,163134,1,8,0:0:0:0:
219,172,163389,1,8,0:0:0:0:
219,172,163516,1,0,0:0:0:0:
219,172,163643,1,8,0:0:0:0:
271,214,163770,1,0,0:0:0:0:
277,212,164151,1,8,0:0:0:0:
277,212,164405,1,8,0:0:0:0:
277,212,164533,1,8,0:0:0:0:
277,212,164596,1,8,0:0:0:0:
277,212,164660,1,8,0:0:0:0:
292,207,164914,1,6,0:0:0:0:
257,172,165168,1,8,0:0:0:0:
257,172,165422,1,8,0:0:0:0:
257,172,165550,1,0,0:0:0:0:
257,172,165677,1,8,0:0:0:0:
282,131,165804,1,0,0:0:0:0:
196,251,166058,1,0,0:0:0:0:
211,231,166185,1,8,0:0:0:0:
211,231,166312,1,0,0:0:0:0:
211,231,166439,1,8,0:0:0:0:
211,231,166567,1,0,0:0:0:0:
284,243,166948,1,4,0:0:0:0:
155,276,167202,1,0,0:0:0:0:
186,181,167329,1,8,0:0:0:0:
186,181,167456,1,0,0:0:0:0:
186,181,167583,1,8,0:0:0:0:
196,222,167711,1,0,0:0:0:0:
196,222,167965,1,6,0:0:0:0:
314,228,168092,1,0,0:0:0:0:
314,228,168219,1,0,0:0:0:0:
196,222,168346,1,6,0:0:0:0:
196,222,168600,1,6,0:0:0:0:
428,264,168982,1,4,0:0:0:0:
283,258,169236,1,8,0:0:0:0:
283,258,169490,1,0,0:0:0:0:
283,258,169617,1,0,0:0:0:0:
283,258,169744,1,8,0:0:0:0:
227,160,169999,1,0,0:0:0:0:
238,208,170126,1,0,0:0:0:0:
227,160,170253,1,8,0:0:0:0:
227,160,170380,1,8,0:0:0:0:
227,160,170507,1,0,0:0:0:0:
159,272,170761,1,8,0:0:0:0:
238,208,170889,1,0,0:0:0:0:
238,208,171016,1,0,0:0:0:0:
229,216,171270,1,8,0:0:0:0:
229,216,171524,1,0,0:0:0:0:
229,216,171778,1,8,0:0:0:0:
235,160,172033,1,0,0:0:0:0:
235,160,172160,1,0,0:0:0:0:
235,160,172287,1,8,0:0:0:0:
260,156,172414,1,8,0:0:0:0:
260,156,172541,1,0,0:0:0:0:
260,156,172605,1,0,0:0:0:0:
260,156,172668,1,0,0:0:0:0:
258,156,172795,1,8,0:0:0:0:
262,125,173050,1,4,0:0:0:0:
262,125,173304,1,8,0:0:0:0:
262,125,173558,1,0,0:0:0:0:
262,125,173685,1,0,0:0:0:0:
262,125,173812,1,8,0:0:0:0:
221,159,174067,1,0,0:0:0:0:
215,158,174194,1,0,0:0:0:0:
221,159,174321,1,8,0:0:0:0:
215,158,174448,1,8,0:0:0:0:
215,158,174575,1,0,0:0:0:0:
281,247,174829,1,8,0:0:0:0:
281,247,174956,1,0,0:0:0:0:
337,244,175083,1,6,0:0:0:0:
337,244,175338,1,6,0:0:0:0:
337,244,175592,1,6,0:0:0:0:
337,244,175846,1,6,0:0:0:0:
256,184,176100,1,6,0:0:0:0:
281,246,177117,1,4,0:0:0:0:
249,194,177372,1,8,0:0:0:0:
249,194,177626,1,0,0:0:0:0:
249,194,177753,1,0,0:0:0:0:
249,194,177880,1,8,0:0:0:0:
249,194,178134,1,8,0:0:0:0:
249,194,178261,1,8,0:0:0:0:
249,194,178389,1,0,0:0:0:0:
249,194,178516,1,8,0:0:0:0:
249,194,178643,1,0,0:0:0:0:
163,184,178770,1,0,0:0:0:0:
163,184,178897,1,8,0:0:0:0:
163,184,179024,1,8,0:0:0:0:
163,184,179151,1,6,0:0:0:0:
163,184,179405,1,6,0:0:0:0:
163,184,179660,1,6,0:0:0:0:
163,184,179914,1,6,0:0:0:0:
163,184,180168,1,6,0:0:0:0:
163,184,181185,1,6,0:0:0:0:
163,184,181439,1,6,0:0:0:0:
163,184,181694,1,6,0:0:0:0:
163,184,181948,1,6,0:0:0:0:
157,155,182202,1,6,0:0:0:0:
248,184,183219,1,6,0:0:0:0:
248,184,183473,1,6,0:0:0:0:
248,184,183728,1,6,0:0:0:0:
248,184,183982,1,6,0:0:0:0:
248,184,184236,1,6,0:0:0:0:
302,210,185253,1,4,0:0:0:0:
230,180,185507,1,8,0:0:0:0:
376,271,185761,1,0,0:0:0:0:
284,182,186016,1,8,0:0:0:0:
230,180,186143,1,8,0:0:0:0:
195,153,186397,1,0,0:0:0:0:
284,182,186524,1,8,0:0:0:0:
284,182,186778,1,8,0:0:0:0:
284,182,187033,1,8,0:0:0:0:
284,182,187160,1,0,0:0:0:0:
284,182,187287,1,8,0:0:0:0:
269,133,187541,1,0,0:0:0:0:
376,271,187795,1,8,0:0:0:0:
269,133,188050,1,0,0:0:0:0:
376,271,188177,1,8,0:0:0:0:
241,259,188431,1,8,0:0:0:0:
284,298,188558,1,0,0:0:0:0:
284,298,188812,1,8,0:0:0:0:
284,298,189321,1,8,0:0:0:0:
265,215,189575,1,0,0:0:0:0:
265,215,189829,1,8,0:0:0:0:
265,215,190083,1,0,0:0:0:0:
265,215,190211,1,8,0:0:0:0:
265,215,190465,1,8,0:0:0:0:
160,216,190592,1,0,0:0:0:0:
265,215,190846,1,8,0:0:0:0:
265,215,191100,1,8,0:0:0:0:
242,228,191228,1,0,0:0:0:0:
242,228,191355,1,8,0:0:0:0:
294,184,191609,1,0,0:0:0:0:
294,184,191863,1,8,0:0:0:0:
241,158,192117,1,0,0:0:0:0:
241,158,192244,1,8,0:0:0:0:
298,156,192499,1,8,0:0:0:0:
298,156,192626,1,0,0:0:0:0:
304,156,192880,1,8,0:0:0:0:
327,160,193389,1,0,0:0:0:0:
280,224,193643,1,0,0:0:0:0:
280,224,193897,1,8,0:0:0:0:
277,207,194151,1,0,0:0:0:0:
277,207,194278,1,8,0:0:0:0:
269,187,194533,1,8,0:0:0:0:
269,187,194660,1,0,0:0:0:0:
269,187,194914,1,8,0:0:0:0:
269,187,195422,1,0,0:0:0:0:
269,187,195677,1,0,0:0:0:0:
269,187,195804,1,0,0:0:0:0:
269,187,195931,1,8,0:0:0:0:
269,187,196185,1,0,0:0:0:0:
269,187,196312,1,8,0:0:0:0:
269,187,196567,1,8,0:0:0:0:
160,199,196694,1,0,0:0:0:0:
160,199,196948,1,8,0:0:0:0:
201,172,197202,1,8,0:0:0:0:
256,192,197456,8,0,202541,0:0:0:0:
