osu file format v14

[General]
AudioFilename: audio.mp3
AudioLeadIn: 0
PreviewTime: 62139
Countdown: 0
SampleSet: Normal
StackLeniency: 0.7
Mode: 1
LetterboxInBreaks: 0
WidescreenStoryboard: 0

[Editor]
DistanceSpacing: 1.5
BeatDivisor: 4
GridSize: 32
TimelineZoom: 1

[Metadata]
Title:Boot
TitleUnicode:ブート
Artist:paraoka feat. haru*nya
ArtistUnicode:paraoka feat. haru*nya
Creator:mintong89
Version:Inner Oni
Source:
Tags:麹町養蚕館 Koujimachi Yousankan リゾルヴ Resolve Pop Japanese
BeatmapID:2330207
BeatmapSetID:1115403

[Difficulty]
HPDrainRate:5
CircleSize:5
OverallDifficulty:6
ApproachRate:5
SliderMultiplier:1.4
SliderTickRate:1

[Events]
//Background and Video events
0,0,"Idoko.full.697440.jpg",0,5
//Break Periods
//Storyboard Layer 0 (Background)
//Storyboard Layer 1 (Fail)
//Storyboard Layer 2 (Pass)
//Storyboard Layer 3 (Foreground)
//Storyboard Layer 4 (Overlay)
//Storyboard Sound Samples

[TimingPoints]
890,625,4,1,0,25,1,0
13390,254.237288135593,4,1,0,75,1,0
14406,254.237288135593,4,1,0,75,1,0
54829,-133.333333333333,4,1,0,75,0,0
59151,-100,4,1,0,75,0,0
63219,-100,4,1,0,75,0,1
79109,-133.333333333333,4,1,0,75,0,1
85592,-100,4,1,0,75,0,1
87626,-100,4,1,0,75,0,0
128050,-133.333333333333,4,1,0,75,0,0
132372,-100,4,1,0,75,0,0
136439,-100,4,1,0,75,0,1
176100,-100,4,1,0,75,0,0
177117,-100,4,1,0,75,0,1
183219,-66.6666666666667,4,1,0,75,0,1
185253,-133.333333333333,4,1,0,75,0,0

[HitObjects]
174,271,890,5,0,0:0:0:0:
220,235,1827,1,0,0:0:0:0:
220,235,2140,1,8,0:0:0:0:
278,219,2765,1,8,0:0:0:0:
278,219,3077,1,0,0:0:0:0:
278,219,3390,1,8,0:0:0:0:
278,219,4327,1,8,0:0:0:0:
278,219,4640,1,0,0:0:0:0:
226,129,4952,1,8,0:0:0:0:
226,129,5265,1,0,0:0:0:0:
70,234,5890,2,0,P|135:297|484:196,1,490
256,192,8390,12,0,13077,0:0:0:0:
177,175,13390,5,8,0:0:0:0:
177,175,13644,1,8,0:0:0:0:
177,175,13898,1,8,0:0:0:0:
107,182,14152,1,8,0:0:0:0:
107,182,14216,1,8,0:0:0:0:
203,143,14279,1,8,0:0:0:0:
203,143,14343,1,8,0:0:0:0:
203,143,14406,1,0,0:0:0:0:
204,160,14533,1,8,0:0:0:0:
204,160,14660,1,8,0:0:0:0:
204,160,14787,1,0,0:0:0:0:
204,160,14914,1,8,0:0:0:0:
204,160,14978,1,8,0:0:0:0:
204,160,15041,1,0,0:0:0:0:
204,160,15168,1,0,0:0:0:0:
204,160,15295,1,8,0:0:0:0:
224,218,15422,1,0,0:0:0:0:
224,218,15486,1,0,0:0:0:0:
240,233,15550,1,8,0:0:0:0:
251,132,15677,1,0,0:0:0:0:
251,132,15804,1,8,0:0:0:0:
199,140,15867,1,8,0:0:0:0:
277,121,15931,1,0,0:0:0:0:
125,289,15994,1,0,0:0:0:0:
125,289,16058,1,8,0:0:0:0:
213,196,16185,1,0,0:0:0:0:
211,229,16249,1,0,0:0:0:0:
272,204,16312,1,8,0:0:0:0:
317,199,16439,1,0,0:0:0:0:
228,252,16567,1,8,0:0:0:0:
228,252,16694,1,0,0:0:0:0:
228,252,16821,1,8,0:0:0:0:
228,252,16948,1,0,0:0:0:0:
228,252,17011,1,0,0:0:0:0:
228,252,17075,1,8,0:0:0:0:
231,252,17202,1,8,0:0:0:0:
192,262,17329,1,0,0:0:0:0:
155,209,17456,1,8,0:0:0:0:
155,209,17520,1,8,0:0:0:0:
155,209,17583,1,0,0:0:0:0:
169,213,17711,1,8,0:0:0:0:
172,213,17774,1,8,0:0:0:0:
172,213,17838,1,0,0:0:0:0:
255,249,17965,1,8,0:0:0:0:
248,249,18028,1,8,0:0:0:0:
244,256,18092,1,0,0:0:0:0:
244,256,18155,1,0,0:0:0:0:
244,256,18219,1,8,0:0:0:0:
228,225,18346,1,8,0:0:0:0:
258,260,18473,1,4,0:0:0:0:
246,256,18600,1,8,0:0:0:0:
236,206,18728,1,8,0:0:0:0:
236,206,18855,1,0,0:0:0:0:
141,182,18982,1,8,0:0:0:0:
141,182,19045,1,8,0:0:0:0:
141,182,19109,1,8,0:0:0:0:
224,197,19236,1,0,0:0:0:0:
224,197,19363,1,8,0:0:0:0:
224,197,19490,1,0,0:0:0:0:
224,196,19554,1,0,0:0:0:0:
209,150,19617,1,8,0:0:0:0:
209,150,19681,1,8,0:0:0:0:
209,150,19744,1,0,0:0:0:0:
270,227,19872,1,8,0:0:0:0:
265,224,20126,1,0,0:0:0:0:
265,224,20189,1,0,0:0:0:0:
265,224,20253,1,8,0:0:0:0:
252,272,20380,1,0,0:0:0:0:
252,272,20507,1,8,0:0:0:0:
252,272,20634,1,8,0:0:0:0:
252,272,20761,1,0,0:0:0:0:
252,272,20889,1,8,0:0:0:0:
237,280,21016,1,8,0:0:0:0:
237,280,21079,1,8,0:0:0:0:
237,280,21143,1,0,0:0:0:0:
228,261,21270,1,0,0:0:0:0:
228,261,21397,1,8,0:0:0:0:
203,251,21524,1,0,0:0:0:0:
203,251,21588,1,0,0:0:0:0:
203,251,21651,1,8,0:0:0:0:
203,251,21778,1,0,0:0:0:0:
203,251,21842,1,0,0:0:0:0:
203,251,21905,1,8,0:0:0:0:
203,251,22033,1,0,0:0:0:0:
203,251,22096,1,0,0:0:0:0:
203,251,22160,1,0,0:0:0:0:
203,251,22223,1,0,0:0:0:0:
203,251,22287,1,8,0:0:0:0:
203,251,22350,1,8,0:0:0:0:
203,251,22414,1,8,0:0:0:0:
203,251,22478,1,8,0:0:0:0:
107,182,22541,1,0,0:0:0:0:
204,160,22668,1,8,0:0:0:0:
204,160,22795,1,8,0:0:0:0:
204,160,22922,1,0,0:0:0:0:
204,160,23050,1,8,0:0:0:0:
204,160,23113,1,8,0:0:0:0:
204,160,23177,1,0,0:0:0:0:
204,160,23304,1,0,0:0:0:0:
204,160,23431,1,8,0:0:0:0:
224,218,23494,1,8,0:0:0:0:
224,218,23558,1,0,0:0:0:0:
224,218,23685,1,0,0:0:0:0:
219,212,23812,1,8,0:0:0:0:
219,212,23939,1,8,0:0:0:0:
125,289,24067,1,0,0:0:0:0:
125,289,24130,1,0,0:0:0:0:
125,289,24194,1,8,0:0:0:0:
125,289,24257,1,8,0:0:0:0:
125,289,24321,1,8,0:0:0:0:
217,271,24448,1,0,0:0:0:0:
228,252,24575,1,8,0:0:0:0:
228,252,24702,1,8,0:0:0:0:
228,252,24829,1,0,0:0:0:0:
228,252,24956,1,8,0:0:0:0:
228,252,25083,1,0,0:0:0:0:
228,252,25147,1,0,0:0:0:0:
228,252,25211,1,8,0:0:0:0:
231,252,25338,1,8,0:0:0:0:
231,252,25465,1,8,0:0:0:0:
155,209,25592,1,8,0:0:0:0:
155,209,25655,1,8,0:0:0:0:
155,209,25719,1,0,0:0:0:0:
169,213,25846,1,8,0:0:0:0:
172,213,25910,1,8,0:0:0:0:
172,213,25973,1,0,0:0:0:0:
237,220,26100,1,0,0:0:0:0:
253,127,26164,1,0,0:0:0:0:
253,127,26228,1,8,0:0:0:0:
253,127,26291,1,8,0:0:0:0:
253,127,26355,1,8,0:0:0:0:
228,225,26482,1,8,0:0:0:0:
258,260,26609,1,4,0:0:0:0:
246,256,26736,1,8,0:0:0:0:
236,206,26863,1,8,0:0:0:0:
236,206,26990,1,0,0:0:0:0:
141,182,27117,1,8,0:0:0:0:
141,182,27181,1,8,0:0:0:0:
141,182,27244,1,8,0:0:0:0:
224,197,27372,1,0,0:0:0:0:
224,197,27499,1,8,0:0:0:0:
224,197,27626,1,0,0:0:0:0:
224,196,27689,1,0,0:0:0:0:
220,196,27753,1,0,0:0:0:0:
225,137,27880,1,8,0:0:0:0:
225,137,28007,1,0,0:0:0:0:
190,142,28134,1,8,0:0:0:0:
190,142,28198,1,8,0:0:0:0:
190,142,28261,1,0,0:0:0:0:
185,138,28325,1,0,0:0:0:0:
184,138,28389,1,8,0:0:0:0:
184,137,28452,1,8,0:0:0:0:
185,137,28516,1,0,0:0:0:0:
228,188,28643,1,0,0:0:0:0:
228,188,28706,1,0,0:0:0:0:
228,188,28770,1,8,0:0:0:0:
228,188,28897,1,0,0:0:0:0:
228,188,28961,1,0,0:0:0:0:
228,188,29024,1,8,0:0:0:0:
235,144,29151,1,0,0:0:0:0:
276,213,29215,1,0,0:0:0:0:
235,144,29278,1,8,0:0:0:0:
276,213,29342,1,8,0:0:0:0:
235,144,29405,1,8,0:0:0:0:
256,232,29533,1,0,0:0:0:0:
221,188,29660,1,6,0:0:0:0:
221,188,29787,1,4,0:0:0:0:
221,188,29914,1,4,0:0:0:0:
221,188,30041,1,6,0:0:0:0:
221,188,30295,1,6,0:0:0:0:
201,212,30677,1,4,0:0:0:0:
186,261,30931,1,8,0:0:0:0:
186,261,31058,1,8,0:0:0:0:
152,316,31185,1,0,0:0:0:0:
152,316,31249,1,0,0:0:0:0:
146,312,31312,1,0,0:0:0:0:
268,299,31439,1,8,0:0:0:0:
268,299,31567,1,0,0:0:0:0:
240,227,31694,1,0,0:0:0:0:
193,217,31821,1,0,0:0:0:0:
193,217,31884,1,0,0:0:0:0:
193,217,31948,1,8,0:0:0:0:
195,230,32075,1,8,0:0:0:0:
195,230,32202,1,0,0:0:0:0:
195,230,32266,1,0,0:0:0:0:
195,230,32329,1,0,0:0:0:0:
195,230,32393,1,0,0:0:0:0:
195,230,32456,1,8,0:0:0:0:
247,248,32583,1,0,0:0:0:0:
205,240,32711,1,0,0:0:0:0:
201,238,32774,1,0,0:0:0:0:
201,238,32838,1,0,0:0:0:0:
201,238,32965,1,8,0:0:0:0:
201,238,33092,1,0,0:0:0:0:
253,278,33219,1,0,0:0:0:0:
253,278,33283,1,0,0:0:0:0:
253,278,33346,1,0,0:0:0:0:
254,244,33473,1,8,0:0:0:0:
254,244,33600,1,8,0:0:0:0:
202,200,33728,1,0,0:0:0:0:
202,200,33791,1,0,0:0:0:0:
202,200,33855,1,8,0:0:0:0:
202,200,33982,1,0,0:0:0:0:
202,200,34109,1,8,0:0:0:0:
202,200,34236,1,0,0:0:0:0:
202,200,34300,1,0,0:0:0:0:
202,200,34363,1,8,0:0:0:0:
202,200,34427,1,8,0:0:0:0:
202,200,34490,1,0,0:0:0:0:
155,188,34617,1,8,0:0:0:0:
233,180,34744,1,0,0:0:0:0:
253,223,34999,1,8,0:0:0:0:
253,223,35126,1,8,0:0:0:0:
267,248,35253,1,0,0:0:0:0:
267,248,35317,1,0,0:0:0:0:
267,248,35380,1,8,0:0:0:0:
283,172,35507,1,8,0:0:0:0:
283,172,35634,1,0,0:0:0:0:
148,152,35761,1,8,0:0:0:0:
147,156,35825,1,8,0:0:0:0:
147,156,35889,1,0,0:0:0:0:
182,197,36016,1,8,0:0:0:0:
182,197,36143,1,8,0:0:0:0:
180,223,36270,1,0,0:0:0:0:
178,219,36333,1,0,0:0:0:0:
169,220,36397,1,8,0:0:0:0:
195,244,36524,1,0,0:0:0:0:
195,244,36651,1,8,0:0:0:0:
161,218,36778,1,0,0:0:0:0:
161,218,36842,1,0,0:0:0:0:
161,218,36905,1,8,0:0:0:0:
184,202,37033,1,8,0:0:0:0:
183,204,37160,1,0,0:0:0:0:
183,209,37287,1,8,0:0:0:0:
183,209,37350,1,8,0:0:0:0:
183,209,37414,1,0,0:0:0:0:
184,202,37541,1,0,0:0:0:0:
184,202,37668,1,8,0:0:0:0:
134,207,37795,1,0,0:0:0:0:
134,207,37859,1,0,0:0:0:0:
134,207,37922,1,8,0:0:0:0:
219,258,37986,1,8,0:0:0:0:
134,207,38050,1,0,0:0:0:0:
134,207,38177,1,8,0:0:0:0:
180,234,38304,1,0,0:0:0:0:
180,234,38367,1,0,0:0:0:0:
152,206,38431,1,8,0:0:0:0:
151,200,38494,1,8,0:0:0:0:
152,199,38558,1,0,0:0:0:0:
152,199,38622,1,0,0:0:0:0:
152,199,38685,1,8,0:0:0:0:
140,194,38812,1,4,0:0:0:0:
178,245,39067,1,8,0:0:0:0:
178,245,39194,1,8,0:0:0:0:
241,244,39321,1,0,0:0:0:0:
241,244,39384,1,0,0:0:0:0:
241,244,39448,1,0,0:0:0:0:
241,244,39575,1,8,0:0:0:0:
241,244,39702,1,0,0:0:0:0:
110,155,39829,1,8,0:0:0:0:
110,155,39893,1,8,0:0:0:0:
110,155,39956,1,0,0:0:0:0:
243,191,40083,1,0,0:0:0:0:
243,191,40211,1,8,0:0:0:0:
244,209,40338,1,0,0:0:0:0:
244,209,40401,1,0,0:0:0:0:
244,209,40465,1,8,0:0:0:0:
186,172,40528,1,8,0:0:0:0:
186,172,40592,1,0,0:0:0:0:
186,172,40719,1,8,0:0:0:0:
162,172,40846,1,8,0:0:0:0:
162,172,40910,1,8,0:0:0:0:
162,172,40973,1,0,0:0:0:0:
162,172,41100,1,0,0:0:0:0:
222,115,41228,1,8,0:0:0:0:
222,115,41355,1,8,0:0:0:0:
222,115,41418,1,8,0:0:0:0:
222,115,41482,1,0,0:0:0:0:
208,139,41609,1,8,0:0:0:0:
208,139,41736,1,8,0:0:0:0:
190,124,41863,1,8,0:0:0:0:
190,124,41927,1,8,0:0:0:0:
190,124,41990,1,0,0:0:0:0:
252,209,42054,1,0,0:0:0:0:
200,171,42117,1,8,0:0:0:0:
200,171,42244,1,0,0:0:0:0:
200,171,42372,1,8,0:0:0:0:
200,176,42435,1,8,0:0:0:0:
200,176,42499,1,0,0:0:0:0:
277,180,42562,1,0,0:0:0:0:
391,223,42626,1,8,0:0:0:0:
277,180,42689,1,0,0:0:0:0:
169,154,42753,1,8,0:0:0:0:
185,190,42880,1,0,0:0:0:0:
185,190,43134,1,0,0:0:0:0:
185,190,43261,1,0,0:0:0:0:
185,190,43389,1,0,0:0:0:0:
185,190,43452,1,0,0:0:0:0:
185,190,43516,1,8,0:0:0:0:
185,190,43643,1,0,0:0:0:0:
185,190,43770,1,8,0:0:0:0:
163,192,43897,1,0,0:0:0:0:
163,192,43961,1,0,0:0:0:0:
163,192,44024,1,0,0:0:0:0:
212,219,44151,1,8,0:0:0:0:
212,219,44278,1,0,0:0:0:0:
192,191,44405,1,8,0:0:0:0:
192,191,44469,1,8,0:0:0:0:
192,191,44533,1,0,0:0:0:0:
192,191,44596,1,0,0:0:0:0:
192,191,44660,1,8,0:0:0:0:
192,191,44787,1,8,0:0:0:0:
294,107,44914,1,8,0:0:0:0:
294,107,44978,1,8,0:0:0:0:
294,107,45041,1,0,0:0:0:0:
77,131,45168,1,8,0:0:0:0:
230,112,45295,1,0,0:0:0:0:
99,189,45422,1,8,0:0:0:0:
216,91,45486,1,8,0:0:0:0:
99,189,45550,1,0,0:0:0:0:
189,206,45677,1,8,0:0:0:0:
216,143,45804,1,0,0:0:0:0:
212,182,45931,1,8,0:0:0:0:
212,182,45994,1,8,0:0:0:0:
212,182,46058,1,0,0:0:0:0:
212,182,46122,1,0,0:0:0:0:
212,182,46185,1,8,0:0:0:0:
208,175,46312,1,0,0:0:0:0:
208,175,46439,1,6,0:0:0:0:
208,175,46694,1,8,0:0:0:0:
208,175,46757,1,8,0:0:0:0:
208,175,46821,1,0,0:0:0:0:
208,175,46948,1,4,0:0:0:0:
169,214,47075,1,0,0:0:0:0:
169,214,47202,1,8,0:0:0:0:
169,214,47329,1,0,0:0:0:0:
377,264,47456,1,8,0:0:0:0:
377,264,47583,1,8,0:0:0:0:
311,208,47711,1,0,0:0:0:0:
311,208,47838,1,8,0:0:0:0:
364,108,47965,1,0,0:0:0:0:
364,108,48028,1,0,0:0:0:0:
364,108,48092,1,0,0:0:0:0:
364,108,48219,1,8,0:0:0:0:
216,200,48346,1,0,0:0:0:0:
233,142,48473,1,8,0:0:0:0:
233,142,48600,1,8,0:0:0:0:
177,97,48728,1,0,0:0:0:0:
177,97,48855,1,8,0:0:0:0:
200,145,48982,1,0,0:0:0:0:
200,145,49109,1,0,0:0:0:0:
200,145,49236,1,8,0:0:0:0:
200,145,49321,1,8,0:0:0:0:
200,145,49405,1,8,0:0:0:0:
200,145,49490,1,0,0:0:0:0:
243,193,49617,1,0,0:0:0:0:
243,193,49744,1,8,0:0:0:0:
243,193,49829,1,0,0:0:0:0:
243,193,49914,1,0,0:0:0:0:
242,267,49999,1,8,0:0:0:0:
262,235,50253,1,4,0:0:0:0:
262,235,50507,1,6,0:0:0:0:
241,235,50761,1,8,0:0:0:0:
377,182,50825,1,8,0:0:0:0:
377,182,50889,1,8,0:0:0:0:
377,182,50952,1,8,0:0:0:0:
377,182,51016,1,0,0:0:0:0:
194,210,51143,1,8,0:0:0:0:
194,210,51270,1,8,0:0:0:0:
194,210,51397,1,0,0:0:0:0:
253,123,51524,1,8,0:0:0:0:
194,210,51588,1,8,0:0:0:0:
253,123,51651,1,8,0:0:0:0:
253,123,51778,1,0,0:0:0:0:
253,123,51905,1,8,0:0:0:0:
270,186,52033,1,0,0:0:0:0:
270,186,52096,1,0,0:0:0:0:
270,186,52160,1,0,0:0:0:0:
270,186,52287,1,8,0:0:0:0:
270,186,52414,1,0,0:0:0:0:
270,186,52541,1,0,0:0:0:0:
270,186,52605,1,0,0:0:0:0:
270,186,52668,1,0,0:0:0:0:
270,186,52795,1,8,0:0:0:0:
270,186,52922,1,8,0:0:0:0:
208,108,53050,1,0,0:0:0:0:
208,108,53177,1,8,0:0:0:0:
339,138,53304,1,8,0:0:0:0:
339,138,53389,1,8,0:0:0:0:
339,138,53473,1,8,0:0:0:0:
339,138,53558,1,0,0:0:0:0:
369,185,53685,1,0,0:0:0:0:
369,185,53812,1,8,0:0:0:0:
369,185,53876,1,8,0:0:0:0:
369,185,53939,1,0,0:0:0:0:
380,165,54067,1,4,0:0:0:0:
201,213,54829,1,8,0:0:0:0:
201,213,54956,1,0,0:0:0:0:
201,213,55083,1,8,0:0:0:0:
256,147,55338,1,8,0:0:0:0:
256,147,55465,1,8,0:0:0:0:
256,147,55719,1,8,0:0:0:0:
256,147,55973,1,8,0:0:0:0:
256,147,56228,1,8,0:0:0:0:
303,233,56355,1,0,0:0:0:0:
275,181,56482,1,0,0:0:0:0:
217,189,56609,1,8,0:0:0:0:
217,189,56736,1,8,0:0:0:0:
217,189,56863,1,0,0:0:0:0:
217,189,56990,1,8,0:0:0:0:
139,217,57117,1,4,0:0:0:0:
139,217,57372,1,8,0:0:0:0:
139,217,57499,1,8,0:0:0:0:
212,235,57753,1,8,0:0:0:0:
212,235,58007,1,8,0:0:0:0:
301,207,58134,1,0,0:0:0:0:
301,207,58261,1,8,0:0:0:0:
301,207,58516,1,8,0:0:0:0:
301,207,58770,1,8,0:0:0:0:
326,232,58897,1,0,0:0:0:0:
280,264,59151,1,6,0:0:0:0:
294,218,59278,1,0,0:0:0:0:
294,218,59342,1,0,0:0:0:0:
304,299,59405,1,8,0:0:0:0:
280,264,59533,1,6,0:0:0:0:
227,143,59660,1,0,0:0:0:0:
227,143,59723,1,0,0:0:0:0:
304,299,59787,1,8,0:0:0:0:
280,264,59914,1,6,0:0:0:0:
222,216,60041,1,0,0:0:0:0:
222,216,60105,1,0,0:0:0:0:
304,299,60168,1,8,0:0:0:0:
280,264,60295,1,6,0:0:0:0:
258,164,60422,1,0,0:0:0:0:
258,164,60486,1,0,0:0:0:0:
304,299,60550,1,8,0:0:0:0:
280,264,60677,1,6,0:0:0:0:
221,142,60804,1,8,0:0:0:0:
221,142,60867,1,0,0:0:0:0:
221,142,60931,1,0,0:0:0:0:
283,161,60994,1,0,0:0:0:0:
194,158,61058,1,8,0:0:0:0:
280,264,61185,1,6,0:0:0:0:
194,158,61312,1,0,0:0:0:0:
194,158,61376,1,0,0:0:0:0:
435,282,61439,1,8,0:0:0:0:
280,264,61567,1,6,0:0:0:0:
200,146,61694,1,0,0:0:0:0:
200,146,61757,1,0,0:0:0:0:
338,176,61821,1,8,0:0:0:0:
338,176,61884,1,8,0:0:0:0:
338,176,61948,1,0,0:0:0:0:
203,146,62075,1,8,0:0:0:0:
206,233,62202,1,0,0:0:0:0:
280,153,62329,1,0,0:0:0:0:
280,153,62456,1,8,0:0:0:0:
280,153,62583,1,0,0:0:0:0:
280,153,62711,1,8,0:0:0:0:
173,198,62965,1,8,0:0:0:0:
173,198,63028,1,8,0:0:0:0:
178,198,63092,1,8,0:0:0:0:
179,207,63155,1,8,0:0:0:0:
181,213,63219,1,0,0:0:0:0:
245,211,63346,1,0,0:0:0:0:
245,211,63410,1,0,0:0:0:0:
245,211,63473,1,8,0:0:0:0:
232,263,63600,1,0,0:0:0:0:
236,254,63728,1,8,0:0:0:0:
236,251,63791,1,8,0:0:0:0:
236,251,63855,1,0,0:0:0:0:
237,223,63982,1,8,0:0:0:0:
237,188,64109,1,0,0:0:0:0:
248,195,64236,1,8,0:0:0:0:
248,195,64300,1,8,0:0:0:0:
248,195,64363,1,0,0:0:0:0:
251,196,64427,1,0,0:0:0:0:
252,196,64490,1,8,0:0:0:0:
288,222,64617,1,8,0:0:0:0:
162,152,64744,1,0,0:0:0:0:
263,318,64872,1,0,0:0:0:0:
263,318,64935,1,0,0:0:0:0:
263,318,64999,1,8,0:0:0:0:
222,183,65126,1,0,0:0:0:0:
150,219,65253,1,8,0:0:0:0:
144,208,65380,1,8,0:0:0:0:
189,133,65444,1,8,0:0:0:0:
230,255,65507,1,0,0:0:0:0:
230,255,65634,1,8,0:0:0:0:
196,222,65761,1,0,0:0:0:0:
257,163,65825,1,0,0:0:0:0:
261,163,65889,1,8,0:0:0:0:
261,163,65952,1,0,0:0:0:0:
261,163,66016,1,8,0:0:0:0:
294,223,66143,1,0,0:0:0:0:
176,142,66270,1,8,0:0:0:0:
176,142,66333,1,8,0:0:0:0:
176,142,66397,1,0,0:0:0:0:
214,117,66524,1,8,0:0:0:0:
214,117,66588,1,8,0:0:0:0:
214,117,66651,1,0,0:0:0:0:
175,185,66778,1,8,0:0:0:0:
183,255,66842,1,0,0:0:0:0:
246,246,66905,1,8,0:0:0:0:
246,246,66969,1,8,0:0:0:0:
246,246,67033,1,0,0:0:0:0:
259,265,67096,1,0,0:0:0:0:
184,227,67160,1,8,0:0:0:0:
204,213,67287,1,4,0:0:0:0:
173,233,67414,1,8,0:0:0:0:
173,233,67541,1,8,0:0:0:0:
222,188,67668,1,0,0:0:0:0:
222,188,67732,1,0,0:0:0:0:
222,188,67795,1,8,0:0:0:0:
222,188,67922,1,0,0:0:0:0:
222,188,68050,1,8,0:0:0:0:
219,183,68113,1,8,0:0:0:0:
219,183,68177,1,0,0:0:0:0:
286,235,68304,1,8,0:0:0:0:
140,210,68367,1,8,0:0:0:0:
195,175,68431,1,0,0:0:0:0:
195,175,68494,1,0,0:0:0:0:
440,269,68558,1,8,0:0:0:0:
195,175,68685,1,8,0:0:0:0:
278,143,68812,1,0,0:0:0:0:
278,143,68876,1,0,0:0:0:0:
258,144,68939,1,0,0:0:0:0:
248,146,69067,1,8,0:0:0:0:
230,205,69194,1,0,0:0:0:0:
230,205,69321,1,8,0:0:0:0:
230,205,69448,1,0,0:0:0:0:
230,205,69511,1,0,0:0:0:0:
230,205,69575,1,8,0:0:0:0:
230,205,69639,1,8,0:0:0:0:
230,205,69702,1,8,0:0:0:0:
230,205,69829,1,8,0:0:0:0:
230,205,69893,1,8,0:0:0:0:
230,205,69956,1,0,0:0:0:0:
230,205,70083,1,8,0:0:0:0:
249,121,70211,1,0,0:0:0:0:
200,197,70338,1,0,0:0:0:0:
200,197,70401,1,0,0:0:0:0:
158,170,70465,1,8,0:0:0:0:
158,170,70592,1,8,0:0:0:0:
158,170,70655,1,8,0:0:0:0:
200,143,70719,1,0,0:0:0:0:
197,150,70846,1,8,0:0:0:0:
197,150,70910,1,8,0:0:0:0:
197,150,70973,1,8,0:0:0:0:
197,150,71037,1,8,0:0:0:0:
197,150,71100,1,0,0:0:0:0:
198,148,71164,1,0,0:0:0:0:
200,150,71228,1,0,0:0:0:0:
200,150,71291,1,0,0:0:0:0:
204,150,71355,1,8,0:0:0:0:
123,209,71482,1,0,0:0:0:0:
123,209,71545,1,0,0:0:0:0:
239,175,71609,1,8,0:0:0:0:
239,175,71736,1,8,0:0:0:0:
200,233,71863,1,8,0:0:0:0:
200,233,71927,1,8,0:0:0:0:
200,233,71990,1,0,0:0:0:0:
190,214,72117,1,8,0:0:0:0:
190,214,72244,1,8,0:0:0:0:
133,202,72372,1,8,0:0:0:0:
132,204,72435,1,8,0:0:0:0:
132,204,72499,1,0,0:0:0:0:
133,202,72626,1,8,0:0:0:0:
189,243,72753,1,0,0:0:0:0:
189,243,72817,1,0,0:0:0:0:
246,216,72880,1,8,0:0:0:0:
177,244,73007,1,8,0:0:0:0:
176,243,73134,1,8,0:0:0:0:
159,209,73261,1,0,0:0:0:0:
159,209,73325,1,0,0:0:0:0:
153,210,73389,1,8,0:0:0:0:
289,200,73516,1,0,0:0:0:0:
289,200,73643,1,8,0:0:0:0:
289,200,73770,1,8,0:0:0:0:
222,217,73897,1,0,0:0:0:0:
222,217,73961,1,0,0:0:0:0:
222,217,74024,1,8,0:0:0:0:
222,217,74088,1,8,0:0:0:0:
215,219,74151,1,0,0:0:0:0:
289,223,74278,1,8,0:0:0:0:
175,159,74405,1,8,0:0:0:0:
175,159,74469,1,8,0:0:0:0:
175,159,74533,1,0,0:0:0:0:
175,159,74660,1,8,0:0:0:0:
175,159,74723,1,8,0:0:0:0:
175,159,74787,1,8,0:0:0:0:
175,159,74914,1,8,0:0:0:0:
175,159,74978,1,8,0:0:0:0:
175,159,75041,1,0,0:0:0:0:
175,159,75105,1,0,0:0:0:0:
175,159,75168,1,8,0:0:0:0:
171,153,75295,1,8,0:0:0:0:
257,222,75422,1,4,0:0:0:0:
252,203,75550,1,8,0:0:0:0:
252,203,75677,1,8,0:0:0:0:
221,258,75804,1,0,0:0:0:0:
220,262,75867,1,0,0:0:0:0:
288,170,75931,1,8,0:0:0:0:
288,170,75994,1,8,0:0:0:0:
185,200,76058,1,8,0:0:0:0:
185,200,76185,1,8,0:0:0:0:
185,200,76312,1,0,0:0:0:0:
180,165,76439,1,8,0:0:0:0:
180,165,76503,1,8,0:0:0:0:
243,208,76567,1,0,0:0:0:0:
243,208,76630,1,0,0:0:0:0:
222,145,76694,1,8,0:0:0:0:
216,145,76821,1,0,0:0:0:0:
219,221,76948,1,0,0:0:0:0:
219,221,77011,1,0,0:0:0:0:
219,221,77075,1,0,0:0:0:0:
219,221,77139,1,0,0:0:0:0:
219,221,77202,1,8,0:0:0:0:
232,185,77266,1,8,0:0:0:0:
214,185,77329,1,0,0:0:0:0:
240,274,77456,1,8,0:0:0:0:
240,274,77520,1,8,0:0:0:0:
240,274,77583,1,0,0:0:0:0:
240,274,77711,1,0,0:0:0:0:
240,274,77774,1,0,0:0:0:0:
240,274,77838,1,8,0:0:0:0:
251,227,77965,1,0,0:0:0:0:
251,227,78028,1,0,0:0:0:0:
251,227,78092,1,0,0:0:0:0:
251,227,78219,1,8,0:0:0:0:
243,229,78283,1,8,0:0:0:0:
242,229,78346,1,8,0:0:0:0:
160,217,78473,1,8,0:0:0:0:
160,217,78537,1,8,0:0:0:0:
160,217,78600,1,0,0:0:0:0:
160,217,78664,1,0,0:0:0:0:
160,217,78728,1,8,0:0:0:0:
347,208,78855,1,6,0:0:0:0:
347,208,79109,1,6,0:0:0:0:
280,203,79236,1,8,0:0:0:0:
280,203,79300,1,8,0:0:0:0:
280,203,79363,1,8,0:0:0:0:
280,203,79427,1,8,0:0:0:0:
280,203,79490,1,0,0:0:0:0:
328,193,79617,1,0,0:0:0:0:
244,145,79744,1,8,0:0:0:0:
244,145,79872,1,8,0:0:0:0:
244,145,79999,1,0,0:0:0:0:
244,145,80126,1,8,0:0:0:0:
244,145,80253,1,8,0:0:0:0:
285,245,80380,1,8,0:0:0:0:
204,189,80507,1,0,0:0:0:0:
220,204,80571,1,0,0:0:0:0:
199,206,80634,1,0,0:0:0:0:
280,255,80761,1,8,0:0:0:0:
280,255,80889,1,0,0:0:0:0:
274,237,81016,1,8,0:0:0:0:
274,237,81143,1,8,0:0:0:0:
274,236,81270,1,0,0:0:0:0:
274,236,81397,1,8,0:0:0:0:
226,206,81524,1,0,0:0:0:0:
225,206,81588,1,0,0:0:0:0:
269,144,81651,1,0,0:0:0:0:
269,144,81778,1,8,0:0:0:0:
269,144,81905,1,0,0:0:0:0:
269,144,82033,1,0,0:0:0:0:
269,144,82096,1,0,0:0:0:0:
269,144,82160,1,0,0:0:0:0:
269,144,82287,1,8,0:0:0:0:
269,144,82414,1,8,0:0:0:0:
258,271,82541,1,0,0:0:0:0:
263,259,82605,1,0,0:0:0:0:
263,259,82668,1,0,0:0:0:0:
263,259,82732,1,0,0:0:0:0:
263,259,82795,1,8,0:0:0:0:
217,157,82922,1,0,0:0:0:0:
217,157,83050,1,8,0:0:0:0:
217,157,83113,1,8,0:0:0:0:
217,157,83177,1,0,0:0:0:0:
217,157,83240,1,0,0:0:0:0:
217,157,83304,1,8,0:0:0:0:
210,158,83367,1,0,0:0:0:0:
209,158,83431,1,8,0:0:0:0:
289,156,83558,1,0,0:0:0:0:
289,156,83685,1,0,0:0:0:0:
289,156,83812,1,8,0:0:0:0:
289,156,83939,1,0,0:0:0:0:
174,201,84067,1,8,0:0:0:0:
236,227,84130,1,8,0:0:0:0:
174,201,84194,1,8,0:0:0:0:
174,201,84321,1,0,0:0:0:0:
174,201,84448,1,8,0:0:0:0:
290,223,84575,1,0,0:0:0:0:
278,229,84639,1,0,0:0:0:0:
280,229,84702,1,0,0:0:0:0:
241,192,84829,1,8,0:0:0:0:
201,178,84956,1,0,0:0:0:0:
201,178,85083,1,8,0:0:0:0:
195,212,85211,1,8,0:0:0:0:
195,212,85338,1,0,0:0:0:0:
249,253,85592,1,6,0:0:0:0:
326,198,85719,1,0,0:0:0:0:
249,253,85846,1,6,0:0:0:0:
321,198,85973,1,0,0:0:0:0:
249,253,86100,1,6,0:0:0:0:
321,198,86228,1,0,0:0:0:0:
249,253,86355,1,6,0:0:0:0:
321,198,86482,1,0,0:0:0:0:
249,253,86609,1,6,0:0:0:0:
425,145,86736,1,0,0:0:0:0:
425,145,86863,1,8,0:0:0:0:
425,145,86990,1,8,0:0:0:0:
425,145,87117,1,0,0:0:0:0:
209,227,87372,1,8,0:0:0:0:
209,227,87435,1,8,0:0:0:0:
209,227,87499,1,0,0:0:0:0:
209,227,87562,1,0,0:0:0:0:
209,227,87626,1,8,0:0:0:0:
164,216,87753,1,8,0:0:0:0:
160,242,87880,1,0,0:0:0:0:
160,242,87944,1,0,0:0:0:0:
160,242,88007,1,8,0:0:0:0:
259,267,88134,1,8,0:0:0:0:
259,267,88261,1,0,0:0:0:0:
119,246,88389,1,0,0:0:0:0:
119,246,88452,1,0,0:0:0:0:
119,246,88516,1,8,0:0:0:0:
259,267,88643,1,0,0:0:0:0:
259,267,88770,1,0,0:0:0:0:
259,267,88833,1,0,0:0:0:0:
259,267,88897,1,8,0:0:0:0:
259,267,89024,1,8,0:0:0:0:
198,219,89151,1,0,0:0:0:0:
198,219,89215,1,0,0:0:0:0:
198,219,89278,1,0,0:0:0:0:
198,219,89342,1,0,0:0:0:0:
198,219,89405,1,8,0:0:0:0:
198,219,89533,1,0,0:0:0:0:
180,252,89660,1,8,0:0:0:0:
159,248,89787,1,0,0:0:0:0:
159,248,89850,1,0,0:0:0:0:
159,248,89914,1,0,0:0:0:0:
159,248,90041,1,8,0:0:0:0:
159,248,90168,1,0,0:0:0:0:
158,249,90232,1,0,0:0:0:0:
158,249,90295,1,8,0:0:0:0:
163,264,90359,1,8,0:0:0:0:
163,264,90422,1,0,0:0:0:0:
220,206,90550,1,8,0:0:0:0:
221,206,90677,1,0,0:0:0:0:
221,206,90804,1,0,0:0:0:0:
220,206,90867,1,0,0:0:0:0:
221,206,90931,1,8,0:0:0:0:
220,206,91058,1,0,0:0:0:0:
220,206,91122,1,0,0:0:0:0:
220,206,91185,1,8,0:0:0:0:
255,187,91249,1,0,0:0:0:0:
255,187,91312,1,8,0:0:0:0:
76,210,91439,1,0,0:0:0:0:
76,210,91567,1,8,0:0:0:0:
132,213,91694,1,4,0:0:0:0:
132,213,91821,1,8,0:0:0:0:
132,213,91948,1,8,0:0:0:0:
127,200,92075,1,8,0:0:0:0:
127,200,92139,1,8,0:0:0:0:
132,213,92202,1,0,0:0:0:0:
127,201,92329,1,8,0:0:0:0:
127,201,92456,1,8,0:0:0:0:
127,201,92583,1,8,0:0:0:0:
116,206,92647,1,8,0:0:0:0:
116,206,92711,1,0,0:0:0:0:
115,210,92774,1,0,0:0:0:0:
115,210,92838,1,8,0:0:0:0:
256,192,92965,1,0,0:0:0:0:
219,259,93092,1,8,0:0:0:0:
219,259,93219,1,0,0:0:0:0:
219,259,93283,1,0,0:0:0:0:
219,259,93346,1,8,0:0:0:0:
219,259,93410,1,8,0:0:0:0:
219,259,93473,1,8,0:0:0:0:
214,257,93600,1,0,0:0:0:0:
213,257,93728,1,8,0:0:0:0:
213,257,93791,1,8,0:0:0:0:
213,257,93855,1,0,0:0:0:0:
172,181,93982,1,8,0:0:0:0:
172,181,94109,1,0,0:0:0:0:
142,193,94236,1,8,0:0:0:0:
503,207,94300,1,8,0:0:0:0:
98,212,94363,1,0,0:0:0:0:
98,212,94427,1,0,0:0:0:0:
98,212,94490,1,0,0:0:0:0:
430,196,94617,1,8,0:0:0:0:
146,240,94744,1,0,0:0:0:0:
146,240,94808,1,0,0:0:0:0:
146,240,94872,1,8,0:0:0:0:
146,240,94999,1,0,0:0:0:0:
146,240,95062,1,8,0:0:0:0:
146,240,95126,1,8,0:0:0:0:
236,128,95253,1,0,0:0:0:0:
236,128,95317,1,0,0:0:0:0:
85,226,95380,1,0,0:0:0:0:
87,227,95444,1,0,0:0:0:0:
85,226,95507,1,8,0:0:0:0:
85,226,95571,1,8,0:0:0:0:
85,226,95634,1,8,0:0:0:0:
85,226,95698,1,8,0:0:0:0:
85,226,95761,1,0,0:0:0:0:
213,234,95889,1,8,0:0:0:0:
213,234,96016,1,8,0:0:0:0:
213,234,96143,1,0,0:0:0:0:
98,288,96270,1,8,0:0:0:0:
98,288,96333,1,8,0:0:0:0:
98,288,96397,1,8,0:0:0:0:
113,276,96524,1,0,0:0:0:0:
113,276,96651,1,8,0:0:0:0:
180,254,96905,1,8,0:0:0:0:
180,254,97033,1,0,0:0:0:0:
180,254,97160,1,8,0:0:0:0:
153,220,97287,1,0,0:0:0:0:
260,240,97350,1,0,0:0:0:0:
85,208,97414,1,0,0:0:0:0:
153,220,97478,1,0,0:0:0:0:
153,220,97541,1,8,0:0:0:0:
153,189,97668,1,0,0:0:0:0:
216,134,97795,1,0,0:0:0:0:
216,134,97880,1,0,0:0:0:0:
216,134,97965,1,0,0:0:0:0:
216,134,98050,1,8,0:0:0:0:
316,245,98177,1,0,0:0:0:0:
222,134,98304,1,8,0:0:0:0:
222,134,98389,1,8,0:0:0:0:
222,134,98473,1,8,0:0:0:0:
222,134,98558,1,0,0:0:0:0:
236,283,98685,1,0,0:0:0:0:
243,176,98812,1,0,0:0:0:0:
228,164,98897,1,8,0:0:0:0:
228,164,98982,1,8,0:0:0:0:
231,164,99067,1,0,0:0:0:0:
253,223,99194,1,0,0:0:0:0:
253,223,99321,1,8,0:0:0:0:
253,223,99384,1,8,0:0:0:0:
253,223,99448,1,0,0:0:0:0:
228,228,99511,1,0,0:0:0:0:
248,221,99575,1,8,0:0:0:0:
248,221,99639,1,8,0:0:0:0:
248,221,99702,1,0,0:0:0:0:
247,221,99829,1,4,0:0:0:0:
133,177,99956,1,8,0:0:0:0:
133,177,100083,1,8,0:0:0:0:
133,177,100211,1,0,0:0:0:0:
133,177,100338,1,8,0:0:0:0:
133,177,100401,1,8,0:0:0:0:
133,177,100465,1,8,0:0:0:0:
133,177,100592,1,0,0:0:0:0:
133,177,100719,1,8,0:0:0:0:
150,234,100846,1,0,0:0:0:0:
150,234,100910,1,0,0:0:0:0:
150,234,100973,1,0,0:0:0:0:
150,234,101037,1,0,0:0:0:0:
150,234,101100,1,8,0:0:0:0:
139,221,101228,1,8,0:0:0:0:
139,221,101355,1,0,0:0:0:0:
139,221,101482,1,8,0:0:0:0:
263,224,101736,1,8,0:0:0:0:
160,265,101863,1,0,0:0:0:0:
160,265,101927,1,0,0:0:0:0:
160,265,101990,1,0,0:0:0:0:
160,265,102117,1,0,0:0:0:0:
160,265,102181,1,0,0:0:0:0:
160,265,102244,1,8,0:0:0:0:
178,216,102372,1,0,0:0:0:0:
206,259,102435,1,8,0:0:0:0:
206,259,102499,1,8,0:0:0:0:
207,242,102626,1,0,0:0:0:0:
207,242,102753,1,8,0:0:0:0:
177,240,102880,1,4,0:0:0:0:
169,252,103007,1,8,0:0:0:0:
169,252,103134,1,8,0:0:0:0:
164,248,103261,1,4,0:0:0:0:
164,248,103516,1,4,0:0:0:0:
156,241,103643,1,8,0:0:0:0:
144,160,103706,1,8,0:0:0:0:
144,160,103770,1,8,0:0:0:0:
144,160,103833,1,8,0:0:0:0:
144,160,103897,1,0,0:0:0:0:
223,266,104151,1,8,0:0:0:0:
223,266,104278,1,8,0:0:0:0:
223,266,104405,1,0,0:0:0:0:
223,266,104469,1,0,0:0:0:0:
223,266,104533,1,0,0:0:0:0:
293,265,104660,1,8,0:0:0:0:
293,265,104787,1,0,0:0:0:0:
168,196,104914,1,8,0:0:0:0:
168,196,105041,1,0,0:0:0:0:
168,196,105105,1,0,0:0:0:0:
168,196,105168,1,8,0:0:0:0:
219,184,105295,1,8,0:0:0:0:
219,184,105422,1,0,0:0:0:0:
219,184,105486,1,0,0:0:0:0:
219,184,105550,1,0,0:0:0:0:
219,184,105613,1,0,0:0:0:0:
219,184,105677,1,8,0:0:0:0:
253,231,105804,1,0,0:0:0:0:
248,126,105931,1,8,0:0:0:0:
248,126,105994,1,8,0:0:0:0:
248,126,106058,1,8,0:0:0:0:
242,154,106185,1,8,0:0:0:0:
242,154,106312,1,0,0:0:0:0:
242,154,106439,1,8,0:0:0:0:
242,154,106503,1,8,0:0:0:0:
242,154,106567,1,8,0:0:0:0:
242,154,106694,1,0,0:0:0:0:
242,154,106821,1,8,0:0:0:0:
169,226,106948,1,8,0:0:0:0:
169,226,107011,1,8,0:0:0:0:
158,237,107075,1,0,0:0:0:0:
176,224,107202,1,8,0:0:0:0:
434,264,107329,1,0,0:0:0:0:
176,224,107456,1,0,0:0:0:0:
176,224,107520,1,0,0:0:0:0:
176,224,107583,1,0,0:0:0:0:
176,224,107647,1,0,0:0:0:0:
178,224,107711,1,8,0:0:0:0:
178,224,107838,1,0,0:0:0:0:
246,251,107965,1,0,0:0:0:0:
217,287,108219,1,8,0:0:0:0:
206,132,108283,1,8,0:0:0:0:
217,287,108346,1,0,0:0:0:0:
350,195,108473,1,8,0:0:0:0:
208,206,108600,1,0,0:0:0:0:
208,206,108728,1,8,0:0:0:0:
208,206,108855,1,8,0:0:0:0:
135,192,108982,1,8,0:0:0:0:
135,192,109045,1,8,0:0:0:0:
135,192,109109,1,0,0:0:0:0:
135,192,109172,1,0,0:0:0:0:
135,192,109236,1,8,0:0:0:0:
246,223,109363,1,0,0:0:0:0:
246,223,109490,1,8,0:0:0:0:
192,238,109554,1,8,0:0:0:0:
192,238,109617,1,8,0:0:0:0:
258,263,109744,1,0,0:0:0:0:
258,263,109872,1,8,0:0:0:0:
285,106,109999,1,8,0:0:0:0:
285,106,110062,1,8,0:0:0:0:
285,106,110126,1,0,0:0:0:0:
175,147,110253,1,8,0:0:0:0:
175,147,110380,1,0,0:0:0:0:
267,124,110507,1,8,0:0:0:0:
267,124,110571,1,8,0:0:0:0:
267,124,110634,1,0,0:0:0:0:
265,186,110761,1,8,0:0:0:0:
265,186,110889,1,8,0:0:0:0:
267,124,111016,1,8,0:0:0:0:
179,213,111079,1,8,0:0:0:0:
179,213,111143,1,0,0:0:0:0:
179,213,111206,1,0,0:0:0:0:
253,240,111270,1,0,0:0:0:0:
253,240,111397,1,8,0:0:0:0:
267,124,111524,1,8,0:0:0:0:
409,127,111651,1,0,0:0:0:0:
409,127,111778,1,8,0:0:0:0:
409,127,111905,1,0,0:0:0:0:
253,240,112033,1,4,0:0:0:0:
223,232,112287,1,8,0:0:0:0:
223,232,112414,1,8,0:0:0:0:
161,238,112541,1,0,0:0:0:0:
161,238,112605,1,0,0:0:0:0:
161,238,112668,1,0,0:0:0:0:
166,235,112795,1,8,0:0:0:0:
276,218,112922,1,0,0:0:0:0:
225,282,113050,1,0,0:0:0:0:
258,299,113113,1,0,0:0:0:0:
258,299,113177,1,8,0:0:0:0:
242,216,113304,1,0,0:0:0:0:
213,228,113431,1,8,0:0:0:0:
216,211,113494,1,8,0:0:0:0:
219,195,113558,1,0,0:0:0:0:
242,216,113685,1,8,0:0:0:0:
242,216,113812,1,0,0:0:0:0:
242,216,113939,1,8,0:0:0:0:
256,209,114067,1,0,0:0:0:0:
256,209,114130,1,0,0:0:0:0:
256,209,114194,1,0,0:0:0:0:
256,209,114321,1,8,0:0:0:0:
256,209,114448,1,0,0:0:0:0:
306,237,114575,1,0,0:0:0:0:
306,237,114639,1,0,0:0:0:0:
306,237,114702,1,0,0:0:0:0:
268,221,114829,1,8,0:0:0:0:
268,221,114956,1,8,0:0:0:0:
230,222,115083,1,0,0:0:0:0:
230,222,115147,1,0,0:0:0:0:
230,222,115211,1,0,0:0:0:0:
268,249,115274,1,0,0:0:0:0:
230,222,115338,1,8,0:0:0:0:
230,222,115465,1,8,0:0:0:0:
294,240,115592,1,0,0:0:0:0:
294,240,115655,1,0,0:0:0:0:
294,240,115719,1,8,0:0:0:0:
294,240,115783,1,8,0:0:0:0:
294,240,115846,1,0,0:0:0:0:
258,109,115910,1,0,0:0:0:0:
233,203,115973,1,8,0:0:0:0:
237,204,116100,1,0,0:0:0:0:
249,238,116355,1,8,0:0:0:0:
249,238,116482,1,8,0:0:0:0:
191,213,116609,1,0,0:0:0:0:
191,213,116672,1,0,0:0:0:0:
191,213,116736,1,8,0:0:0:0:
191,213,116863,1,0,0:0:0:0:
191,213,116990,1,8,0:0:0:0:
290,246,117117,1,0,0:0:0:0:
290,246,117181,1,0,0:0:0:0:
290,246,117244,1,0,0:0:0:0:
241,215,117372,1,8,0:0:0:0:
241,215,117499,1,0,0:0:0:0:
241,209,117626,1,8,0:0:0:0:
241,209,117689,1,8,0:0:0:0:
136,206,117753,1,0,0:0:0:0:
136,206,117817,1,0,0:0:0:0:
241,209,117880,1,8,0:0:0:0:
235,222,118007,1,0,0:0:0:0:
235,222,118134,1,0,0:0:0:0:
186,216,118261,1,0,0:0:0:0:
186,216,118325,1,0,0:0:0:0:
186,216,118389,1,8,0:0:0:0:
420,164,118516,1,8,0:0:0:0:
420,164,118579,1,8,0:0:0:0:
420,164,118643,1,0,0:0:0:0:
420,164,118706,1,0,0:0:0:0:
420,164,118770,1,8,0:0:0:0:
246,203,118897,1,8,0:0:0:0:
295,241,118961,1,8,0:0:0:0:
295,241,119024,1,0,0:0:0:0:
246,203,119151,1,8,0:0:0:0:
246,203,119215,1,8,0:0:0:0:
246,203,119278,1,0,0:0:0:0:
246,203,119342,1,0,0:0:0:0:
246,203,119405,1,8,0:0:0:0:
209,161,119469,1,8,0:0:0:0:
261,180,119533,1,0,0:0:0:0:
420,218,119660,1,6,0:0:0:0:
294,190,119914,1,8,0:0:0:0:
294,190,119978,1,8,0:0:0:0:
294,190,120041,1,0,0:0:0:0:
187,194,120168,1,0,0:0:0:0:
187,194,120295,1,0,0:0:0:0:
251,208,120422,1,8,0:0:0:0:
93,209,120550,1,0,0:0:0:0:
232,245,120677,1,8,0:0:0:0:
93,209,120740,1,8,0:0:0:0:
308,186,120804,1,8,0:0:0:0:
231,171,120931,1,8,0:0:0:0:
230,203,121058,1,8,0:0:0:0:
259,192,121185,1,8,0:0:0:0:
259,192,121249,1,8,0:0:0:0:
259,192,121312,1,8,0:0:0:0:
259,192,121439,1,0,0:0:0:0:
233,209,121567,1,0,0:0:0:0:
259,192,121694,1,8,0:0:0:0:
259,192,121757,1,8,0:0:0:0:
259,192,121821,1,0,0:0:0:0:
273,191,121948,1,8,0:0:0:0:
195,203,122075,1,8,0:0:0:0:
195,203,122202,1,0,0:0:0:0:
247,196,122329,1,0,0:0:0:0:
247,196,122456,1,8,0:0:0:0:
239,137,122541,1,8,0:0:0:0:
239,137,122626,1,8,0:0:0:0:
236,150,122711,1,0,0:0:0:0:
193,220,122838,1,8,0:0:0:0:
363,179,122965,1,0,0:0:0:0:
307,234,123050,1,8,0:0:0:0:
307,234,123134,1,8,0:0:0:0:
307,234,123219,1,0,0:0:0:0:
254,273,123473,1,6,0:0:0:0:
254,273,123728,1,6,0:0:0:0:
409,123,123982,1,8,0:0:0:0:
409,123,124045,1,8,0:0:0:0:
409,123,124109,1,8,0:0:0:0:
409,123,124172,1,8,0:0:0:0:
409,123,124236,1,0,0:0:0:0:
263,206,124363,1,8,0:0:0:0:
263,206,124490,1,0,0:0:0:0:
262,168,124617,1,0,0:0:0:0:
262,168,124744,1,8,0:0:0:0:
210,271,124808,1,8,0:0:0:0:
262,168,124872,1,8,0:0:0:0:
262,168,124999,1,0,0:0:0:0:
262,168,125126,1,8,0:0:0:0:
262,168,125253,1,0,0:0:0:0:
262,168,125317,1,0,0:0:0:0:
262,168,125380,1,8,0:0:0:0:
257,154,125507,1,8,0:0:0:0:
257,154,125634,1,0,0:0:0:0:
257,154,125761,1,8,0:0:0:0:
333,134,125825,1,8,0:0:0:0:
257,154,125889,1,8,0:0:0:0:
237,209,126016,1,0,0:0:0:0:
237,209,126143,1,8,0:0:0:0:
333,134,126270,1,0,0:0:0:0:
333,134,126397,1,8,0:0:0:0:
347,163,126524,1,0,0:0:0:0:
347,163,126609,1,0,0:0:0:0:
347,163,126694,1,0,0:0:0:0:
347,163,126778,1,8,0:0:0:0:
262,141,126905,1,0,0:0:0:0:
262,141,127033,1,8,0:0:0:0:
262,141,127160,1,8,0:0:0:0:
262,141,127287,1,4,0:0:0:0:
201,213,128050,1,8,0:0:0:0:
201,213,128177,1,0,0:0:0:0:
201,213,128304,1,8,0:0:0:0:
256,147,128558,1,8,0:0:0:0:
256,147,128685,1,8,0:0:0:0:
256,147,128939,1,8,0:0:0:0:
256,147,129194,1,8,0:0:0:0:
256,147,129448,1,8,0:0:0:0:
303,233,129575,1,0,0:0:0:0:
275,181,129702,1,0,0:0:0:0:
217,189,129829,1,8,0:0:0:0:
217,189,129956,1,8,0:0:0:0:
217,189,130083,1,0,0:0:0:0:
217,189,130211,1,8,0:0:0:0:
139,217,130338,1,4,0:0:0:0:
139,217,130592,1,8,0:0:0:0:
139,217,130719,1,8,0:0:0:0:
212,235,130973,1,8,0:0:0:0:
212,235,131228,1,8,0:0:0:0:
301,207,131355,1,0,0:0:0:0:
301,207,131482,1,8,0:0:0:0:
301,207,131736,1,8,0:0:0:0:
301,207,131990,1,8,0:0:0:0:
326,232,132117,1,0,0:0:0:0:
280,264,132372,1,6,0:0:0:0:
294,218,132499,1,0,0:0:0:0:
294,218,132562,1,0,0:0:0:0:
304,299,132626,1,8,0:0:0:0:
280,264,132753,1,6,0:0:0:0:
227,143,132880,1,0,0:0:0:0:
227,143,132944,1,0,0:0:0:0:
304,299,133007,1,8,0:0:0:0:
280,264,133134,1,6,0:0:0:0:
222,216,133261,1,0,0:0:0:0:
222,216,133325,1,0,0:0:0:0:
304,299,133389,1,8,0:0:0:0:
280,264,133516,1,6,0:0:0:0:
258,164,133643,1,0,0:0:0:0:
258,164,133706,1,0,0:0:0:0:
304,299,133770,1,8,0:0:0:0:
280,264,133897,1,6,0:0:0:0:
221,142,134024,1,8,0:0:0:0:
221,142,134088,1,0,0:0:0:0:
221,142,134151,1,0,0:0:0:0:
283,161,134215,1,0,0:0:0:0:
194,158,134278,1,8,0:0:0:0:
280,264,134405,1,6,0:0:0:0:
194,158,134533,1,0,0:0:0:0:
194,158,134596,1,0,0:0:0:0:
435,282,134660,1,8,0:0:0:0:
280,264,134787,1,6,0:0:0:0:
200,146,134914,1,0,0:0:0:0:
200,146,134978,1,0,0:0:0:0:
338,176,135041,1,8,0:0:0:0:
338,176,135105,1,8,0:0:0:0:
338,176,135168,1,0,0:0:0:0:
203,146,135295,1,8,0:0:0:0:
206,233,135422,1,0,0:0:0:0:
280,153,135550,1,0,0:0:0:0:
280,153,135677,1,8,0:0:0:0:
280,153,135804,1,0,0:0:0:0:
280,153,135931,1,8,0:0:0:0:
242,283,136185,1,8,0:0:0:0:
242,283,136249,1,8,0:0:0:0:
242,283,136312,1,8,0:0:0:0:
242,283,136376,1,8,0:0:0:0:
244,291,136439,1,0,0:0:0:0:
276,252,136567,1,8,0:0:0:0:
276,252,136694,1,8,0:0:0:0:
300,203,136821,1,0,0:0:0:0:
300,203,136884,1,0,0:0:0:0:
300,203,136948,1,8,0:0:0:0:
297,234,137075,1,0,0:0:0:0:
315,274,137202,1,8,0:0:0:0:
297,234,137329,1,8,0:0:0:0:
292,216,137456,1,8,0:0:0:0:
292,216,137520,1,8,0:0:0:0:
292,216,137583,1,0,0:0:0:0:
292,216,137647,1,0,0:0:0:0:
292,216,137711,1,8,0:0:0:0:
290,212,137838,1,0,0:0:0:0:
290,212,137965,1,8,0:0:0:0:
299,241,138028,1,8,0:0:0:0:
299,241,138092,1,0,0:0:0:0:
244,213,138219,1,8,0:0:0:0:
191,239,138346,1,0,0:0:0:0:
168,190,138473,1,8,0:0:0:0:
168,190,138600,1,0,0:0:0:0:
168,190,138664,1,0,0:0:0:0:
160,205,138728,1,8,0:0:0:0:
251,230,138855,1,8,0:0:0:0:
204,213,138982,1,0,0:0:0:0:
208,207,139045,1,0,0:0:0:0:
208,207,139109,1,8,0:0:0:0:
208,207,139172,1,8,0:0:0:0:
248,244,139236,1,0,0:0:0:0:
208,207,139363,1,8,0:0:0:0:
191,170,139490,1,0,0:0:0:0:
191,170,139554,1,0,0:0:0:0:
191,170,139617,1,8,0:0:0:0:
183,244,139744,1,0,0:0:0:0:
183,244,139808,1,0,0:0:0:0:
183,244,139872,1,8,0:0:0:0:
230,231,139999,1,0,0:0:0:0:
248,244,140062,1,0,0:0:0:0:
263,257,140126,1,8,0:0:0:0:
263,257,140189,1,8,0:0:0:0:
170,218,140253,1,0,0:0:0:0:
170,218,140317,1,0,0:0:0:0:
247,231,140380,1,8,0:0:0:0:
248,170,140507,1,4,0:0:0:0:
145,175,140634,1,0,0:0:0:0:
300,239,140761,1,8,0:0:0:0:
145,175,140825,1,8,0:0:0:0:
145,175,140889,1,0,0:0:0:0:
238,212,141016,1,8,0:0:0:0:
238,212,141143,1,0,0:0:0:0:
238,212,141206,1,0,0:0:0:0:
238,212,141270,1,8,0:0:0:0:
230,209,141397,1,8,0:0:0:0:
297,246,141524,1,0,0:0:0:0:
349,232,141588,1,0,0:0:0:0:
349,232,141651,1,8,0:0:0:0:
349,232,141715,1,8,0:0:0:0:
349,232,141778,1,0,0:0:0:0:
244,177,141905,1,8,0:0:0:0:
210,154,142033,1,0,0:0:0:0:
210,154,142096,1,0,0:0:0:0:
210,154,142160,1,0,0:0:0:0:
253,178,142287,1,8,0:0:0:0:
253,178,142414,1,0,0:0:0:0:
253,177,142478,1,0,0:0:0:0:
254,177,142541,1,8,0:0:0:0:
254,177,142668,1,8,0:0:0:0:
96,248,142795,1,8,0:0:0:0:
96,248,142859,1,8,0:0:0:0:
96,248,142922,1,0,0:0:0:0:
225,216,143050,1,8,0:0:0:0:
226,213,143113,1,8,0:0:0:0:
228,211,143177,1,0,0:0:0:0:
228,211,143240,1,0,0:0:0:0:
369,281,143304,1,8,0:0:0:0:
280,251,143431,1,8,0:0:0:0:
281,256,143558,1,0,0:0:0:0:
281,256,143622,1,0,0:0:0:0:
281,256,143685,1,8,0:0:0:0:
281,256,143812,1,0,0:0:0:0:
234,269,143876,1,8,0:0:0:0:
340,277,143939,1,8,0:0:0:0:
237,259,144067,1,8,0:0:0:0:
169,249,144130,1,8,0:0:0:0:
236,251,144194,1,0,0:0:0:0:
236,251,144257,1,0,0:0:0:0:
236,251,144321,1,8,0:0:0:0:
123,233,144384,1,8,0:0:0:0:
232,244,144448,1,0,0:0:0:0:
232,244,144511,1,0,0:0:0:0:
236,250,144575,1,8,0:0:0:0:
186,198,144702,1,8,0:0:0:0:
219,233,144829,1,0,0:0:0:0:
219,232,144893,1,0,0:0:0:0:
222,223,144956,1,0,0:0:0:0:
290,216,145083,1,8,0:0:0:0:
290,216,145211,1,0,0:0:0:0:
287,207,145274,1,0,0:0:0:0:
287,206,145338,1,8,0:0:0:0:
288,209,145465,1,8,0:0:0:0:
198,147,145592,1,0,0:0:0:0:
198,147,145655,1,0,0:0:0:0:
198,147,145719,1,0,0:0:0:0:
198,147,145783,1,0,0:0:0:0:
198,147,145846,1,8,0:0:0:0:
268,153,145973,1,8,0:0:0:0:
268,153,146100,1,0,0:0:0:0:
268,153,146164,1,0,0:0:0:0:
296,145,146228,1,0,0:0:0:0:
268,153,146355,1,8,0:0:0:0:
256,161,146482,1,0,0:0:0:0:
256,160,146609,1,8,0:0:0:0:
258,152,146672,1,8,0:0:0:0:
259,152,146736,1,8,0:0:0:0:
259,152,146863,1,0,0:0:0:0:
321,229,146990,1,8,0:0:0:0:
270,176,147054,1,0,0:0:0:0:
270,176,147117,1,0,0:0:0:0:
271,176,147181,1,0,0:0:0:0:
271,176,147244,1,8,0:0:0:0:
212,121,147372,1,0,0:0:0:0:
212,121,147435,1,0,0:0:0:0:
212,121,147499,1,8,0:0:0:0:
225,109,147626,1,8,0:0:0:0:
241,159,147689,1,8,0:0:0:0:
240,159,147753,1,0,0:0:0:0:
239,155,147880,1,8,0:0:0:0:
241,159,147944,1,8,0:0:0:0:
139,243,148007,1,8,0:0:0:0:
246,150,148134,1,8,0:0:0:0:
246,150,148198,1,8,0:0:0:0:
233,228,148261,1,0,0:0:0:0:
302,227,148325,1,0,0:0:0:0:
302,227,148389,1,8,0:0:0:0:
256,147,148452,1,0,0:0:0:0:
214,211,148516,1,8,0:0:0:0:
256,147,148643,1,4,0:0:0:0:
263,229,148770,1,8,0:0:0:0:
263,229,148897,1,8,0:0:0:0:
278,199,149024,1,0,0:0:0:0:
278,199,149088,1,0,0:0:0:0:
278,199,149151,1,8,0:0:0:0:
265,188,149278,1,0,0:0:0:0:
265,188,149405,1,8,0:0:0:0:
287,224,149469,1,8,0:0:0:0:
198,260,149533,1,0,0:0:0:0:
368,216,149660,1,8,0:0:0:0:
368,216,149723,1,0,0:0:0:0:
368,216,149787,1,8,0:0:0:0:
320,249,149850,1,8,0:0:0:0:
320,249,149914,1,0,0:0:0:0:
326,278,150041,1,8,0:0:0:0:
212,203,150168,1,0,0:0:0:0:
212,203,150232,1,0,0:0:0:0:
212,203,150295,1,0,0:0:0:0:
228,208,150422,1,8,0:0:0:0:
228,208,150550,1,0,0:0:0:0:
228,208,150677,1,0,0:0:0:0:
229,240,150931,1,8,0:0:0:0:
129,230,151058,1,0,0:0:0:0:
129,230,151122,1,0,0:0:0:0:
129,230,151185,1,8,0:0:0:0:
289,246,151312,1,8,0:0:0:0:
289,246,151439,1,0,0:0:0:0:
289,246,151567,1,8,0:0:0:0:
268,207,151694,1,0,0:0:0:0:
268,207,151757,1,0,0:0:0:0:
268,207,151821,1,0,0:0:0:0:
268,207,151884,1,0,0:0:0:0:
268,207,151948,1,8,0:0:0:0:
268,207,152011,1,8,0:0:0:0:
268,201,152075,1,8,0:0:0:0:
268,201,152139,1,8,0:0:0:0:
280,195,152202,1,0,0:0:0:0:
280,195,152266,1,0,0:0:0:0:
280,195,152329,1,8,0:0:0:0:
285,188,152393,1,8,0:0:0:0:
285,188,152456,1,0,0:0:0:0:
285,188,152520,1,0,0:0:0:0:
285,188,152583,1,8,0:0:0:0:
285,188,152647,1,8,0:0:0:0:
285,188,152711,1,0,0:0:0:0:
232,191,152838,1,8,0:0:0:0:
232,191,152965,1,0,0:0:0:0:
232,191,153092,1,8,0:0:0:0:
232,191,153219,1,0,0:0:0:0:
237,186,153283,1,0,0:0:0:0:
235,186,153346,1,8,0:0:0:0:
322,238,153473,1,0,0:0:0:0:
322,238,153600,1,8,0:0:0:0:
241,147,153728,1,0,0:0:0:0:
241,147,153791,1,0,0:0:0:0:
241,147,153855,1,8,0:0:0:0:
241,147,153918,1,8,0:0:0:0:
241,147,153982,1,0,0:0:0:0:
256,231,154109,1,8,0:0:0:0:
216,148,154236,1,0,0:0:0:0:
216,148,154300,1,0,0:0:0:0:
239,258,154363,1,8,0:0:0:0:
174,220,154490,1,8,0:0:0:0:
174,220,154617,1,8,0:0:0:0:
174,220,154681,1,8,0:0:0:0:
174,220,154744,1,0,0:0:0:0:
266,291,154808,1,0,0:0:0:0:
241,251,154872,1,0,0:0:0:0:
266,291,154999,1,8,0:0:0:0:
266,291,155126,1,0,0:0:0:0:
266,291,155189,1,0,0:0:0:0:
266,291,155253,1,8,0:0:0:0:
349,267,155380,1,0,0:0:0:0:
323,261,155507,1,8,0:0:0:0:
323,261,155634,1,0,0:0:0:0:
248,240,155761,1,0,0:0:0:0:
248,240,155825,1,0,0:0:0:0:
248,240,155889,1,8,0:0:0:0:
248,240,156016,1,0,0:0:0:0:
248,240,156079,1,0,0:0:0:0:
248,240,156143,1,8,0:0:0:0:
248,240,156270,1,0,0:0:0:0:
190,266,156333,1,8,0:0:0:0:
248,240,156397,1,8,0:0:0:0:
248,240,156461,1,8,0:0:0:0:
248,240,156524,1,0,0:0:0:0:
190,266,156588,1,8,0:0:0:0:
248,240,156651,1,8,0:0:0:0:
248,240,156715,1,8,0:0:0:0:
248,240,156778,1,0,0:0:0:0:
248,197,156905,1,0,0:0:0:0:
248,197,156969,1,0,0:0:0:0:
248,197,157033,1,8,0:0:0:0:
178,133,157160,1,0,0:0:0:0:
209,172,157287,1,8,0:0:0:0:
209,172,157350,1,8,0:0:0:0:
209,172,157414,1,0,0:0:0:0:
209,172,157478,1,0,0:0:0:0:
209,172,157541,1,8,0:0:0:0:
221,196,157668,1,0,0:0:0:0:
179,248,157795,1,8,0:0:0:0:
179,248,157859,1,8,0:0:0:0:
179,248,157922,1,0,0:0:0:0:
220,252,158050,1,8,0:0:0:0:
209,172,158177,1,0,0:0:0:0:
209,172,158240,1,0,0:0:0:0:
209,172,158304,1,8,0:0:0:0:
209,172,158367,1,8,0:0:0:0:
220,252,158431,1,0,0:0:0:0:
279,160,158558,1,8,0:0:0:0:
310,318,158685,1,0,0:0:0:0:
183,251,158812,1,8,0:0:0:0:
183,251,158939,1,0,0:0:0:0:
183,251,159003,1,0,0:0:0:0:
183,251,159067,1,8,0:0:0:0:
445,266,159194,1,0,0:0:0:0:
445,266,159321,1,8,0:0:0:0:
249,239,159384,1,0,0:0:0:0:
249,239,159448,1,0,0:0:0:0:
249,239,159511,1,0,0:0:0:0:
249,239,159575,1,8,0:0:0:0:
219,179,159702,1,8,0:0:0:0:
219,179,159829,1,0,0:0:0:0:
219,179,159893,1,0,0:0:0:0:
219,179,159956,1,8,0:0:0:0:
257,243,160083,1,0,0:0:0:0:
257,243,160147,1,0,0:0:0:0:
257,243,160211,1,8,0:0:0:0:
130,251,160338,1,0,0:0:0:0:
205,225,160401,1,0,0:0:0:0:
130,251,160465,1,0,0:0:0:0:
130,251,160528,1,0,0:0:0:0:
130,251,160592,1,8,0:0:0:0:
205,225,160655,1,8,0:0:0:0:
130,251,160719,1,8,0:0:0:0:
130,251,160783,1,8,0:0:0:0:
228,275,160846,1,0,0:0:0:0:
166,281,161100,1,0,0:0:0:0:
166,281,161228,1,8,0:0:0:0:
288,288,161355,1,0,0:0:0:0:
288,288,161418,1,0,0:0:0:0:
288,288,161482,1,8,0:0:0:0:
356,226,161609,1,0,0:0:0:0:
356,226,161736,1,8,0:0:0:0:
212,259,161863,1,0,0:0:0:0:
212,259,161927,1,0,0:0:0:0:
305,293,161990,1,8,0:0:0:0:
252,217,162054,1,8,0:0:0:0:
252,217,162117,1,0,0:0:0:0:
156,237,162244,1,8,0:0:0:0:
156,237,162372,1,0,0:0:0:0:
156,237,162435,1,0,0:0:0:0:
156,237,162499,1,8,0:0:0:0:
280,254,162626,1,8,0:0:0:0:
304,156,162753,1,8,0:0:0:0:
304,156,162817,1,8,0:0:0:0:
304,156,162880,1,0,0:0:0:0:
304,156,162944,1,0,0:0:0:0:
300,243,163007,1,0,0:0:0:0:
300,243,163134,1,8,0:0:0:0:
300,243,163261,1,0,0:0:0:0:
213,117,163325,1,0,0:0:0:0:
268,211,163389,1,8,0:0:0:0:
194,86,163452,1,8,0:0:0:0:
268,211,163516,1,0,0:0:0:0:
268,211,163643,1,8,0:0:0:0:
315,229,163770,1,8,0:0:0:0:
297,238,163897,1,0,0:0:0:0:
297,238,163961,1,0,0:0:0:0:
296,235,164024,1,8,0:0:0:0:
315,229,164151,1,0,0:0:0:0:
315,229,164215,1,0,0:0:0:0:
315,229,164278,1,8,0:0:0:0:
214,241,164405,1,0,0:0:0:0:
214,241,164469,1,0,0:0:0:0:
214,241,164533,1,8,0:0:0:0:
365,217,164596,1,8,0:0:0:0:
214,241,164660,1,0,0:0:0:0:
214,241,164723,1,0,0:0:0:0:
214,241,164787,1,8,0:0:0:0:
365,217,164850,1,8,0:0:0:0:
365,217,164914,1,0,0:0:0:0:
193,198,165041,1,8,0:0:0:0:
193,198,165168,1,0,0:0:0:0:
278,217,165295,1,8,0:0:0:0:
278,217,165422,1,0,0:0:0:0:
278,217,165486,1,0,0:0:0:0:
278,217,165550,1,8,0:0:0:0:
334,229,165677,1,0,0:0:0:0:
265,208,165804,1,8,0:0:0:0:
299,172,165867,1,8,0:0:0:0:
110,234,165931,1,0,0:0:0:0:
265,208,165994,1,0,0:0:0:0:
299,172,166058,1,8,0:0:0:0:
284,175,166185,1,0,0:0:0:0:
309,157,166249,1,0,0:0:0:0:
309,157,166312,1,8,0:0:0:0:
317,192,166439,1,0,0:0:0:0:
317,192,166567,1,0,0:0:0:0:
303,192,166694,1,8,0:0:0:0:
195,167,166821,1,8,0:0:0:0:
195,167,166884,1,8,0:0:0:0:
195,167,166948,1,0,0:0:0:0:
348,254,167075,1,0,0:0:0:0:
217,125,167139,1,8,0:0:0:0:
348,254,167202,1,8,0:0:0:0:
282,138,167329,1,8,0:0:0:0:
379,217,167393,1,8,0:0:0:0:
274,180,167456,1,0,0:0:0:0:
274,180,167583,1,8,0:0:0:0:
274,180,167647,1,8,0:0:0:0:
274,180,167711,1,8,0:0:0:0:
334,182,167838,1,8,0:0:0:0:
315,130,167965,1,6,0:0:0:0:
286,211,168092,1,0,0:0:0:0:
286,211,168219,1,0,0:0:0:0:
315,130,168346,1,6,0:0:0:0:
315,130,168600,1,6,0:0:0:0:
382,213,168728,1,8,0:0:0:0:
382,213,168791,1,8,0:0:0:0:
382,213,168855,1,8,0:0:0:0:
382,213,168918,1,8,0:0:0:0:
382,213,168982,1,0,0:0:0:0:
267,260,169109,1,0,0:0:0:0:
267,260,169236,1,8,0:0:0:0:
267,260,169363,1,0,0:0:0:0:
201,153,169490,1,0,0:0:0:0:
201,153,169554,1,0,0:0:0:0:
197,157,169617,1,0,0:0:0:0:
218,241,169744,1,8,0:0:0:0:
218,241,169872,1,0,0:0:0:0:
218,241,169999,1,8,0:0:0:0:
261,231,170126,1,0,0:0:0:0:
261,231,170189,1,0,0:0:0:0:
200,218,170253,1,8,0:0:0:0:
224,266,170380,1,0,0:0:0:0:
354,186,170507,1,0,0:0:0:0:
354,186,170571,1,0,0:0:0:0:
247,124,170634,1,0,0:0:0:0:
224,266,170761,1,8,0:0:0:0:
194,182,170889,1,0,0:0:0:0:
194,182,171016,1,0,0:0:0:0:
194,182,171079,1,0,0:0:0:0:
194,182,171143,1,0,0:0:0:0:
194,182,171206,1,0,0:0:0:0:
194,182,171270,1,8,0:0:0:0:
259,273,171397,1,0,0:0:0:0:
317,282,171524,1,8,0:0:0:0:
317,282,171588,1,8,0:0:0:0:
212,207,171651,1,0,0:0:0:0:
212,207,171715,1,0,0:0:0:0:
212,207,171778,1,8,0:0:0:0:
319,256,171905,1,8,0:0:0:0:
349,246,172033,1,0,0:0:0:0:
216,106,172096,1,0,0:0:0:0:
216,106,172160,1,8,0:0:0:0:
216,106,172287,1,0,0:0:0:0:
216,106,172350,1,0,0:0:0:0:
316,215,172414,1,8,0:0:0:0:
189,210,172541,1,0,0:0:0:0:
180,204,172605,1,0,0:0:0:0:
180,204,172668,1,8,0:0:0:0:
180,204,172732,1,8,0:0:0:0:
180,204,172795,1,0,0:0:0:0:
180,204,172859,1,0,0:0:0:0:
180,204,172922,1,8,0:0:0:0:
180,204,172986,1,8,0:0:0:0:
180,204,173050,1,0,0:0:0:0:
283,245,173177,1,0,0:0:0:0:
283,245,173304,1,8,0:0:0:0:
283,245,173431,1,0,0:0:0:0:
283,245,173558,1,0,0:0:0:0:
283,245,173622,1,0,0:0:0:0:
283,245,173685,1,0,0:0:0:0:
250,223,173812,1,8,0:0:0:0:
250,223,173939,1,8,0:0:0:0:
250,223,174003,1,8,0:0:0:0:
250,223,174067,1,0,0:0:0:0:
250,223,174130,1,0,0:0:0:0:
250,223,174194,1,0,0:0:0:0:
210,188,174321,1,8,0:0:0:0:
210,188,174448,1,0,0:0:0:0:
196,198,174575,1,8,0:0:0:0:
269,128,174639,1,0,0:0:0:0:
153,228,174702,1,0,0:0:0:0:
247,281,174766,1,0,0:0:0:0:
204,239,174829,1,8,0:0:0:0:
209,205,174893,1,8,0:0:0:0:
329,208,174956,1,0,0:0:0:0:
329,208,175083,1,6,0:0:0:0:
322,244,175211,1,0,0:0:0:0:
329,208,175338,1,6,0:0:0:0:
322,244,175465,1,0,0:0:0:0:
329,208,175592,1,6,0:0:0:0:
322,244,175719,1,0,0:0:0:0:
329,208,175846,1,6,0:0:0:0:
322,244,175973,1,0,0:0:0:0:
329,208,176100,1,6,0:0:0:0:
202,217,176355,1,8,0:0:0:0:
202,217,176609,1,8,0:0:0:0:
202,217,176863,1,8,0:0:0:0:
202,217,176990,1,8,0:0:0:0:
202,217,177054,1,8,0:0:0:0:
202,217,177117,1,0,0:0:0:0:
262,248,177244,1,0,0:0:0:0:
262,248,177308,1,0,0:0:0:0:
262,248,177372,1,8,0:0:0:0:
171,213,177499,1,0,0:0:0:0:
238,177,177626,1,8,0:0:0:0:
238,177,177689,1,8,0:0:0:0:
308,134,177753,1,0,0:0:0:0:
308,134,177817,1,0,0:0:0:0:
308,134,177880,1,8,0:0:0:0:
235,219,178007,1,8,0:0:0:0:
221,196,178134,1,0,0:0:0:0:
221,196,178198,1,0,0:0:0:0:
221,196,178261,1,0,0:0:0:0:
221,196,178325,1,0,0:0:0:0:
221,196,178389,1,8,0:0:0:0:
239,252,178516,1,0,0:0:0:0:
230,138,178643,1,8,0:0:0:0:
230,138,178706,1,0,0:0:0:0:
164,68,178770,1,8,0:0:0:0:
164,68,178833,1,8,0:0:0:0:
164,68,178897,1,0,0:0:0:0:
285,238,178961,1,0,0:0:0:0:
225,142,179024,1,8,0:0:0:0:
361,140,179151,1,6,0:0:0:0:
322,227,179278,1,0,0:0:0:0:
361,140,179405,1,6,0:0:0:0:
322,227,179533,1,0,0:0:0:0:
361,140,179660,1,6,0:0:0:0:
322,227,179787,1,0,0:0:0:0:
361,140,179914,1,6,0:0:0:0:
322,227,180041,1,0,0:0:0:0:
206,165,180168,1,6,0:0:0:0:
355,168,180295,1,0,0:0:0:0:
355,168,180422,1,0,0:0:0:0:
355,168,180550,1,0,0:0:0:0:
355,168,180677,1,0,0:0:0:0:
324,292,181185,1,6,0:0:0:0:
374,225,181312,1,0,0:0:0:0:
324,292,181439,1,6,0:0:0:0:
374,225,181567,1,0,0:0:0:0:
324,292,181694,1,6,0:0:0:0:
374,225,181821,1,0,0:0:0:0:
324,292,181948,1,6,0:0:0:0:
374,225,182075,1,0,0:0:0:0:
324,292,182202,1,6,0:0:0:0:
269,166,182583,1,0,0:0:0:0:
269,166,182711,1,8,0:0:0:0:
269,166,182838,1,0,0:0:0:0:
269,166,182965,1,0,0:0:0:0:
312,156,183219,1,6,0:0:0:0:
312,156,183346,1,0,0:0:0:0:
312,156,183473,1,6,0:0:0:0:
312,156,183600,1,0,0:0:0:0:
312,156,183728,1,6,0:0:0:0:
312,156,183855,1,0,0:0:0:0:
312,156,183982,1,6,0:0:0:0:
312,156,184109,1,0,0:0:0:0:
312,156,184236,1,6,0:0:0:0:
230,180,185253,1,4,0:0:0:0:
230,180,185507,1,8,0:0:0:0:
230,180,185634,1,8,0:0:0:0:
376,271,185761,1,0,0:0:0:0:
284,182,186016,1,8,0:0:0:0:
230,180,186143,1,8,0:0:0:0:
195,153,186397,1,0,0:0:0:0:
284,182,186524,1,8,0:0:0:0:
284,182,186778,1,8,0:0:0:0:
284,182,187033,1,8,0:0:0:0:
284,182,187160,1,0,0:0:0:0:
284,182,187287,1,8,0:0:0:0:
269,133,187541,1,0,0:0:0:0:
376,271,187668,1,0,0:0:0:0:
376,271,187795,1,8,0:0:0:0:
269,133,188050,1,0,0:0:0:0:
376,271,188177,1,8,0:0:0:0:
241,259,188431,1,8,0:0:0:0:
284,298,188558,1,0,0:0:0:0:
193,212,188685,1,0,0:0:0:0:
284,298,188812,1,8,0:0:0:0:
284,298,189067,1,8,0:0:0:0:
284,298,189194,1,0,0:0:0:0:
284,298,189321,1,8,0:0:0:0:
265,215,189575,1,0,0:0:0:0:
265,215,189702,1,0,0:0:0:0:
265,215,189829,1,8,0:0:0:0:
265,215,190083,1,0,0:0:0:0:
265,215,190211,1,8,0:0:0:0:
265,215,190465,1,8,0:0:0:0:
160,216,190592,1,0,0:0:0:0:
265,215,190846,1,8,0:0:0:0:
265,215,190973,1,0,0:0:0:0:
265,215,191100,1,8,0:0:0:0:
242,228,191228,1,0,0:0:0:0:
242,228,191355,1,8,0:0:0:0:
294,184,191609,1,0,0:0:0:0:
294,184,191736,1,8,0:0:0:0:
294,184,191863,1,8,0:0:0:0:
241,158,192117,1,0,0:0:0:0:
241,158,192244,1,8,0:0:0:0:
298,156,192499,1,8,0:0:0:0:
298,156,192626,1,0,0:0:0:0:
304,156,192880,1,8,0:0:0:0:
327,160,193134,1,8,0:0:0:0:
327,160,193261,1,0,0:0:0:0:
327,160,193389,1,8,0:0:0:0:
280,224,193643,1,0,0:0:0:0:
280,224,193770,1,0,0:0:0:0:
280,224,193897,1,8,0:0:0:0:
277,207,194151,1,0,0:0:0:0:
277,207,194278,1,8,0:0:0:0:
269,187,194533,1,8,0:0:0:0:
269,187,194660,1,0,0:0:0:0:
269,187,194914,1,8,0:0:0:0:
269,187,195168,1,8,0:0:0:0:
269,187,195295,1,0,0:0:0:0:
269,187,195422,1,0,0:0:0:0:
269,187,195677,1,0,0:0:0:0:
269,187,195804,1,0,0:0:0:0:
269,187,195931,1,8,0:0:0:0:
269,187,196185,1,0,0:0:0:0:
269,187,196312,1,8,0:0:0:0:
269,187,196567,1,0,0:0:0:0:
160,199,196694,1,0,0:0:0:0:
160,199,196948,1,8,0:0:0:0:
201,172,197202,1,8,0:0:0:0:
201,172,197329,1,0,0:0:0:0:
256,192,197456,12,0,202541,0:0:0:0:
